  0
SECTION
  2
HEADER
  9
$ACADVER
  1
AC1032
  9
$ACADMAINTVER
 90
        4
  9
$DWGCODEPAGE
  3
ANSI_1250
  9
$REQUIREDVERSIONS
160
                 0
  9
$INSBASE
 10
0.0
 20
0.0
 30
0.0
  9
$EXTMIN
 10
1.000000000000000E+20
 20
1.000000000000000E+20
 30
1.000000000000000E+20
  9
$EXTMAX
 10
-1.000000000000000E+20
 20
-1.000000000000000E+20
 30
-1.000000000000000E+20
  9
$LIMMIN
 10
0.0
 20
0.0
  9
$LIMMAX
 10
420.0
 20
297.0
  9
$ORTHOMODE
 70
     0
  9
$REGENMODE
 70
     1
  9
$FILLMODE
 70
     1
  9
$QTEXTMODE
 70
     0
  9
$MIRRTEXT
 70
     1
  9
$LTSCALE
 40
1.0
  9
$ATTMODE
 70
     1
  9
$TEXTSIZE
 40
2.5
  9
$TRACEWID
 40
1.0
  9
$TEXTSTYLE
  7
Standard
  9
$CLAYER
  8
0
  9
$CELTYPE
  6
ByLayer
  9
$CECOLOR
 62
   256
  9
$CELTSCALE
 40
1.0
  9
$DISPSILH
 70
     0
  9
$DIMSCALE
 40
1.0
  9
$DIMASZ
 40
3.0
  9
$DIMEXO
 40
0.625
  9
$DIMDLI
 40
3.75
  9
$DIMRND
 40
0.0
  9
$DIMDLE
 40
0.0
  9
$DIMEXE
 40
1.25
  9
$DIMTP
 40
0.0
  9
$DIMTM
 40
0.0
  9
$DIMTXT
 40
1.336918010447422
  9
$DIMCEN
 40
2.5
  9
$DIMTSZ
 40
0.0
  9
$DIMTOL
 70
     0
  9
$DIMLIM
 70
     0
  9
$DIMTIH
 70
     0
  9
$DIMTOH
 70
     0
  9
$DIMSE1
 70
     0
  9
$DIMSE2
 70
     0
  9
$DIMTAD
 70
     1
  9
$DIMZIN
 70
     8
  9
$DIMBLK
  1

  9
$DIMASO
 70
     1
  9
$DIMSHO
 70
     1
  9
$DIMPOST
  1

  9
$DIMAPOST
  1

  9
$DIMALT
 70
     0
  9
$DIMALTD
 70
     3
  9
$DIMALTF
 40
0.03937007874016
  9
$DIMLFAC
 40
1.0
  9
$DIMTOFL
 70
     1
  9
$DIMTVP
 40
0.0
  9
$DIMTIX
 70
     0
  9
$DIMSOXD
 70
     0
  9
$DIMSAH
 70
     0
  9
$DIMBLK1
  1

  9
$DIMBLK2
  1

  9
$DIMSTYLE
  2
ISO-25
  9
$DIMCLRD
 70
     0
  9
$DIMCLRE
 70
     0
  9
$DIMCLRT
 70
     0
  9
$DIMTFAC
 40
1.0
  9
$DIMGAP
 40
0.625
  9
$DIMJUST
 70
     0
  9
$DIMSD1
 70
     0
  9
$DIMSD2
 70
     0
  9
$DIMTOLJ
 70
     0
  9
$DIMTZIN
 70
     8
  9
$DIMALTZ
 70
     0
  9
$DIMALTTZ
 70
     0
  9
$DIMUPT
 70
     0
  9
$DIMDEC
 70
     2
  9
$DIMTDEC
 70
     2
  9
$DIMALTU
 70
     2
  9
$DIMALTTD
 70
     3
  9
$DIMTXSTY
  7
Standard
  9
$DIMAUNIT
 70
     0
  9
$DIMADEC
 70
     0
  9
$DIMALTRND
 40
0.0
  9
$DIMAZIN
 70
     0
  9
$DIMDSEP
 70
    44
  9
$DIMATFIT
 70
     3
  9
$DIMFRAC
 70
     0
  9
$DIMLDRBLK
  1

  9
$DIMLUNIT
 70
     2
  9
$DIMLWD
 70
    -2
  9
$DIMLWE
 70
    -2
  9
$DIMTMOVE
 70
     0
  9
$DIMFXL
 40
1.0
  9
$DIMFXLON
 70
     0
  9
$DIMJOGANG
 40
0.7853981633974483
  9
$DIMTFILL
 70
     0
  9
$DIMTFILLCLR
 70
     0
  9
$DIMARCSYM
 70
     0
  9
$DIMLTYPE
  6

  9
$DIMLTEX1
  6

  9
$DIMLTEX2
  6

  9
$DIMTXTDIRECTION
 70
     0
  9
$LUNITS
 70
     2
  9
$LUPREC
 70
     4
  9
$SKETCHINC
 40
1.0
  9
$FILLETRAD
 40
10.0
  9
$AUNITS
 70
     0
  9
$AUPREC
 70
     0
  9
$MENU
  1
.
  9
$ELEVATION
 40
0.0
  9
$PELEVATION
 40
0.0
  9
$THICKNESS
 40
0.0
  9
$LIMCHECK
 70
     0
  9
$CHAMFERA
 40
0.0
  9
$CHAMFERB
 40
0.0
  9
$CHAMFERC
 40
0.0
  9
$CHAMFERD
 40
0.0
  9
$SKPOLY
 70
     0
  9
$TDCREATE
 40
2459362.641340498
  9
$TDUCREATE
 40
2459362.558007164
  9
$TDUPDATE
 40
2459362.64134257
  9
$TDUUPDATE
 40
2459362.558009236
  9
$TDINDWG
 40
0.0000000116
  9
$TDUSRTIMER
 40
0.0000000116
  9
$USRTIMER
 70
     1
  9
$ANGBASE
 50
0.0
  9
$ANGDIR
 70
     0
  9
$PDMODE
 70
     0
  9
$PDSIZE
 40
0.0
  9
$PLINEWID
 40
0.0
  9
$SPLFRAME
 70
     0
  9
$SPLINETYPE
 70
     6
  9
$SPLINESEGS
 70
     8
  9
$HANDSEED
  5
478
  9
$SURFTAB1
 70
     6
  9
$SURFTAB2
 70
     6
  9
$SURFTYPE
 70
     6
  9
$SURFU
 70
     6
  9
$SURFV
 70
     6
  9
$UCSBASE
  2

  9
$UCSNAME
  2

  9
$UCSORG
 10
0.0
 20
0.0
 30
0.0
  9
$UCSXDIR
 10
1.0
 20
0.0
 30
0.0
  9
$UCSYDIR
 10
0.0
 20
1.0
 30
0.0
  9
$UCSORTHOREF
  2

  9
$UCSORTHOVIEW
 70
     0
  9
$UCSORGTOP
 10
0.0
 20
0.0
 30
0.0
  9
$UCSORGBOTTOM
 10
0.0
 20
0.0
 30
0.0
  9
$UCSORGLEFT
 10
0.0
 20
0.0
 30
0.0
  9
$UCSORGRIGHT
 10
0.0
 20
0.0
 30
0.0
  9
$UCSORGFRONT
 10
0.0
 20
0.0
 30
0.0
  9
$UCSORGBACK
 10
0.0
 20
0.0
 30
0.0
  9
$PUCSBASE
  2

  9
$PUCSNAME
  2

  9
$PUCSORG
 10
0.0
 20
0.0
 30
0.0
  9
$PUCSXDIR
 10
1.0
 20
0.0
 30
0.0
  9
$PUCSYDIR
 10
0.0
 20
1.0
 30
0.0
  9
$PUCSORTHOREF
  2

  9
$PUCSORTHOVIEW
 70
     0
  9
$PUCSORGTOP
 10
0.0
 20
0.0
 30
0.0
  9
$PUCSORGBOTTOM
 10
0.0
 20
0.0
 30
0.0
  9
$PUCSORGLEFT
 10
0.0
 20
0.0
 30
0.0
  9
$PUCSORGRIGHT
 10
0.0
 20
0.0
 30
0.0
  9
$PUCSORGFRONT
 10
0.0
 20
0.0
 30
0.0
  9
$PUCSORGBACK
 10
0.0
 20
0.0
 30
0.0
  9
$USERI1
 70
     0
  9
$USERI2
 70
     0
  9
$USERI3
 70
     0
  9
$USERI4
 70
     0
  9
$USERI5
 70
     0
  9
$USERR1
 40
0.0
  9
$USERR2
 40
0.0
  9
$USERR3
 40
0.0
  9
$USERR4
 40
0.0
  9
$USERR5
 40
0.0
  9
$WORLDVIEW
 70
     1
  9
$SHADEDGE
 70
     3
  9
$SHADEDIF
 70
    70
  9
$TILEMODE
 70
     1
  9
$MAXACTVP
 70
    64
  9
$PINSBASE
 10
0.0
 20
0.0
 30
0.0
  9
$PLIMCHECK
 70
     0
  9
$PEXTMIN
 10
1.000000000000000E+20
 20
1.000000000000000E+20
 30
1.000000000000000E+20
  9
$PEXTMAX
 10
-1.000000000000000E+20
 20
-1.000000000000000E+20
 30
-1.000000000000000E+20
  9
$PLIMMIN
 10
0.0
 20
0.0
  9
$PLIMMAX
 10
420.0
 20
297.0
  9
$UNITMODE
 70
     0
  9
$VISRETAIN
 70
     1
  9
$PLINEGEN
 70
     0
  9
$PSLTSCALE
 70
     1
  9
$TREEDEPTH
 70
  3020
  9
$CMLSTYLE
  2
Standard
  9
$CMLJUST
 70
     0
  9
$CMLSCALE
 40
20.0
  9
$PROXYGRAPHICS
 70
     1
  9
$MEASUREMENT
 70
     1
  9
$CELWEIGHT
370
    -1
  9
$ENDCAPS
280
     0
  9
$JOINSTYLE
280
     0
  9
$LWDISPLAY
290
     0
  9
$INSUNITS
 70
     4
  9
$HYPERLINKBASE
  1

  9
$STYLESHEET
  1

  9
$XEDIT
290
     1
  9
$CEPSNTYPE
380
     0
  9
$PSTYLEMODE
290
     1
  9
$FINGERPRINTGUID
  2
{9acbab94-2eb3-4bec-a8d6-90975aa4442a}
  9
$VERSIONGUID
  2
{FAEB1C32-E019-11D5-929B-00C0DF256EC4}
  9
$EXTNAMES
290
     1
  9
$PSVPSCALE
 40
0.0
  9
$OLESTARTUP
290
     0
  9
$SORTENTS
280
   127
  9
$INDEXCTL
280
     0
  9
$HIDETEXT
280
     1
  9
$XCLIPFRAME
280
     2
  9
$HALOGAP
280
     0
  9
$OBSCOLOR
 70
   257
  9
$OBSLTYPE
280
     0
  9
$INTERSECTIONDISPLAY
280
     0
  9
$INTERSECTIONCOLOR
 70
   257
  9
$DIMASSOC
280
     2
  9
$PROJECTNAME
  1

  9
$CAMERADISPLAY
290
     0
  9
$LENSLENGTH
 40
50.0
  9
$CAMERAHEIGHT
 40
0.0
  9
$STEPSPERSEC
 40
2.0
  9
$STEPSIZE
 40
6.0
  9
$3DDWFPREC
 40
2.0
  9
$PSOLWIDTH
 40
5.0
  9
$PSOLHEIGHT
 40
80.0
  9
$LOFTANG1
 40
1.570796326794897
  9
$LOFTANG2
 40
1.570796326794897
  9
$LOFTMAG1
 40
0.0
  9
$LOFTMAG2
 40
0.0
  9
$LOFTPARAM
 70
     7
  9
$LOFTNORMALS
280
     1
  9
$LATITUDE
 40
37.795
  9
$LONGITUDE
 40
-122.394
  9
$NORTHDIRECTION
 40
0.0
  9
$TIMEZONE
 70
 -8000
  9
$LIGHTGLYPHDISPLAY
280
     1
  9
$TILEMODELIGHTSYNCH
280
     1
  9
$CMATERIAL
347
44
  9
$SOLIDHIST
280
     0
  9
$SHOWHIST
280
     1
  9
$DWFFRAME
280
     2
  9
$DGNFRAME
280
     2
  9
$REALWORLDSCALE
290
     1
  9
$INTERFERECOLOR
 62
   256
  9
$CSHADOW
280
     0
  9
$SHADOWPLANELOCATION
 40
0.0
  0
ENDSEC
  0
SECTION
  2
CLASSES
  0
CLASS
  1
ACDBDICTIONARYWDFLT
  2
AcDbDictionaryWithDefault
  3
ObjectDBX Classes
 90
        0
 91
        3
280
     0
281
     0
  0
CLASS
  1
VISUALSTYLE
  2
AcDbVisualStyle
  3
ObjectDBX Classes
 90
     4095
 91
        3
280
     0
281
     0
  0
CLASS
  1
MATERIAL
  2
AcDbMaterial
  3
ObjectDBX Classes
 90
     1153
 91
        3
280
     0
281
     0
  0
CLASS
  1
SCALE
  2
AcDbScale
  3
ObjectDBX Classes
 90
     1153
 91
        3
280
     0
281
     0
  0
CLASS
  1
TABLESTYLE
  2
AcDbTableStyle
  3
ObjectDBX Classes
 90
     4095
 91
        3
280
     0
281
     0
  0
CLASS
  1
MLEADERSTYLE
  2
AcDbMLeaderStyle
  3
ACDB_MLEADERSTYLE_CLASS
 90
     4095
 91
        3
280
     0
281
     0
  0
CLASS
  1
SUN
  2
AcDbSun
  3
SCENEOE
 90
     1153
 91
        3
280
     0
281
     0
  0
CLASS
  1
DICTIONARYVAR
  2
AcDbDictionaryVar
  3
ObjectDBX Classes
 90
        0
 91
        3
280
     0
281
     0
  0
CLASS
  1
CELLSTYLEMAP
  2
AcDbCellStyleMap
  3
ObjectDBX Classes
 90
     1152
 91
        3
280
     0
281
     0
  0
ENDSEC
  0
SECTION
  2
TABLES
  0
TABLE
  2
VPORT
  5
8
330
0
100
AcDbSymbolTable
 70
     1
  0
VPORT
  5
29
330
8
100
AcDbSymbolTableRecord
100
AcDbViewportTableRecord
  2
*Active
 70
     0
 10
0.0
 20
0.0
 11
1.0
 21
1.0
 12
344.1869158878504
 22
148.5
 13
0.0
 23
0.0
 14
10.0
 24
10.0
 15
10.0
 25
10.0
 16
0.0
 26
0.0
 36
1.0
 17
0.0
 27
0.0
 37
0.0
 40
297.0
 41
1.972972972850329
 42
50.0
 43
0.0
 44
0.0
 50
0.0
 51
0.0
 71
     0
 72
   100
 73
     1
 74
     3
 75
     0
 76
     0
 77
     0
 78
     0
281
     0
 65
     1
110
0.0
120
0.0
130
0.0
111
1.0
121
0.0
131
0.0
112
0.0
122
1.0
132
0.0
 79
     0
146
0.0
348
2F
 60
     3
 61
     5
292
     1
282
     1
141
0.0
142
0.0
 63
   250
361
6D
  0
ENDTAB
  0
TABLE
  2
LTYPE
  5
5
330
0
100
AcDbSymbolTable
 70
     1
  0
LTYPE
  5
14
330
5
100
AcDbSymbolTableRecord
100
AcDbLinetypeTableRecord
  2
ByBlock
 70
     0
  3

 72
    65
 73
     0
 40
0.0
  0
LTYPE
  5
15
330
5
100
AcDbSymbolTableRecord
100
AcDbLinetypeTableRecord
  2
ByLayer
 70
     0
  3

 72
    65
 73
     0
 40
0.0
  0
LTYPE
  5
16
330
5
100
AcDbSymbolTableRecord
100
AcDbLinetypeTableRecord
  2
Continuous
 70
     0
  3
Solid line
 72
    65
 73
     0
 40
0.0
  0
ENDTAB
  0
TABLE
  2
LAYER
  5
2
330
0
100
AcDbSymbolTable
 70
     4
  0
LAYER
  5
10
330
2
100
AcDbSymbolTableRecord
100
AcDbLayerTableRecord
  2
0
 70
     0
 62
     7
  6
Continuous
370
    -3
390
F
347
46
348
0
  0
LAYER
  5
6E
330
2
100
AcDbSymbolTableRecord
100
AcDbLayerTableRecord
  2
VISIBLE
 70
     0
 62
     7
  6
Continuous
370
     0
390
F
347
46
348
0
  0
LAYER
  5
121
330
2
100
AcDbSymbolTableRecord
100
AcDbLayerTableRecord
  2
DIMENSIONS
 70
     0
 62
     7
  6
Continuous
370
     0
390
F
347
46
348
0
  0
LAYER
  5
134
330
2
100
AcDbSymbolTableRecord
100
AcDbLayerTableRecord
  2
CONTINUOUS
 70
     0
 62
     7
  6
Continuous
370
     0
390
F
347
46
348
0
  0
ENDTAB
  0
TABLE
  2
STYLE
  5
3
330
0
100
AcDbSymbolTable
 70
     1
  0
STYLE
  5
11
330
3
100
AcDbSymbolTableRecord
100
AcDbTextStyleTableRecord
  2
Standard
 70
     0
 40
0.0
 41
1.0
 50
0.0
 71
     0
 42
2.5
  3
txt
  4

  0
ENDTAB
  0
TABLE
  2
VIEW
  5
6
330
0
100
AcDbSymbolTable
 70
     0
  0
ENDTAB
  0
TABLE
  2
UCS
  5
7
330
0
100
AcDbSymbolTable
 70
     0
  0
ENDTAB
  0
TABLE
  2
APPID
  5
9
330
0
100
AcDbSymbolTable
 70
     1
  0
APPID
  5
12
330
9
100
AcDbSymbolTableRecord
100
AcDbRegAppTableRecord
  2
ACAD
 70
     0
  0
ENDTAB
  0
TABLE
  2
DIMSTYLE
  5
A
330
0
100
AcDbSymbolTable
 70
     1
100
AcDbDimStyleTable
  0
DIMSTYLE
105
27
102
{ACAD_REACTORS
330
122
330
391
330
3A2
330
3B3
330
3C4
330
3D5
330
3E6
330
3F7
330
408
102
}
330
A
100
AcDbSymbolTableRecord
100
AcDbDimStyleTableRecord
  2
ISO-25
 70
     0
 41
2.5
 42
0.625
 43
3.75
 44
1.25
 73
     0
 74
     0
 77
     1
 78
     8
140
2.5
141
2.5
143
0.03937007874016
147
0.625
171
     3
172
     1
178
     0
271
     2
272
     2
274
     3
278
    44
283
     0
284
     8
340
11
  0
ENDTAB
  0
TABLE
  2
BLOCK_RECORD
  5
1
330
0
100
AcDbSymbolTable
 70
    11
  0
BLOCK_RECORD
  5
1F
330
1
100
AcDbSymbolTableRecord
100
AcDbBlockTableRecord
  2
*Model_Space
340
22
 70
     0
280
     1
281
     0
  0
BLOCK_RECORD
  5
1B
330
1
100
AcDbSymbolTableRecord
100
AcDbBlockTableRecord
  2
*Paper_Space
340
1E
 70
     0
280
     1
281
     0
  0
BLOCK_RECORD
  5
23
330
1
100
AcDbSymbolTableRecord
100
AcDbBlockTableRecord
  2
*Paper_Space0
340
26
 70
     0
280
     1
281
     0
  0
BLOCK_RECORD
  5
123
330
1
100
AcDbSymbolTableRecord
100
AcDbBlockTableRecord
  2
D1
340
0
 70
     0
280
     1
281
     0
  0
BLOCK_RECORD
  5
392
330
1
100
AcDbSymbolTableRecord
100
AcDbBlockTableRecord
  2
D2
340
0
 70
     0
280
     1
281
     0
  0
BLOCK_RECORD
  5
3A3
330
1
100
AcDbSymbolTableRecord
100
AcDbBlockTableRecord
  2
D3
340
0
 70
     0
280
     1
281
     0
  0
BLOCK_RECORD
  5
3B4
330
1
100
AcDbSymbolTableRecord
100
AcDbBlockTableRecord
  2
D4
340
0
 70
     0
280
     1
281
     0
  0
BLOCK_RECORD
  5
3C5
330
1
100
AcDbSymbolTableRecord
100
AcDbBlockTableRecord
  2
D5
340
0
 70
     0
280
     1
281
     0
  0
BLOCK_RECORD
  5
3D6
330
1
100
AcDbSymbolTableRecord
100
AcDbBlockTableRecord
  2
D6
340
0
 70
     0
280
     1
281
     0
  0
BLOCK_RECORD
  5
3E7
330
1
100
AcDbSymbolTableRecord
100
AcDbBlockTableRecord
  2
D7
340
0
 70
     0
280
     1
281
     0
  0
BLOCK_RECORD
  5
3F8
330
1
100
AcDbSymbolTableRecord
100
AcDbBlockTableRecord
  2
D8
340
0
 70
     0
280
     1
281
     0
  0
BLOCK_RECORD
  5
409
330
1
100
AcDbSymbolTableRecord
100
AcDbBlockTableRecord
  2
D9
340
0
 70
     0
280
     1
281
     0
  0
BLOCK_RECORD
  5
41C
330
1
100
AcDbSymbolTableRecord
100
AcDbBlockTableRecord
  2
BLOCK1
340
0
102
{BLKREFS
331
41B
102
}
 70
     0
280
     1
281
     0
  0
ENDTAB
  0
ENDSEC
  0
SECTION
  2
BLOCKS
  0
BLOCK
  5
20
330
1F
100
AcDbEntity
  8
0
100
AcDbBlockBegin
  2
*Model_Space
 70
     0
 10
0.0
 20
0.0
 30
0.0
  3
*Model_Space
  1

  0
ENDBLK
  5
21
330
1F
100
AcDbEntity
  8
0
100
AcDbBlockEnd
  0
BLOCK
  5
1C
330
1B
100
AcDbEntity
 67
     1
  8
0
100
AcDbBlockBegin
  2
*Paper_Space
 70
     0
 10
0.0
 20
0.0
 30
0.0
  3
*Paper_Space
  1

  0
ENDBLK
  5
1D
330
1B
100
AcDbEntity
 67
     1
  8
0
100
AcDbBlockEnd
  0
BLOCK
  5
24
330
23
100
AcDbEntity
  8
0
100
AcDbBlockBegin
  2
*Paper_Space0
 70
     0
 10
0.0
 20
0.0
 30
0.0
  3
*Paper_Space0
  1

  0
ENDBLK
  5
25
330
23
100
AcDbEntity
  8
0
100
AcDbBlockEnd
  0
BLOCK
  5
124
330
123
100
AcDbEntity
  8
0
100
AcDbBlockBegin
  2
D1
 70
     0
 10
0.0
 20
0.0
 30
0.0
  3
D1
  1

  0
MTEXT
  5
126
330
123
100
AcDbEntity
  8
DIMENSIONS
100
AcDbMText
 10
91.65491932630539
 20
95.52854919433591
 30
0.0
 40
2.134018756842158
 41
0.0
 46
0.0
 71
     5
 72
     1
  1
{\fAlibre Symbols|b0|i0|c0|p0;n}{\fCE|b0|i0|c0|p0;\H0.95x;63,4}{\fMicrosoft Sans Serif|b0|i0|c0|p0;\H0.85x;}
 73
     1
 44
1.0
  0
MTEXT
  5
127
330
123
100
AcDbEntity
  8
DIMENSIONS
100
AcDbMText
 10
91.65491932630539
 20
95.52854919433591
 30
0.0
 40
2.134018756842158
 41
0.0
 46
0.0
 71
     5
 72
     1
  1
{\fCE|b0|i0|c0|p0;}
 73
     1
 44
1.0
  0
MTEXT
  5
128
330
123
100
AcDbEntity
  8
DIMENSIONS
100
AcDbMText
 10
91.65491932630539
 20
95.52854919433591
 30
0.0
 40
2.134018756842158
 41
0.0
 46
0.0
 71
     5
 72
     1
  1
{\fCE|b0|i0|c0|p0;}
 73
     1
 44
1.0
  0
MTEXT
  5
129
330
123
100
AcDbEntity
  8
DIMENSIONS
100
AcDbMText
 10
86.53964154852761
 20
95.52854919433591
 30
0.0
 40
2.134018756842158
 41
0.0
 46
0.0
 71
     5
 72
     1
  1
{\fCE|b0|i0|c0|p0;}
 73
     1
 44
1.0
  0
MTEXT
  5
12A
330
123
100
AcDbEntity
  8
DIMENSIONS
100
AcDbMText
 10
96.77019710408317
 20
95.52854919433591
 30
0.0
 40
2.134018756842158
 41
0.0
 46
0.0
 71
     5
 72
     1
  1
{\fCE|b0|i0|c0|p0; +/- 0,1}{\fCE|b0|i0|c0|p0;}
 73
     1
 44
1.0
  0
LINE
  5
12B
330
123
100
AcDbEntity
  8
DIMENSIONS
100
AcDbLine
 10
130.7462045073509
 20
143.6549510955811
 30
0.0
 11
130.7462045073509
 21
91.05910474989146
 31
0.0
  0
LINE
  5
12C
330
123
100
AcDbEntity
  8
DIMENSIONS
100
AcDbLine
 10
67.34620450735092
 20
143.6549510955811
 30
0.0
 11
67.34620450735092
 21
91.05910474989146
 31
0.0
  0
LWPOLYLINE
  5
12D
330
123
100
AcDbEntity
  8
DIMENSIONS
100
AcDbPolyline
 90
        4
 70
     0
 43
0.0
 10
130.7462045073509
 20
93.05910474989146
 10
127.7462045073509
 20
92.55910474989146
 10
127.7462045073509
 20
93.55910474989146
 10
130.7462045073509
 20
93.05910474989146
  0
LINE
  5
12E
330
123
100
AcDbEntity
  8
DIMENSIONS
100
AcDbLine
 10
127.7462045073509
 20
93.05910474989146
 30
0.0
 11
91.65491932630539
 21
93.05910474989146
 31
0.0
  0
LWPOLYLINE
  5
12F
330
123
100
AcDbEntity
  8
DIMENSIONS
100
AcDbPolyline
 90
        4
 70
     0
 43
0.0
 10
67.34620450735092
 20
93.05910474989146
 10
70.34620450735092
 20
93.55910474989147
 10
70.34620450735092
 20
92.55910474989146
 10
67.34620450735092
 20
93.05910474989146
  0
LINE
  5
130
330
123
100
AcDbEntity
  8
DIMENSIONS
100
AcDbLine
 10
70.34620450735092
 20
93.05910474989146
 30
0.0
 11
91.65491932630539
 21
93.05910474989146
 31
0.0
  0
LINE
  5
131
330
123
100
AcDbEntity
  8
DIMENSIONS
100
AcDbLine
 10
108.6479758620262
 20
93.05910474989146
 30
0.0
 11
83.83408635854721
 21
93.05910474989146
 31
0.0
  0
LWPOLYLINE
  5
132
330
123
100
AcDbEntity
  8
DIMENSIONS
100
AcDbPolyline
 90
        5
 70
     0
 43
0.0
 10
99.04620450735092
 20
145.6549510955811
 10
99.04620450735092
 20
145.6549510955811
 10
99.04620450735092
 20
145.6549510955811
 10
99.04620450735092
 20
145.6549510955811
 10
99.04620450735092
 20
145.6549510955811
  0
HATCH
  5
133
330
123
100
AcDbEntity
  8
0
 62
     7
100
AcDbHatch
 10
0.0
 20
0.0
 30
0.0
210
0.0
220
0.0
230
1.0
  2
PLNÁ, Plné vyplnění
 70
     0
 71
     0
 91
        2
 92
        0
 93
        3
 72
     1
 10
127.7462045073509
 20
93.55910474989146
 11
130.7462045073509
 21
93.05910474989146
 72
     1
 10
130.7462045073509
 20
93.05910474989146
 11
127.7462045073509
 21
92.55910474989146
 72
     1
 10
127.7462045073509
 20
92.55910474989146
 11
127.7462045073509
 21
93.55910474989146
 97
        0
 92
        0
 93
        3
 72
     1
 10
70.34620450735092
 20
92.55910474989146
 11
67.34620450735092
 21
93.05910474989146
 72
     1
 10
67.34620450735092
 20
93.05910474989146
 11
70.34620450735092
 21
93.55910474989147
 72
     1
 10
70.34620450735092
 20
93.55910474989147
 11
70.34620450735092
 21
92.55910474989146
 97
        0
 75
     0
 76
     0
 52
0.0
 41
1.0
 77
     0
 78
     1
 53
45.0
 43
0.0
 44
0.0
 45
0.0
 46
0.0
 79
     0
 98
        0
  0
ENDBLK
  5
125
330
123
100
AcDbEntity
  8
0
100
AcDbBlockEnd
  0
BLOCK
  5
393
330
392
100
AcDbEntity
  8
0
100
AcDbBlockBegin
  2
D2
 70
     0
 10
0.0
 20
0.0
 30
0.0
  3
D2
  1

  0
MTEXT
  5
395
330
392
100
AcDbEntity
  8
DIMENSIONS
100
AcDbMText
 10
223.5914134383202
 20
144.8344421386719
 30
0.0
 40
2.134018756842158
 41
0.0
 46
0.0
 71
     5
 72
     1
  1
{\fAlibre Symbols|b0|i0|c0|p0;n}{\fCE|b0|i0|c0|p0;\H0.95x;45}{\fMicrosoft Sans Serif|b0|i0|c0|p0;\H0.85x;}
 11
6.123031769111886E-17
 21
1.0
 31
0.0
 73
     1
 44
1.0
  0
MTEXT
  5
396
330
392
100
AcDbEntity
  8
DIMENSIONS
100
AcDbMText
 10
223.5914134383202
 20
144.8344421386719
 30
0.0
 40
2.134018756842158
 41
0.0
 46
0.0
 71
     5
 72
     1
  1
{\fCE|b0|i0|c0|p0;}
 11
6.123031769111886E-17
 21
1.0
 31
0.0
 73
     1
 44
1.0
  0
MTEXT
  5
397
330
392
100
AcDbEntity
  8
DIMENSIONS
100
AcDbMText
 10
223.5914134383202
 20
144.8344421386719
 30
0.0
 40
2.134018756842158
 41
0.0
 46
0.0
 71
     5
 72
     1
  1
{\fCE|b0|i0|c0|p0;}
 11
6.123031769111886E-17
 21
1.0
 31
0.0
 73
     1
 44
1.0
  0
MTEXT
  5
398
330
392
100
AcDbEntity
  8
DIMENSIONS
100
AcDbMText
 10
223.5914134383202
 20
141.1302754720052
 30
0.0
 40
2.134018756842158
 41
0.0
 46
0.0
 71
     5
 72
     1
  1
{\fCE|b0|i0|c0|p0;}
 11
6.123031769111886E-17
 21
1.0
 31
0.0
 73
     1
 44
1.0
  0
MTEXT
  5
399
330
392
100
AcDbEntity
  8
DIMENSIONS
100
AcDbMText
 10
223.5914134383202
 20
148.5386088053386
 30
0.0
 40
2.134018756842158
 41
0.0
 46
0.0
 71
     5
 72
     1
  1
{\fCE|b0|i0|c0|p0;  +/- 0,1}{\fCE|b0|i0|c0|p0;}
 11
6.123031769111886E-17
 21
1.0
 31
0.0
 73
     1
 44
1.0
  0
LINE
  5
39A
330
392
100
AcDbEntity
  8
DIMENSIONS
100
AcDbLine
 10
202.6959208846092
 20
168.1549510955811
 30
0.0
 11
228.0608578827646
 21
168.1549510955811
 31
0.0
  0
LINE
  5
39B
330
392
100
AcDbEntity
  8
DIMENSIONS
100
AcDbLine
 10
202.6959208846092
 20
123.1549510955811
 30
0.0
 11
228.0608578827646
 21
123.1549510955811
 31
0.0
  0
LWPOLYLINE
  5
39C
330
392
100
AcDbEntity
  8
DIMENSIONS
100
AcDbPolyline
 90
        4
 70
     0
 43
0.0
 10
226.0608578827646
 20
168.1549510955811
 10
226.5608578827646
 20
165.1549510955811
 10
225.5608578827646
 20
165.1549510955811
 10
226.0608578827646
 20
168.1549510955811
  0
LINE
  5
39D
330
392
100
AcDbEntity
  8
DIMENSIONS
100
AcDbLine
 10
226.0608578827646
 20
165.1549510955811
 30
0.0
 11
226.0608578827646
 21
144.8344421386719
 31
0.0
  0
LWPOLYLINE
  5
39E
330
392
100
AcDbEntity
  8
DIMENSIONS
100
AcDbPolyline
 90
        4
 70
     0
 43
0.0
 10
226.0608578827646
 20
123.1549510955811
 10
225.5608578827646
 20
126.1549510955811
 10
226.5608578827646
 20
126.1549510955811
 10
226.0608578827646
 20
123.1549510955811
  0
LINE
  5
39F
330
392
100
AcDbEntity
  8
DIMENSIONS
100
AcDbLine
 10
226.0608578827646
 20
126.1549510955811
 30
0.0
 11
226.0608578827646
 21
144.8344421386719
 31
0.0
  0
LINE
  5
3A0
330
392
100
AcDbEntity
  8
DIMENSIONS
100
AcDbLine
 10
226.0608578827646
 20
133.3094421923161
 30
0.0
 11
226.0608578827646
 21
156.3594419062138
 31
0.0
  0
HATCH
  5
3A1
330
392
100
AcDbEntity
  8
0
 62
     7
100
AcDbHatch
 10
0.0
 20
0.0
 30
0.0
210
0.0
220
0.0
230
1.0
  2
PLNÁ, Plné vyplnění
 70
     0
 71
     0
 91
        2
 92
        0
 93
        3
 72
     1
 10
225.5608578827646
 20
165.1549510955811
 11
226.0608578827646
 21
168.1549510955811
 72
     1
 10
226.0608578827646
 20
168.1549510955811
 11
226.5608578827646
 21
165.1549510955811
 72
     1
 10
226.5608578827646
 20
165.1549510955811
 11
225.5608578827646
 21
165.1549510955811
 97
        0
 92
        0
 93
        3
 72
     1
 10
226.5608578827646
 20
126.1549510955811
 11
226.0608578827646
 21
123.1549510955811
 72
     1
 10
226.0608578827646
 20
123.1549510955811
 11
225.5608578827646
 21
126.1549510955811
 72
     1
 10
225.5608578827646
 20
126.1549510955811
 11
226.5608578827646
 21
126.1549510955811
 97
        0
 75
     0
 76
     0
 52
0.0
 41
1.0
 77
     0
 78
     1
 53
45.0
 43
0.0
 44
0.0
 45
0.0
 46
0.0
 79
     0
 98
        0
  0
ENDBLK
  5
394
330
392
100
AcDbEntity
  8
0
100
AcDbBlockEnd
  0
BLOCK
  5
3A4
330
3A3
100
AcDbEntity
  8
0
100
AcDbBlockBegin
  2
D3
 70
     0
 10
0.0
 20
0.0
 30
0.0
  3
D3
  1

  0
MTEXT
  5
3A6
330
3A3
100
AcDbEntity
  8
DIMENSIONS
100
AcDbMText
 10
193.0704936385155
 20
100.0112991333008
 30
0.0
 40
2.134018756842158
 41
0.0
 46
0.0
 71
     5
 72
     1
  1
{\fCE|b0|i0|c0|p0;17}{\fCE|b0|i0|c0|p0;}
 73
     1
 44
1.0
  0
MTEXT
  5
3A7
330
3A3
100
AcDbEntity
  8
DIMENSIONS
100
AcDbMText
 10
193.0704936385155
 20
100.0112991333008
 30
0.0
 40
2.134018756842158
 41
0.0
 46
0.0
 71
     5
 72
     1
  1
{\fCE|b0|i0|c0|p0;}
 73
     1
 44
1.0
  0
MTEXT
  5
3A8
330
3A3
100
AcDbEntity
  8
DIMENSIONS
100
AcDbMText
 10
193.0704936385155
 20
100.0112991333008
 30
0.0
 40
2.134018756842158
 41
0.0
 46
0.0
 71
     5
 72
     1
  1
{\fCE|b0|i0|c0|p0;}
 73
     1
 44
1.0
  0
MTEXT
  5
3A9
330
3A3
100
AcDbEntity
  8
DIMENSIONS
100
AcDbMText
 10
190.601049194071
 20
100.0112991333008
 30
0.0
 40
2.134018756842158
 41
0.0
 46
0.0
 71
     5
 72
     1
  1
{\fCE|b0|i0|c0|p0;}
 73
     1
 44
1.0
  0
MTEXT
  5
3AA
330
3A3
100
AcDbEntity
  8
DIMENSIONS
100
AcDbMText
 10
195.5399380829599
 20
100.0112991333008
 30
0.0
 40
2.134018756842158
 41
0.0
 46
0.0
 71
     5
 72
     1
  1
{\fCE|b0|i0|c0|p0;}
 73
     1
 44
1.0
  0
LINE
  5
3AB
330
3A3
100
AcDbEntity
  8
DIMENSIONS
100
AcDbLine
 10
200.9459208846092
 20
112.2049510955811
 30
0.0
 11
200.9459208846092
 21
96.24741024441188
 31
0.0
  0
LINE
  5
3AC
330
3A3
100
AcDbEntity
  8
DIMENSIONS
100
AcDbLine
 10
183.9459208846092
 20
112.2049510955811
 30
0.0
 11
183.9459208846092
 21
96.24741024441188
 31
0.0
  0
LWPOLYLINE
  5
3AD
330
3A3
100
AcDbEntity
  8
DIMENSIONS
100
AcDbPolyline
 90
        4
 70
     0
 43
0.0
 10
200.9459208846092
 20
98.24741024441188
 10
197.9459208846092
 20
97.7474102444119
 10
197.9459208846092
 20
98.74741024441188
 10
200.9459208846092
 20
98.24741024441188
  0
LINE
  5
3AE
330
3A3
100
AcDbEntity
  8
DIMENSIONS
100
AcDbLine
 10
197.9459208846092
 20
98.24741024441188
 30
0.0
 11
193.0704936385155
 21
98.24741024441188
 31
0.0
  0
LWPOLYLINE
  5
3AF
330
3A3
100
AcDbEntity
  8
DIMENSIONS
100
AcDbPolyline
 90
        4
 70
     0
 43
0.0
 10
183.9459208846092
 20
98.24741024441188
 10
186.9459208846092
 20
98.7474102444119
 10
186.9459208846092
 20
97.7474102444119
 10
183.9459208846092
 20
98.24741024441188
  0
LINE
  5
3B0
330
3A3
100
AcDbEntity
  8
DIMENSIONS
100
AcDbLine
 10
186.9459208846092
 20
98.24741024441188
 30
0.0
 11
193.0704936385155
 21
98.24741024441188
 31
0.0
  0
LINE
  5
3B1
330
3A3
100
AcDbEntity
  8
DIMENSIONS
100
AcDbLine
 10
187.8954938054085
 20
98.24741024441188
 30
0.0
 11
197.5399374365807
 21
98.24741024441188
 31
0.0
  0
HATCH
  5
3B2
330
3A3
100
AcDbEntity
  8
0
 62
     7
100
AcDbHatch
 10
0.0
 20
0.0
 30
0.0
210
0.0
220
0.0
230
1.0
  2
PLNÁ, Plné vyplnění
 70
     0
 71
     0
 91
        2
 92
        0
 93
        3
 72
     1
 10
197.9459208846092
 20
98.74741024441188
 11
200.9459208846092
 21
98.24741024441188
 72
     1
 10
200.9459208846092
 20
98.24741024441188
 11
197.9459208846092
 21
97.7474102444119
 72
     1
 10
197.9459208846092
 20
97.7474102444119
 11
197.9459208846092
 21
98.74741024441188
 97
        0
 92
        0
 93
        3
 72
     1
 10
186.9459208846092
 20
97.7474102444119
 11
183.9459208846092
 21
98.24741024441188
 72
     1
 10
183.9459208846092
 20
98.24741024441188
 11
186.9459208846092
 21
98.7474102444119
 72
     1
 10
186.9459208846092
 20
98.7474102444119
 11
186.9459208846092
 21
97.7474102444119
 97
        0
 75
     0
 76
     0
 52
0.0
 41
1.0
 77
     0
 78
     1
 53
45.0
 43
0.0
 44
0.0
 45
0.0
 46
0.0
 79
     0
 98
        0
  0
ENDBLK
  5
3A5
330
3A3
100
AcDbEntity
  8
0
100
AcDbBlockEnd
  0
BLOCK
  5
3B5
330
3B4
100
AcDbEntity
  8
0
100
AcDbBlockBegin
  2
D4
 70
     0
 10
0.0
 20
0.0
 30
0.0
  3
D4
  1

  0
MTEXT
  5
3B7
330
3B4
100
AcDbEntity
  8
DIMENSIONS
100
AcDbMText
 10
197.3923625349998
 20
111.5752563476562
 30
0.0
 40
2.134018756842158
 41
0.0
 46
0.0
 71
     5
 72
     1
  1
{\fCE|b0|i0|c0|p0;8}{\fCE|b0|i0|c0|p0;}
 73
     1
 44
1.0
  0
MTEXT
  5
3B8
330
3B4
100
AcDbEntity
  8
DIMENSIONS
100
AcDbMText
 10
197.3923625349998
 20
111.5752563476562
 30
0.0
 40
2.134018756842158
 41
0.0
 46
0.0
 71
     5
 72
     1
  1
{\fCE|b0|i0|c0|p0;}
 73
     1
 44
1.0
  0
MTEXT
  5
3B9
330
3B4
100
AcDbEntity
  8
DIMENSIONS
100
AcDbMText
 10
197.3923625349998
 20
111.5752563476562
 30
0.0
 40
2.134018756842158
 41
0.0
 46
0.0
 71
     5
 72
     1
  1
{\fCE|b0|i0|c0|p0;}
 73
     1
 44
1.0
  0
MTEXT
  5
3BA
330
3B4
100
AcDbEntity
  8
DIMENSIONS
100
AcDbMText
 10
195.8048625349998
 20
111.5752563476562
 30
0.0
 40
2.134018756842158
 41
0.0
 46
0.0
 71
     5
 72
     1
  1
{\fCE|b0|i0|c0|p0;}
 73
     1
 44
1.0
  0
MTEXT
  5
3BB
330
3B4
100
AcDbEntity
  8
DIMENSIONS
100
AcDbMText
 10
198.9798625349999
 20
111.5752563476562
 30
0.0
 40
2.134018756842158
 41
0.0
 46
0.0
 71
     5
 72
     1
  1
{\fCE|b0|i0|c0|p0;}
 73
     1
 44
1.0
  0
LINE
  5
3BC
330
3B4
100
AcDbEntity
  8
DIMENSIONS
100
AcDbLine
 10
200.9459208846092
 20
112.2049510955811
 30
0.0
 11
200.9459208846092
 21
107.8113674587674
 31
0.0
  0
LINE
  5
3BD
330
3B4
100
AcDbEntity
  8
DIMENSIONS
100
AcDbLine
 10
192.9459208846092
 20
120.1549510955811
 30
0.0
 11
192.9459208846092
 21
107.8113674587674
 31
0.0
  0
LWPOLYLINE
  5
3BE
330
3B4
100
AcDbEntity
  8
DIMENSIONS
100
AcDbPolyline
 90
        4
 70
     0
 43
0.0
 10
200.9459208846092
 20
109.8113674587674
 10
197.9459208846092
 20
109.3113674587674
 10
197.9459208846092
 20
110.3113674587674
 10
200.9459208846092
 20
109.8113674587674
  0
LINE
  5
3BF
330
3B4
100
AcDbEntity
  8
DIMENSIONS
100
AcDbLine
 10
197.9459208846092
 20
109.8113674587674
 30
0.0
 11
197.3923625349998
 21
109.8113674587674
 31
0.0
  0
LWPOLYLINE
  5
3C0
330
3B4
100
AcDbEntity
  8
DIMENSIONS
100
AcDbPolyline
 90
        4
 70
     0
 43
0.0
 10
192.9459208846092
 20
109.8113674587674
 10
195.9459208846092
 20
110.3113674587674
 10
195.9459208846092
 20
109.3113674587674
 10
192.9459208846092
 20
109.8113674587674
  0
LINE
  5
3C1
330
3B4
100
AcDbEntity
  8
DIMENSIONS
100
AcDbLine
 10
195.9459208846092
 20
109.8113674587674
 30
0.0
 11
197.3923625349998
 21
109.8113674587674
 31
0.0
  0
LINE
  5
3C2
330
3B4
100
AcDbEntity
  8
DIMENSIONS
100
AcDbLine
 10
193.0993065237999
 20
109.8113674587674
 30
0.0
 11
200.9798621535301
 21
109.8113674587674
 31
0.0
  0
HATCH
  5
3C3
330
3B4
100
AcDbEntity
  8
0
 62
     7
100
AcDbHatch
 10
0.0
 20
0.0
 30
0.0
210
0.0
220
0.0
230
1.0
  2
PLNÁ, Plné vyplnění
 70
     0
 71
     0
 91
        2
 92
        0
 93
        3
 72
     1
 10
197.9459208846092
 20
110.3113674587674
 11
200.9459208846092
 21
109.8113674587674
 72
     1
 10
200.9459208846092
 20
109.8113674587674
 11
197.9459208846092
 21
109.3113674587674
 72
     1
 10
197.9459208846092
 20
109.3113674587674
 11
197.9459208846092
 21
110.3113674587674
 97
        0
 92
        0
 93
        3
 72
     1
 10
195.9459208846092
 20
109.3113674587674
 11
192.9459208846092
 21
109.8113674587674
 72
     1
 10
192.9459208846092
 20
109.8113674587674
 11
195.9459208846092
 21
110.3113674587674
 72
     1
 10
195.9459208846092
 20
110.3113674587674
 11
195.9459208846092
 21
109.3113674587674
 97
        0
 75
     0
 76
     0
 52
0.0
 41
1.0
 77
     0
 78
     1
 53
45.0
 43
0.0
 44
0.0
 45
0.0
 46
0.0
 79
     0
 98
        0
  0
ENDBLK
  5
3B6
330
3B4
100
AcDbEntity
  8
0
100
AcDbBlockEnd
  0
BLOCK
  5
3C6
330
3C5
100
AcDbEntity
  8
0
100
AcDbBlockBegin
  2
D5
 70
     0
 10
0.0
 20
0.0
 30
0.0
  3
D5
  1

  0
MTEXT
  5
3C8
330
3C5
100
AcDbEntity
  8
DIMENSIONS
100
AcDbMText
 10
204.7351970076561
 20
118.9753723144531
 30
0.0
 40
2.134018756842158
 41
0.0
 46
0.0
 71
     5
 72
     1
  1
{\fCE|b0|i0|c0|p0;2}{\fCE|b0|i0|c0|p0;}
 73
     1
 44
1.0
  0
MTEXT
  5
3C9
330
3C5
100
AcDbEntity
  8
DIMENSIONS
100
AcDbMText
 10
204.7351970076561
 20
118.9753723144531
 30
0.0
 40
2.134018756842158
 41
0.0
 46
0.0
 71
     5
 72
     1
  1
{\fCE|b0|i0|c0|p0;}
 73
     1
 44
1.0
  0
MTEXT
  5
3CA
330
3C5
100
AcDbEntity
  8
DIMENSIONS
100
AcDbMText
 10
204.7351970076561
 20
118.9753723144531
 30
0.0
 40
2.134018756842158
 41
0.0
 46
0.0
 71
     5
 72
     1
  1
{\fCE|b0|i0|c0|p0;}
 73
     1
 44
1.0
  0
MTEXT
  5
3CB
330
3C5
100
AcDbEntity
  8
DIMENSIONS
100
AcDbMText
 10
203.1476970076561
 20
118.9753723144531
 30
0.0
 40
2.134018756842158
 41
0.0
 46
0.0
 71
     5
 72
     1
  1
{\fCE|b0|i0|c0|p0;}
 73
     1
 44
1.0
  0
MTEXT
  5
3CC
330
3C5
100
AcDbEntity
  8
DIMENSIONS
100
AcDbMText
 10
206.3226970076561
 20
118.9753723144531
 30
0.0
 40
2.134018756842158
 41
0.0
 46
0.0
 71
     5
 72
     1
  1
{\fCE|b0|i0|c0|p0;}
 73
     1
 44
1.0
  0
LINE
  5
3CD
330
3C5
100
AcDbEntity
  8
DIMENSIONS
100
AcDbLine
 10
194.9459208846092
 20
120.1549510955811
 30
0.0
 11
194.9459208846092
 21
115.2114834255642
 31
0.0
  0
LINE
  5
3CE
330
3C5
100
AcDbEntity
  8
DIMENSIONS
100
AcDbLine
 10
192.9459208846092
 20
120.1549510955811
 30
0.0
 11
192.9459208846092
 21
115.2114834255642
 31
0.0
  0
LWPOLYLINE
  5
3CF
330
3C5
100
AcDbEntity
  8
DIMENSIONS
100
AcDbPolyline
 90
        4
 70
     0
 43
0.0
 10
194.9459208846092
 20
117.2114834255642
 10
197.9459208846092
 20
117.7114834255642
 10
197.9459208846092
 20
116.7114834255642
 10
194.9459208846092
 20
117.2114834255642
  0
LINE
  5
3D0
330
3C5
100
AcDbEntity
  8
DIMENSIONS
100
AcDbLine
 10
197.9459208846092
 20
117.2114834255642
 30
0.0
 11
204.7351970076561
 21
117.2114834255642
 31
0.0
  0
LWPOLYLINE
  5
3D1
330
3C5
100
AcDbEntity
  8
DIMENSIONS
100
AcDbPolyline
 90
        4
 70
     0
 43
0.0
 10
192.9459208846092
 20
117.2114834255642
 10
189.9459208846092
 20
116.7114834255642
 10
189.9459208846092
 20
117.7114834255642
 10
192.9459208846092
 20
117.2114834255642
  0
LINE
  5
3D2
330
3C5
100
AcDbEntity
  8
DIMENSIONS
100
AcDbLine
 10
189.9459208846092
 20
117.2114834255642
 30
0.0
 11
189.3459208846092
 21
117.2114834255642
 31
0.0
  0
LINE
  5
3D3
330
3C5
100
AcDbEntity
  8
DIMENSIONS
100
AcDbLine
 10
200.4421409964561
 20
117.2114834255642
 30
0.0
 11
208.3226966261864
 21
117.2114834255642
 31
0.0
  0
HATCH
  5
3D4
330
3C5
100
AcDbEntity
  8
0
 62
     7
100
AcDbHatch
 10
0.0
 20
0.0
 30
0.0
210
0.0
220
0.0
230
1.0
  2
PLNÁ, Plné vyplnění
 70
     0
 71
     0
 91
        2
 92
        0
 93
        3
 72
     1
 10
197.9459208846092
 20
116.7114834255642
 11
194.9459208846092
 21
117.2114834255642
 72
     1
 10
194.9459208846092
 20
117.2114834255642
 11
197.9459208846092
 21
117.7114834255642
 72
     1
 10
197.9459208846092
 20
117.7114834255642
 11
197.9459208846092
 21
116.7114834255642
 97
        0
 92
        0
 93
        3
 72
     1
 10
189.9459208846092
 20
117.7114834255642
 11
192.9459208846092
 21
117.2114834255642
 72
     1
 10
192.9459208846092
 20
117.2114834255642
 11
189.9459208846092
 21
116.7114834255642
 72
     1
 10
189.9459208846092
 20
116.7114834255642
 11
189.9459208846092
 21
117.7114834255642
 97
        0
 75
     0
 76
     0
 52
0.0
 41
1.0
 77
     0
 78
     1
 53
45.0
 43
0.0
 44
0.0
 45
0.0
 46
0.0
 79
     0
 98
        0
  0
ENDBLK
  5
3C7
330
3C5
100
AcDbEntity
  8
0
100
AcDbBlockEnd
  0
BLOCK
  5
3D7
330
3D6
100
AcDbEntity
  8
0
100
AcDbBlockBegin
  2
D6
 70
     0
 10
0.0
 20
0.0
 30
0.0
  3
D6
  1

  0
MTEXT
  5
3D9
330
3D6
100
AcDbEntity
  8
DIMENSIONS
100
AcDbMText
 10
234.839902818203
 20
150.1722412109375
 30
0.0
 40
2.134018756842158
 41
0.0
 46
0.0
 71
     5
 72
     1
  1
{\fCE|b0|i0|c0|p0;47}{\fCE|b0|i0|c0|p0;}
 11
6.123031769111886E-17
 21
1.0
 31
0.0
 73
     1
 44
1.0
  0
MTEXT
  5
3DA
330
3D6
100
AcDbEntity
  8
DIMENSIONS
100
AcDbMText
 10
234.839902818203
 20
150.1722412109375
 30
0.0
 40
2.134018756842158
 41
0.0
 46
0.0
 71
     5
 72
     1
  1
{\fCE|b0|i0|c0|p0;}
 11
6.123031769111886E-17
 21
1.0
 31
0.0
 73
     1
 44
1.0
  0
MTEXT
  5
3DB
330
3D6
100
AcDbEntity
  8
DIMENSIONS
100
AcDbMText
 10
234.839902818203
 20
150.1722412109375
 30
0.0
 40
2.134018756842158
 41
0.0
 46
0.0
 71
     5
 72
     1
  1
{\fCE|b0|i0|c0|p0;}
 11
6.123031769111886E-17
 21
1.0
 31
0.0
 73
     1
 44
1.0
  0
MTEXT
  5
3DC
330
3D6
100
AcDbEntity
  8
DIMENSIONS
100
AcDbMText
 10
234.839902818203
 20
147.7027967664931
 30
0.0
 40
2.134018756842158
 41
0.0
 46
0.0
 71
     5
 72
     1
  1
{\fAlibre Symbols|b0|i0|c0|p0;n}{\fCE|b0|i0|c0|p0;}
 11
6.123031769111886E-17
 21
1.0
 31
0.0
 73
     1
 44
1.0
  0
MTEXT
  5
3DD
330
3D6
100
AcDbEntity
  8
DIMENSIONS
100
AcDbMText
 10
234.839902818203
 20
152.6416856553819
 30
0.0
 40
2.134018756842158
 41
0.0
 46
0.0
 71
     5
 72
     1
  1
{\fCE|b0|i0|c0|p0;}
 11
6.123031769111886E-17
 21
1.0
 31
0.0
 73
     1
 44
1.0
  0
LINE
  5
3DE
330
3D6
100
AcDbEntity
  8
DIMENSIONS
100
AcDbLine
 10
196.9459208846092
 20
122.1549510955811
 30
0.0
 11
239.3093472626474
 21
122.1549510955811
 31
0.0
  0
LINE
  5
3DF
330
3D6
100
AcDbEntity
  8
DIMENSIONS
100
AcDbLine
 10
196.9459208846092
 20
169.1549510955811
 30
0.0
 11
239.3093472626474
 21
169.1549510955811
 31
0.0
  0
LWPOLYLINE
  5
3E0
330
3D6
100
AcDbEntity
  8
DIMENSIONS
100
AcDbPolyline
 90
        4
 70
     0
 43
0.0
 10
237.3093472626474
 20
122.1549510955811
 10
236.8093472626474
 20
125.1549510955811
 10
237.8093472626474
 20
125.1549510955811
 10
237.3093472626474
 20
122.1549510955811
  0
LINE
  5
3E1
330
3D6
100
AcDbEntity
  8
DIMENSIONS
100
AcDbLine
 10
237.3093472626474
 20
125.1549510955811
 30
0.0
 11
237.3093472626474
 21
150.1722412109375
 31
0.0
  0
LWPOLYLINE
  5
3E2
330
3D6
100
AcDbEntity
  8
DIMENSIONS
100
AcDbPolyline
 90
        4
 70
     0
 43
0.0
 10
237.3093472626474
 20
169.1549510955811
 10
237.8093472626474
 20
166.1549510955811
 10
236.8093472626474
 20
166.1549510955811
 10
237.3093472626474
 20
169.1549510955811
  0
LINE
  5
3E3
330
3D6
100
AcDbEntity
  8
DIMENSIONS
100
AcDbLine
 10
237.3093472626474
 20
166.1549510955811
 30
0.0
 11
237.3093472626474
 21
150.1722412109375
 31
0.0
  0
LINE
  5
3E4
330
3D6
100
AcDbEntity
  8
DIMENSIONS
100
AcDbLine
 10
237.3093472626474
 20
156.0527970194817
 30
0.0
 11
237.3093472626474
 21
144.2916857600212
 31
0.0
  0
HATCH
  5
3E5
330
3D6
100
AcDbEntity
  8
0
 62
     7
100
AcDbHatch
 10
0.0
 20
0.0
 30
0.0
210
0.0
220
0.0
230
1.0
  2
PLNÁ, Plné vyplnění
 70
     0
 71
     0
 91
        2
 92
        0
 93
        3
 72
     1
 10
237.8093472626474
 20
125.1549510955811
 11
237.3093472626474
 21
122.1549510955811
 72
     1
 10
237.3093472626474
 20
122.1549510955811
 11
236.8093472626474
 21
125.1549510955811
 72
     1
 10
236.8093472626474
 20
125.1549510955811
 11
237.8093472626474
 21
125.1549510955811
 97
        0
 92
        0
 93
        3
 72
     1
 10
236.8093472626474
 20
166.1549510955811
 11
237.3093472626474
 21
169.1549510955811
 72
     1
 10
237.3093472626474
 20
169.1549510955811
 11
237.8093472626474
 21
166.1549510955811
 72
     1
 10
237.8093472626474
 20
166.1549510955811
 11
236.8093472626474
 21
166.1549510955811
 97
        0
 75
     0
 76
     0
 52
0.0
 41
1.0
 77
     0
 78
     1
 53
45.0
 43
0.0
 44
0.0
 45
0.0
 46
0.0
 79
     0
 98
        0
  0
ENDBLK
  5
3D8
330
3D6
100
AcDbEntity
  8
0
100
AcDbBlockEnd
  0
BLOCK
  5
3E8
330
3E7
100
AcDbEntity
  8
0
100
AcDbBlockBegin
  2
D7
 70
     0
 10
0.0
 20
0.0
 30
0.0
  3
D7
  1

  0
MTEXT
  5
3EA
330
3E7
100
AcDbEntity
  8
DIMENSIONS
100
AcDbMText
 10
209.4293193221092
 20
181.1184692382812
 30
0.0
 40
2.134018756842158
 41
0.0
 46
0.0
 71
     5
 72
     1
  1
{\fCE|b0|i0|c0|p0;0,25}{\fCE|b0|i0|c0|p0;}
 73
     1
 44
1.0
  0
MTEXT
  5
3EB
330
3E7
100
AcDbEntity
  8
DIMENSIONS
100
AcDbMText
 10
209.4293193221092
 20
181.1184692382812
 30
0.0
 40
2.134018756842158
 41
0.0
 46
0.0
 71
     5
 72
     1
  1
{\fCE|b0|i0|c0|p0;}
 73
     1
 44
1.0
  0
MTEXT
  5
3EC
330
3E7
100
AcDbEntity
  8
DIMENSIONS
100
AcDbMText
 10
209.4293193221092
 20
181.1184692382812
 30
0.0
 40
2.134018756842158
 41
0.0
 46
0.0
 71
     5
 72
     1
  1
{\fCE|b0|i0|c0|p0;}
 73
     1
 44
1.0
  0
MTEXT
  5
3ED
330
3E7
100
AcDbEntity
  8
DIMENSIONS
100
AcDbMText
 10
205.5487637665537
 20
181.1184692382812
 30
0.0
 40
2.134018756842158
 41
0.0
 46
0.0
 71
     5
 72
     1
  1
{\fCE|b0|i0|c0|p0;}
 73
     1
 44
1.0
  0
MTEXT
  5
3EE
330
3E7
100
AcDbEntity
  8
DIMENSIONS
100
AcDbMText
 10
213.3098748776648
 20
181.1184692382812
 30
0.0
 40
2.134018756842158
 41
0.0
 46
0.0
 71
     5
 72
     1
  1
{\fCE|b0|i0|c0|p0;x45}{\fAlibre Symbols|b0|i0|c0|p0;\H1.052632x;_}{\fCE|b0|i0|c0|p0;\H1.052632x;}
 73
     1
 44
1.0
  0
LINE
  5
3EF
330
3E7
100
AcDbEntity
  8
DIMENSIONS
100
AcDbLine
 10
200.9459208846092
 20
179.104951095581
 30
0.0
 11
200.9459208846092
 21
180.6490247938368
 31
0.0
  0
LINE
  5
3F0
330
3E7
100
AcDbEntity
  8
DIMENSIONS
100
AcDbLine
 10
200.6959208846092
 20
179.354951095581
 30
0.0
 11
200.6959208846092
 21
180.6490247938368
 31
0.0
  0
LWPOLYLINE
  5
3F1
330
3E7
100
AcDbEntity
  8
DIMENSIONS
100
AcDbPolyline
 90
        4
 70
     0
 43
0.0
 10
200.9459208846092
 20
178.6490247938368
 10
203.9459208846092
 20
179.1490247938368
 10
203.9459208846092
 20
178.1490247938368
 10
200.9459208846092
 20
178.6490247938368
  0
LINE
  5
3F2
330
3E7
100
AcDbEntity
  8
DIMENSIONS
100
AcDbLine
 10
203.9459208846092
 20
178.6490247938368
 30
0.0
 11
209.4293193221092
 21
178.6490247938368
 31
0.0
  0
LWPOLYLINE
  5
3F3
330
3E7
100
AcDbEntity
  8
DIMENSIONS
100
AcDbPolyline
 90
        4
 70
     0
 43
0.0
 10
200.6959208846092
 20
178.6490247938368
 10
197.6959208846092
 20
178.1490247938368
 10
197.6959208846092
 20
179.1490247938368
 10
200.6959208846092
 20
178.6490247938368
  0
LINE
  5
3F4
330
3E7
100
AcDbEntity
  8
DIMENSIONS
100
AcDbLine
 10
197.6959208846092
 20
178.6490247938368
 30
0.0
 11
197.0959208846092
 21
178.6490247938368
 31
0.0
  0
LINE
  5
3F5
330
3E7
100
AcDbEntity
  8
DIMENSIONS
100
AcDbLine
 10
202.843209207058
 20
178.6490247938368
 30
0.0
 11
221.3070964217186
 21
178.6490247938368
 31
0.0
  0
HATCH
  5
3F6
330
3E7
100
AcDbEntity
  8
0
 62
     7
100
AcDbHatch
 10
0.0
 20
0.0
 30
0.0
210
0.0
220
0.0
230
1.0
  2
PLNÁ, Plné vyplnění
 70
     0
 71
     0
 91
        2
 92
        0
 93
        3
 72
     1
 10
203.9459208846092
 20
178.1490247938368
 11
200.9459208846092
 21
178.6490247938368
 72
     1
 10
200.9459208846092
 20
178.6490247938368
 11
203.9459208846092
 21
179.1490247938368
 72
     1
 10
203.9459208846092
 20
179.1490247938368
 11
203.9459208846092
 21
178.1490247938368
 97
        0
 92
        0
 93
        3
 72
     1
 10
197.6959208846092
 20
179.1490247938368
 11
200.6959208846092
 21
178.6490247938368
 72
     1
 10
200.6959208846092
 20
178.6490247938368
 11
197.6959208846092
 21
178.1490247938368
 72
     1
 10
197.6959208846092
 20
178.1490247938368
 11
197.6959208846092
 21
179.1490247938368
 97
        0
 75
     0
 76
     0
 52
0.0
 41
1.0
 77
     0
 78
     1
 53
45.0
 43
0.0
 44
0.0
 45
0.0
 46
0.0
 79
     0
 98
        0
  0
ENDBLK
  5
3E9
330
3E7
100
AcDbEntity
  8
0
100
AcDbBlockEnd
  0
BLOCK
  5
3F9
330
3F8
100
AcDbEntity
  8
0
100
AcDbBlockBegin
  2
D8
 70
     0
 10
0.0
 20
0.0
 30
0.0
  3
D8
  1

  0
MTEXT
  5
3FB
330
3F8
100
AcDbEntity
  8
DIMENSIONS
100
AcDbMText
 10
192.0086345076561
 20
184.1875
 30
0.0
 40
2.134018756842158
 41
0.0
 46
0.0
 71
     5
 72
     1
  1
{\fCE|b0|i0|c0|p0;0,25}{\fCE|b0|i0|c0|p0;}
 73
     1
 44
1.0
  0
MTEXT
  5
3FC
330
3F8
100
AcDbEntity
  8
DIMENSIONS
100
AcDbMText
 10
192.0086345076561
 20
184.1875
 30
0.0
 40
2.134018756842158
 41
0.0
 46
0.0
 71
     5
 72
     1
  1
{\fCE|b0|i0|c0|p0;}
 73
     1
 44
1.0
  0
MTEXT
  5
3FD
330
3F8
100
AcDbEntity
  8
DIMENSIONS
100
AcDbMText
 10
192.0086345076561
 20
184.1875
 30
0.0
 40
2.134018756842158
 41
0.0
 46
0.0
 71
     5
 72
     1
  1
{\fCE|b0|i0|c0|p0;}
 73
     1
 44
1.0
  0
MTEXT
  5
3FE
330
3F8
100
AcDbEntity
  8
DIMENSIONS
100
AcDbMText
 10
188.1280789521005
 20
184.1875
 30
0.0
 40
2.134018756842158
 41
0.0
 46
0.0
 71
     5
 72
     1
  1
{\fCE|b0|i0|c0|p0;}
 73
     1
 44
1.0
  0
MTEXT
  5
3FF
330
3F8
100
AcDbEntity
  8
DIMENSIONS
100
AcDbMText
 10
195.8891900632117
 20
184.1875
 30
0.0
 40
2.134018756842158
 41
0.0
 46
0.0
 71
     5
 72
     1
  1
{\fCE|b0|i0|c0|p0;x45}{\fAlibre Symbols|b0|i0|c0|p0;\H1.052632x;_}{\fCE|b0|i0|c0|p0;\H1.052632x;}
 73
     1
 44
1.0
  0
LINE
  5
400
330
3F8
100
AcDbEntity
  8
DIMENSIONS
100
AcDbLine
 10
184.1959208846092
 20
179.354951095581
 30
0.0
 11
184.1959208846092
 21
183.7180555555556
 31
0.0
  0
LINE
  5
401
330
3F8
100
AcDbEntity
  8
DIMENSIONS
100
AcDbLine
 10
183.9459208846092
 20
179.104951095581
 30
0.0
 11
183.9459208846092
 21
183.7180555555556
 31
0.0
  0
LWPOLYLINE
  5
402
330
3F8
100
AcDbEntity
  8
DIMENSIONS
100
AcDbPolyline
 90
        4
 70
     0
 43
0.0
 10
184.1959208846092
 20
181.7180555555556
 10
187.1959208846092
 20
182.2180555555556
 10
187.1959208846092
 20
181.2180555555556
 10
184.1959208846092
 20
181.7180555555556
  0
LINE
  5
403
330
3F8
100
AcDbEntity
  8
DIMENSIONS
100
AcDbLine
 10
187.1959208846092
 20
181.7180555555556
 30
0.0
 11
192.0086345076561
 21
181.7180555555556
 31
0.0
  0
LWPOLYLINE
  5
404
330
3F8
100
AcDbEntity
  8
DIMENSIONS
100
AcDbPolyline
 90
        4
 70
     0
 43
0.0
 10
183.9459208846092
 20
181.7180555555556
 10
180.9459208846092
 20
181.2180555555556
 10
180.9459208846092
 20
182.2180555555556
 10
183.9459208846092
 20
181.7180555555556
  0
LINE
  5
405
330
3F8
100
AcDbEntity
  8
DIMENSIONS
100
AcDbLine
 10
180.9459208846092
 20
181.7180555555556
 30
0.0
 11
180.3459208846092
 21
181.7180555555556
 31
0.0
  0
LINE
  5
406
330
3F8
100
AcDbEntity
  8
DIMENSIONS
100
AcDbLine
 10
185.4225233197212
 20
181.7180555555556
 30
0.0
 11
203.8864111304283
 21
181.7180555555556
 31
0.0
  0
HATCH
  5
407
330
3F8
100
AcDbEntity
  8
0
 62
     7
100
AcDbHatch
 10
0.0
 20
0.0
 30
0.0
210
0.0
220
0.0
230
1.0
  2
PLNÁ, Plné vyplnění
 70
     0
 71
     0
 91
        2
 92
        0
 93
        3
 72
     1
 10
187.1959208846092
 20
181.2180555555556
 11
184.1959208846092
 21
181.7180555555556
 72
     1
 10
184.1959208846092
 20
181.7180555555556
 11
187.1959208846092
 21
182.2180555555556
 72
     1
 10
187.1959208846092
 20
182.2180555555556
 11
187.1959208846092
 21
181.2180555555556
 97
        0
 92
        0
 93
        3
 72
     1
 10
180.9459208846092
 20
182.2180555555556
 11
183.9459208846092
 21
181.7180555555556
 72
     1
 10
183.9459208846092
 20
181.7180555555556
 11
180.9459208846092
 21
181.2180555555556
 72
     1
 10
180.9459208846092
 20
181.2180555555556
 11
180.9459208846092
 21
182.2180555555556
 97
        0
 75
     0
 76
     0
 52
0.0
 41
1.0
 77
     0
 78
     1
 53
45.0
 43
0.0
 44
0.0
 45
0.0
 46
0.0
 79
     0
 98
        0
  0
ENDBLK
  5
3FA
330
3F8
100
AcDbEntity
  8
0
100
AcDbBlockEnd
  0
BLOCK
  5
40A
330
409
100
AcDbEntity
  8
0
100
AcDbBlockBegin
  2
D9
 70
     0
 10
0.0
 20
0.0
 30
0.0
  3
D9
  1

  0
MTEXT
  5
40C
330
409
100
AcDbEntity
  8
DIMENSIONS
100
AcDbMText
 10
209.4451121687889
 20
163.7514495849609
 30
0.0
 40
2.134018756842158
 41
0.0
 46
0.0
 71
     5
 72
     1
  1
{\fCE|b0|i0|c0|p0;0,25}{\fCE|b0|i0|c0|p0;}
 73
     1
 44
1.0
  0
MTEXT
  5
40D
330
409
100
AcDbEntity
  8
DIMENSIONS
100
AcDbMText
 10
209.4451121687889
 20
163.7514495849609
 30
0.0
 40
2.134018756842158
 41
0.0
 46
0.0
 71
     5
 72
     1
  1
{\fCE|b0|i0|c0|p0;}
 73
     1
 44
1.0
  0
MTEXT
  5
40E
330
409
100
AcDbEntity
  8
DIMENSIONS
100
AcDbMText
 10
209.4451121687889
 20
163.7514495849609
 30
0.0
 40
2.134018756842158
 41
0.0
 46
0.0
 71
     5
 72
     1
  1
{\fCE|b0|i0|c0|p0;}
 73
     1
 44
1.0
  0
MTEXT
  5
40F
330
409
100
AcDbEntity
  8
DIMENSIONS
100
AcDbMText
 10
205.5645566132333
 20
163.7514495849609
 30
0.0
 40
2.134018756842158
 41
0.0
 46
0.0
 71
     5
 72
     1
  1
{\fCE|b0|i0|c0|p0;}
 73
     1
 44
1.0
  0
MTEXT
  5
410
330
409
100
AcDbEntity
  8
DIMENSIONS
100
AcDbMText
 10
213.3256677243445
 20
163.7514495849609
 30
0.0
 40
2.134018756842158
 41
0.0
 46
0.0
 71
     5
 72
     1
  1
{\fCE|b0|i0|c0|p0;x45}{\fAlibre Symbols|b0|i0|c0|p0;\H1.052632x;_}{\fCE|b0|i0|c0|p0;\H1.052632x;}
 73
     1
 44
1.0
  0
LINE
  5
411
330
409
100
AcDbEntity
  8
DIMENSIONS
100
AcDbLine
 10
200.9459208846092
 20
166.4049510955811
 30
0.0
 11
200.9459208846092
 21
159.2820051405165
 31
0.0
  0
LINE
  5
412
330
409
100
AcDbEntity
  8
DIMENSIONS
100
AcDbLine
 10
200.6959208846092
 20
166.1549510955811
 30
0.0
 11
200.6959208846092
 21
159.2820051405165
 31
0.0
  0
LWPOLYLINE
  5
413
330
409
100
AcDbEntity
  8
DIMENSIONS
100
AcDbPolyline
 90
        4
 70
     0
 43
0.0
 10
200.9459208846092
 20
161.2820051405165
 10
203.9459208846092
 20
161.7820051405165
 10
203.9459208846092
 20
160.7820051405165
 10
200.9459208846092
 20
161.2820051405165
  0
LINE
  5
414
330
409
100
AcDbEntity
  8
DIMENSIONS
100
AcDbLine
 10
203.9459208846092
 20
161.2820051405165
 30
0.0
 11
209.4451121687889
 21
161.2820051405165
 31
0.0
  0
LWPOLYLINE
  5
415
330
409
100
AcDbEntity
  8
DIMENSIONS
100
AcDbPolyline
 90
        4
 70
     0
 43
0.0
 10
200.6959208846092
 20
161.2820051405165
 10
197.6959208846092
 20
160.7820051405165
 10
197.6959208846092
 20
161.7820051405165
 10
200.6959208846092
 20
161.2820051405165
  0
LINE
  5
416
330
409
100
AcDbEntity
  8
DIMENSIONS
100
AcDbLine
 10
197.6959208846092
 20
161.2820051405165
 30
0.0
 11
197.0959208846092
 21
161.2820051405165
 31
0.0
  0
LINE
  5
417
330
409
100
AcDbEntity
  8
DIMENSIONS
100
AcDbLine
 10
202.8590020537376
 20
161.2820051405165
 30
0.0
 11
221.3228892683983
 21
161.2820051405165
 31
0.0
  0
HATCH
  5
418
330
409
100
AcDbEntity
  8
0
 62
     7
100
AcDbHatch
 10
0.0
 20
0.0
 30
0.0
210
0.0
220
0.0
230
1.0
  2
PLNÁ, Plné vyplnění
 70
     0
 71
     0
 91
        2
 92
        0
 93
        3
 72
     1
 10
203.9459208846092
 20
160.7820051405165
 11
200.9459208846092
 21
161.2820051405165
 72
     1
 10
200.9459208846092
 20
161.2820051405165
 11
203.9459208846092
 21
161.7820051405165
 72
     1
 10
203.9459208846092
 20
161.7820051405165
 11
203.9459208846092
 21
160.7820051405165
 97
        0
 92
        0
 93
        3
 72
     1
 10
197.6959208846092
 20
161.7820051405165
 11
200.6959208846092
 21
161.2820051405165
 72
     1
 10
200.6959208846092
 20
161.2820051405165
 11
197.6959208846092
 21
160.7820051405165
 72
     1
 10
197.6959208846092
 20
160.7820051405165
 11
197.6959208846092
 21
161.7820051405165
 97
        0
 75
     0
 76
     0
 52
0.0
 41
1.0
 77
     0
 78
     1
 53
45.0
 43
0.0
 44
0.0
 45
0.0
 46
0.0
 79
     0
 98
        0
  0
ENDBLK
  5
40B
330
409
100
AcDbEntity
  8
0
100
AcDbBlockEnd
  0
BLOCK
  5
41D
330
41C
100
AcDbEntity
  8
0
100
AcDbBlockBegin
  2
BLOCK1
 70
     0
 10
0.0
 20
0.0
 30
0.0
  3
BLOCK1
  1

  0
LINE
  5
41F
330
41C
100
AcDbEntity
  8
CONTINUOUS
100
AcDbLine
 10
9.99999999999998
 20
9.99999999999995
 30
0.0
 11
287.0
 21
10.0
 31
0.0
  0
LINE
  5
420
330
41C
100
AcDbEntity
  8
CONTINUOUS
100
AcDbLine
 10
141.942321777344
 20
5.0
 30
0.0
 11
241.942321777344
 21
5.0
 31
0.0
  0
LINE
  5
421
330
41C
100
AcDbEntity
  8
CONTINUOUS
100
AcDbLine
 10
0.0
 20
0.0
 30
0.0
 11
-0.0000000000000012
 21
10.0
 31
0.0
  0
LINE
  5
422
330
41C
100
AcDbEntity
  8
CONTINUOUS
100
AcDbLine
 10
0.0
 20
0.0
 30
0.0
 11
10.0
 21
0.0000000000000018
 31
0.0
  0
LINE
  5
423
330
41C
100
AcDbEntity
  8
CONTINUOUS
100
AcDbLine
 10
141.942321777344
 20
5.0
 30
0.0
 11
141.942321777344
 21
10.0
 31
0.0
  0
LINE
  5
424
330
41C
100
AcDbEntity
  8
CONTINUOUS
100
AcDbLine
 10
151.942321777344
 20
5.0
 30
0.0
 11
151.942321777344
 21
10.0
 31
0.0
  0
LINE
  5
425
330
41C
100
AcDbEntity
  8
CONTINUOUS
100
AcDbLine
 10
161.942321777344
 20
5.0
 30
0.0
 11
161.942321777344
 21
10.0
 31
0.0
  0
LINE
  5
426
330
41C
100
AcDbEntity
  8
CONTINUOUS
100
AcDbLine
 10
10.0
 20
57.5
 30
0.0
 11
5.0
 21
57.5
 31
0.0
  0
LINE
  5
427
330
41C
100
AcDbEntity
  8
CONTINUOUS
100
AcDbLine
 10
10.0
 20
105.0
 30
0.0
 11
5.0
 21
105.0
 31
0.0
  0
LINE
  5
428
330
41C
100
AcDbEntity
  8
CONTINUOUS
100
AcDbLine
 10
191.942321777344
 20
10.0
 30
0.0
 11
191.942321777344
 21
5.0
 31
0.0
  0
LINE
  5
429
330
41C
100
AcDbEntity
  8
CONTINUOUS
100
AcDbLine
 10
171.942321777344
 20
5.0
 30
0.0
 11
171.942321777344
 21
10.0
 31
0.0
  0
LINE
  5
42A
330
41C
100
AcDbEntity
  8
CONTINUOUS
100
AcDbLine
 10
181.942321777344
 20
5.0
 30
0.0
 11
181.942321777344
 21
10.0
 31
0.0
  0
LINE
  5
42B
330
41C
100
AcDbEntity
  8
CONTINUOUS
100
AcDbLine
 10
201.942321777344
 20
5.0
 30
0.0
 11
201.942321777344
 21
10.0
 31
0.0
  0
LINE
  5
42C
330
41C
100
AcDbEntity
  8
CONTINUOUS
100
AcDbLine
 10
211.942321777344
 20
5.0
 30
0.0
 11
211.942321777344
 21
10.0
 31
0.0
  0
LINE
  5
42D
330
41C
100
AcDbEntity
  8
CONTINUOUS
100
AcDbLine
 10
221.942321777344
 20
5.0
 30
0.0
 11
221.942321777344
 21
10.0
 31
0.0
  0
LINE
  5
42E
330
41C
100
AcDbEntity
  8
CONTINUOUS
100
AcDbLine
 10
297.0
 20
0.0
 30
0.0
 11
297.0
 21
10.0
 31
0.0
  0
LINE
  5
42F
330
41C
100
AcDbEntity
  8
CONTINUOUS
100
AcDbLine
 10
241.942321777344
 20
5.0
 30
0.0
 11
241.942321777344
 21
10.0
 31
0.0
  0
LINE
  5
430
330
41C
100
AcDbEntity
  8
CONTINUOUS
100
AcDbLine
 10
231.942321777344
 20
5.0
 30
0.0
 11
231.942321777344
 21
10.0
 31
0.0
  0
LINE
  5
431
330
41C
100
AcDbEntity
  8
CONTINUOUS
100
AcDbLine
 10
296.942321777344
 20
0.0
 30
0.0
 11
286.942321777344
 21
0.0
 31
0.0
  0
LINE
  5
432
330
41C
100
AcDbEntity
  8
CONTINUOUS
100
AcDbLine
 10
291.942321777344
 20
57.5
 30
0.0
 11
286.942321777344
 21
57.5
 31
0.0
  0
LINE
  5
433
330
41C
100
AcDbEntity
  8
CONTINUOUS
100
AcDbLine
 10
291.942321777344
 20
105.0
 30
0.0
 11
286.942321777344
 21
105.0
 31
0.0
  0
LINE
  5
434
330
41C
100
AcDbEntity
  8
CONTINUOUS
100
AcDbLine
 10
-0.0000000000000249
 20
209.989334106445
 30
0.0
 11
-0.0000000000000249
 21
199.989334106445
 31
0.0
  0
LINE
  5
435
330
41C
100
AcDbEntity
  8
CONTINUOUS
100
AcDbLine
 10
10.0165710449219
 20
209.989334106445
 30
0.0
 11
0.016571044921875
 21
209.989334106445
 31
0.0
  0
LINE
  5
436
330
41C
100
AcDbEntity
  8
CONTINUOUS
100
AcDbLine
 10
194.666666666667
 20
199.989334106445
 30
0.0
 11
194.666666666667
 21
204.989334106445
 31
0.0
  0
LINE
  5
437
330
41C
100
AcDbEntity
  8
CONTINUOUS
100
AcDbLine
 10
297.0
 20
199.989334106445
 30
0.0
 11
297.0
 21
209.989334106445
 31
0.0
  0
LINE
  5
438
330
41C
100
AcDbEntity
  8
CONTINUOUS
100
AcDbLine
 10
240.833333333333
 20
199.989334106445
 30
0.0
 11
240.833333333333
 21
204.989334106445
 31
0.0
  0
LINE
  5
439
330
41C
100
AcDbEntity
  8
CONTINUOUS
100
AcDbLine
 10
296.958892822266
 20
209.989334106445
 30
0.0
 11
286.958892822266
 21
209.989334106445
 31
0.0
  0
LINE
  5
43A
330
41C
100
AcDbEntity
  8
CONTINUOUS
100
AcDbLine
 10
286.942321777344
 20
152.5
 30
0.0
 11
291.942321777344
 21
152.5
 31
0.0
  0
LINE
  5
43B
330
41C
100
AcDbEntity
  8
CONTINUOUS
100
AcDbLine
 10
5.0
 20
152.5
 30
0.0
 11
10.0
 21
152.5
 31
0.0
  0
LINE
  5
43C
330
41C
100
AcDbEntity
  8
CONTINUOUS
100
AcDbLine
 10
287.0
 20
200.0
 30
0.0
 11
9.99999999999998
 21
200.0
 31
0.0
  0
LINE
  5
43D
330
41C
100
AcDbEntity
  8
CONTINUOUS
100
AcDbLine
 10
287.0
 20
10.0
 30
0.0
 11
287.0
 21
200.0
 31
0.0
  0
LINE
  5
43E
330
41C
100
AcDbEntity
  8
CONTINUOUS
100
AcDbLine
 10
9.99999999999998
 20
200.0
 30
0.0
 11
9.99999999999998
 21
9.99999999999995
 31
0.0
  0
LINE
  5
43F
330
41C
100
AcDbEntity
  8
CONTINUOUS
100
AcDbLine
 10
56.1666666666666
 20
200.0
 30
0.0
 11
56.1666666666666
 21
205.0
 31
0.0
  0
LINE
  5
440
330
41C
100
AcDbEntity
  8
CONTINUOUS
100
AcDbLine
 10
102.333333333333
 20
200.0
 30
0.0
 11
102.333333333333
 21
205.0
 31
0.0
  0
LINE
  5
441
330
41C
100
AcDbEntity
  8
CONTINUOUS
100
AcDbLine
 10
148.5
 20
200.0
 30
0.0
 11
148.5
 21
205.0
 31
0.0
  0
LINE
  5
442
330
41C
100
AcDbEntity
  8
CONTINUOUS
100
AcDbLine
 10
56.1666679382324
 20
10.0
 30
0.0
 11
56.1666679382324
 21
5.0
 31
0.0
  0
LINE
  5
443
330
41C
100
AcDbEntity
  8
CONTINUOUS
100
AcDbLine
 10
102.333335876465
 20
10.0
 30
0.0
 11
102.333335876465
 21
5.0
 31
0.0
  0
LINE
  5
444
330
41C
100
AcDbEntity
  8
CONTINUOUS
100
AcDbLine
 10
194.0
 20
10.0
 30
0.0
 11
194.0
 21
48.0
 31
0.0
  0
LINE
  5
445
330
41C
100
AcDbEntity
  8
CONTINUOUS
100
AcDbLine
 10
251.0
 20
10.0
 30
0.0
 11
251.0
 21
20.0
 31
0.0
  0
LINE
  5
446
330
41C
100
AcDbEntity
  8
CONTINUOUS
100
AcDbLine
 10
269.0
 20
10.0
 30
0.0
 11
269.0
 21
20.0
 31
0.0
  0
LINE
  5
447
330
41C
100
AcDbEntity
  8
CONTINUOUS
100
AcDbLine
 10
229.0
 20
9.99999999999999
 30
0.0
 11
229.0
 21
20.0
 31
0.0
  0
LINE
  5
448
330
41C
100
AcDbEntity
  8
CONTINUOUS
100
AcDbLine
 10
241.559921264648
 20
30.0
 30
0.0
 11
241.559921264648
 21
20.0
 31
0.0
  0
LINE
  5
449
330
41C
100
AcDbEntity
  8
CONTINUOUS
100
AcDbLine
 10
269.0
 20
10.0
 30
0.0
 11
287.0
 21
10.0
 31
0.0
  0
LINE
  5
44A
330
41C
100
AcDbEntity
  8
CONTINUOUS
100
AcDbLine
 10
194.0
 20
48.0
 30
0.0
 11
287.0
 21
48.0
 31
0.0
  0
LINE
  5
44B
330
41C
100
AcDbEntity
  8
CONTINUOUS
100
AcDbLine
 10
194.059921264648
 20
30.0
 30
0.0
 11
287.059921264648
 21
30.0
 31
0.0
  0
LINE
  5
44C
330
41C
100
AcDbEntity
  8
CONTINUOUS
100
AcDbLine
 10
194.059921264648
 20
20.0
 30
0.0
 11
287.059921264648
 21
20.0
 31
0.0
  0
LINE
  5
44D
330
41C
100
AcDbEntity
  8
CONTINUOUS
100
AcDbLine
 10
216.0
 20
30.0
 30
0.0
 11
216.0
 21
48.0
 31
0.0
  0
MTEXT
  5
44E
330
41C
100
AcDbEntity
  8
CONTINUOUS
100
AcDbMText
 10
27.3887158203126
 20
6.7864282951355
 30
0.0
 40
3.720853217058121
 41
0.0
 46
0.0
 71
     4
 72
     1
  1
{\fArial|b0|i0|c0|p0;\C7;1}{\fArial|b0|i0|c0|p0;\C7;}
 73
     1
 44
1.0
  0
MTEXT
  5
44F
330
41C
100
AcDbEntity
  8
CONTINUOUS
100
AcDbMText
 10
194.738236236572
 20
17.6612302398682
 30
0.0
 40
2.251496730059653
 41
0.0
 46
0.0
 71
     4
 72
     1
  1
{\fMonotype Corsiva|b0|i1|c0|p0;\C7;Treatment  }{\fArial|b0|i0|c0|p0;\C7;\H0.7692308x;}
 73
     1
 44
1.0
  0
MTEXT
  5
450
330
41C
100
AcDbEntity
  8
CONTINUOUS
100
AcDbMText
 10
32.2742214965821
 20
204.252439819336
 30
0.0
 40
3.720853217058121
 41
0.0
 46
0.0
 71
     4
 72
     1
  1
{\fArial|b0|i0|c0|p0;\C7;1}{\fArial|b0|i0|c0|p0;\C7;}
 73
     1
 44
1.0
  0
MTEXT
  5
451
330
41C
100
AcDbEntity
  8
CONTINUOUS
100
AcDbMText
 10
251.201002341357
 20
20.0034076309204
 30
0.0
 40
2.251496730059653
 41
0.0
 46
0.0
 71
     1
 72
     1
  1
{\fMonotype Corsiva|b0|i1|c0|p0;\C7;Quantity}{\fArial|b0|i0|c0|p0;\C7;\H0.7692308x;}
 73
     1
 44
1.0
  0
MTEXT
  5
452
330
41C
100
AcDbEntity
  8
CONTINUOUS
100
AcDbMText
 10
5.18862550735474
 20
80.0342772827149
 30
0.0
 40
3.720853217058121
 41
0.0
 46
0.0
 71
     4
 72
     1
  1
{\fArial|b0|i0|c0|p0;\C7;C}{\fArial|b0|i0|c0|p0;\C7;}
 73
     1
 44
1.0
  0
MTEXT
  5
453
330
41C
100
AcDbEntity
  8
CONTINUOUS
100
AcDbMText
 10
81.36409489129
 20
6.84505931157936
 30
0.0
 40
3.720853217058121
 41
0.0
 46
0.0
 71
     4
 72
     1
  1
{\fArial|b0|i0|c0|p0;\C7;2}{\fArial|b0|i0|c0|p0;\C7;}
 73
     1
 44
1.0
  0
MTEXT
  5
454
330
41C
100
AcDbEntity
  8
CONTINUOUS
100
AcDbMText
 10
265.171810609717
 20
204.240896547217
 30
0.0
 40
3.720853217058121
 41
0.0
 46
0.0
 71
     4
 72
     1
  1
{\fArial|b0|i0|c0|p0;\C7;6}{\fArial|b0|i0|c0|p0;\C7;}
 73
     1
 44
1.0
  0
MTEXT
  5
455
330
41C
100
AcDbEntity
  8
CONTINUOUS
100
AcDbMText
 10
289.025805015464
 20
125.886
 30
0.0
 40
3.720853217058121
 41
0.0
 46
0.0
 71
     4
 72
     1
  1
{\fArial|b0|i0|c0|p0;\C7;B}{\fArial|b0|i0|c0|p0;\C7;}
 73
     1
 44
1.0
  0
MTEXT
  5
456
330
41C
100
AcDbEntity
  8
CONTINUOUS
100
AcDbMText
 10
288.710822753907
 20
79.4667495117188
 30
0.0
 40
3.720853217058121
 41
0.0
 46
0.0
 71
     4
 72
     1
  1
{\fArial|b0|i0|c0|p0;\C7;C}{\fArial|b0|i0|c0|p0;\C7;}
 73
     1
 44
1.0
  0
MTEXT
  5
457
330
41C
100
AcDbEntity
  8
CONTINUOUS
100
AcDbMText
 10
262.082233886719
 20
6.73998626327514
 30
0.0
 40
3.720853217058121
 41
0.0
 46
0.0
 71
     4
 72
     1
  1
{\fArial|b0|i0|c0|p0;\C7;6}{\fArial|b0|i0|c0|p0;\C7;}
 73
     1
 44
1.0
  0
MTEXT
  5
458
330
41C
100
AcDbEntity
  8
CONTINUOUS
100
AcDbMText
 10
288.594410820089
 20
171.67635949707
 30
0.0
 40
3.720853217058121
 41
0.0
 46
0.0
 71
     4
 72
     1
  1
{\fArial|b0|i0|c0|p0;\C7;A}{\fArial|b0|i0|c0|p0;\C7;}
 73
     1
 44
1.0
  0
MTEXT
  5
459
330
41C
100
AcDbEntity
  8
CONTINUOUS
100
AcDbMText
 10
194.206589508057
 20
27.6925756072998
 30
0.0
 40
2.251496730059653
 41
0.0
 46
0.0
 71
     4
 72
     1
  1
{\fMonotype Corsiva|b0|i1|c0|p0;\C7;Name }{\fArial|b0|i0|c0|p0;\C7;\H0.7692308x;}
 73
     1
 44
1.0
  0
MTEXT
  5
45A
330
41C
100
AcDbEntity
  8
CONTINUOUS
100
AcDbMText
 10
4.984780712209
 20
172.034376464844
 30
0.0
 40
3.720853217058121
 41
0.0
 46
0.0
 71
     4
 72
     1
  1
{\fArial|b0|i0|c0|p0;\C7;A}{\fArial|b0|i0|c0|p0;\C7;}
 73
     1
 44
1.0
  0
MTEXT
  5
45B
330
41C
100
AcDbEntity
  8
CONTINUOUS
100
AcDbMText
 10
126.092175294703
 20
6.61010619923708
 30
0.0
 40
3.720853217058121
 41
0.0
 46
0.0
 71
     4
 72
     1
  1
{\fArial|b0|i0|c0|p0;\C7;3}{\fArial|b0|i0|c0|p0;\C7;}
 73
     1
 44
1.0
  0
MTEXT
  5
45C
330
41C
100
AcDbEntity
  8
CONTINUOUS
100
AcDbMText
 10
241.827730760921
 20
26.8954164123535
 30
0.0
 40
2.251496730059653
 41
0.0
 46
0.0
 71
     4
 72
     1
  1
{\fMonotype Corsiva|b0|i1|c0|p0;\C7;Material }{\fArial|b0|i0|c0|p0;\C7;\H0.7692308x;}
 73
     1
 44
1.0
  0
MTEXT
  5
45D
330
41C
100
AcDbEntity
  8
CONTINUOUS
100
AcDbMText
 10
5.6160912703474
 20
125.886
 30
0.0
 40
3.720853217058121
 41
0.0
 46
0.0
 71
     4
 72
     1
  1
{\fArial|b0|i0|c0|p0;\C7;B}{\fArial|b0|i0|c0|p0;\C7;}
 73
     1
 44
1.0
  0
MTEXT
  5
45E
330
41C
100
AcDbEntity
  8
CONTINUOUS
100
AcDbMText
 10
229.187939453125
 20
17.546260986328
 30
0.0
 40
2.251496730059653
 41
0.0
 46
0.0
 71
     4
 72
     1
  1
{\fMonotype Corsiva|b0|i1|c0|p0;\C7;Date}{\fArial|b0|i0|c0|p0;\C7;\H0.7692308x;}
 73
     1
 44
1.0
  0
MTEXT
  5
45F
330
41C
100
AcDbEntity
  8
CONTINUOUS
100
AcDbMText
 10
171.459843139648
 20
204.242353759765
 30
0.0
 40
3.720853217058121
 41
0.0
 46
0.0
 71
     4
 72
     1
  1
{\fArial|b0|i0|c0|p0;\C7;4}{\fArial|b0|i0|c0|p0;\C7;}
 73
     1
 44
1.0
  0
MTEXT
  5
460
330
41C
100
AcDbEntity
  8
CONTINUOUS
100
AcDbMText
 10
269.000775146485
 20
17.4468976593018
 30
0.0
 40
2.251496730059653
 41
0.0
 46
0.0
 71
     4
 72
     1
  1
{\fMonotype Corsiva|b0|i1|c0|p0;\C7;Scale }{\fArial|b0|i0|c0|p0;\C7;\H0.7692308x;}
 73
     1
 44
1.0
  0
MTEXT
  5
461
330
41C
100
AcDbEntity
  8
CONTINUOUS
100
AcDbMText
 10
244.748741149902
 20
7.15205116271974
 30
0.0
 40
1.969863467854299
 41
0.0
 46
0.0
 71
     4
 72
     1
  1
{\fArial|b0|i0|c0|p0;\C7;}
 73
     1
 44
1.0
  0
MTEXT
  5
462
330
41C
100
AcDbEntity
  8
CONTINUOUS
100
AcDbMText
 10
77.9621860149715
 20
204.250404272846
 30
0.0
 40
3.720853217058121
 41
0.0
 46
0.0
 71
     4
 72
     1
  1
{\fArial|b0|i0|c0|p0;\C7;2}{\fArial|b0|i0|c0|p0;\C7;}
 73
     1
 44
1.0
  0
MTEXT
  5
463
330
41C
100
AcDbEntity
  8
CONTINUOUS
100
AcDbMText
 10
121.245655822681
 20
204.355103698803
 30
0.0
 40
3.720853217058121
 41
0.0
 46
0.0
 71
     4
 72
     1
  1
{\fArial|b0|i0|c0|p0;\C7;3}{\fArial|b0|i0|c0|p0;\C7;}
 73
     1
 44
1.0
  0
MTEXT
  5
464
330
41C
100
AcDbEntity
  8
CONTINUOUS
100
AcDbMText
 10
216.858890991211
 20
204.29698022461
 30
0.0
 40
3.720853217058121
 41
0.0
 46
0.0
 71
     4
 72
     1
  1
{\fArial|b0|i0|c0|p0;\C7;5}{\fArial|b0|i0|c0|p0;\C7;}
 73
     1
 44
1.0
  0
MTEXT
  5
465
330
41C
100
AcDbEntity
  8
CONTINUOUS
100
AcDbMText
 10
288.920463256836
 20
33.4667418823242
 30
0.0
 40
3.720853217058121
 41
0.0
 46
0.0
 71
     4
 72
     1
  1
{\fArial|b0|i0|c0|p0;\C7;D}{\fArial|b0|i0|c0|p0;\C7;}
 73
     1
 44
1.0
  0
MTEXT
  5
466
330
41C
100
AcDbEntity
  8
CONTINUOUS
100
AcDbMText
 10
5.33690040588379
 20
33.886
 30
0.0
 40
3.720853217058121
 41
0.0
 46
0.0
 71
     4
 72
     1
  1
{\fArial|b0|i0|c0|p0;\C7;D}{\fArial|b0|i0|c0|p0;\C7;}
 73
     1
 44
1.0
  0
ENDBLK
  5
41E
330
41C
100
AcDbEntity
  8
0
100
AcDbBlockEnd
  0
ENDSEC
  0
SECTION
  2
ENTITIES
  0
CIRCLE
  5
6F
330
1F
100
AcDbEntity
  8
VISIBLE
100
AcDbCircle
 10
91.13991690820649
 20
136.2326044452176
 30
0.0
 40
1.900000000000006
  0
CIRCLE
  5
70
330
1F
100
AcDbEntity
  8
VISIBLE
100
AcDbCircle
 10
99.04620450735092
 20
145.6549510955811
 30
0.0
 40
22.75
  0
CIRCLE
  5
71
330
1F
100
AcDbEntity
  8
VISIBLE
100
AcDbCircle
 10
117.5160662993505
 20
136.7603344436711
 30
0.0
 40
1.900000000000006
  0
CIRCLE
  5
72
330
1F
100
AcDbEntity
  8
VISIBLE
100
AcDbCircle
 10
99.04620450735092
 20
153.854951095581
 30
0.0
 40
1.400000000000006
  0
CIRCLE
  5
73
330
1F
100
AcDbEntity
  8
VISIBLE
100
AcDbCircle
 10
113.964169231165
 20
152.467757308812
 30
0.0
 40
1.899999999999991
  0
CIRCLE
  5
74
330
1F
100
AcDbEntity
  8
VISIBLE
100
AcDbCircle
 10
107.2462045073509
 20
145.6549510955811
 30
0.0
 40
1.899999999999991
  0
CIRCLE
  5
75
330
1F
100
AcDbEntity
  8
VISIBLE
100
AcDbCircle
 10
117.5160662993505
 20
154.549567747491
 30
0.0
 40
1.900000000000006
  0
CIRCLE
  5
76
330
1F
100
AcDbEntity
  8
VISIBLE
100
AcDbCircle
 10
107.9127139136227
 20
159.4515090340124
 30
0.0
 40
1.900000000000006
  0
CIRCLE
  5
77
330
1F
100
AcDbEntity
  8
VISIBLE
100
AcDbCircle
 10
90.15158785544098
 20
127.1850893035815
 30
0.0
 40
1.899999999999991
  0
CIRCLE
  5
78
330
1F
100
AcDbEntity
  8
VISIBLE
100
AcDbCircle
 10
106.1476128183833
 20
149.754951095581
 30
0.0
 40
1.900000000000006
  0
CIRCLE
  5
79
330
1F
100
AcDbEntity
  8
VISIBLE
100
AcDbCircle
 10
78.54620450735092
 20
145.6549510955811
 30
0.0
 40
1.900000000000006
  0
CIRCLE
  5
7A
330
1F
100
AcDbEntity
  8
VISIBLE
100
AcDbCircle
 10
107.9127139136227
 20
131.8583931571497
 30
0.0
 40
1.900000000000006
  0
CIRCLE
  5
7B
330
1F
100
AcDbEntity
  8
VISIBLE
100
AcDbCircle
 10
119.0322267070783
 20
141.0932719494766
 30
0.0
 40
1.400000000000006
  0
CIRCLE
  5
7C
330
1F
100
AcDbEntity
  8
VISIBLE
100
AcDbCircle
 10
86.65191148794109
 20
156.3946671322837
 30
0.0
 40
1.399999999999991
  0
CIRCLE
  5
7D
330
1F
100
AcDbEntity
  8
VISIBLE
100
AcDbCircle
 10
109.6983169738995
 20
139.504951095581
 30
0.0
 40
1.900000000000006
  0
CIRCLE
  5
7E
330
1F
100
AcDbEntity
  8
VISIBLE
100
AcDbCircle
 10
99.04620450735092
 20
145.6549510955811
 30
0.0
 40
1.900000000000006
  0
CIRCLE
  5
7F
330
1F
100
AcDbEntity
  8
VISIBLE
100
AcDbCircle
 10
106.9524921064954
 20
136.2326044452176
 30
0.0
 40
1.900000000000006
  0
CIRCLE
  5
80
330
1F
100
AcDbEntity
  8
VISIBLE
100
AcDbCircle
 10
90.15158785544098
 20
164.1248128875806
 30
0.0
 40
1.400000000000006
  0
CIRCLE
  5
81
330
1F
100
AcDbEntity
  8
VISIBLE
100
AcDbCircle
 10
94.42579057515147
 20
161.3906358628588
 30
0.0
 40
1.400000000000006
  0
CIRCLE
  5
82
330
1F
100
AcDbEntity
  8
VISIBLE
100
AcDbCircle
 10
79.06018230762353
 20
141.0932719494766
 30
0.0
 40
1.400000000000006
  0
CIRCLE
  5
83
330
1F
100
AcDbEntity
  8
VISIBLE
100
AcDbCircle
 10
103.6666184395504
 20
129.9192663283033
 30
0.0
 40
1.900000000000006
  0
CIRCLE
  5
84
330
1F
100
AcDbEntity
  8
VISIBLE
100
AcDbCircle
 10
86.65191148794108
 20
134.9152350588784
 30
0.0
 40
1.900000000000006
  0
CIRCLE
  5
85
330
1F
100
AcDbEntity
  8
VISIBLE
100
AcDbCircle
 10
86.93306914530076
 20
147.7908236808843
 30
0.0
 40
1.900000000000006
  0
CIRCLE
  5
86
330
1F
100
AcDbEntity
  8
VISIBLE
100
AcDbCircle
 10
95.49550035183472
 20
143.604951095581
 30
0.0
 40
1.900000000000006
  0
CIRCLE
  5
87
330
1F
100
AcDbEntity
  8
VISIBLE
100
AcDbCircle
 10
95.49550035183472
 20
147.7049510955811
 30
0.0
 40
1.900000000000006
  0
CIRCLE
  5
88
330
1F
100
AcDbEntity
  8
VISIBLE
100
AcDbCircle
 10
113.964169231165
 20
152.467757308812
 30
0.0
 40
1.399999999999991
  0
CIRCLE
  5
89
330
1F
100
AcDbEntity
  8
VISIBLE
100
AcDbCircle
 10
82.81313286050363
 20
143.3209877478992
 30
0.0
 40
1.399999999999991
  0
CIRCLE
  5
8A
330
1F
100
AcDbEntity
  8
VISIBLE
100
AcDbCircle
 10
84.12823978353683
 20
152.467757308812
 30
0.0
 40
1.399999999999991
  0
CIRCLE
  5
8B
330
1F
100
AcDbEntity
  8
VISIBLE
100
AcDbCircle
 10
111.4404975267608
 20
156.3946671322837
 30
0.0
 40
1.900000000000006
  0
CIRCLE
  5
8C
330
1F
100
AcDbEntity
  8
VISIBLE
100
AcDbCircle
 10
106.1476128183833
 20
141.5549510955811
 30
0.0
 40
1.399999999999991
  0
CIRCLE
  5
8D
330
1F
100
AcDbEntity
  8
VISIBLE
100
AcDbCircle
 10
111.1593398694011
 20
147.7908236808843
 30
0.0
 40
1.900000000000006
  0
CIRCLE
  5
8E
330
1F
100
AcDbEntity
  8
VISIBLE
100
AcDbCircle
 10
80.57634271535133
 20
136.7603344436711
 30
0.0
 40
1.900000000000006
  0
CIRCLE
  5
8F
330
1F
100
AcDbEntity
  8
VISIBLE
100
AcDbCircle
 10
82.81313286050363
 20
147.9889144432629
 30
0.0
 40
1.899999999999991
  0
CIRCLE
  5
90
330
1F
100
AcDbEntity
  8
VISIBLE
100
AcDbCircle
 10
90.15158785544098
 20
164.1248128875806
 30
0.0
 40
1.900000000000006
  0
CIRCLE
  5
91
330
1F
100
AcDbEntity
  8
VISIBLE
100
AcDbCircle
 10
90.84620450735092
 20
145.6549510955811
 30
0.0
 40
1.400000000000006
  0
CIRCLE
  5
92
330
1F
100
AcDbEntity
  8
VISIBLE
100
AcDbCircle
 10
94.94620450735091
 20
138.5535427845487
 30
0.0
 40
1.400000000000006
  0
CIRCLE
  5
93
330
1F
100
AcDbEntity
  8
VISIBLE
100
AcDbCircle
 10
91.94479619631852
 20
141.5549510955811
 30
0.0
 40
1.900000000000006
  0
CIRCLE
  5
94
330
1F
100
AcDbEntity
  8
VISIBLE
100
AcDbCircle
 10
88.39409204080232
 20
151.8049510955811
 30
0.0
 40
1.400000000000006
  0
CIRCLE
  5
95
330
1F
100
AcDbEntity
  8
VISIBLE
100
AcDbCircle
 10
111.1593398694011
 20
147.7908236808843
 30
0.0
 40
1.400000000000006
  0
CIRCLE
  5
96
330
1F
100
AcDbEntity
  8
VISIBLE
100
AcDbCircle
 10
103.1462045073509
 20
138.5535427845487
 30
0.0
 40
1.900000000000006
  0
CIRCLE
  5
97
330
1F
100
AcDbEntity
  8
VISIBLE
100
AcDbCircle
 10
111.1593398694011
 20
143.5190785102778
 30
0.0
 40
1.900000000000006
  0
CIRCLE
  5
98
330
1F
100
AcDbEntity
  8
VISIBLE
100
AcDbCircle
 10
83.01865911675631
 20
132.873410157477
 30
0.0
 40
1.400000000000006
  0
CIRCLE
  5
99
330
1F
100
AcDbEntity
  8
VISIBLE
100
AcDbCircle
 10
103.6078836534554
 20
165.6409732953084
 30
0.0
 40
1.399999999999991
  0
CIRCLE
  5
9A
330
1F
100
AcDbEntity
  8
VISIBLE
100
AcDbCircle
 10
106.9524921064954
 20
155.0772977459445
 30
0.0
 40
1.900000000000006
  0
CIRCLE
  5
9B
330
1F
100
AcDbEntity
  8
VISIBLE
100
AcDbCircle
 10
115.0737498979455
 20
158.4364920336851
 30
0.0
 40
1.400000000000006
  0
CIRCLE
  5
9C
330
1F
100
AcDbEntity
  8
VISIBLE
100
AcDbCircle
 10
80.57634271535133
 20
136.7603344436711
 30
0.0
 40
1.400000000000006
  0
CIRCLE
  5
9D
330
1F
100
AcDbEntity
  8
VISIBLE
100
AcDbCircle
 10
103.1462045073509
 20
152.7563594066135
 30
0.0
 40
1.399999999999991
  0
CIRCLE
  5
9E
330
1F
100
AcDbEntity
  8
VISIBLE
100
AcDbCircle
 10
82.81313286050363
 20
143.3209877478992
 30
0.0
 40
1.899999999999991
  0
CIRCLE
  5
9F
330
1F
100
AcDbEntity
  8
VISIBLE
100
AcDbCircle
 10
99.04620450735092
 20
149.754951095581
 30
0.0
 40
1.400000000000006
  0
CIRCLE
  5
A0
330
1F
100
AcDbEntity
  8
VISIBLE
100
AcDbCircle
 10
99.04620450735092
 20
141.5549510955811
 30
0.0
 40
1.900000000000006
  0
CIRCLE
  5
A1
330
1F
100
AcDbEntity
  8
VISIBLE
100
AcDbCircle
 10
113.964169231165
 20
138.8421448823501
 30
0.0
 40
1.400000000000006
  0
CIRCLE
  5
A2
330
1F
100
AcDbEntity
  8
VISIBLE
100
AcDbCircle
 10
107.9408211592609
 20
164.1248128875806
 30
0.0
 40
1.900000000000006
  0
CIRCLE
  5
A3
330
1F
100
AcDbEntity
  8
VISIBLE
100
AcDbCircle
 10
107.9408211592609
 20
127.1850893035815
 30
0.0
 40
1.399999999999991
  0
CIRCLE
  5
A4
330
1F
100
AcDbEntity
  8
VISIBLE
100
AcDbCircle
 10
99.04620450735092
 20
133.354951095581
 30
0.0
 40
1.400000000000006
  0
CIRCLE
  5
A5
330
1F
100
AcDbEntity
  8
VISIBLE
100
AcDbCircle
 10
78.54620450735092
 20
145.6549510955811
 30
0.0
 40
1.400000000000006
  0
CIRCLE
  5
A6
330
1F
100
AcDbEntity
  8
VISIBLE
100
AcDbCircle
 10
115.2792761541982
 20
143.3209877478992
 30
0.0
 40
1.400000000000006
  0
CIRCLE
  5
A7
330
1F
100
AcDbEntity
  8
VISIBLE
100
AcDbCircle
 10
117.5160662993505
 20
136.7603344436711
 30
0.0
 40
1.400000000000006
  0
CIRCLE
  5
A8
330
1F
100
AcDbEntity
  8
VISIBLE
100
AcDbCircle
 10
91.13991690820649
 20
136.2326044452176
 30
0.0
 40
1.399999999999991
  0
CIRCLE
  5
A9
330
1F
100
AcDbEntity
  8
VISIBLE
100
AcDbCircle
 10
115.2792761541982
 20
147.9889144432629
 30
0.0
 40
1.900000000000006
  0
CIRCLE
  5
AA
330
1F
100
AcDbEntity
  8
VISIBLE
100
AcDbCircle
 10
119.5462045073509
 20
145.6549510955811
 30
0.0
 40
1.400000000000006
  0
CIRCLE
  5
AB
330
1F
100
AcDbEntity
  8
VISIBLE
100
AcDbCircle
 10
79.06018230762353
 20
150.2166302416855
 30
0.0
 40
1.400000000000006
  0
CIRCLE
  5
AC
330
1F
100
AcDbEntity
  8
VISIBLE
100
AcDbCircle
 10
99.04620450735092
 20
129.254951095581
 30
0.0
 40
1.399999999999991
  0
CIRCLE
  5
AD
330
1F
100
AcDbEntity
  8
VISIBLE
100
AcDbCircle
 10
119.0322267070783
 20
141.0932719494766
 30
0.0
 40
1.899999999999991
  0
CIRCLE
  5
AE
330
1F
100
AcDbEntity
  8
VISIBLE
100
AcDbCircle
 10
90.84620450735092
 20
145.6549510955811
 30
0.0
 40
1.900000000000006
  0
CIRCLE
  5
AF
330
1F
100
AcDbEntity
  8
VISIBLE
100
AcDbCircle
 10
103.6078836534554
 20
125.6689288958537
 30
0.0
 40
1.900000000000006
  0
CIRCLE
  5
B0
330
1F
100
AcDbEntity
  8
VISIBLE
100
AcDbCircle
 10
90.17969510107912
 20
131.8583931571497
 30
0.0
 40
1.900000000000006
  0
CIRCLE
  5
B1
330
1F
100
AcDbEntity
  8
VISIBLE
100
AcDbCircle
 10
99.04620450735092
 20
125.1549510955811
 30
0.0
 40
1.899999999999991
  0
CIRCLE
  5
B2
330
1F
100
AcDbEntity
  8
VISIBLE
100
AcDbCircle
 10
94.94620450735093
 20
152.7563594066135
 30
0.0
 40
1.399999999999991
  0
CIRCLE
  5
B3
330
1F
100
AcDbEntity
  8
VISIBLE
100
AcDbCircle
 10
103.2530522702567
 20
157.2131703312477
 30
0.0
 40
1.899999999999991
  0
CIRCLE
  5
B4
330
1F
100
AcDbEntity
  8
VISIBLE
100
AcDbCircle
 10
83.01865911675631
 20
158.4364920336851
 30
0.0
 40
1.400000000000006
  0
CIRCLE
  5
B5
330
1F
100
AcDbEntity
  8
VISIBLE
100
AcDbCircle
 10
82.81313286050363
 20
147.9889144432629
 30
0.0
 40
1.399999999999991
  0
CIRCLE
  5
B6
330
1F
100
AcDbEntity
  8
VISIBLE
100
AcDbCircle
 10
88.39409204080232
 20
139.504951095581
 30
0.0
 40
1.900000000000006
  0
CIRCLE
  5
B7
330
1F
100
AcDbEntity
  8
VISIBLE
100
AcDbCircle
 10
86.65191148794109
 20
156.3946671322837
 30
0.0
 40
1.899999999999991
  0
CIRCLE
  5
B8
330
1F
100
AcDbEntity
  8
VISIBLE
100
AcDbCircle
 10
119.0322267070783
 20
150.2166302416855
 30
0.0
 40
1.899999999999991
  0
CIRCLE
  5
B9
330
1F
100
AcDbEntity
  8
VISIBLE
100
AcDbCircle
 10
99.04620450735092
 20
137.4549510955811
 30
0.0
 40
1.900000000000006
  0
CIRCLE
  5
BA
330
1F
100
AcDbEntity
  8
VISIBLE
100
AcDbCircle
 10
99.04620450735092
 20
145.6549510955811
 30
0.0
 40
1.400000000000006
  0
CIRCLE
  5
BB
330
1F
100
AcDbEntity
  8
VISIBLE
100
AcDbCircle
 10
115.2792761541982
 20
147.9889144432629
 30
0.0
 40
1.400000000000006
  0
CIRCLE
  5
BC
330
1F
100
AcDbEntity
  8
VISIBLE
100
AcDbCircle
 10
102.5969086628671
 20
143.604951095581
 30
0.0
 40
1.399999999999991
  0
CIRCLE
  5
BD
330
1F
100
AcDbEntity
  8
VISIBLE
100
AcDbCircle
 10
99.04620450735092
 20
129.254951095581
 30
0.0
 40
1.899999999999991
  0
CIRCLE
  5
BE
330
1F
100
AcDbEntity
  8
VISIBLE
100
AcDbCircle
 10
94.8393567444452
 20
134.0967318599144
 30
0.0
 40
1.399999999999991
  0
CIRCLE
  5
BF
330
1F
100
AcDbEntity
  8
VISIBLE
100
AcDbCircle
 10
113.964169231165
 20
138.8421448823501
 30
0.0
 40
1.900000000000006
  0
CIRCLE
  5
C0
330
1F
100
AcDbEntity
  8
VISIBLE
100
AcDbCircle
 10
99.04620450735092
 20
149.754951095581
 30
0.0
 40
1.900000000000006
  0
CIRCLE
  5
C1
330
1F
100
AcDbEntity
  8
VISIBLE
100
AcDbCircle
 10
90.15158785544098
 20
127.1850893035815
 30
0.0
 40
1.399999999999991
  0
CIRCLE
  5
C2
330
1F
100
AcDbEntity
  8
VISIBLE
100
AcDbCircle
 10
94.8393567444452
 20
157.2131703312477
 30
0.0
 40
1.400000000000006
  0
CIRCLE
  5
C3
330
1F
100
AcDbEntity
  8
VISIBLE
100
AcDbCircle
 10
103.1462045073509
 20
152.7563594066135
 30
0.0
 40
1.899999999999991
  0
CIRCLE
  5
C4
330
1F
100
AcDbEntity
  8
VISIBLE
100
AcDbCircle
 10
107.9408211592609
 20
164.1248128875806
 30
0.0
 40
1.400000000000006
  0
CIRCLE
  5
C5
330
1F
100
AcDbEntity
  8
VISIBLE
100
AcDbCircle
 10
80.57634271535133
 20
154.549567747491
 30
0.0
 40
1.900000000000006
  0
CIRCLE
  5
C6
330
1F
100
AcDbEntity
  8
VISIBLE
100
AcDbCircle
 10
91.13991690820649
 20
155.0772977459445
 30
0.0
 40
1.900000000000006
  0
CIRCLE
  5
C7
330
1F
100
AcDbEntity
  8
VISIBLE
100
AcDbCircle
 10
109.6983169738995
 20
151.8049510955811
 30
0.0
 40
1.399999999999991
  0
CIRCLE
  5
C8
330
1F
100
AcDbEntity
  8
VISIBLE
100
AcDbCircle
 10
79.06018230762353
 20
141.0932719494766
 30
0.0
 40
1.900000000000006
  0
CIRCLE
  5
C9
330
1F
100
AcDbEntity
  8
VISIBLE
100
AcDbCircle
 10
115.0737498979455
 20
132.873410157477
 30
0.0
 40
1.900000000000006
  0
CIRCLE
  5
CA
330
1F
100
AcDbEntity
  8
VISIBLE
100
AcDbCircle
 10
84.12823978353683
 20
138.8421448823501
 30
0.0
 40
1.899999999999991
  0
CIRCLE
  5
CB
330
1F
100
AcDbEntity
  8
VISIBLE
100
AcDbCircle
 10
99.04620450735092
 20
145.6549510955811
 30
0.0
 40
31.69999999999999
  0
CIRCLE
  5
CC
330
1F
100
AcDbEntity
  8
VISIBLE
100
AcDbCircle
 10
84.12823978353683
 20
138.8421448823501
 30
0.0
 40
1.399999999999991
  0
CIRCLE
  5
CD
330
1F
100
AcDbEntity
  8
VISIBLE
100
AcDbCircle
 10
102.5969086628671
 20
143.604951095581
 30
0.0
 40
1.899999999999991
  0
CIRCLE
  5
CE
330
1F
100
AcDbEntity
  8
VISIBLE
100
AcDbCircle
 10
86.26466356924689
 20
161.6824964861757
 30
0.0
 40
1.399999999999991
  0
CIRCLE
  5
CF
330
1F
100
AcDbEntity
  8
VISIBLE
100
AcDbCircle
 10
86.26466356924689
 20
161.6824964861757
 30
0.0
 40
1.899999999999991
  0
CIRCLE
  5
D0
330
1F
100
AcDbEntity
  8
VISIBLE
100
AcDbCircle
 10
86.93306914530076
 20
143.5190785102778
 30
0.0
 40
1.900000000000006
  0
CIRCLE
  5
D1
330
1F
100
AcDbEntity
  8
VISIBLE
100
AcDbCircle
 10
106.9524921064954
 20
136.2326044452176
 30
0.0
 40
1.400000000000006
  0
CIRCLE
  5
D2
330
1F
100
AcDbEntity
  8
VISIBLE
100
AcDbCircle
 10
103.2530522702566
 20
134.0967318599144
 30
0.0
 40
1.400000000000006
  0
CIRCLE
  5
D3
330
1F
100
AcDbEntity
  8
VISIBLE
100
AcDbCircle
 10
99.04620450735092
 20
153.854951095581
 30
0.0
 40
1.900000000000006
  0
CIRCLE
  5
D4
330
1F
100
AcDbEntity
  8
VISIBLE
100
AcDbCircle
 10
107.9127139136227
 20
159.4515090340124
 30
0.0
 40
1.399999999999991
  0
CIRCLE
  5
D5
330
1F
100
AcDbEntity
  8
VISIBLE
100
AcDbCircle
 10
95.49550035183472
 20
147.7049510955811
 30
0.0
 40
1.400000000000006
  0
CIRCLE
  5
D6
330
1F
100
AcDbEntity
  8
VISIBLE
100
AcDbCircle
 10
99.04620450735092
 20
157.9549510955811
 30
0.0
 40
1.900000000000006
  0
CIRCLE
  5
D7
330
1F
100
AcDbEntity
  8
VISIBLE
100
AcDbCircle
 10
94.94620450735093
 20
152.7563594066135
 30
0.0
 40
1.899999999999991
  0
CIRCLE
  5
D8
330
1F
100
AcDbEntity
  8
VISIBLE
100
AcDbCircle
 10
90.17969510107912
 20
159.4515090340124
 30
0.0
 40
1.900000000000006
  0
CIRCLE
  5
D9
330
1F
100
AcDbEntity
  8
VISIBLE
100
AcDbCircle
 10
99.04620450735092
 20
157.9549510955811
 30
0.0
 40
1.400000000000006
  0
CIRCLE
  5
DA
330
1F
100
AcDbEntity
  8
VISIBLE
100
AcDbCircle
 10
99.04620450735092
 20
125.1549510955811
 30
0.0
 40
1.399999999999991
  0
CIRCLE
  5
DB
330
1F
100
AcDbEntity
  8
VISIBLE
100
AcDbCircle
 10
94.42579057515147
 20
129.9192663283033
 30
0.0
 40
1.400000000000006
  0
CIRCLE
  5
DC
330
1F
100
AcDbEntity
  8
VISIBLE
100
AcDbCircle
 10
94.48452536124647
 20
125.6689288958537
 30
0.0
 40
1.900000000000006
  0
CIRCLE
  5
DD
330
1F
100
AcDbEntity
  8
VISIBLE
100
AcDbCircle
 10
99.04620450735092
 20
162.0549510955811
 30
0.0
 40
1.900000000000006
  0
CIRCLE
  5
DE
330
1F
100
AcDbEntity
  8
VISIBLE
100
AcDbCircle
 10
109.6983169738995
 20
139.504951095581
 30
0.0
 40
1.400000000000006
  0
CIRCLE
  5
DF
330
1F
100
AcDbEntity
  8
VISIBLE
100
AcDbCircle
 10
99.04620450735092
 20
166.1549510955811
 30
0.0
 40
1.400000000000006
  0
CIRCLE
  5
E0
330
1F
100
AcDbEntity
  8
VISIBLE
100
AcDbCircle
 10
86.93306914530076
 20
143.5190785102778
 30
0.0
 40
1.399999999999991
  0
CIRCLE
  5
E1
330
1F
100
AcDbEntity
  8
VISIBLE
100
AcDbCircle
 10
90.17969510107912
 20
131.8583931571497
 30
0.0
 40
1.400000000000006
  0
CIRCLE
  5
E2
330
1F
100
AcDbEntity
  8
VISIBLE
100
AcDbCircle
 10
83.01865911675631
 20
158.4364920336851
 30
0.0
 40
1.900000000000006
  0
CIRCLE
  5
E3
330
1F
100
AcDbEntity
  8
VISIBLE
100
AcDbCircle
 10
86.65191148794108
 20
134.9152350588784
 30
0.0
 40
1.400000000000006
  0
CIRCLE
  5
E4
330
1F
100
AcDbEntity
  8
VISIBLE
100
AcDbCircle
 10
119.0322267070783
 20
150.2166302416855
 30
0.0
 40
1.400000000000006
  0
CIRCLE
  5
E5
330
1F
100
AcDbEntity
  8
VISIBLE
100
AcDbCircle
 10
103.6666184395504
 20
161.3906358628588
 30
0.0
 40
1.899999999999991
  0
CIRCLE
  5
E6
330
1F
100
AcDbEntity
  8
VISIBLE
100
AcDbCircle
 10
95.49550035183472
 20
143.604951095581
 30
0.0
 40
1.400000000000006
  0
CIRCLE
  5
E7
330
1F
100
AcDbEntity
  8
VISIBLE
100
AcDbCircle
 10
111.4404975267608
 20
134.9152350588784
 30
0.0
 40
1.900000000000006
  0
CIRCLE
  5
E8
330
1F
100
AcDbEntity
  8
VISIBLE
100
AcDbCircle
 10
86.93306914530076
 20
147.7908236808843
 30
0.0
 40
1.399999999999991
  0
CIRCLE
  5
E9
330
1F
100
AcDbEntity
  8
VISIBLE
100
AcDbCircle
 10
103.6078836534554
 20
125.6689288958537
 30
0.0
 40
1.400000000000006
  0
CIRCLE
  5
EA
330
1F
100
AcDbEntity
  8
VISIBLE
100
AcDbCircle
 10
107.2462045073509
 20
145.6549510955811
 30
0.0
 40
1.399999999999991
  0
CIRCLE
  5
EB
330
1F
100
AcDbEntity
  8
VISIBLE
100
AcDbCircle
 10
90.17969510107912
 20
159.4515090340124
 30
0.0
 40
1.400000000000006
  0
CIRCLE
  5
EC
330
1F
100
AcDbEntity
  8
VISIBLE
100
AcDbCircle
 10
103.1462045073509
 20
138.5535427845487
 30
0.0
 40
1.400000000000006
  0
CIRCLE
  5
ED
330
1F
100
AcDbEntity
  8
VISIBLE
100
AcDbCircle
 10
99.04620450735092
 20
141.5549510955811
 30
0.0
 40
1.400000000000006
  0
CIRCLE
  5
EE
330
1F
100
AcDbEntity
  8
VISIBLE
100
AcDbCircle
 10
111.827745445455
 20
161.6824964861757
 30
0.0
 40
1.399999999999991
  0
CIRCLE
  5
EF
330
1F
100
AcDbEntity
  8
VISIBLE
100
AcDbCircle
 10
99.04620450735092
 20
145.6549510955811
 30
0.0
 40
31.44999999999999
  0
CIRCLE
  5
F0
330
1F
100
AcDbEntity
  8
VISIBLE
100
AcDbCircle
 10
111.827745445455
 20
129.6274057049864
 30
0.0
 40
1.900000000000006
  0
CIRCLE
  5
F1
330
1F
100
AcDbEntity
  8
VISIBLE
100
AcDbCircle
 10
99.04620450735092
 20
145.6549510955811
 30
0.0
 40
22.5
  0
CIRCLE
  5
F2
330
1F
100
AcDbEntity
  8
VISIBLE
100
AcDbCircle
 10
111.4404975267608
 20
156.3946671322837
 30
0.0
 40
1.400000000000006
  0
CIRCLE
  5
F3
330
1F
100
AcDbEntity
  8
VISIBLE
100
AcDbCircle
 10
106.1476128183833
 20
141.5549510955811
 30
0.0
 40
1.899999999999991
  0
CIRCLE
  5
F4
330
1F
100
AcDbEntity
  8
VISIBLE
100
AcDbCircle
 10
88.39409204080232
 20
139.504951095581
 30
0.0
 40
1.400000000000006
  0
CIRCLE
  5
F5
330
1F
100
AcDbEntity
  8
VISIBLE
100
AcDbCircle
 10
86.26466356924689
 20
129.6274057049864
 30
0.0
 40
1.899999999999991
  0
CIRCLE
  5
F6
330
1F
100
AcDbEntity
  8
VISIBLE
100
AcDbCircle
 10
91.94479619631852
 20
149.754951095581
 30
0.0
 40
1.900000000000006
  0
CIRCLE
  5
F7
330
1F
100
AcDbEntity
  8
VISIBLE
100
AcDbCircle
 10
88.39409204080232
 20
151.8049510955811
 30
0.0
 40
1.900000000000006
  0
CIRCLE
  5
F8
330
1F
100
AcDbEntity
  8
VISIBLE
100
AcDbCircle
 10
99.04620450735092
 20
162.0549510955811
 30
0.0
 40
1.400000000000006
  0
CIRCLE
  5
F9
330
1F
100
AcDbEntity
  8
VISIBLE
100
AcDbCircle
 10
107.9127139136227
 20
131.8583931571497
 30
0.0
 40
1.399999999999991
  0
CIRCLE
  5
FA
330
1F
100
AcDbEntity
  8
VISIBLE
100
AcDbCircle
 10
99.04620450735092
 20
133.354951095581
 30
0.0
 40
1.900000000000006
  0
CIRCLE
  5
FB
330
1F
100
AcDbEntity
  8
VISIBLE
100
AcDbCircle
 10
80.57634271535133
 20
154.549567747491
 30
0.0
 40
1.400000000000006
  0
CIRCLE
  5
FC
330
1F
100
AcDbEntity
  8
VISIBLE
100
AcDbCircle
 10
99.04620450735092
 20
137.4549510955811
 30
0.0
 40
1.400000000000006
  0
CIRCLE
  5
FD
330
1F
100
AcDbEntity
  8
VISIBLE
100
AcDbCircle
 10
119.5462045073509
 20
145.6549510955811
 30
0.0
 40
1.900000000000006
  0
CIRCLE
  5
FE
330
1F
100
AcDbEntity
  8
VISIBLE
100
AcDbCircle
 10
111.827745445455
 20
129.6274057049864
 30
0.0
 40
1.400000000000006
  0
CIRCLE
  5
FF
330
1F
100
AcDbEntity
  8
VISIBLE
100
AcDbCircle
 10
84.12823978353683
 20
152.467757308812
 30
0.0
 40
1.899999999999991
  0
CIRCLE
  5
100
330
1F
100
AcDbEntity
  8
VISIBLE
100
AcDbCircle
 10
94.8393567444452
 20
157.2131703312477
 30
0.0
 40
1.900000000000006
  0
CIRCLE
  5
101
330
1F
100
AcDbEntity
  8
VISIBLE
100
AcDbCircle
 10
103.6666184395504
 20
161.3906358628588
 30
0.0
 40
1.399999999999991
  0
CIRCLE
  5
102
330
1F
100
AcDbEntity
  8
VISIBLE
100
AcDbCircle
 10
111.827745445455
 20
161.6824964861757
 30
0.0
 40
1.899999999999991
  0
CIRCLE
  5
103
330
1F
100
AcDbEntity
  8
VISIBLE
100
AcDbCircle
 10
99.04620450735092
 20
166.1549510955811
 30
0.0
 40
1.900000000000006
  0
CIRCLE
  5
104
330
1F
100
AcDbEntity
  8
VISIBLE
100
AcDbCircle
 10
111.4404975267608
 20
134.9152350588784
 30
0.0
 40
1.400000000000006
  0
CIRCLE
  5
105
330
1F
100
AcDbEntity
  8
VISIBLE
100
AcDbCircle
 10
109.6983169738995
 20
151.8049510955811
 30
0.0
 40
1.899999999999991
  0
CIRCLE
  5
106
330
1F
100
AcDbEntity
  8
VISIBLE
100
AcDbCircle
 10
94.42579057515147
 20
129.9192663283033
 30
0.0
 40
1.900000000000006
  0
CIRCLE
  5
107
330
1F
100
AcDbEntity
  8
VISIBLE
100
AcDbCircle
 10
103.2530522702566
 20
134.0967318599144
 30
0.0
 40
1.900000000000006
  0
CIRCLE
  5
108
330
1F
100
AcDbEntity
  8
VISIBLE
100
AcDbCircle
 10
94.42579057515147
 20
161.3906358628588
 30
0.0
 40
1.900000000000006
  0
CIRCLE
  5
109
330
1F
100
AcDbEntity
  8
VISIBLE
100
AcDbCircle
 10
94.8393567444452
 20
134.0967318599144
 30
0.0
 40
1.899999999999991
  0
CIRCLE
  5
10A
330
1F
100
AcDbEntity
  8
VISIBLE
100
AcDbCircle
 10
94.94620450735091
 20
138.5535427845487
 30
0.0
 40
1.900000000000006
  0
CIRCLE
  5
10B
330
1F
100
AcDbEntity
  8
VISIBLE
100
AcDbCircle
 10
107.9408211592609
 20
127.1850893035815
 30
0.0
 40
1.899999999999991
  0
CIRCLE
  5
10C
330
1F
100
AcDbEntity
  8
VISIBLE
100
AcDbCircle
 10
115.2792761541982
 20
143.3209877478992
 30
0.0
 40
1.900000000000006
  0
CIRCLE
  5
10D
330
1F
100
AcDbEntity
  8
VISIBLE
100
AcDbCircle
 10
102.5969086628671
 20
147.7049510955811
 30
0.0
 40
1.400000000000006
  0
CIRCLE
  5
10E
330
1F
100
AcDbEntity
  8
VISIBLE
100
AcDbCircle
 10
106.9524921064954
 20
155.0772977459445
 30
0.0
 40
1.400000000000006
  0
CIRCLE
  5
10F
330
1F
100
AcDbEntity
  8
VISIBLE
100
AcDbCircle
 10
91.94479619631852
 20
149.754951095581
 30
0.0
 40
1.400000000000006
  0
CIRCLE
  5
110
330
1F
100
AcDbEntity
  8
VISIBLE
100
AcDbCircle
 10
94.48452536124648
 20
165.6409732953084
 30
0.0
 40
1.899999999999991
  0
CIRCLE
  5
111
330
1F
100
AcDbEntity
  8
VISIBLE
100
AcDbCircle
 10
86.26466356924689
 20
129.6274057049864
 30
0.0
 40
1.399999999999991
  0
CIRCLE
  5
112
330
1F
100
AcDbEntity
  8
VISIBLE
100
AcDbCircle
 10
94.48452536124648
 20
165.6409732953084
 30
0.0
 40
1.399999999999991
  0
CIRCLE
  5
113
330
1F
100
AcDbEntity
  8
VISIBLE
100
AcDbCircle
 10
79.06018230762353
 20
150.2166302416855
 30
0.0
 40
1.900000000000006
  0
CIRCLE
  5
114
330
1F
100
AcDbEntity
  8
VISIBLE
100
AcDbCircle
 10
83.01865911675631
 20
132.873410157477
 30
0.0
 40
1.900000000000006
  0
CIRCLE
  5
115
330
1F
100
AcDbEntity
  8
VISIBLE
100
AcDbCircle
 10
106.1476128183833
 20
149.754951095581
 30
0.0
 40
1.400000000000006
  0
CIRCLE
  5
116
330
1F
100
AcDbEntity
  8
VISIBLE
100
AcDbCircle
 10
111.1593398694011
 20
143.5190785102778
 30
0.0
 40
1.400000000000006
  0
CIRCLE
  5
117
330
1F
100
AcDbEntity
  8
VISIBLE
100
AcDbCircle
 10
91.13991690820649
 20
155.0772977459445
 30
0.0
 40
1.400000000000006
  0
CIRCLE
  5
118
330
1F
100
AcDbEntity
  8
VISIBLE
100
AcDbCircle
 10
115.0737498979455
 20
132.873410157477
 30
0.0
 40
1.400000000000006
  0
CIRCLE
  5
119
330
1F
100
AcDbEntity
  8
VISIBLE
100
AcDbCircle
 10
103.2530522702567
 20
157.2131703312477
 30
0.0
 40
1.399999999999991
  0
CIRCLE
  5
11A
330
1F
100
AcDbEntity
  8
VISIBLE
100
AcDbCircle
 10
117.5160662993505
 20
154.549567747491
 30
0.0
 40
1.400000000000006
  0
CIRCLE
  5
11B
330
1F
100
AcDbEntity
  8
VISIBLE
100
AcDbCircle
 10
94.48452536124647
 20
125.6689288958537
 30
0.0
 40
1.400000000000006
  0
CIRCLE
  5
11C
330
1F
100
AcDbEntity
  8
VISIBLE
100
AcDbCircle
 10
103.6078836534554
 20
165.6409732953084
 30
0.0
 40
1.899999999999991
  0
CIRCLE
  5
11D
330
1F
100
AcDbEntity
  8
VISIBLE
100
AcDbCircle
 10
91.94479619631852
 20
141.5549510955811
 30
0.0
 40
1.400000000000006
  0
CIRCLE
  5
11E
330
1F
100
AcDbEntity
  8
VISIBLE
100
AcDbCircle
 10
103.6666184395504
 20
129.9192663283033
 30
0.0
 40
1.400000000000006
  0
CIRCLE
  5
11F
330
1F
100
AcDbEntity
  8
VISIBLE
100
AcDbCircle
 10
102.5969086628671
 20
147.7049510955811
 30
0.0
 40
1.900000000000006
  0
CIRCLE
  5
120
330
1F
100
AcDbEntity
  8
VISIBLE
100
AcDbCircle
 10
115.0737498979455
 20
158.4364920336851
 30
0.0
 40
1.900000000000006
  0
DIMENSION
  5
122
330
1F
100
AcDbEntity
  8
DIMENSIONS
100
AcDbDimension
280
     0
  2
D1
 10
0.0
 20
0.0
 30
0.0
 11
190.7011238336563
 21
241.183500289917
 31
0.0
 70
    32
  1
<> +/- 0,1
 71
     5
 42
-1.0
 73
     0
 74
     0
 75
     0
  3
ISO-25
100
AcDbAlignedDimension
 13
130.7462045073509
 23
145.6549510955811
 33
0.0
 14
67.34620450735092
 24
145.6549510955811
 34
0.0
100
AcDbRotatedDimension
1001
ACAD
1000
DSTYLE
1002
{
1070
    76
1070
     0
1070
    75
1070
     0
1070
   282
1070
     0
1070
   281
1070
     0
1070
    77
1070
     1
1070
    79
1070
     0
1070
    78
1070
     0
1070
   272
1070
     2
1070
   271
1070
     2
1070
   179
1070
     2
1070
   140
1040
2.707850318471337
1070
    71
1070
     0
1070
    72
1070
     0
1070
    48
1040
0.002
1070
    47
1040
0.005
1002
}
  0
LINE
  5
135
330
1F
100
AcDbEntity
  8
CONTINUOUS
100
AcDbLine
 10
99.04620450735092
 20
186.4137268066406
 30
0.0
 11
99.04620450735092
 21
107.8992843627929
 31
0.0
  0
LWPOLYLINE
  5
136
330
1F
100
AcDbEntity
  8
CONTINUOUS
100
AcDbPolyline
 90
        4
 70
     0
 43
0.0
 10
99.04620450735092
 20
186.4137268066406
 10
91.78815450735092
 20
184.9016330566406
 10
91.78815450735092
 20
187.9258205566406
 10
99.04620450735092
 20
186.4137268066406
  0
LWPOLYLINE
  5
137
330
1F
100
AcDbEntity
  8
CONTINUOUS
100
AcDbPolyline
 90
        4
 70
     0
 43
0.0
 10
99.04620450735092
 20
107.8992843627929
 10
91.78815450735092
 20
106.3871906127929
 10
91.78815450735092
 20
109.4113781127929
 10
99.04620450735092
 20
107.8992843627929
  0
LINE
  5
138
330
1F
100
AcDbEntity
  8
CONTINUOUS
100
AcDbLine
 10
91.78815450735092
 20
186.4137268066406
 30
0.0
 11
84.75870450735093
 21
186.4137268066406
 31
0.0
  0
LINE
  5
139
330
1F
100
AcDbEntity
  8
CONTINUOUS
100
AcDbLine
 10
91.78815450735092
 20
107.8992843627929
 30
0.0
 11
84.75870450735093
 21
107.8992843627929
 31
0.0
  0
MTEXT
  5
13A
330
1F
100
AcDbEntity
  8
CONTINUOUS
100
AcDbMText
 10
77.00065450735093
 20
186.4137268066406
 30
0.0
 40
2.954795201781449
 41
0.0
 46
0.0
 71
     5
 72
     1
  1
{\fCE|b0|i0|c0|p0;\C7;A}{\fCE|b0|i0|c0|p0;\C7;}
 73
     1
 44
1.0
  0
MTEXT
  5
13B
330
1F
100
AcDbEntity
  8
CONTINUOUS
100
AcDbMText
 10
77.00065450735093
 20
107.8992843627929
 30
0.0
 40
2.954795201781449
 41
0.0
 46
0.0
 71
     5
 72
     1
  1
{\fCE|b0|i0|c0|p0;\C7;A}{\fCE|b0|i0|c0|p0;\C7;}
 73
     1
 44
1.0
  0
HATCH
  5
13C
330
1F
100
AcDbEntity
  8
0
 62
     7
100
AcDbHatch
 10
0.0
 20
0.0
 30
0.0
210
0.0
220
0.0
230
1.0
  2
PLNÁ, Plné vyplnění
 70
     0
 71
     0
 91
        2
 92
        0
 93
        3
 72
     1
 10
99.04620450735092
 20
186.4137268066406
 11
91.78815450735092
 21
184.9016330566406
 72
     1
 10
91.78815450735092
 20
184.9016330566406
 11
91.78815450735092
 21
187.9258205566406
 72
     1
 10
91.78815450735092
 20
187.9258205566406
 11
99.04620450735092
 21
186.4137268066406
 97
        0
 92
        0
 93
        3
 72
     1
 10
99.04620450735092
 20
107.8992843627929
 11
91.78815450735092
 21
106.3871906127929
 72
     1
 10
91.78815450735092
 20
106.3871906127929
 11
91.78815450735092
 21
109.4113781127929
 72
     1
 10
91.78815450735092
 20
109.4113781127929
 11
99.04620450735092
 21
107.8992843627929
 97
        0
 75
     0
 76
     0
 52
0.0
 41
1.0
 77
     0
 78
     1
 53
45.0
 43
0.0
 44
0.0
 45
0.0
 46
0.0
 79
     0
 98
        0
  0
MTEXT
  5
13D
330
1F
100
AcDbEntity
  8
CONTINUOUS
100
AcDbMText
 10
26.38519463406669
 20
184.1862623621029
 30
0.0
 40
2.188737186504777
 41
0.0
 46
0.0
 71
     1
 72
     1
  1
{\fAlibre Symbols|b0|i0|c0|p0;\C7;n}{\fCE|b0|i0|c0|p0;\C7;2,8}{\fCE|b0|i0|c0|p0;\C7;\P0,5x45}{\fAlibre Symbols|b0|i0|c0|p0;\C7;_}{\fCE|b0|i0|c0|p0;\C7;zrazenie obojstranne }{\fCE|b0|i0|c0|p0;\C7;}
 73
     1
 44
1.0
  0
LINE
  5
13E
330
1F
100
AcDbEntity
  8
CONTINUOUS
100
AcDbLine
 10
73.7167918562889
 20
179.7861907958984
 30
0.0
 11
68.55741685628891
 21
179.7861907958984
 31
0.0
  0
LINE
  5
13F
330
1F
100
AcDbEntity
  8
CONTINUOUS
100
AcDbLine
 10
84.67229930292048
 20
164.0033117182592
 30
0.0
 11
84.67229930292048
 21
164.0033117182592
 31
0.0
  0
LINE
  5
140
330
1F
100
AcDbEntity
  8
CONTINUOUS
100
AcDbLine
 10
84.67229930292048
 20
164.0033117182592
 30
0.0
 11
73.7167918562889
 21
179.7861907958984
 31
0.0
  0
LWPOLYLINE
  5
141
330
1F
100
AcDbEntity
  8
CONTINUOUS
100
AcDbPolyline
 90
        4
 70
     0
 43
0.0
 10
86.38297837972641
 20
161.5388488769531
 10
84.26155549603612
 20
163.7181985387915
 10
85.0830431098048
 20
164.2884248977268
 10
86.38297837972641
 20
161.5388488769531
  0
HATCH
  5
142
330
1F
100
AcDbEntity
  8
0
 62
     7
100
AcDbHatch
 10
0.0
 20
0.0
 30
0.0
210
0.0
220
0.0
230
1.0
  2
PLNÁ, Plné vyplnění
 70
     0
 71
     0
 91
        1
 92
        0
 93
        3
 72
     1
 10
85.0830431098048
 20
164.2884248977268
 11
86.38297837972641
 21
161.5388488769531
 72
     1
 10
86.38297837972641
 20
161.5388488769531
 11
84.26155549603612
 21
163.7181985387915
 72
     1
 10
84.26155549603612
 20
163.7181985387915
 11
85.0830431098048
 21
164.2884248977268
 97
        0
 75
     0
 76
     0
 52
0.0
 41
1.0
 77
     0
 78
     1
 53
45.0
 43
0.0
 44
0.0
 45
0.0
 46
0.0
 79
     0
 98
        0
  0
LINE
  5
143
330
1F
100
AcDbEntity
  8
VISIBLE
100
AcDbLine
 10
130.7462045073509
 20
33.80495262145996
 30
0.0
 11
67.34620450735092
 21
33.80495262145996
 31
0.0
  0
LINE
  5
144
330
1F
100
AcDbEntity
  8
VISIBLE
100
AcDbLine
 10
67.34620450735092
 20
50.30495262145996
 30
0.0
 11
130.7462045073509
 21
50.30495262145996
 31
0.0
  0
LINE
  5
145
330
1F
100
AcDbEntity
  8
VISIBLE
100
AcDbLine
 10
67.59620450735092
 20
33.55495262145996
 30
0.0
 11
130.4962045073509
 21
33.55495262145996
 31
0.0
  0
LINE
  5
146
330
1F
100
AcDbEntity
  8
VISIBLE
100
AcDbLine
 10
130.4962045073509
 20
50.55495262145996
 30
0.0
 11
67.59620450735092
 21
50.55495262145996
 31
0.0
  0
LINE
  5
147
330
1F
100
AcDbEntity
  8
VISIBLE
100
AcDbLine
 10
67.59620450735092
 20
33.55495262145996
 30
0.0
 11
67.34620450735092
 21
33.80495262145996
 31
0.0
  0
LINE
  5
148
330
1F
100
AcDbEntity
  8
VISIBLE
100
AcDbLine
 10
130.7462045073509
 20
50.30495262145996
 30
0.0
 11
130.7462045073509
 21
33.80495262145996
 31
0.0
  0
LINE
  5
149
330
1F
100
AcDbEntity
  8
VISIBLE
100
AcDbLine
 10
130.4962045073509
 20
33.55495262145996
 30
0.0
 11
130.7462045073509
 21
33.80495262145996
 31
0.0
  0
LINE
  5
14A
330
1F
100
AcDbEntity
  8
VISIBLE
100
AcDbLine
 10
130.4962045073509
 20
50.55495262145996
 30
0.0
 11
130.7462045073509
 21
50.30495262145996
 31
0.0
  0
LINE
  5
14B
330
1F
100
AcDbEntity
  8
VISIBLE
100
AcDbLine
 10
67.59620450735092
 20
50.55495262145996
 30
0.0
 11
67.34620450735092
 21
50.30495262145996
 31
0.0
  0
LINE
  5
14C
330
1F
100
AcDbEntity
  8
VISIBLE
100
AcDbLine
 10
67.34620450735092
 20
50.30495262145996
 30
0.0
 11
67.34620450735092
 21
33.80495262145996
 31
0.0
  0
ELLIPSE
  5
14D
330
1F
100
AcDbEntity
  8
VISIBLE
100
AcDbEllipse
 10
245.9817682221662
 20
87.47269498297129
 30
0.0
 11
0.9500000000000172
 21
-1.645448267190432
 31
0.0
210
0.0
220
0.0
230
1.0
 40
0.5773502691896364
 41
-3.054326190990096
 42
0.7853981633974323
  0
ELLIPSE
  5
14E
330
1F
100
AcDbEntity
  8
VISIBLE
100
AcDbEllipse
 10
245.9817682221662
 20
87.47269498297129
 30
0.0
 11
0.9500000000000172
 21
-1.645448267190432
 31
0.0
210
0.0
220
0.0
230
1.0
 40
0.5773502691896364
 41
0.7853981633974323
 42
2.356194490192345
  0
ELLIPSE
  5
14F
330
1F
100
AcDbEntity
  8
VISIBLE
100
AcDbEllipse
 10
245.9817682221662
 20
87.47269498297129
 30
0.0
 11
0.9500000000000172
 21
-1.645448267190432
 31
0.0
210
0.0
220
0.0
230
1.0
 40
0.5773502691896364
 41
-3.926990816987241
 42
-3.054326190990096
  0
ELLIPSE
  5
150
330
1F
100
AcDbEntity
  8
VISIBLE
100
AcDbEllipse
 10
245.9155035480399
 20
88.67229408733158
 30
0.0
 11
-11.375
 21
19.70207793609598
 31
0.0
210
0.0
220
0.0
230
1.0
 40
0.5773502691896245
 41
3.926990816987243
 42
5.497787143782136
  0
ELLIPSE
  5
151
330
1F
100
AcDbEntity
  8
VISIBLE
100
AcDbEllipse
 10
245.9155035480399
 20
88.67229408733158
 30
0.0
 11
-11.375
 21
19.70207793609598
 31
0.0
210
0.0
220
0.0
230
1.0
 40
0.5773502691896245
 41
-0.7853981633974497
 42
3.926990816987243
  0
ELLIPSE
  5
152
330
1F
100
AcDbEntity
  8
VISIBLE
100
AcDbEllipse
 10
251.9259111881256
 20
98.83767651988177
 30
0.0
 11
-0.7000000000000171
 21
1.212435565298208
 31
0.0
210
0.0
220
0.0
230
1.0
 40
0.5773502691896394
 41
3.141592653589754
 42
3.76135007397036
  0
ELLIPSE
  5
153
330
1F
100
AcDbEntity
  8
VISIBLE
100
AcDbEllipse
 10
251.9259111881256
 20
98.83767651988177
 30
0.0
 11
-0.7000000000000171
 21
1.212435565298208
 31
0.0
210
0.0
220
0.0
230
1.0
 40
0.5773502691896394
 41
0.0
 42
3.141592653589754
  0
ELLIPSE
  5
154
330
1F
100
AcDbEntity
  8
VISIBLE
100
AcDbEllipse
 10
251.9259111881256
 20
98.83767651988177
 30
0.0
 11
-0.7000000000000171
 21
1.212435565298208
 31
0.0
210
0.0
220
0.0
230
1.0
 40
0.5773502691896394
 41
-0.619757420380612
 42
0.0
  0
ELLIPSE
  5
155
330
1F
100
AcDbEntity
  8
VISIBLE
100
AcDbEllipse
 10
257.370633403262
 20
88.59064442923881
 30
0.0
 11
-0.9499999999999886
 21
1.645448267190432
 31
0.0
210
0.0
220
0.0
230
1.0
 40
0.5773502691896202
 41
2.356194490192346
 42
3.926990816987255
  0
ELLIPSE
  5
156
330
1F
100
AcDbEntity
  8
VISIBLE
100
AcDbEllipse
 10
257.370633403262
 20
88.59064442923881
 30
0.0
 11
-0.9499999999999886
 21
1.645448267190432
 31
0.0
210
0.0
220
0.0
230
1.0
 40
0.5773502691896202
 41
3.926990816987255
 42
5.497787143782139
  0
ELLIPSE
  5
157
330
1F
100
AcDbEntity
  8
VISIBLE
100
AcDbEllipse
 10
257.370633403262
 20
88.59064442923881
 30
0.0
 11
-0.9499999999999886
 21
1.645448267190432
 31
0.0
210
0.0
220
0.0
230
1.0
 40
0.5773502691896202
 41
-0.7853981633974473
 42
2.356194490192346
  0
ELLIPSE
  5
158
330
1F
100
AcDbEntity
  8
VISIBLE
100
AcDbEllipse
 10
245.282914046912
 20
80.48891345014081
 30
0.0
 11
0.9499999999999886
 21
-1.645448267190432
 31
0.0
210
0.0
220
0.0
230
1.0
 40
0.5773502691896202
 41
-2.804993440705157
 42
0.7853981633974607
  0
ELLIPSE
  5
159
330
1F
100
AcDbEntity
  8
VISIBLE
100
AcDbEllipse
 10
245.282914046912
 20
80.48891345014081
 30
0.0
 11
0.9499999999999886
 21
-1.645448267190432
 31
0.0
210
0.0
220
0.0
230
1.0
 40
0.5773502691896202
 41
0.7853981633974607
 42
2.356194490192346
  0
ELLIPSE
  5
15A
330
1F
100
AcDbEntity
  8
VISIBLE
100
AcDbEllipse
 10
245.282914046912
 20
80.48891345014081
 30
0.0
 11
0.9499999999999886
 21
-1.645448267190432
 31
0.0
210
0.0
220
0.0
230
1.0
 40
0.5773502691896202
 41
-3.92699081698724
 42
-2.804993440705157
  0
ELLIPSE
  5
15B
330
1F
100
AcDbEntity
  8
VISIBLE
100
AcDbEllipse
 10
256.5938117702378
 20
92.3867785899813
 30
0.0
 11
-0.9499999999999886
 21
1.645448267190432
 31
0.0
210
0.0
220
0.0
230
1.0
 40
0.5773502691896202
 41
2.879793265790656
 42
3.926990816987265
  0
ELLIPSE
  5
15C
330
1F
100
AcDbEntity
  8
VISIBLE
100
AcDbEllipse
 10
256.5938117702378
 20
92.3867785899813
 30
0.0
 11
-0.9499999999999886
 21
1.645448267190432
 31
0.0
210
0.0
220
0.0
230
1.0
 40
0.5773502691896202
 41
3.926990816987265
 42
5.497787143782139
  0
ELLIPSE
  5
15D
330
1F
100
AcDbEntity
  8
VISIBLE
100
AcDbEllipse
 10
256.5938117702378
 20
92.3867785899813
 30
0.0
 11
-0.9499999999999886
 21
1.645448267190432
 31
0.0
210
0.0
220
0.0
230
1.0
 40
0.5773502691896202
 41
-0.7853981633974473
 42
2.879793265790656
  0
ELLIPSE
  5
15E
330
1F
100
AcDbEntity
  8
VISIBLE
100
AcDbEllipse
 10
237.0766687832081
 20
100.3073703655517
 30
0.0
 11
0.9499999999999886
 21
-1.645448267190432
 31
0.0
210
0.0
220
0.0
230
1.0
 40
0.5773502691896202
 41
-3.92699081698724
 42
0.7853981633974514
  0
ELLIPSE
  5
15F
330
1F
100
AcDbEntity
  8
VISIBLE
100
AcDbEllipse
 10
237.0766687832081
 20
100.3073703655517
 30
0.0
 11
0.9499999999999886
 21
-1.645448267190432
 31
0.0
210
0.0
220
0.0
230
1.0
 40
0.5773502691896202
 41
0.7853981633974514
 42
2.356194490192346
  0
ELLIPSE
  5
160
330
1F
100
AcDbEntity
  8
VISIBLE
100
AcDbEllipse
 10
257.8419267241615
 20
77.05370071824977
 30
0.0
 11
0.9499999999999886
 21
-1.645448267190446
 31
0.0
210
0.0
220
0.0
230
1.0
 40
0.5773502691896164
 41
-1.784995825903286
 42
0.7853981633974485
  0
ELLIPSE
  5
161
330
1F
100
AcDbEntity
  8
VISIBLE
100
AcDbEllipse
 10
257.8419267241615
 20
77.05370071824977
 30
0.0
 11
0.9499999999999886
 21
-1.645448267190446
 31
0.0
210
0.0
220
0.0
230
1.0
 40
0.5773502691896164
 41
0.7853981633974485
 42
2.356194490192347
  0
ELLIPSE
  5
162
330
1F
100
AcDbEntity
  8
VISIBLE
100
AcDbEllipse
 10
257.8419267241615
 20
77.05370071824977
 30
0.0
 11
0.9499999999999886
 21
-1.645448267190446
 31
0.0
210
0.0
220
0.0
230
1.0
 40
0.5773502691896164
 41
-3.926990816987239
 42
-1.784995825903286
  0
ELLIPSE
  5
163
330
1F
100
AcDbEntity
  8
VISIBLE
100
AcDbEllipse
 10
243.1618225460878
 20
105.9712949170591
 30
0.0
 11
0.6999999999999886
 21
-1.212435565298222
 31
0.0
210
0.0
220
0.0
230
1.0
 40
0.5773502691896125
 41
0.0
 42
0.6197574203806191
  0
ELLIPSE
  5
164
330
1F
100
AcDbEntity
  8
VISIBLE
100
AcDbEllipse
 10
243.1618225460878
 20
105.9712949170591
 30
0.0
 11
0.6999999999999886
 21
-1.212435565298222
 31
0.0
210
0.0
220
0.0
230
1.0
 40
0.5773502691896125
 41
-3.141592653589785
 42
0.0
  0
ELLIPSE
  5
165
330
1F
100
AcDbEntity
  8
VISIBLE
100
AcDbEllipse
 10
243.1618225460878
 20
105.9712949170591
 30
0.0
 11
0.6999999999999886
 21
-1.212435565298222
 31
0.0
210
0.0
220
0.0
230
1.0
 40
0.5773502691896125
 41
-3.761350073970397
 42
-3.141592653589785
  0
ELLIPSE
  5
166
330
1F
100
AcDbEntity
  8
VISIBLE
100
AcDbEllipse
 10
259.1045387565906
 20
82.5681197340397
 30
0.0
 11
-0.9500000000000455
 21
1.645448267190432
 31
0.0
210
0.0
220
0.0
230
1.0
 40
0.5773502691896524
 41
1.832595714594042
 42
3.926990816987176
  0
ELLIPSE
  5
167
330
1F
100
AcDbEntity
  8
VISIBLE
100
AcDbEllipse
 10
259.1045387565906
 20
82.5681197340397
 30
0.0
 11
-0.9500000000000455
 21
1.645448267190432
 31
0.0
210
0.0
220
0.0
230
1.0
 40
0.5773502691896524
 41
3.926990816987176
 42
5.497787143782136
  0
ELLIPSE
  5
168
330
1F
100
AcDbEntity
  8
VISIBLE
100
AcDbEllipse
 10
259.1045387565906
 20
82.5681197340397
 30
0.0
 11
-0.9500000000000455
 21
1.645448267190432
 31
0.0
210
0.0
220
0.0
230
1.0
 40
0.5773502691896524
 41
-0.7853981633974497
 42
1.832595714594042
  0
ELLIPSE
  5
169
330
1F
100
AcDbEntity
  8
VISIBLE
100
AcDbEllipse
 10
251.5723577975323
 20
91.93828041104248
 30
0.0
 11
-0.9500000000000172
 21
1.645448267190432
 31
0.0
210
0.0
220
0.0
230
1.0
 40
0.5773502691896364
 41
3.926990816987215
 42
5.497787143782138
  0
ELLIPSE
  5
16A
330
1F
100
AcDbEntity
  8
VISIBLE
100
AcDbEllipse
 10
251.5723577975323
 20
91.93828041104248
 30
0.0
 11
-0.9500000000000172
 21
1.645448267190432
 31
0.0
210
0.0
220
0.0
230
1.0
 40
0.5773502691896364
 41
-0.7853981633974486
 42
3.926990816987214
  0
ELLIPSE
  5
16B
330
1F
100
AcDbEntity
  8
VISIBLE
100
AcDbEllipse
 10
257.1629473728985
 20
81.01723819043858
 30
0.0
 11
0.9499999999999886
 21
-1.645448267190432
 31
0.0
210
0.0
220
0.0
230
1.0
 40
0.5773502691896202
 41
-1.658062789394615
 42
0.7853981633974414
  0
ELLIPSE
  5
16C
330
1F
100
AcDbEntity
  8
VISIBLE
100
AcDbEllipse
 10
257.1629473728985
 20
81.01723819043858
 30
0.0
 11
0.9499999999999886
 21
-1.645448267190432
 31
0.0
210
0.0
220
0.0
230
1.0
 40
0.5773502691896202
 41
0.7853981633974412
 42
2.356194490192346
  0
ELLIPSE
  5
16D
330
1F
100
AcDbEntity
  8
VISIBLE
100
AcDbEllipse
 10
257.1629473728985
 20
81.01723819043858
 30
0.0
 11
0.9499999999999886
 21
-1.645448267190432
 31
0.0
210
0.0
220
0.0
230
1.0
 40
0.5773502691896202
 41
-3.92699081698724
 42
-1.658062789394615
  0
ELLIPSE
  5
16E
330
1F
100
AcDbEntity
  8
VISIBLE
100
AcDbEllipse
 10
237.7936593617535
 20
96.57706852640236
 30
0.0
 11
0.6999999999999886
 21
-1.212435565298222
 31
0.0
210
0.0
220
0.0
230
1.0
 40
0.5773502691896125
 41
-3.761350073970397
 42
-3.702591341730813
  0
ELLIPSE
  5
16F
330
1F
100
AcDbEntity
  8
VISIBLE
100
AcDbEllipse
 10
237.7936593617535
 20
96.57706852640236
 30
0.0
 11
0.6999999999999886
 21
-1.212435565298222
 31
0.0
210
0.0
220
0.0
230
1.0
 40
0.5773502691896125
 41
0.0
 42
0.6197574203806071
  0
ELLIPSE
  5
170
330
1F
100
AcDbEntity
  8
VISIBLE
100
AcDbEllipse
 10
237.7936593617535
 20
96.57706852640236
 30
0.0
 11
0.6999999999999886
 21
-1.212435565298222
 31
0.0
210
0.0
220
0.0
230
1.0
 40
0.5773502691896125
 41
-3.141592653589754
 42
0.0
  0
ELLIPSE
  5
171
330
1F
100
AcDbEntity
  8
VISIBLE
100
AcDbEllipse
 10
237.7936593617535
 20
96.57706852640236
 30
0.0
 11
0.6999999999999886
 21
-1.212435565298222
 31
0.0
210
0.0
220
0.0
230
1.0
 40
0.5773502691896125
 41
-3.702591341730813
 42
-3.141592653589754
  0
ELLIPSE
  5
172
330
1F
100
AcDbEntity
  8
VISIBLE
100
AcDbEllipse
 10
254.8394838208794
 20
77.20387151094786
 30
0.0
 11
0.9499999999999886
 21
-1.645448267190446
 31
0.0
210
0.0
220
0.0
230
1.0
 40
0.5773502691896164
 41
-2.070595158047798
 42
0.7853981633974483
  0
ELLIPSE
  5
173
330
1F
100
AcDbEntity
  8
VISIBLE
100
AcDbEllipse
 10
254.8394838208794
 20
77.20387151094786
 30
0.0
 11
0.9499999999999886
 21
-1.645448267190446
 31
0.0
210
0.0
220
0.0
230
1.0
 40
0.5773502691896164
 41
0.7853981633974485
 42
2.356194490192347
  0
ELLIPSE
  5
174
330
1F
100
AcDbEntity
  8
VISIBLE
100
AcDbEllipse
 10
254.8394838208794
 20
77.20387151094786
 30
0.0
 11
0.9499999999999886
 21
-1.645448267190446
 31
0.0
210
0.0
220
0.0
230
1.0
 40
0.5773502691896164
 41
-3.926990816987239
 42
-2.070595158047798
  0
ELLIPSE
  5
175
330
1F
100
AcDbEntity
  8
VISIBLE
100
AcDbEllipse
 10
242.8082691554945
 20
88.22928792362234
 30
0.0
 11
0.9499999999999886
 21
-1.645448267190432
 31
0.0
210
0.0
220
0.0
230
1.0
 40
0.5773502691896202
 41
-3.212992486625919
 42
0.7853981633974607
  0
ELLIPSE
  5
176
330
1F
100
AcDbEntity
  8
VISIBLE
100
AcDbEllipse
 10
242.8082691554945
 20
88.22928792362234
 30
0.0
 11
0.9499999999999886
 21
-1.645448267190432
 31
0.0
210
0.0
220
0.0
230
1.0
 40
0.5773502691896202
 41
0.7853981633974607
 42
2.356194490192346
  0
ELLIPSE
  5
177
330
1F
100
AcDbEntity
  8
VISIBLE
100
AcDbEllipse
 10
242.8082691554945
 20
88.22928792362234
 30
0.0
 11
0.9499999999999886
 21
-1.645448267190432
 31
0.0
210
0.0
220
0.0
230
1.0
 40
0.5773502691896202
 41
-3.92699081698724
 42
-3.212992486625919
  0
ELLIPSE
  5
178
330
1F
100
AcDbEntity
  8
VISIBLE
100
AcDbEllipse
 10
243.0070776415961
 20
98.6273798779542
 30
0.0
 11
0.9500000000000171
 21
-1.645448267190446
 31
0.0
210
0.0
220
0.0
230
1.0
 40
0.5773502691896288
 41
-4.101523742186691
 42
-3.926990816987244
  0
ELLIPSE
  5
179
330
1F
100
AcDbEntity
  8
VISIBLE
100
AcDbEllipse
 10
243.0070776415961
 20
98.6273798779542
 30
0.0
 11
0.9500000000000171
 21
-1.645448267190446
 31
0.0
210
0.0
220
0.0
230
1.0
 40
0.5773502691896288
 41
-3.926990816987244
 42
0.785398163397443
  0
ELLIPSE
  5
17A
330
1F
100
AcDbEntity
  8
VISIBLE
100
AcDbEllipse
 10
243.0070776415961
 20
98.6273798779542
 30
0.0
 11
0.9500000000000171
 21
-1.645448267190446
 31
0.0
210
0.0
220
0.0
230
1.0
 40
0.5773502691896288
 41
0.785398163397443
 42
2.181661564992895
  0
ELLIPSE
  5
17B
330
1F
100
AcDbEntity
  8
VISIBLE
100
AcDbEllipse
 10
249.0616308111796
 20
91.71403132157307
 30
0.0
 11
0.9499999999999886
 21
-1.645448267190446
 31
0.0
210
0.0
220
0.0
230
1.0
 40
0.5773502691896164
 41
-3.40339204138892
 42
0.7853981633974589
  0
ELLIPSE
  5
17C
330
1F
100
AcDbEntity
  8
VISIBLE
100
AcDbEllipse
 10
249.0616308111796
 20
91.71403132157307
 30
0.0
 11
0.9499999999999886
 21
-1.645448267190446
 31
0.0
210
0.0
220
0.0
230
1.0
 40
0.5773502691896164
 41
0.7853981633974588
 42
2.356194490192347
  0
ELLIPSE
  5
17D
330
1F
100
AcDbEntity
  8
VISIBLE
100
AcDbEllipse
 10
249.0616308111796
 20
91.71403132157307
 30
0.0
 11
0.9499999999999886
 21
-1.645448267190446
 31
0.0
210
0.0
220
0.0
230
1.0
 40
0.5773502691896164
 41
-3.926990816987239
 42
-3.40339204138892
  0
ELLIPSE
  5
17E
330
1F
100
AcDbEntity
  8
VISIBLE
100
AcDbEllipse
 10
249.0616308111796
 20
95.06166730337674
 30
0.0
 11
0.9500000000000172
 21
-1.645448267190432
 31
0.0
210
0.0
220
0.0
230
1.0
 40
0.5773502691896364
 41
-4.450589592585542
 42
-3.926990816987241
  0
ELLIPSE
  5
17F
330
1F
100
AcDbEntity
  8
VISIBLE
100
AcDbEllipse
 10
249.0616308111796
 20
95.06166730337674
 30
0.0
 11
0.9500000000000172
 21
-1.645448267190432
 31
0.0
210
0.0
220
0.0
230
1.0
 40
0.5773502691896364
 41
-3.926990816987241
 42
0.785398163397443
  0
ELLIPSE
  5
180
330
1F
100
AcDbEntity
  8
VISIBLE
100
AcDbEllipse
 10
249.0616308111796
 20
95.06166730337674
 30
0.0
 11
0.9500000000000172
 21
-1.645448267190432
 31
0.0
210
0.0
220
0.0
230
1.0
 40
0.5773502691896364
 41
0.7853981633974425
 42
1.832595714594044
  0
ELLIPSE
  5
181
330
1F
100
AcDbEntity
  8
VISIBLE
100
AcDbEllipse
 10
240.4473961471528
 20
96.86385521168435
 30
0.0
 11
0.6999999999999886
 21
-1.212435565298222
 31
0.0
210
0.0
220
0.0
230
1.0
 40
0.5773502691896352
 41
0.0
 42
0.6197574203806006
  0
ELLIPSE
  5
182
330
1F
100
AcDbEntity
  8
VISIBLE
100
AcDbEllipse
 10
240.4473961471528
 20
96.86385521168435
 30
0.0
 11
0.6999999999999886
 21
-1.212435565298222
 31
0.0
210
0.0
220
0.0
230
1.0
 40
0.5773502691896352
 41
-3.141592653589785
 42
0.0
  0
ELLIPSE
  5
183
330
1F
100
AcDbEntity
  8
VISIBLE
100
AcDbEllipse
 10
240.4473961471528
 20
96.86385521168435
 30
0.0
 11
0.6999999999999886
 21
-1.212435565298222
 31
0.0
210
0.0
220
0.0
230
1.0
 40
0.5773502691896352
 41
-3.761350073970378
 42
-3.141592653589785
  0
ELLIPSE
  5
184
330
1F
100
AcDbEntity
  8
VISIBLE
100
AcDbEllipse
 10
241.377317170415
 20
103.795271131598
 30
0.0
 11
0.6999999999999886
 21
-1.212435565298208
 31
0.0
210
0.0
220
0.0
230
1.0
 40
0.5773502691896453
 41
0.0
 42
0.6197574203805994
  0
ELLIPSE
  5
185
330
1F
100
AcDbEntity
  8
VISIBLE
100
AcDbEllipse
 10
241.377317170415
 20
103.795271131598
 30
0.0
 11
0.6999999999999886
 21
-1.212435565298208
 31
0.0
210
0.0
220
0.0
230
1.0
 40
0.5773502691896453
 41
-3.141592653589771
 42
0.0
  0
ELLIPSE
  5
186
330
1F
100
AcDbEntity
  8
VISIBLE
100
AcDbEllipse
 10
241.377317170415
 20
103.795271131598
 30
0.0
 11
0.6999999999999886
 21
-1.212435565298208
 31
0.0
210
0.0
220
0.0
230
1.0
 40
0.5773502691896453
 41
-3.761350073970378
 42
-3.141592653589771
  0
ELLIPSE
  5
187
330
1F
100
AcDbEntity
  8
VISIBLE
100
AcDbEllipse
 10
256.9473651608311
 20
85.8956307716059
 30
0.0
 11
-0.6999999999999886
 21
1.212435565298208
 31
0.0
210
0.0
220
0.0
230
1.0
 40
0.5773502691896226
 41
0.0
 42
1.832595714594063
  0
ELLIPSE
  5
188
330
1F
100
AcDbEntity
  8
VISIBLE
100
AcDbEllipse
 10
256.9473651608311
 20
85.8956307716059
 30
0.0
 11
-0.6999999999999886
 21
1.212435565298208
 31
0.0
210
0.0
220
0.0
230
1.0
 40
0.5773502691896226
 41
-0.6197574203806019
 42
0.0
  0
ELLIPSE
  5
189
330
1F
100
AcDbEntity
  8
VISIBLE
100
AcDbEllipse
 10
256.9473651608311
 20
85.8956307716059
 30
0.0
 11
-0.6999999999999886
 21
1.212435565298208
 31
0.0
210
0.0
220
0.0
230
1.0
 40
0.5773502691896226
 41
3.141592653589785
 42
3.761350073970398
  0
ELLIPSE
  5
18A
330
1F
100
AcDbEntity
  8
VISIBLE
100
AcDbEllipse
 10
256.9473651608311
 20
85.8956307716059
 30
0.0
 11
-0.6999999999999886
 21
1.212435565298208
 31
0.0
210
0.0
220
0.0
230
1.0
 40
0.5773502691896226
 41
1.832595714594063
 42
3.141592653589785
  0
ELLIPSE
  5
18B
330
1F
100
AcDbEntity
  8
VISIBLE
100
AcDbEllipse
 10
260.1376379534686
 20
88.7370462705255
 30
0.0
 11
-0.9500000000000455
 21
1.645448267190432
 31
0.0
210
0.0
220
0.0
230
1.0
 40
0.5773502691896524
 41
2.530727415391762
 42
2.901101614618347
  0
ELLIPSE
  5
18C
330
1F
100
AcDbEntity
  8
VISIBLE
100
AcDbEllipse
 10
260.1376379534686
 20
88.7370462705255
 30
0.0
 11
-0.9500000000000455
 21
1.645448267190432
 31
0.0
210
0.0
220
0.0
230
1.0
 40
0.5773502691896524
 41
-0.3967113194613803
 42
2.530727415391762
  0
ELLIPSE
  5
18D
330
1F
100
AcDbEntity
  8
VISIBLE
100
AcDbEllipse
 10
238.5121932768311
 20
92.21614582778285
 30
0.0
 11
0.9499999999999886
 21
-1.645448267190432
 31
0.0
210
0.0
220
0.0
230
1.0
 40
0.5773502691896202
 41
-3.478191866474404
 42
0.7853981633974603
  0
ELLIPSE
  5
18E
330
1F
100
AcDbEntity
  8
VISIBLE
100
AcDbEllipse
 10
238.5121932768311
 20
92.21614582778285
 30
0.0
 11
0.9499999999999886
 21
-1.645448267190432
 31
0.0
210
0.0
220
0.0
230
1.0
 40
0.5773502691896202
 41
0.7853981633974607
 42
2.356194490192346
  0
ELLIPSE
  5
18F
330
1F
100
AcDbEntity
  8
VISIBLE
100
AcDbEllipse
 10
238.5121932768311
 20
92.21614582778285
 30
0.0
 11
0.9499999999999886
 21
-1.645448267190432
 31
0.0
210
0.0
220
0.0
230
1.0
 40
0.5773502691896202
 41
-3.92699081698724
 42
-3.478191866474404
  0
ELLIPSE
  5
190
330
1F
100
AcDbEntity
  8
VISIBLE
100
AcDbEllipse
 10
240.0938427565595
 20
100.4710772532382
 30
0.0
 11
0.9499999999999886
 21
-1.645448267190432
 31
0.0
210
0.0
220
0.0
230
1.0
 40
0.5773502691896202
 41
-4.069790483059505
 42
-3.92699081698724
  0
ELLIPSE
  5
191
330
1F
100
AcDbEntity
  8
VISIBLE
100
AcDbEllipse
 10
240.0938427565595
 20
100.4710772532382
 30
0.0
 11
0.9499999999999886
 21
-1.645448267190432
 31
0.0
210
0.0
220
0.0
230
1.0
 40
0.5773502691896202
 41
-3.92699081698724
 42
0.7853981633974603
  0
ELLIPSE
  5
192
330
1F
100
AcDbEntity
  8
VISIBLE
100
AcDbEllipse
 10
240.0938427565595
 20
100.4710772532382
 30
0.0
 11
0.9499999999999886
 21
-1.645448267190432
 31
0.0
210
0.0
220
0.0
230
1.0
 40
0.5773502691896202
 41
0.7853981633974607
 42
2.213394824120082
  0
ELLIPSE
  5
193
330
1F
100
AcDbEntity
  8
VISIBLE
100
AcDbEllipse
 10
246.1276355823959
 20
95.49004053807809
 30
0.0
 11
0.6999999999999886
 21
-1.212435565298208
 31
0.0
210
0.0
220
0.0
230
1.0
 40
0.5773502691896226
 41
0.0
 42
0.6197574203806049
  0
ELLIPSE
  5
194
330
1F
100
AcDbEntity
  8
VISIBLE
100
AcDbEllipse
 10
246.1276355823959
 20
95.49004053807809
 30
0.0
 11
0.6999999999999886
 21
-1.212435565298208
 31
0.0
210
0.0
220
0.0
230
1.0
 40
0.5773502691896226
 41
-3.141592653589771
 42
0.0
  0
ELLIPSE
  5
195
330
1F
100
AcDbEntity
  8
VISIBLE
100
AcDbEllipse
 10
246.1276355823959
 20
95.49004053807809
 30
0.0
 11
0.6999999999999886
 21
-1.212435565298208
 31
0.0
210
0.0
220
0.0
230
1.0
 40
0.5773502691896226
 41
-3.761350073970364
 42
-3.141592653589771
  0
ELLIPSE
  5
196
330
1F
100
AcDbEntity
  8
VISIBLE
100
AcDbEllipse
 10
249.0267733852608
 20
88.01794694144657
 30
0.0
 11
0.6999999999999886
 21
-1.212435565298222
 31
0.0
210
0.0
220
0.0
230
1.0
 40
0.5773502691896125
 41
-3.141592653589785
 42
-2.879793265790632
  0
ELLIPSE
  5
197
330
1F
100
AcDbEntity
  8
VISIBLE
100
AcDbEllipse
 10
249.0267733852608
 20
88.01794694144657
 30
0.0
 11
0.6999999999999886
 21
-1.212435565298222
 31
0.0
210
0.0
220
0.0
230
1.0
 40
0.5773502691896125
 41
-3.761350073970397
 42
-3.141592653589785
  0
ELLIPSE
  5
198
330
1F
100
AcDbEntity
  8
VISIBLE
100
AcDbEllipse
 10
249.0267733852608
 20
88.01794694144657
 30
0.0
 11
0.6999999999999886
 21
-1.212435565298222
 31
0.0
210
0.0
220
0.0
230
1.0
 40
0.5773502691896125
 41
0.0
 42
0.6197574203806191
  0
ELLIPSE
  5
199
330
1F
100
AcDbEntity
  8
VISIBLE
100
AcDbEllipse
 10
249.0267733852608
 20
88.01794694144657
 30
0.0
 11
0.6999999999999886
 21
-1.212435565298222
 31
0.0
210
0.0
220
0.0
230
1.0
 40
0.5773502691896125
 41
-2.879793265790632
 42
0.0
  0
ELLIPSE
  5
19A
330
1F
100
AcDbEntity
  8
VISIBLE
100
AcDbEllipse
 10
246.5509038248268
 20
91.48978223210365
 30
0.0
 11
0.9500000000000172
 21
-1.645448267190432
 31
0.0
210
0.0
220
0.0
230
1.0
 40
0.5773502691896364
 41
-3.403392041388968
 42
0.7853981633974216
  0
ELLIPSE
  5
19B
330
1F
100
AcDbEntity
  8
VISIBLE
100
AcDbEllipse
 10
246.5509038248268
 20
91.48978223210365
 30
0.0
 11
0.9500000000000172
 21
-1.645448267190432
 31
0.0
210
0.0
220
0.0
230
1.0
 40
0.5773502691896364
 41
0.7853981633974312
 42
2.356194490192345
  0
ELLIPSE
  5
19C
330
1F
100
AcDbEntity
  8
VISIBLE
100
AcDbEllipse
 10
246.5509038248268
 20
91.48978223210365
 30
0.0
 11
0.9500000000000172
 21
-1.645448267190432
 31
0.0
210
0.0
220
0.0
230
1.0
 40
0.5773502691896364
 41
-3.926990816987241
 42
-3.403392041388968
  0
ELLIPSE
  5
19D
330
1F
100
AcDbEntity
  8
VISIBLE
100
AcDbEllipse
 10
244.3937302290673
 20
101.5125652332772
 30
0.0
 11
0.6999999999999886
 21
-1.212435565298222
 31
0.0
210
0.0
220
0.0
230
1.0
 40
0.5773502691896125
 41
0.0
 42
0.6197574203806191
  0
ELLIPSE
  5
19E
330
1F
100
AcDbEntity
  8
VISIBLE
100
AcDbEllipse
 10
244.3937302290673
 20
101.5125652332772
 30
0.0
 11
0.6999999999999886
 21
-1.212435565298222
 31
0.0
210
0.0
220
0.0
230
1.0
 40
0.5773502691896125
 41
-3.141592653589785
 42
0.0
  0
ELLIPSE
  5
19F
330
1F
100
AcDbEntity
  8
VISIBLE
100
AcDbEllipse
 10
244.3937302290673
 20
101.5125652332772
 30
0.0
 11
0.6999999999999886
 21
-1.212435565298222
 31
0.0
210
0.0
220
0.0
230
1.0
 40
0.5773502691896125
 41
-3.761350073970397
 42
-3.141592653589793
  0
ELLIPSE
  5
1A0
330
1F
100
AcDbEntity
  8
VISIBLE
100
AcDbEllipse
 10
260.4911913440619
 20
88.94117041575743
 30
0.0
 11
-0.7000000000000455
 21
1.212435565298208
 31
0.0
210
0.0
220
0.0
230
1.0
 40
0.5773502691896613
 41
0.0434156464223204
 42
2.480073013307555
  0
ELLIPSE
  5
1A1
330
1F
100
AcDbEntity
  8
VISIBLE
100
AcDbEllipse
 10
254.4714956003972
 20
84.46618681441095
 30
0.0
 11
0.9500000000000172
 21
-1.645448267190432
 31
0.0
210
0.0
220
0.0
230
1.0
 40
0.5773502691896364
 41
-1.832595714594058
 42
0.7853981633974312
  0
ELLIPSE
  5
1A2
330
1F
100
AcDbEntity
  8
VISIBLE
100
AcDbEllipse
 10
254.4714956003972
 20
84.46618681441095
 30
0.0
 11
0.9500000000000172
 21
-1.645448267190432
 31
0.0
210
0.0
220
0.0
230
1.0
 40
0.5773502691896364
 41
0.7853981633974312
 42
2.356194490192345
  0
ELLIPSE
  5
1A3
330
1F
100
AcDbEntity
  8
VISIBLE
100
AcDbEllipse
 10
254.4714956003972
 20
84.46618681441095
 30
0.0
 11
0.9500000000000172
 21
-1.645448267190432
 31
0.0
210
0.0
220
0.0
230
1.0
 40
0.5773502691896364
 41
-3.926990816987241
 42
-1.832595714594058
  0
ELLIPSE
  5
1A4
330
1F
100
AcDbEntity
  8
VISIBLE
100
AcDbEllipse
 10
260.1376379534686
 20
85.24918094413077
 30
0.0
 11
-0.9500000000000454
 21
1.645448267190446
 31
0.0
210
0.0
220
0.0
230
1.0
 40
0.5773502691896449
 41
2.181661564992879
 42
3.869614734856045
  0
ELLIPSE
  5
1A5
330
1F
100
AcDbEntity
  8
VISIBLE
100
AcDbEllipse
 10
260.1376379534686
 20
85.24918094413077
 30
0.0
 11
-0.9500000000000454
 21
1.645448267190446
 31
0.0
210
0.0
220
0.0
230
1.0
 40
0.5773502691896449
 41
-1.731432149180729
 42
-0.7853981633974515
  0
ELLIPSE
  5
1A6
330
1F
100
AcDbEntity
  8
VISIBLE
100
AcDbEllipse
 10
260.1376379534686
 20
85.24918094413077
 30
0.0
 11
-0.9500000000000454
 21
1.645448267190446
 31
0.0
210
0.0
220
0.0
230
1.0
 40
0.5773502691896449
 41
-0.7853981633974515
 42
2.181661564992879
  0
ELLIPSE
  5
1A7
330
1F
100
AcDbEntity
  8
VISIBLE
100
AcDbEllipse
 10
240.5927251566609
 20
88.24953808736693
 30
0.0
 11
0.7000000000000171
 21
-1.212435565298208
 31
0.0
210
0.0
220
0.0
230
1.0
 40
0.5773502691896394
 41
-3.761350073970405
 42
-3.253792391218041
  0
ELLIPSE
  5
1A8
330
1F
100
AcDbEntity
  8
VISIBLE
100
AcDbEllipse
 10
240.5927251566609
 20
88.24953808736693
 30
0.0
 11
0.7000000000000171
 21
-1.212435565298208
 31
0.0
210
0.0
220
0.0
230
1.0
 40
0.5773502691896394
 41
0.0
 42
0.6197574203805862
  0
ELLIPSE
  5
1A9
330
1F
100
AcDbEntity
  8
VISIBLE
100
AcDbEllipse
 10
240.5927251566609
 20
88.24953808736693
 30
0.0
 11
0.7000000000000171
 21
-1.212435565298208
 31
0.0
210
0.0
220
0.0
230
1.0
 40
0.5773502691896394
 41
-3.141592653589831
 42
0.0
  0
ELLIPSE
  5
1AA
330
1F
100
AcDbEntity
  8
VISIBLE
100
AcDbEllipse
 10
240.5927251566609
 20
88.24953808736693
 30
0.0
 11
0.7000000000000171
 21
-1.212435565298208
 31
0.0
210
0.0
220
0.0
230
1.0
 40
0.5773502691896394
 41
-3.253792391218041
 42
-3.141592653589831
  0
ELLIPSE
  5
1AB
330
1F
100
AcDbEntity
  8
VISIBLE
100
AcDbEllipse
 10
257.1629473728985
 20
96.40386583911368
 30
0.0
 11
-0.9500000000000455
 21
1.645448267190432
 31
0.0
210
0.0
220
0.0
230
1.0
 40
0.5773502691896524
 41
0.5405907589328746
 42
2.691915592012848
  0
ELLIPSE
  5
1AC
330
1F
100
AcDbEntity
  8
VISIBLE
100
AcDbEllipse
 10
238.8657466674244
 20
92.42026997301478
 30
0.0
 11
0.6999999999999886
 21
-1.212435565298208
 31
0.0
210
0.0
220
0.0
230
1.0
 40
0.5773502691896226
 41
-3.761350073970364
 42
-3.478191866474381
  0
ELLIPSE
  5
1AD
330
1F
100
AcDbEntity
  8
VISIBLE
100
AcDbEllipse
 10
238.8657466674244
 20
92.42026997301478
 30
0.0
 11
0.6999999999999886
 21
-1.212435565298208
 31
0.0
210
0.0
220
0.0
230
1.0
 40
0.5773502691896226
 41
0.0
 42
0.6197574203806049
  0
ELLIPSE
  5
1AE
330
1F
100
AcDbEntity
  8
VISIBLE
100
AcDbEllipse
 10
238.8657466674244
 20
92.42026997301478
 30
0.0
 11
0.6999999999999886
 21
-1.212435565298208
 31
0.0
210
0.0
220
0.0
230
1.0
 40
0.5773502691896226
 41
-3.141592653589771
 42
0.0
  0
ELLIPSE
  5
1AF
330
1F
100
AcDbEntity
  8
VISIBLE
100
AcDbEllipse
 10
238.8657466674244
 20
92.42026997301478
 30
0.0
 11
0.6999999999999886
 21
-1.212435565298208
 31
0.0
210
0.0
220
0.0
230
1.0
 40
0.5773502691896226
 41
-3.478191866474381
 42
-3.141592653589771
  0
ELLIPSE
  5
1B0
330
1F
100
AcDbEntity
  8
VISIBLE
100
AcDbEllipse
 10
254.8250489909904
 20
96.26686217110226
 30
0.0
 11
-0.6999999999999886
 21
1.212435565298208
 31
0.0
210
0.0
220
0.0
230
1.0
 40
0.5773502691896226
 41
3.141592653589824
 42
3.403392041388968
  0
ELLIPSE
  5
1B1
330
1F
100
AcDbEntity
  8
VISIBLE
100
AcDbEllipse
 10
254.8250489909904
 20
96.26686217110226
 30
0.0
 11
-0.6999999999999886
 21
1.212435565298208
 31
0.0
210
0.0
220
0.0
230
1.0
 40
0.5773502691896226
 41
0.0
 42
3.141592653589824
  0
ELLIPSE
  5
1B2
330
1F
100
AcDbEntity
  8
VISIBLE
100
AcDbEllipse
 10
254.8250489909904
 20
96.26686217110226
 30
0.0
 11
-0.6999999999999886
 21
1.212435565298208
 31
0.0
210
0.0
220
0.0
230
1.0
 40
0.5773502691896226
 41
-0.6197574203806019
 42
0.0
  0
ELLIPSE
  5
1B3
330
1F
100
AcDbEntity
  8
VISIBLE
100
AcDbEllipse
 10
254.8250489909904
 20
96.26686217110226
 30
0.0
 11
-0.6999999999999886
 21
1.212435565298208
 31
0.0
210
0.0
220
0.0
230
1.0
 40
0.5773502691896226
 41
3.403392041388968
 42
3.761350073970417
  0
ELLIPSE
  5
1B4
330
1F
100
AcDbEntity
  8
VISIBLE
100
AcDbEllipse
 10
240.0938427565595
 20
96.65973106645242
 30
0.0
 11
0.9499999999999886
 21
-1.645448267190432
 31
0.0
210
0.0
220
0.0
230
1.0
 40
0.5773502691896202
 41
-3.784191150914975
 42
0.7853981633974509
  0
ELLIPSE
  5
1B5
330
1F
100
AcDbEntity
  8
VISIBLE
100
AcDbEllipse
 10
240.0938427565595
 20
96.65973106645242
 30
0.0
 11
0.9499999999999886
 21
-1.645448267190432
 31
0.0
210
0.0
220
0.0
230
1.0
 40
0.5773502691896202
 41
0.7853981633974514
 42
2.356194490192346
  0
ELLIPSE
  5
1B6
330
1F
100
AcDbEntity
  8
VISIBLE
100
AcDbEllipse
 10
240.0938427565595
 20
96.65973106645242
 30
0.0
 11
0.9499999999999886
 21
-1.645448267190432
 31
0.0
210
0.0
220
0.0
230
1.0
 40
0.5773502691896202
 41
-3.92699081698724
 42
-3.784191150914975
  0
ELLIPSE
  5
1B7
330
1F
100
AcDbEntity
  8
VISIBLE
100
AcDbEllipse
 10
251.9259111881256
 20
95.49004053807809
 30
0.0
 11
-0.7000000000000171
 21
1.212435565298208
 31
0.0
210
0.0
220
0.0
230
1.0
 40
0.5773502691896394
 41
3.141592653589762
 42
3.76135007397036
  0
ELLIPSE
  5
1B8
330
1F
100
AcDbEntity
  8
VISIBLE
100
AcDbEllipse
 10
251.9259111881256
 20
95.49004053807809
 30
0.0
 11
-0.7000000000000171
 21
1.212435565298208
 31
0.0
210
0.0
220
0.0
230
1.0
 40
0.5773502691896394
 41
0.0
 42
3.141592653589762
  0
ELLIPSE
  5
1B9
330
1F
100
AcDbEntity
  8
VISIBLE
100
AcDbEllipse
 10
251.9259111881256
 20
95.49004053807809
 30
0.0
 11
-0.7000000000000171
 21
1.212435565298208
 31
0.0
210
0.0
220
0.0
230
1.0
 40
0.5773502691896394
 41
-0.619757420380612
 42
0.0
  0
ELLIPSE
  5
1BA
330
1F
100
AcDbEntity
  8
VISIBLE
100
AcDbEllipse
 10
251.5723577975323
 20
88.59064442923881
 30
0.0
 11
0.9499999999999886
 21
-1.645448267190432
 31
0.0
210
0.0
220
0.0
230
1.0
 40
0.5773502691896202
 41
-2.356194490192332
 42
0.7853981633974514
  0
ELLIPSE
  5
1BB
330
1F
100
AcDbEntity
  8
VISIBLE
100
AcDbEllipse
 10
251.5723577975323
 20
88.59064442923881
 30
0.0
 11
0.9499999999999886
 21
-1.645448267190432
 31
0.0
210
0.0
220
0.0
230
1.0
 40
0.5773502691896202
 41
0.7853981633974514
 42
2.356194490192346
  0
ELLIPSE
  5
1BC
330
1F
100
AcDbEntity
  8
VISIBLE
100
AcDbEllipse
 10
251.5723577975323
 20
88.59064442923881
 30
0.0
 11
0.9499999999999886
 21
-1.645448267190432
 31
0.0
210
0.0
220
0.0
230
1.0
 40
0.5773502691896202
 41
-3.92699081698724
 42
-2.356194490192332
  0
ELLIPSE
  5
1BD
330
1F
100
AcDbEntity
  8
VISIBLE
100
AcDbEllipse
 10
262.4745052058362
 20
80.48953798095086
 30
0.0
 11
-0.6999999999999886
 21
1.212435565298222
 31
0.0
210
0.0
220
0.0
230
1.0
 40
0.5773502691896125
 41
0.0
 42
1.855049091729508
  0
ELLIPSE
  5
1BE
330
1F
100
AcDbEntity
  8
VISIBLE
100
AcDbEllipse
 10
262.4745052058362
 20
80.48953798095086
 30
0.0
 11
-0.6999999999999886
 21
1.212435565298222
 31
0.0
210
0.0
220
0.0
230
1.0
 40
0.5773502691896125
 41
-0.1404073379115567
 42
0.0
  0
ELLIPSE
  5
1BF
330
1F
100
AcDbEntity
  8
VISIBLE
100
AcDbEllipse
 10
258.2153549387459
 20
73.43061351042547
 30
0.0
 11
0.6999999999999886
 21
-1.212435565298222
 31
0.0
210
0.0
220
0.0
230
1.0
 40
0.5773502691896125
 41
-3.141592653589724
 42
-1.90739553967949
  0
ELLIPSE
  5
1C0
330
1F
100
AcDbEntity
  8
VISIBLE
100
AcDbEllipse
 10
258.2153549387459
 20
73.43061351042547
 30
0.0
 11
0.6999999999999886
 21
-1.212435565298222
 31
0.0
210
0.0
220
0.0
230
1.0
 40
0.5773502691896125
 41
-3.761350073970395
 42
-3.141592653589724
  0
ELLIPSE
  5
1C1
330
1F
100
AcDbEntity
  8
VISIBLE
100
AcDbEllipse
 10
258.2153549387459
 20
73.43061351042547
 30
0.0
 11
0.6999999999999886
 21
-1.212435565298222
 31
0.0
210
0.0
220
0.0
230
1.0
 40
0.5773502691896125
 41
0.0
 42
0.6197574203806071
  0
ELLIPSE
  5
1C2
330
1F
100
AcDbEntity
  8
VISIBLE
100
AcDbEllipse
 10
258.2153549387459
 20
73.43061351042547
 30
0.0
 11
0.6999999999999886
 21
-1.212435565298222
 31
0.0
210
0.0
220
0.0
230
1.0
 40
0.5773502691896125
 41
-1.90739553967949
 42
0.0
  0
ELLIPSE
  5
1C3
330
1F
100
AcDbEntity
  8
VISIBLE
100
AcDbEllipse
 10
251.9259111881256
 20
82.09949661086338
 30
0.0
 11
0.6999999999999886
 21
-1.212435565298222
 31
0.0
210
0.0
220
0.0
230
1.0
 40
0.5773502691896125
 41
-3.141592653589763
 42
-2.356194490192308
  0
ELLIPSE
  5
1C4
330
1F
100
AcDbEntity
  8
VISIBLE
100
AcDbEllipse
 10
251.9259111881256
 20
82.09949661086338
 30
0.0
 11
0.6999999999999886
 21
-1.212435565298222
 31
0.0
210
0.0
220
0.0
230
1.0
 40
0.5773502691896125
 41
-3.761350073970397
 42
-3.141592653589763
  0
ELLIPSE
  5
1C5
330
1F
100
AcDbEntity
  8
VISIBLE
100
AcDbEllipse
 10
251.9259111881256
 20
82.09949661086338
 30
0.0
 11
0.6999999999999886
 21
-1.212435565298222
 31
0.0
210
0.0
220
0.0
230
1.0
 40
0.5773502691896125
 41
0.0
 42
0.6197574203806191
  0
ELLIPSE
  5
1C6
330
1F
100
AcDbEntity
  8
VISIBLE
100
AcDbEllipse
 10
251.9259111881256
 20
82.09949661086338
 30
0.0
 11
0.6999999999999886
 21
-1.212435565298222
 31
0.0
210
0.0
220
0.0
230
1.0
 40
0.5773502691896125
 41
-2.356194490192308
 42
0.0
  0
ELLIPSE
  5
1C7
330
1F
100
AcDbEntity
  8
VISIBLE
100
AcDbEllipse
 10
237.4302221738014
 20
100.5114945107836
 30
0.0
 11
0.6999999999999886
 21
-1.212435565298208
 31
0.0
210
0.0
220
0.0
230
1.0
 40
0.5773502691896226
 41
0.0
 42
0.6197574203806049
  0
ELLIPSE
  5
1C8
330
1F
100
AcDbEntity
  8
VISIBLE
100
AcDbEllipse
 10
237.4302221738014
 20
100.5114945107836
 30
0.0
 11
0.6999999999999886
 21
-1.212435565298208
 31
0.0
210
0.0
220
0.0
230
1.0
 40
0.5773502691896226
 41
-3.141592653589793
 42
0.0
  0
ELLIPSE
  5
1C9
330
1F
100
AcDbEntity
  8
VISIBLE
100
AcDbEllipse
 10
237.4302221738014
 20
100.5114945107836
 30
0.0
 11
0.6999999999999886
 21
-1.212435565298208
 31
0.0
210
0.0
220
0.0
230
1.0
 40
0.5773502691896226
 41
-3.761350073970395
 42
-3.141592653589793
  0
ELLIPSE
  5
1CA
330
1F
100
AcDbEntity
  8
VISIBLE
100
AcDbEllipse
 10
246.3353216127595
 20
87.67681912820322
 30
0.0
 11
0.7000000000000171
 21
-1.212435565298208
 31
0.0
210
0.0
220
0.0
230
1.0
 40
0.5773502691896167
 41
-3.141592653589824
 42
-3.054326190990084
  0
ELLIPSE
  5
1CB
330
1F
100
AcDbEntity
  8
VISIBLE
100
AcDbEllipse
 10
246.3353216127595
 20
87.67681912820322
 30
0.0
 11
0.7000000000000171
 21
-1.212435565298208
 31
0.0
210
0.0
220
0.0
230
1.0
 40
0.5773502691896167
 41
-3.761350073970423
 42
-3.141592653589824
  0
ELLIPSE
  5
1CC
330
1F
100
AcDbEntity
  8
VISIBLE
100
AcDbEllipse
 10
246.3353216127595
 20
87.67681912820322
 30
0.0
 11
0.7000000000000171
 21
-1.212435565298208
 31
0.0
210
0.0
220
0.0
230
1.0
 40
0.5773502691896167
 41
0.0
 42
0.6197574203806049
  0
ELLIPSE
  5
1CD
330
1F
100
AcDbEntity
  8
VISIBLE
100
AcDbEllipse
 10
246.3353216127595
 20
87.67681912820322
 30
0.0
 11
0.7000000000000171
 21
-1.212435565298208
 31
0.0
210
0.0
220
0.0
230
1.0
 40
0.5773502691896167
 41
-3.054326190990084
 42
0.0
  0
ELLIPSE
  5
1CE
330
1F
100
AcDbEntity
  8
VISIBLE
100
AcDbEllipse
 10
237.7936593617535
 20
104.0262593785695
 30
0.0
 11
0.6999999999999886
 21
-1.212435565298222
 31
0.0
210
0.0
220
0.0
230
1.0
 40
0.5773502691896125
 41
0.0
 42
0.6197574203806191
  0
ELLIPSE
  5
1CF
330
1F
100
AcDbEntity
  8
VISIBLE
100
AcDbEllipse
 10
237.7936593617535
 20
104.0262593785695
 30
0.0
 11
0.6999999999999886
 21
-1.212435565298222
 31
0.0
210
0.0
220
0.0
230
1.0
 40
0.5773502691896125
 41
-3.141592653589785
 42
0.0
  0
ELLIPSE
  5
1D0
330
1F
100
AcDbEntity
  8
VISIBLE
100
AcDbEllipse
 10
237.7936593617535
 20
104.0262593785695
 30
0.0
 11
0.6999999999999886
 21
-1.212435565298222
 31
0.0
210
0.0
220
0.0
230
1.0
 40
0.5773502691896125
 41
-3.761350073970395
 42
-3.141592653589785
  0
ELLIPSE
  5
1D1
330
1F
100
AcDbEntity
  8
VISIBLE
100
AcDbEllipse
 10
251.9259111881256
 20
78.7518606290597
 30
0.0
 11
0.6999999999999886
 21
-1.212435565298208
 31
0.0
210
0.0
220
0.0
230
1.0
 40
0.5773502691896226
 41
-3.141592653589771
 42
-2.356194490192335
  0
ELLIPSE
  5
1D2
330
1F
100
AcDbEntity
  8
VISIBLE
100
AcDbEllipse
 10
251.9259111881256
 20
78.7518606290597
 30
0.0
 11
0.6999999999999886
 21
-1.212435565298208
 31
0.0
210
0.0
220
0.0
230
1.0
 40
0.5773502691896226
 41
-3.761350073970395
 42
-3.141592653589771
  0
ELLIPSE
  5
1D3
330
1F
100
AcDbEntity
  8
VISIBLE
100
AcDbEllipse
 10
251.9259111881256
 20
78.7518606290597
 30
0.0
 11
0.6999999999999886
 21
-1.212435565298208
 31
0.0
210
0.0
220
0.0
230
1.0
 40
0.5773502691896226
 41
0.0
 42
0.6197574203806049
  0
ELLIPSE
  5
1D4
330
1F
100
AcDbEntity
  8
VISIBLE
100
AcDbEllipse
 10
251.9259111881256
 20
78.7518606290597
 30
0.0
 11
0.6999999999999886
 21
-1.212435565298208
 31
0.0
210
0.0
220
0.0
230
1.0
 40
0.5773502691896226
 41
-2.356194490192335
 42
0.0
  0
ELLIPSE
  5
1D5
330
1F
100
AcDbEntity
  8
VISIBLE
100
AcDbEllipse
 10
245.7740821918026
 20
95.28591639284616
 30
0.0
 11
0.9499999999999886
 21
-1.645448267190432
 31
0.0
210
0.0
220
0.0
230
1.0
 40
0.5773502691896202
 41
-3.92699081698724
 42
0.7853981633974514
  0
ELLIPSE
  5
1D6
330
1F
100
AcDbEntity
  8
VISIBLE
100
AcDbEllipse
 10
245.7740821918026
 20
95.28591639284616
 30
0.0
 11
0.9499999999999886
 21
-1.645448267190432
 31
0.0
210
0.0
220
0.0
230
1.0
 40
0.5773502691896202
 41
0.7853981633974514
 42
2.356194490192346
  0
ELLIPSE
  5
1D7
330
1F
100
AcDbEntity
  8
VISIBLE
100
AcDbEllipse
 10
254.79795205534
 20
73.75746390557765
 30
0.0
 11
0.9500000000000172
 21
-1.645448267190432
 31
0.0
210
0.0
220
0.0
230
1.0
 40
0.5773502691896196
 41
-2.131795014935936
 42
0.7853981633974572
  0
ELLIPSE
  5
1D8
330
1F
100
AcDbEntity
  8
VISIBLE
100
AcDbEllipse
 10
254.79795205534
 20
73.75746390557765
 30
0.0
 11
0.9500000000000172
 21
-1.645448267190432
 31
0.0
210
0.0
220
0.0
230
1.0
 40
0.5773502691896196
 41
0.785398163397457
 42
2.35619449019233
  0
ELLIPSE
  5
1D9
330
1F
100
AcDbEntity
  8
VISIBLE
100
AcDbEllipse
 10
254.79795205534
 20
73.75746390557765
 30
0.0
 11
0.9500000000000172
 21
-1.645448267190432
 31
0.0
210
0.0
220
0.0
230
1.0
 40
0.5773502691896196
 41
-3.926990816987256
 42
-2.131795014935936
  0
ELLIPSE
  5
1DA
330
1F
100
AcDbEntity
  8
VISIBLE
100
AcDbEllipse
 10
245.3027888709032
 20
84.29317533323422
 30
0.0
 11
0.9500000000000172
 21
-1.645448267190432
 31
0.0
210
0.0
220
0.0
230
1.0
 40
0.5773502691896364
 41
-2.927393154481419
 42
0.7853981633974425
  0
ELLIPSE
  5
1DB
330
1F
100
AcDbEntity
  8
VISIBLE
100
AcDbEllipse
 10
245.3027888709032
 20
84.29317533323422
 30
0.0
 11
0.9500000000000172
 21
-1.645448267190432
 31
0.0
210
0.0
220
0.0
230
1.0
 40
0.5773502691896364
 41
0.7853981633974425
 42
2.356194490192345
  0
ELLIPSE
  5
1DC
330
1F
100
AcDbEntity
  8
VISIBLE
100
AcDbEllipse
 10
245.3027888709032
 20
84.29317533323422
 30
0.0
 11
0.9500000000000172
 21
-1.645448267190432
 31
0.0
210
0.0
220
0.0
230
1.0
 40
0.5773502691896364
 41
-3.926990816987241
 42
-2.927393154481419
  0
ELLIPSE
  5
1DD
330
1F
100
AcDbEntity
  8
VISIBLE
100
AcDbEllipse
 10
251.5723577975323
 20
75.2001005020241
 30
0.0
 11
0.9499999999999886
 21
-1.645448267190432
 31
0.0
210
0.0
220
0.0
230
1.0
 40
0.5773502691896202
 41
-2.356194490192322
 42
0.7853981633974607
  0
ELLIPSE
  5
1DE
330
1F
100
AcDbEntity
  8
VISIBLE
100
AcDbEllipse
 10
251.5723577975323
 20
75.2001005020241
 30
0.0
 11
0.9499999999999886
 21
-1.645448267190432
 31
0.0
210
0.0
220
0.0
230
1.0
 40
0.5773502691896202
 41
0.7853981633974607
 42
2.356194490192346
  0
ELLIPSE
  5
1DF
330
1F
100
AcDbEntity
  8
VISIBLE
100
AcDbEllipse
 10
251.5723577975323
 20
75.2001005020241
 30
0.0
 11
0.9499999999999886
 21
-1.645448267190432
 31
0.0
210
0.0
220
0.0
230
1.0
 40
0.5773502691896202
 41
-3.92699081698724
 42
-2.356194490192322
  0
ELLIPSE
  5
1E0
330
1F
100
AcDbEntity
  8
VISIBLE
100
AcDbEllipse
 10
249.0267733852608
 20
99.61449815290594
 30
0.0
 11
-0.6999999999999886
 21
1.212435565298222
 31
0.0
210
0.0
220
0.0
230
1.0
 40
0.5773502691896125
 41
3.141592653589801
 42
3.761350073970431
  0
ELLIPSE
  5
1E1
330
1F
100
AcDbEntity
  8
VISIBLE
100
AcDbEllipse
 10
249.0267733852608
 20
99.61449815290594
 30
0.0
 11
-0.6999999999999886
 21
1.212435565298222
 31
0.0
210
0.0
220
0.0
230
1.0
 40
0.5773502691896125
 41
0.0
 42
3.141592653589801
  0
ELLIPSE
  5
1E2
330
1F
100
AcDbEntity
  8
VISIBLE
100
AcDbEllipse
 10
249.0267733852608
 20
99.61449815290594
 30
0.0
 11
-0.6999999999999886
 21
1.212435565298222
 31
0.0
210
0.0
220
0.0
230
1.0
 40
0.5773502691896125
 41
-0.6197574203806062
 42
0.0
  0
ELLIPSE
  5
1E3
330
1F
100
AcDbEntity
  8
VISIBLE
100
AcDbEllipse
 10
254.5470483781024
 20
99.6580884911294
 30
0.0
 11
-0.9499999999999886
 21
1.645448267190432
 31
0.0
210
0.0
220
0.0
230
1.0
 40
0.5773502691896202
 41
0.4294452990383127
 42
3.166998513296635
  0
ELLIPSE
  5
1E4
330
1F
100
AcDbEntity
  8
VISIBLE
100
AcDbEllipse
 10
240.5927251566609
 20
109.1217070372663
 30
0.0
 11
0.7000000000000171
 21
-1.212435565298208
 31
0.0
210
0.0
220
0.0
230
1.0
 40
0.5773502691896445
 41
0.0
 42
0.6197574203805953
  0
ELLIPSE
  5
1E5
330
1F
100
AcDbEntity
  8
VISIBLE
100
AcDbEllipse
 10
240.5927251566609
 20
109.1217070372663
 30
0.0
 11
0.7000000000000171
 21
-1.212435565298208
 31
0.0
210
0.0
220
0.0
230
1.0
 40
0.5773502691896445
 41
-2.025467001754653
 42
0.0
  0
ELLIPSE
  5
1E6
330
1F
100
AcDbEntity
  8
VISIBLE
100
AcDbEllipse
 10
240.4473961471528
 20
100.6752013984701
 30
0.0
 11
0.6999999999999886
 21
-1.212435565298208
 31
0.0
210
0.0
220
0.0
230
1.0
 40
0.5773502691896226
 41
0.0
 42
0.619757420380618
  0
ELLIPSE
  5
1E7
330
1F
100
AcDbEntity
  8
VISIBLE
100
AcDbEllipse
 10
240.4473961471528
 20
100.6752013984701
 30
0.0
 11
0.6999999999999886
 21
-1.212435565298208
 31
0.0
210
0.0
220
0.0
230
1.0
 40
0.5773502691896226
 41
-3.141592653589801
 42
0.0
  0
ELLIPSE
  5
1E8
330
1F
100
AcDbEntity
  8
VISIBLE
100
AcDbEllipse
 10
240.4473961471528
 20
100.6752013984701
 30
0.0
 11
0.6999999999999886
 21
-1.212435565298208
 31
0.0
210
0.0
220
0.0
230
1.0
 40
0.5773502691896226
 41
-3.761350073970395
 42
-3.141592653589801
  0
ELLIPSE
  5
1E9
330
1F
100
AcDbEntity
  8
VISIBLE
100
AcDbEllipse
 10
244.0401768384741
 20
91.26553314263424
 30
0.0
 11
0.9499999999999886
 21
-1.645448267190432
 31
0.0
210
0.0
220
0.0
230
1.0
 40
0.5773502691896202
 41
-3.403392041388928
 42
0.7853981633974514
  0
ELLIPSE
  5
1EA
330
1F
100
AcDbEntity
  8
VISIBLE
100
AcDbEllipse
 10
244.0401768384741
 20
91.26553314263424
 30
0.0
 11
0.9499999999999886
 21
-1.645448267190432
 31
0.0
210
0.0
220
0.0
230
1.0
 40
0.5773502691896202
 41
0.7853981633974514
 42
2.356194490192346
  0
ELLIPSE
  5
1EB
330
1F
100
AcDbEntity
  8
VISIBLE
100
AcDbEllipse
 10
244.0401768384741
 20
91.26553314263424
 30
0.0
 11
0.9499999999999886
 21
-1.645448267190432
 31
0.0
210
0.0
220
0.0
230
1.0
 40
0.5773502691896202
 41
-3.92699081698724
 42
-3.403392041388928
  0
ELLIPSE
  5
1EC
330
1F
100
AcDbEntity
  8
VISIBLE
100
AcDbEllipse
 10
242.8082691554945
 20
105.7671707718271
 30
0.0
 11
0.9499999999999886
 21
-1.645448267190432
 31
0.0
210
0.0
220
0.0
230
1.0
 40
0.5773502691896202
 41
-4.640989147348553
 42
-3.92699081698724
  0
ELLIPSE
  5
1ED
330
1F
100
AcDbEntity
  8
VISIBLE
100
AcDbEllipse
 10
242.8082691554945
 20
105.7671707718271
 30
0.0
 11
0.9499999999999886
 21
-1.645448267190432
 31
0.0
210
0.0
220
0.0
230
1.0
 40
0.5773502691896202
 41
-3.92699081698724
 42
0.7853981633974603
  0
ELLIPSE
  5
1EE
330
1F
100
AcDbEntity
  8
VISIBLE
100
AcDbEllipse
 10
242.8082691554945
 20
105.7671707718271
 30
0.0
 11
0.9499999999999886
 21
-1.645448267190432
 31
0.0
210
0.0
220
0.0
230
1.0
 40
0.5773502691896202
 41
0.7853981633974607
 42
1.642196159831033
  0
ELLIPSE
  5
1EF
330
1F
100
AcDbEntity
  8
VISIBLE
100
AcDbEllipse
 10
251.5723577975323
 20
85.24300844743513
 30
0.0
 11
0.9499999999999886
 21
-1.645448267190432
 31
0.0
210
0.0
220
0.0
230
1.0
 40
0.5773502691896202
 41
-2.356194490192322
 42
0.7853981633974514
  0
ELLIPSE
  5
1F0
330
1F
100
AcDbEntity
  8
VISIBLE
100
AcDbEllipse
 10
251.5723577975323
 20
85.24300844743513
 30
0.0
 11
0.9499999999999886
 21
-1.645448267190432
 31
0.0
210
0.0
220
0.0
230
1.0
 40
0.5773502691896202
 41
0.7853981633974514
 42
2.356194490192346
  0
ELLIPSE
  5
1F1
330
1F
100
AcDbEntity
  8
VISIBLE
100
AcDbEllipse
 10
251.5723577975323
 20
85.24300844743513
 30
0.0
 11
0.9499999999999886
 21
-1.645448267190432
 31
0.0
210
0.0
220
0.0
230
1.0
 40
0.5773502691896202
 41
-3.92699081698724
 42
-2.356194490192322
  0
ELLIPSE
  5
1F2
330
1F
100
AcDbEntity
  8
VISIBLE
100
AcDbEllipse
 10
251.9259111881256
 20
92.14240455627441
 30
0.0
 11
-0.7000000000000171
 21
1.212435565298208
 31
0.0
210
0.0
220
0.0
230
1.0
 40
0.5773502691896394
 41
3.141592653589762
 42
3.76135007397036
  0
ELLIPSE
  5
1F3
330
1F
100
AcDbEntity
  8
VISIBLE
100
AcDbEllipse
 10
251.9259111881256
 20
92.14240455627441
 30
0.0
 11
-0.7000000000000171
 21
1.212435565298208
 31
0.0
210
0.0
220
0.0
230
1.0
 40
0.5773502691896394
 41
0.0
 42
3.141592653589754
  0
ELLIPSE
  5
1F4
330
1F
100
AcDbEntity
  8
VISIBLE
100
AcDbEllipse
 10
251.9259111881256
 20
92.14240455627441
 30
0.0
 11
-0.7000000000000171
 21
1.212435565298208
 31
0.0
210
0.0
220
0.0
230
1.0
 40
0.5773502691896394
 41
-0.619757420380612
 42
0.0
  0
ELLIPSE
  5
1F5
330
1F
100
AcDbEntity
  8
VISIBLE
100
AcDbEllipse
 10
254.4366381744784
 20
89.01901766394015
 30
0.0
 11
-0.7000000000000171
 21
1.212435565298222
 31
0.0
210
0.0
220
0.0
230
1.0
 40
0.5773502691896344
 41
0.0
 42
1.832595714594036
  0
ELLIPSE
  5
1F6
330
1F
100
AcDbEntity
  8
VISIBLE
100
AcDbEllipse
 10
254.4366381744784
 20
89.01901766394015
 30
0.0
 11
-0.7000000000000171
 21
1.212435565298222
 31
0.0
210
0.0
220
0.0
230
1.0
 40
0.5773502691896344
 41
-0.6197574203806094
 42
0.0
  0
ELLIPSE
  5
1F7
330
1F
100
AcDbEntity
  8
VISIBLE
100
AcDbEllipse
 10
254.4366381744784
 20
89.01901766394015
 30
0.0
 11
-0.7000000000000171
 21
1.212435565298222
 31
0.0
210
0.0
220
0.0
230
1.0
 40
0.5773502691896344
 41
3.141592653589771
 42
3.761350073970371
  0
ELLIPSE
  5
1F8
330
1F
100
AcDbEntity
  8
VISIBLE
100
AcDbEllipse
 10
254.4366381744784
 20
89.01901766394015
 30
0.0
 11
-0.7000000000000171
 21
1.212435565298222
 31
0.0
210
0.0
220
0.0
230
1.0
 40
0.5773502691896344
 41
1.832595714594036
 42
3.141592653589771
  0
ELLIPSE
  5
1F9
330
1F
100
AcDbEntity
  8
VISIBLE
100
AcDbEllipse
 10
251.5723577975323
 20
78.54773648382778
 30
0.0
 11
0.9499999999999886
 21
-1.645448267190432
 31
0.0
210
0.0
220
0.0
230
1.0
 40
0.5773502691896202
 41
-2.356194490192322
 42
0.7853981633974607
  0
ELLIPSE
  5
1FA
330
1F
100
AcDbEntity
  8
VISIBLE
100
AcDbEllipse
 10
251.5723577975323
 20
78.54773648382778
 30
0.0
 11
0.9499999999999886
 21
-1.645448267190432
 31
0.0
210
0.0
220
0.0
230
1.0
 40
0.5773502691896202
 41
0.7853981633974607
 42
2.356194490192346
  0
ELLIPSE
  5
1FB
330
1F
100
AcDbEntity
  8
VISIBLE
100
AcDbEllipse
 10
251.5723577975323
 20
78.54773648382778
 30
0.0
 11
0.9499999999999886
 21
-1.645448267190432
 31
0.0
210
0.0
220
0.0
230
1.0
 40
0.5773502691896202
 41
-3.92699081698724
 42
-2.356194490192322
  0
ELLIPSE
  5
1FC
330
1F
100
AcDbEntity
  8
VISIBLE
100
AcDbEllipse
 10
248.9512206075555
 20
84.4225964761875
 30
0.0
 11
0.6999999999999886
 21
-1.212435565298222
 31
0.0
210
0.0
220
0.0
230
1.0
 40
0.5773502691896125
 41
-3.141592653589754
 42
-2.705260340591175
  0
ELLIPSE
  5
1FD
330
1F
100
AcDbEntity
  8
VISIBLE
100
AcDbEllipse
 10
248.9512206075555
 20
84.4225964761875
 30
0.0
 11
0.6999999999999886
 21
-1.212435565298222
 31
0.0
210
0.0
220
0.0
230
1.0
 40
0.5773502691896125
 41
-3.761350073970397
 42
-3.141592653589754
  0
ELLIPSE
  5
1FE
330
1F
100
AcDbEntity
  8
VISIBLE
100
AcDbEllipse
 10
248.9512206075555
 20
84.4225964761875
 30
0.0
 11
0.6999999999999886
 21
-1.212435565298222
 31
0.0
210
0.0
220
0.0
230
1.0
 40
0.5773502691896125
 41
0.0
 42
0.6197574203806191
  0
ELLIPSE
  5
1FF
330
1F
100
AcDbEntity
  8
VISIBLE
100
AcDbEllipse
 10
248.9512206075555
 20
84.4225964761875
 30
0.0
 11
0.6999999999999886
 21
-1.212435565298222
 31
0.0
210
0.0
220
0.0
230
1.0
 40
0.5773502691896125
 41
-2.705260340591175
 42
0.0
  0
ELLIPSE
  5
200
330
1F
100
AcDbEntity
  8
VISIBLE
100
AcDbEllipse
 10
262.120951815243
 20
80.28541383571893
 30
0.0
 11
-0.9499999999999886
 21
1.645448267190446
 31
0.0
210
0.0
220
0.0
230
1.0
 40
0.5773502691896164
 41
1.927795491975552
 42
2.256991903898911
  0
ELLIPSE
  5
201
330
1F
100
AcDbEntity
  8
VISIBLE
100
AcDbEllipse
 10
262.120951815243
 20
80.28541383571893
 30
0.0
 11
-0.9499999999999886
 21
1.645448267190446
 31
0.0
210
0.0
220
0.0
230
1.0
 40
0.5773502691896164
 41
-0.5876044625963036
 42
1.927795491975552
  0
ELLIPSE
  5
202
330
1F
100
AcDbEntity
  8
VISIBLE
100
AcDbEllipse
 10
251.5723577975323
 20
95.28591639284616
 30
0.0
 11
-0.9500000000000172
 21
1.645448267190432
 31
0.0
210
0.0
220
0.0
230
1.0
 40
0.5773502691896364
 41
3.926990816987215
 42
5.497787143782138
  0
ELLIPSE
  5
203
330
1F
100
AcDbEntity
  8
VISIBLE
100
AcDbEllipse
 10
251.5723577975323
 20
95.28591639284616
 30
0.0
 11
-0.9500000000000172
 21
1.645448267190432
 31
0.0
210
0.0
220
0.0
230
1.0
 40
0.5773502691896364
 41
-0.7853981633974486
 42
3.926990816987214
  0
ELLIPSE
  5
204
330
1F
100
AcDbEntity
  8
VISIBLE
100
AcDbEllipse
 10
245.6364674375053
 20
80.69303759537276
 30
0.0
 11
0.6999999999999886
 21
-1.212435565298222
 31
0.0
210
0.0
220
0.0
230
1.0
 40
0.5773502691896125
 41
-3.141592653589754
 42
-2.804993440705137
  0
ELLIPSE
  5
205
330
1F
100
AcDbEntity
  8
VISIBLE
100
AcDbEllipse
 10
245.6364674375053
 20
80.69303759537276
 30
0.0
 11
0.6999999999999886
 21
-1.212435565298222
 31
0.0
210
0.0
220
0.0
230
1.0
 40
0.5773502691896125
 41
-3.761350073970397
 42
-3.141592653589754
  0
ELLIPSE
  5
206
330
1F
100
AcDbEntity
  8
VISIBLE
100
AcDbEllipse
 10
245.6364674375053
 20
80.69303759537276
 30
0.0
 11
0.6999999999999886
 21
-1.212435565298222
 31
0.0
210
0.0
220
0.0
230
1.0
 40
0.5773502691896125
 41
0.0
 42
0.6197574203806191
  0
ELLIPSE
  5
207
330
1F
100
AcDbEntity
  8
VISIBLE
100
AcDbEllipse
 10
245.6364674375053
 20
80.69303759537276
 30
0.0
 11
0.6999999999999886
 21
-1.212435565298222
 31
0.0
210
0.0
220
0.0
230
1.0
 40
0.5773502691896125
 41
-2.804993440705137
 42
0.0
  0
ELLIPSE
  5
208
330
1F
100
AcDbEntity
  8
VISIBLE
100
AcDbEllipse
 10
248.9512206075555
 20
103.2970894512573
 30
0.0
 11
-0.7000000000000171
 21
1.212435565298208
 31
0.0
210
0.0
220
0.0
230
1.0
 40
0.5773502691896394
 41
3.141592653589754
 42
3.76135007397036
  0
ELLIPSE
  5
209
330
1F
100
AcDbEntity
  8
VISIBLE
100
AcDbEllipse
 10
248.9512206075555
 20
103.2970894512573
 30
0.0
 11
-0.7000000000000171
 21
1.212435565298208
 31
0.0
210
0.0
220
0.0
230
1.0
 40
0.5773502691896394
 41
0.0
 42
3.141592653589754
  0
ELLIPSE
  5
20A
330
1F
100
AcDbEntity
  8
VISIBLE
100
AcDbEllipse
 10
248.9512206075555
 20
103.2970894512573
 30
0.0
 11
-0.7000000000000171
 21
1.212435565298208
 31
0.0
210
0.0
220
0.0
230
1.0
 40
0.5773502691896394
 41
-0.619757420380612
 42
0.0
  0
ELLIPSE
  5
20B
330
1F
100
AcDbEntity
  8
VISIBLE
100
AcDbEllipse
 10
254.4714956003972
 20
96.06273802587033
 30
0.0
 11
-0.9499999999999886
 21
1.645448267190432
 31
0.0
210
0.0
220
0.0
230
1.0
 40
0.5773502691896202
 41
3.403392041388953
 42
3.926990816987255
  0
ELLIPSE
  5
20C
330
1F
100
AcDbEntity
  8
VISIBLE
100
AcDbEllipse
 10
254.4714956003972
 20
96.06273802587033
 30
0.0
 11
-0.9499999999999886
 21
1.645448267190432
 31
0.0
210
0.0
220
0.0
230
1.0
 40
0.5773502691896202
 41
3.926990816987255
 42
5.497787143782139
  0
ELLIPSE
  5
20D
330
1F
100
AcDbEntity
  8
VISIBLE
100
AcDbEllipse
 10
254.4714956003972
 20
96.06273802587033
 30
0.0
 11
-0.9499999999999886
 21
1.645448267190432
 31
0.0
210
0.0
220
0.0
230
1.0
 40
0.5773502691896202
 41
-0.7853981633974473
 42
3.403392041388953
  0
ELLIPSE
  5
20E
330
1F
100
AcDbEntity
  8
VISIBLE
100
AcDbEllipse
 10
238.5121932768311
 20
106.7409939976774
 30
0.0
 11
0.9499999999999886
 21
-1.645448267190446
 31
0.0
210
0.0
220
0.0
230
1.0
 40
0.5773502691896164
 41
-4.375789767500057
 42
-3.926990816987239
  0
ELLIPSE
  5
20F
330
1F
100
AcDbEntity
  8
VISIBLE
100
AcDbEllipse
 10
238.5121932768311
 20
106.7409939976774
 30
0.0
 11
0.9499999999999886
 21
-1.645448267190446
 31
0.0
210
0.0
220
0.0
230
1.0
 40
0.5773502691896164
 41
-3.926990816987239
 42
0.7853981633974496
  0
ELLIPSE
  5
210
330
1F
100
AcDbEntity
  8
VISIBLE
100
AcDbEllipse
 10
238.5121932768311
 20
106.7409939976774
 30
0.0
 11
0.9499999999999886
 21
-1.645448267190446
 31
0.0
210
0.0
220
0.0
230
1.0
 40
0.5773502691896164
 41
0.7853981633974495
 42
1.907395539679529
  0
ELLIPSE
  5
211
330
1F
100
AcDbEntity
  8
VISIBLE
100
AcDbEllipse
 10
245.9817682221662
 20
102.8593226316464
 30
0.0
 11
-0.9499999999999886
 21
1.645448267190432
 31
0.0
210
0.0
220
0.0
230
1.0
 40
0.5773502691896202
 41
-1.658062789394615
 42
-0.7853981633974473
  0
ELLIPSE
  5
212
330
1F
100
AcDbEntity
  8
VISIBLE
100
AcDbEllipse
 10
245.9817682221662
 20
102.8593226316464
 30
0.0
 11
-0.9499999999999886
 21
1.645448267190432
 31
0.0
210
0.0
220
0.0
230
1.0
 40
0.5773502691896202
 41
-0.7853981633974473
 42
3.926990816987255
  0
ELLIPSE
  5
213
330
1F
100
AcDbEntity
  8
VISIBLE
100
AcDbEllipse
 10
245.9817682221662
 20
102.8593226316464
 30
0.0
 11
-0.9499999999999886
 21
1.645448267190432
 31
0.0
210
0.0
220
0.0
230
1.0
 40
0.5773502691896202
 41
3.926990816987255
 42
4.625122517784971
  0
ELLIPSE
  5
214
330
1F
100
AcDbEntity
  8
VISIBLE
100
AcDbEllipse
 10
259.4580921471839
 20
92.81515182468266
 30
0.0
 11
-0.7000000000000454
 21
1.212435565298221
 31
0.0
210
0.0
220
0.0
230
1.0
 40
0.5773502691896563
 41
1.214012752753113
 42
1.662757971461626
  0
ELLIPSE
  5
215
330
1F
100
AcDbEntity
  8
VISIBLE
100
AcDbEllipse
 10
237.4401059711602
 20
96.37294438117041
 30
0.0
 11
0.9499999999999886
 21
-1.645448267190432
 31
0.0
210
0.0
220
0.0
230
1.0
 40
0.5773502691896202
 41
-3.702591341730824
 42
0.7853981633974607
  0
ELLIPSE
  5
216
330
1F
100
AcDbEntity
  8
VISIBLE
100
AcDbEllipse
 10
237.4401059711602
 20
96.37294438117041
 30
0.0
 11
0.9499999999999886
 21
-1.645448267190432
 31
0.0
210
0.0
220
0.0
230
1.0
 40
0.5773502691896202
 41
0.7853981633974607
 42
2.356194490192346
  0
ELLIPSE
  5
217
330
1F
100
AcDbEntity
  8
VISIBLE
100
AcDbEllipse
 10
237.4401059711602
 20
96.37294438117041
 30
0.0
 11
0.9499999999999886
 21
-1.645448267190432
 31
0.0
210
0.0
220
0.0
230
1.0
 40
0.5773502691896202
 41
-3.92699081698724
 42
-3.702591341730824
  0
ELLIPSE
  5
218
330
1F
100
AcDbEntity
  8
VISIBLE
100
AcDbEllipse
 10
262.9055438289969
 20
74.95897793005055
 30
0.0
 11
-0.9499999999999886
 21
1.645448267190432
 31
0.0
210
0.0
220
0.0
230
1.0
 40
0.5773502691896202
 41
0.2702496121071648
 42
0.8834813795220601
  0
ELLIPSE
  5
219
330
1F
100
AcDbEntity
  8
VISIBLE
100
AcDbEllipse
 10
241.0237637798217
 20
92.46588102711358
 30
0.0
 11
0.9499999999999886
 21
-1.645448267190432
 31
0.0
210
0.0
220
0.0
230
1.0
 40
0.5773502691896202
 41
-3.498591818770443
 42
0.7853981633974514
  0
ELLIPSE
  5
21A
330
1F
100
AcDbEntity
  8
VISIBLE
100
AcDbEllipse
 10
241.0237637798217
 20
92.46588102711358
 30
0.0
 11
0.9499999999999886
 21
-1.645448267190432
 31
0.0
210
0.0
220
0.0
230
1.0
 40
0.5773502691896202
 41
0.7853981633974514
 42
2.356194490192346
  0
ELLIPSE
  5
21B
330
1F
100
AcDbEntity
  8
VISIBLE
100
AcDbEllipse
 10
241.0237637798217
 20
92.46588102711358
 30
0.0
 11
0.9499999999999886
 21
-1.645448267190432
 31
0.0
210
0.0
220
0.0
230
1.0
 40
0.5773502691896202
 41
-3.92699081698724
 42
-3.498591818770443
  0
ELLIPSE
  5
21C
330
1F
100
AcDbEntity
  8
VISIBLE
100
AcDbEllipse
 10
246.0922802433366
 20
88.77435615994754
 30
0.0
 11
-15.84999999999999
 21
27.4530052999667
 31
0.0
210
0.0
220
0.0
230
1.0
 40
0.5773502691896256
 41
3.926990816987241
 42
6.283185307179586
  0
ELLIPSE
  5
21D
330
1F
100
AcDbEntity
  8
VISIBLE
100
AcDbEllipse
 10
246.0922802433366
 20
88.77435615994754
 30
0.0
 11
-15.84999999999999
 21
27.4530052999667
 31
0.0
210
0.0
220
0.0
230
1.0
 40
0.5773502691896256
 41
0.0
 42
0.7853981633974487
  0
ELLIPSE
  5
21E
330
1F
100
AcDbEntity
  8
VISIBLE
100
AcDbEllipse
 10
246.0922802433366
 20
88.77435615994754
 30
0.0
 11
-15.84999999999999
 21
27.4530052999667
 31
0.0
210
0.0
220
0.0
230
1.0
 40
0.5773502691896256
 41
2.356194490192345
 42
3.141592653589794
  0
ELLIPSE
  5
21F
330
1F
100
AcDbEntity
  8
VISIBLE
100
AcDbEllipse
 10
246.0922802433366
 20
88.77435615994754
 30
0.0
 11
-15.84999999999999
 21
27.4530052999667
 31
0.0
210
0.0
220
0.0
230
1.0
 40
0.5773502691896256
 41
3.141592653589794
 42
3.926990816987241
  0
ELLIPSE
  5
220
330
1F
100
AcDbEntity
  8
VISIBLE
100
AcDbEllipse
 10
241.377317170415
 20
92.67000517234551
 30
0.0
 11
0.6999999999999886
 21
-1.212435565298222
 31
0.0
210
0.0
220
0.0
230
1.0
 40
0.5773502691896125
 41
-3.761350073970397
 42
-3.49859181877045
  0
ELLIPSE
  5
221
330
1F
100
AcDbEntity
  8
VISIBLE
100
AcDbEllipse
 10
241.377317170415
 20
92.67000517234551
 30
0.0
 11
0.6999999999999886
 21
-1.212435565298222
 31
0.0
210
0.0
220
0.0
230
1.0
 40
0.5773502691896125
 41
0.0
 42
0.6197574203806191
  0
ELLIPSE
  5
222
330
1F
100
AcDbEntity
  8
VISIBLE
100
AcDbEllipse
 10
241.377317170415
 20
92.67000517234551
 30
0.0
 11
0.6999999999999886
 21
-1.212435565298222
 31
0.0
210
0.0
220
0.0
230
1.0
 40
0.5773502691896125
 41
-3.141592653589763
 42
0.0
  0
ELLIPSE
  5
223
330
1F
100
AcDbEntity
  8
VISIBLE
100
AcDbEllipse
 10
241.377317170415
 20
92.67000517234551
 30
0.0
 11
0.6999999999999886
 21
-1.212435565298222
 31
0.0
210
0.0
220
0.0
230
1.0
 40
0.5773502691896125
 41
-3.49859181877045
 42
-3.141592653589763
  0
ELLIPSE
  5
224
330
1F
100
AcDbEntity
  8
VISIBLE
100
AcDbEllipse
 10
254.0830847838851
 20
88.81489351870822
 30
0.0
 11
-0.9499999999999886
 21
1.645448267190432
 31
0.0
210
0.0
220
0.0
230
1.0
 40
0.5773502691896202
 41
1.832595714594041
 42
3.926990816987254
  0
ELLIPSE
  5
225
330
1F
100
AcDbEntity
  8
VISIBLE
100
AcDbEllipse
 10
254.0830847838851
 20
88.81489351870822
 30
0.0
 11
-0.9499999999999886
 21
1.645448267190432
 31
0.0
210
0.0
220
0.0
230
1.0
 40
0.5773502691896202
 41
3.926990816987253
 42
5.497787143782139
  0
ELLIPSE
  5
226
330
1F
100
AcDbEntity
  8
VISIBLE
100
AcDbEllipse
 10
254.0830847838851
 20
88.81489351870822
 30
0.0
 11
-0.9499999999999886
 21
1.645448267190432
 31
0.0
210
0.0
220
0.0
230
1.0
 40
0.5773502691896202
 41
-0.7853981633974473
 42
1.832595714594041
  0
ELLIPSE
  5
227
330
1F
100
AcDbEntity
  8
VISIBLE
100
AcDbEllipse
 10
242.5344435261855
 20
110.2427586606018
 30
0.0
 11
-0.9499999999999886
 21
1.645448267190446
 31
0.0
210
0.0
220
0.0
230
1.0
 40
0.5773502691896164
 41
2.258111274067735
 42
2.871343041482626
  0
ELLIPSE
  5
228
330
1F
100
AcDbEntity
  8
VISIBLE
100
AcDbEllipse
 10
243.0070776415961
 20
95.13951455155947
 30
0.0
 11
0.9500000000000172
 21
-1.645448267190432
 31
0.0
210
0.0
220
0.0
230
1.0
 40
0.5773502691896364
 41
-3.752457891787818
 42
0.7853981633974318
  0
ELLIPSE
  5
229
330
1F
100
AcDbEntity
  8
VISIBLE
100
AcDbEllipse
 10
243.0070776415961
 20
95.13951455155947
 30
0.0
 11
0.9500000000000172
 21
-1.645448267190432
 31
0.0
210
0.0
220
0.0
230
1.0
 40
0.5773502691896364
 41
0.7853981633974323
 42
2.356194490192345
  0
ELLIPSE
  5
22A
330
1F
100
AcDbEntity
  8
VISIBLE
100
AcDbEllipse
 10
243.0070776415961
 20
95.13951455155947
 30
0.0
 11
0.9500000000000172
 21
-1.645448267190432
 31
0.0
210
0.0
220
0.0
230
1.0
 40
0.5773502691896364
 41
-3.926990816987241
 42
-3.752457891787818
  0
ELLIPSE
  5
22B
330
1F
100
AcDbEntity
  8
VISIBLE
100
AcDbEllipse
 10
257.5165007634918
 20
81.2213623356705
 30
0.0
 11
0.6999999999999886
 21
-1.212435565298222
 31
0.0
210
0.0
220
0.0
230
1.0
 40
0.5773502691896125
 41
-3.141592653589724
 42
-1.658062789394605
  0
ELLIPSE
  5
22C
330
1F
100
AcDbEntity
  8
VISIBLE
100
AcDbEllipse
 10
257.5165007634918
 20
81.2213623356705
 30
0.0
 11
0.6999999999999886
 21
-1.212435565298222
 31
0.0
210
0.0
220
0.0
230
1.0
 40
0.5773502691896125
 41
-3.761350073970397
 42
-3.141592653589724
  0
ELLIPSE
  5
22D
330
1F
100
AcDbEntity
  8
VISIBLE
100
AcDbEllipse
 10
257.5165007634918
 20
81.2213623356705
 30
0.0
 11
0.6999999999999886
 21
-1.212435565298222
 31
0.0
210
0.0
220
0.0
230
1.0
 40
0.5773502691896125
 41
0.0
 42
0.6197574203806191
  0
ELLIPSE
  5
22E
330
1F
100
AcDbEntity
  8
VISIBLE
100
AcDbEllipse
 10
257.5165007634918
 20
81.2213623356705
 30
0.0
 11
0.6999999999999886
 21
-1.212435565298222
 31
0.0
210
0.0
220
0.0
230
1.0
 40
0.5773502691896125
 41
-1.658062789394605
 42
0.0
  0
ELLIPSE
  5
22F
330
1F
100
AcDbEntity
  8
VISIBLE
100
AcDbEllipse
 10
254.9006017686957
 20
80.98771966129151
 30
0.0
 11
0.6999999999999886
 21
-1.212435565298208
 31
0.0
210
0.0
220
0.0
230
1.0
 40
0.5773502691896226
 41
-3.141592653589771
 42
-2.007128639793471
  0
ELLIPSE
  5
230
330
1F
100
AcDbEntity
  8
VISIBLE
100
AcDbEllipse
 10
254.9006017686957
 20
80.98771966129151
 30
0.0
 11
0.6999999999999886
 21
-1.212435565298208
 31
0.0
210
0.0
220
0.0
230
1.0
 40
0.5773502691896226
 41
-3.761350073970395
 42
-3.141592653589771
  0
ELLIPSE
  5
231
330
1F
100
AcDbEntity
  8
VISIBLE
100
AcDbEllipse
 10
254.9006017686957
 20
80.98771966129151
 30
0.0
 11
0.6999999999999886
 21
-1.212435565298208
 31
0.0
210
0.0
220
0.0
230
1.0
 40
0.5773502691896226
 41
0.0
 42
0.6197574203806049
  0
ELLIPSE
  5
232
330
1F
100
AcDbEntity
  8
VISIBLE
100
AcDbEllipse
 10
254.9006017686957
 20
80.98771966129151
 30
0.0
 11
0.6999999999999886
 21
-1.212435565298208
 31
0.0
210
0.0
220
0.0
230
1.0
 40
0.5773502691896226
 41
-2.007128639793471
 42
0.0
  0
ELLIPSE
  5
233
330
1F
100
AcDbEntity
  8
VISIBLE
100
AcDbEllipse
 10
257.7595421329146
 20
95.51045295260128
 30
0.0
 11
-15.85000000000002
 21
27.4530052999667
 31
0.0
210
0.0
220
0.0
230
1.0
 40
0.5773502691896263
 41
3.141592653589791
 42
3.92699081698724
  0
ELLIPSE
  5
234
330
1F
100
AcDbEntity
  8
VISIBLE
100
AcDbEllipse
 10
257.7595421329146
 20
95.51045295260128
 30
0.0
 11
-15.85000000000002
 21
27.4530052999667
 31
0.0
210
0.0
220
0.0
230
1.0
 40
0.5773502691896263
 41
-0.7853981633974482
 42
0.0
  0
ELLIPSE
  5
235
330
1F
100
AcDbEntity
  8
VISIBLE
100
AcDbEllipse
 10
257.7595421329146
 20
95.51045295260128
 30
0.0
 11
-15.85000000000002
 21
27.4530052999667
 31
0.0
210
0.0
220
0.0
230
1.0
 40
0.5773502691896263
 41
3.92699081698724
 42
5.497787143782138
  0
ELLIPSE
  5
236
330
1F
100
AcDbEntity
  8
VISIBLE
100
AcDbEllipse
 10
251.5723577975323
 20
98.63355237464984
 30
0.0
 11
-0.9500000000000172
 21
1.645448267190432
 31
0.0
210
0.0
220
0.0
230
1.0
 40
0.5773502691896364
 41
3.926990816987215
 42
5.497787143782138
  0
ELLIPSE
  5
237
330
1F
100
AcDbEntity
  8
VISIBLE
100
AcDbEllipse
 10
251.5723577975323
 20
98.63355237464984
 30
0.0
 11
-0.9500000000000172
 21
1.645448267190432
 31
0.0
210
0.0
220
0.0
230
1.0
 40
0.5773502691896364
 41
-0.7853981633974486
 42
3.926990816987214
  0
ELLIPSE
  5
238
330
1F
100
AcDbEntity
  8
VISIBLE
100
AcDbEllipse
 10
249.4151842017728
 20
95.26579144860868
 30
0.0
 11
0.7000000000000171
 21
-1.212435565298222
 31
0.0
210
0.0
220
0.0
230
1.0
 40
0.5773502691896344
 41
0.0
 42
0.6197574203805963
  0
ELLIPSE
  5
239
330
1F
100
AcDbEntity
  8
VISIBLE
100
AcDbEllipse
 10
249.4151842017728
 20
95.26579144860868
 30
0.0
 11
0.7000000000000171
 21
-1.212435565298222
 31
0.0
210
0.0
220
0.0
230
1.0
 40
0.5773502691896344
 41
-3.141592653589816
 42
0.0
  0
ELLIPSE
  5
23A
330
1F
100
AcDbEntity
  8
VISIBLE
100
AcDbEllipse
 10
249.4151842017728
 20
95.26579144860868
 30
0.0
 11
0.7000000000000171
 21
-1.212435565298222
 31
0.0
210
0.0
220
0.0
230
1.0
 40
0.5773502691896344
 41
-3.761350073970403
 42
-3.141592653589816
  0
ELLIPSE
  5
23B
330
1F
100
AcDbEntity
  8
VISIBLE
100
AcDbEllipse
 10
251.5723577975323
 20
101.9811883564535
 30
0.0
 11
-0.9500000000000172
 21
1.645448267190432
 31
0.0
210
0.0
220
0.0
230
1.0
 40
0.5773502691896364
 41
3.926990816987215
 42
4.025814060346942
  0
ELLIPSE
  5
23C
330
1F
100
AcDbEntity
  8
VISIBLE
100
AcDbEllipse
 10
251.5723577975323
 20
101.9811883564535
 30
0.0
 11
-0.9500000000000172
 21
1.645448267190432
 31
0.0
210
0.0
220
0.0
230
1.0
 40
0.5773502691896364
 41
-0.064225156994624
 42
3.926990816987215
  0
ELLIPSE
  5
23D
330
1F
100
AcDbEntity
  8
VISIBLE
100
AcDbEllipse
 10
248.6732199946675
 20
99.41037400767401
 30
0.0
 11
-0.9499999999999886
 21
1.645448267190446
 31
0.0
210
0.0
220
0.0
230
1.0
 40
0.5773502691896164
 41
-1.832595714594038
 42
-0.7853981633974465
  0
ELLIPSE
  5
23E
330
1F
100
AcDbEntity
  8
VISIBLE
100
AcDbEllipse
 10
248.6732199946675
 20
99.41037400767401
 30
0.0
 11
-0.9499999999999886
 21
1.645448267190446
 31
0.0
210
0.0
220
0.0
230
1.0
 40
0.5773502691896164
 41
-0.7853981633974465
 42
3.926990816987261
  0
ELLIPSE
  5
23F
330
1F
100
AcDbEntity
  8
VISIBLE
100
AcDbEllipse
 10
248.6732199946675
 20
99.41037400767401
 30
0.0
 11
-0.9499999999999886
 21
1.645448267190446
 31
0.0
210
0.0
220
0.0
230
1.0
 40
0.5773502691896164
 41
3.926990816987261
 42
4.450589592585548
  0
ELLIPSE
  5
240
330
1F
100
AcDbEntity
  8
VISIBLE
100
AcDbEllipse
 10
245.3027888709032
 20
106.8228601038352
 30
0.0
 11
-0.9499999999999886
 21
1.645448267190432
 31
0.0
210
0.0
220
0.0
230
1.0
 40
0.5773502691896202
 41
0.3670531674763953
 42
3.926990816987255
  0
ELLIPSE
  5
241
330
1F
100
AcDbEntity
  8
VISIBLE
100
AcDbEllipse
 10
245.3027888709032
 20
106.8228601038352
 30
0.0
 11
-0.9499999999999886
 21
1.645448267190432
 31
0.0
210
0.0
220
0.0
230
1.0
 40
0.5773502691896202
 41
3.926990816987255
 42
4.444464705484664
  0
ELLIPSE
  5
242
330
1F
100
AcDbEntity
  8
VISIBLE
100
AcDbEllipse
 10
251.9259111881256
 20
102.1853125016854
 30
0.0
 11
-0.7000000000000171
 21
1.212435565298222
 31
0.0
210
0.0
220
0.0
230
1.0
 40
0.5773502691896344
 41
3.141592653589763
 42
3.71014874541104
  0
ELLIPSE
  5
243
330
1F
100
AcDbEntity
  8
VISIBLE
100
AcDbEllipse
 10
251.9259111881256
 20
102.1853125016854
 30
0.0
 11
-0.7000000000000171
 21
1.212435565298222
 31
0.0
210
0.0
220
0.0
230
1.0
 40
0.5773502691896344
 41
0.2263517220162695
 42
3.141592653589763
  0
ELLIPSE
  5
244
330
1F
100
AcDbEntity
  8
VISIBLE
100
AcDbEllipse
 10
251.9259111881256
 20
75.40422464725603
 30
0.0
 11
0.6999999999999886
 21
-1.212435565298222
 31
0.0
210
0.0
220
0.0
230
1.0
 40
0.5773502691896125
 41
-3.141592653589763
 42
-2.356194490192308
  0
ELLIPSE
  5
245
330
1F
100
AcDbEntity
  8
VISIBLE
100
AcDbEllipse
 10
251.9259111881256
 20
75.40422464725603
 30
0.0
 11
0.6999999999999886
 21
-1.212435565298222
 31
0.0
210
0.0
220
0.0
230
1.0
 40
0.5773502691896125
 41
-3.761350073970397
 42
-3.141592653589763
  0
ELLIPSE
  5
246
330
1F
100
AcDbEntity
  8
VISIBLE
100
AcDbEllipse
 10
251.9259111881256
 20
75.40422464725603
 30
0.0
 11
0.6999999999999886
 21
-1.212435565298222
 31
0.0
210
0.0
220
0.0
230
1.0
 40
0.5773502691896125
 41
0.0
 42
0.6197574203806321
  0
ELLIPSE
  5
247
330
1F
100
AcDbEntity
  8
VISIBLE
100
AcDbEllipse
 10
251.9259111881256
 20
75.40422464725603
 30
0.0
 11
0.6999999999999886
 21
-1.212435565298222
 31
0.0
210
0.0
220
0.0
230
1.0
 40
0.5773502691896125
 41
-2.356194490192308
 42
0.0
  0
ELLIPSE
  5
248
330
1F
100
AcDbEntity
  8
VISIBLE
100
AcDbEllipse
 10
248.6587851647786
 20
81.18054783429146
 30
0.0
 11
0.6999999999999886
 21
-1.212435565298208
 31
0.0
210
0.0
220
0.0
230
1.0
 40
0.5773502691896226
 41
-3.141592653589771
 42
-2.641793822336867
  0
ELLIPSE
  5
249
330
1F
100
AcDbEntity
  8
VISIBLE
100
AcDbEllipse
 10
248.6587851647786
 20
81.18054783429146
 30
0.0
 11
0.6999999999999886
 21
-1.212435565298208
 31
0.0
210
0.0
220
0.0
230
1.0
 40
0.5773502691896226
 41
-3.761350073970395
 42
-3.141592653589771
  0
ELLIPSE
  5
24A
330
1F
100
AcDbEntity
  8
VISIBLE
100
AcDbEllipse
 10
248.6587851647786
 20
81.18054783429146
 30
0.0
 11
0.6999999999999886
 21
-1.212435565298208
 31
0.0
210
0.0
220
0.0
230
1.0
 40
0.5773502691896226
 41
0.0
 42
0.6197574203806049
  0
ELLIPSE
  5
24B
330
1F
100
AcDbEntity
  8
VISIBLE
100
AcDbEllipse
 10
248.6587851647786
 20
81.18054783429146
 30
0.0
 11
0.6999999999999886
 21
-1.212435565298208
 31
0.0
210
0.0
220
0.0
230
1.0
 40
0.5773502691896226
 41
-2.641793822336867
 42
0.0
  0
ELLIPSE
  5
24C
330
1F
100
AcDbEntity
  8
VISIBLE
100
AcDbEllipse
 10
248.3467635397246
 20
77.48205933166125
 30
0.0
 11
0.9500000000000171
 21
-1.645448267190446
 31
0.0
210
0.0
220
0.0
230
1.0
 40
0.5773502691896288
 41
-2.580593965448765
 42
0.7853981633974327
  0
ELLIPSE
  5
24D
330
1F
100
AcDbEntity
  8
VISIBLE
100
AcDbEllipse
 10
248.3467635397246
 20
77.48205933166125
 30
0.0
 11
0.9500000000000171
 21
-1.645448267190446
 31
0.0
210
0.0
220
0.0
230
1.0
 40
0.5773502691896288
 41
0.7853981633974326
 42
2.356194490192342
  0
ELLIPSE
  5
24E
330
1F
100
AcDbEntity
  8
VISIBLE
100
AcDbEllipse
 10
248.3467635397246
 20
77.48205933166125
 30
0.0
 11
0.9500000000000171
 21
-1.645448267190446
 31
0.0
210
0.0
220
0.0
230
1.0
 40
0.5773502691896288
 41
-3.926990816987244
 42
-2.580593965448765
  0
ELLIPSE
  5
24F
330
1F
100
AcDbEntity
  8
VISIBLE
100
AcDbEllipse
 10
259.4580921471839
 20
82.77224387927163
 30
0.0
 11
-0.7000000000000454
 21
1.212435565298221
 31
0.0
210
0.0
220
0.0
230
1.0
 40
0.5773502691896563
 41
0.0
 42
1.832595714594022
  0
ELLIPSE
  5
250
330
1F
100
AcDbEntity
  8
VISIBLE
100
AcDbEllipse
 10
259.4580921471839
 20
82.77224387927163
 30
0.0
 11
-0.7000000000000454
 21
1.212435565298221
 31
0.0
210
0.0
220
0.0
230
1.0
 40
0.5773502691896563
 41
-0.6197574203806149
 42
0.0
  0
ELLIPSE
  5
251
330
1F
100
AcDbEntity
  8
VISIBLE
100
AcDbEllipse
 10
259.4580921471839
 20
82.77224387927163
 30
0.0
 11
-0.7000000000000454
 21
1.212435565298221
 31
0.0
210
0.0
220
0.0
230
1.0
 40
0.5773502691896563
 41
3.141592653589733
 42
3.76135007397033
  0
ELLIPSE
  5
252
330
1F
100
AcDbEntity
  8
VISIBLE
100
AcDbEllipse
 10
259.4580921471839
 20
82.77224387927163
 30
0.0
 11
-0.7000000000000454
 21
1.212435565298221
 31
0.0
210
0.0
220
0.0
230
1.0
 40
0.5773502691896563
 41
1.832595714594022
 42
3.141592653589733
  0
ELLIPSE
  5
253
330
1F
100
AcDbEntity
  8
VISIBLE
100
AcDbEllipse
 10
243.3606310321894
 20
95.3436386967914
 30
0.0
 11
0.7000000000000171
 21
-1.212435565298222
 31
0.0
210
0.0
220
0.0
230
1.0
 40
0.5773502691896344
 41
-3.761350073970403
 42
-3.752457891787809
  0
ELLIPSE
  5
254
330
1F
100
AcDbEntity
  8
VISIBLE
100
AcDbEllipse
 10
243.3606310321894
 20
95.3436386967914
 30
0.0
 11
0.7000000000000171
 21
-1.212435565298222
 31
0.0
210
0.0
220
0.0
230
1.0
 40
0.5773502691896344
 41
0.0
 42
0.6197574203805963
  0
ELLIPSE
  5
255
330
1F
100
AcDbEntity
  8
VISIBLE
100
AcDbEllipse
 10
243.3606310321894
 20
95.3436386967914
 30
0.0
 11
0.7000000000000171
 21
-1.212435565298222
 31
0.0
210
0.0
220
0.0
230
1.0
 40
0.5773502691896344
 41
-3.141592653589816
 42
0.0
  0
ELLIPSE
  5
256
330
1F
100
AcDbEntity
  8
VISIBLE
100
AcDbEllipse
 10
243.3606310321894
 20
95.3436386967914
 30
0.0
 11
0.7000000000000171
 21
-1.212435565298222
 31
0.0
210
0.0
220
0.0
230
1.0
 40
0.5773502691896344
 41
-3.752457891787809
 42
-3.141592653589816
  0
ELLIPSE
  5
257
330
1F
100
AcDbEntity
  8
VISIBLE
100
AcDbEllipse
 10
245.6563422614965
 20
84.49729947846615
 30
0.0
 11
0.7000000000000171
 21
-1.212435565298208
 31
0.0
210
0.0
220
0.0
230
1.0
 40
0.5773502691896394
 41
-3.141592653589831
 42
-2.927393154481435
  0
ELLIPSE
  5
258
330
1F
100
AcDbEntity
  8
VISIBLE
100
AcDbEllipse
 10
245.6563422614965
 20
84.49729947846615
 30
0.0
 11
0.7000000000000171
 21
-1.212435565298208
 31
0.0
210
0.0
220
0.0
230
1.0
 40
0.5773502691896394
 41
-3.761350073970405
 42
-3.141592653589831
  0
ELLIPSE
  5
259
330
1F
100
AcDbEntity
  8
VISIBLE
100
AcDbEllipse
 10
245.6563422614965
 20
84.49729947846615
 30
0.0
 11
0.7000000000000171
 21
-1.212435565298208
 31
0.0
210
0.0
220
0.0
230
1.0
 40
0.5773502691896394
 41
0.0
 42
0.6197574203805862
  0
ELLIPSE
  5
25A
330
1F
100
AcDbEntity
  8
VISIBLE
100
AcDbEllipse
 10
245.6563422614965
 20
84.49729947846615
 30
0.0
 11
0.7000000000000171
 21
-1.212435565298208
 31
0.0
210
0.0
220
0.0
230
1.0
 40
0.5773502691896394
 41
-2.927393154481435
 42
0.0
  0
ELLIPSE
  5
25B
330
1F
100
AcDbEntity
  8
VISIBLE
100
AcDbEllipse
 10
240.2391717660677
 20
108.9175828920344
 30
0.0
 11
0.9499999999999886
 21
-1.645448267190432
 31
0.0
210
0.0
220
0.0
230
1.0
 40
0.5773502691896202
 41
-2.123049628981018
 42
0.7853981633974607
  0
ELLIPSE
  5
25C
330
1F
100
AcDbEntity
  8
VISIBLE
100
AcDbEllipse
 10
240.2391717660677
 20
108.9175828920344
 30
0.0
 11
0.9499999999999886
 21
-1.645448267190432
 31
0.0
210
0.0
220
0.0
230
1.0
 40
0.5773502691896202
 41
0.7853981633974607
 42
1.318712523343496
  0
ELLIPSE
  5
25D
330
1F
100
AcDbEntity
  8
VISIBLE
100
AcDbEllipse
 10
243.1618225460878
 20
88.43341206885427
 30
0.0
 11
0.6999999999999886
 21
-1.212435565298208
 31
0.0
210
0.0
220
0.0
230
1.0
 40
0.5773502691896226
 41
-3.761350073970395
 42
-3.212992486625918
  0
ELLIPSE
  5
25E
330
1F
100
AcDbEntity
  8
VISIBLE
100
AcDbEllipse
 10
243.1618225460878
 20
88.43341206885427
 30
0.0
 11
0.6999999999999886
 21
-1.212435565298208
 31
0.0
210
0.0
220
0.0
230
1.0
 40
0.5773502691896226
 41
0.0
 42
0.6197574203806049
  0
ELLIPSE
  5
25F
330
1F
100
AcDbEntity
  8
VISIBLE
100
AcDbEllipse
 10
243.1618225460878
 20
88.43341206885427
 30
0.0
 11
0.6999999999999886
 21
-1.212435565298208
 31
0.0
210
0.0
220
0.0
230
1.0
 40
0.5773502691896226
 41
-3.141592653589801
 42
0.0
  0
ELLIPSE
  5
260
330
1F
100
AcDbEntity
  8
VISIBLE
100
AcDbEllipse
 10
243.1618225460878
 20
88.43341206885427
 30
0.0
 11
0.6999999999999886
 21
-1.212435565298208
 31
0.0
210
0.0
220
0.0
230
1.0
 40
0.5773502691896226
 41
-3.212992486625918
 42
-3.141592653589801
  0
ELLIPSE
  5
261
330
1F
100
AcDbEntity
  8
VISIBLE
100
AcDbEllipse
 10
249.4151842017728
 20
91.918155466805
 30
0.0
 11
0.7000000000000171
 21
-1.212435565298222
 31
0.0
210
0.0
220
0.0
230
1.0
 40
0.5773502691896344
 41
-3.761350073970403
 42
-3.403392041388975
  0
ELLIPSE
  5
262
330
1F
100
AcDbEntity
  8
VISIBLE
100
AcDbEllipse
 10
249.4151842017728
 20
91.918155466805
 30
0.0
 11
0.7000000000000171
 21
-1.212435565298222
 31
0.0
210
0.0
220
0.0
230
1.0
 40
0.5773502691896344
 41
0.0
 42
0.6197574203805963
  0
ELLIPSE
  5
263
330
1F
100
AcDbEntity
  8
VISIBLE
100
AcDbEllipse
 10
249.4151842017728
 20
91.918155466805
 30
0.0
 11
0.7000000000000171
 21
-1.212435565298222
 31
0.0
210
0.0
220
0.0
230
1.0
 40
0.5773502691896344
 41
-3.141592653589816
 42
0.0
  0
ELLIPSE
  5
264
330
1F
100
AcDbEntity
  8
VISIBLE
100
AcDbEllipse
 10
249.4151842017728
 20
91.918155466805
 30
0.0
 11
0.7000000000000171
 21
-1.212435565298222
 31
0.0
210
0.0
220
0.0
230
1.0
 40
0.5773502691896344
 41
-3.403392041388975
 42
-3.141592653589816
  0
ELLIPSE
  5
265
330
1F
100
AcDbEntity
  8
VISIBLE
100
AcDbEllipse
 10
260.3364464395701
 20
78.10939005025782
 30
0.0
 11
-0.9499999999999886
 21
1.645448267190432
 31
0.0
210
0.0
220
0.0
230
1.0
 40
0.5773502691896202
 41
1.642196159831027
 42
3.926990816987243
  0
ELLIPSE
  5
266
330
1F
100
AcDbEntity
  8
VISIBLE
100
AcDbEllipse
 10
260.3364464395701
 20
78.10939005025782
 30
0.0
 11
-0.9499999999999886
 21
1.645448267190432
 31
0.0
210
0.0
220
0.0
230
1.0
 40
0.5773502691896202
 41
3.926990816987243
 42
5.497787143782139
  0
ELLIPSE
  5
267
330
1F
100
AcDbEntity
  8
VISIBLE
100
AcDbEllipse
 10
260.3364464395701
 20
78.10939005025782
 30
0.0
 11
-0.9499999999999886
 21
1.645448267190432
 31
0.0
210
0.0
220
0.0
230
1.0
 40
0.5773502691896202
 41
-0.7853981633974473
 42
1.642196159831027
  0
ELLIPSE
  5
268
330
1F
100
AcDbEntity
  8
VISIBLE
100
AcDbEllipse
 10
251.5723577975323
 20
91.93828041104248
 30
0.0
 11
11.75
 21
-20.35159698893432
 31
0.0
210
0.0
220
0.0
230
1.0
 40
0.5773502691896252
 41
-2.723289736959601
 42
-0.4183029166301919
  0
ELLIPSE
  5
269
330
1F
100
AcDbEntity
  8
VISIBLE
100
AcDbEllipse
 10
243.3606310321894
 20
98.83150402318613
 30
0.0
 11
0.7000000000000171
 21
-1.212435565298222
 31
0.0
210
0.0
220
0.0
230
1.0
 40
0.5773502691896344
 41
0.0
 42
0.6197574203805963
  0
ELLIPSE
  5
26A
330
1F
100
AcDbEntity
  8
VISIBLE
100
AcDbEllipse
 10
243.3606310321894
 20
98.83150402318613
 30
0.0
 11
0.7000000000000171
 21
-1.212435565298222
 31
0.0
210
0.0
220
0.0
230
1.0
 40
0.5773502691896344
 41
-3.141592653589816
 42
0.0
  0
ELLIPSE
  5
26B
330
1F
100
AcDbEntity
  8
VISIBLE
100
AcDbEllipse
 10
243.3606310321894
 20
98.83150402318613
 30
0.0
 11
0.7000000000000171
 21
-1.212435565298222
 31
0.0
210
0.0
220
0.0
230
1.0
 40
0.5773502691896344
 41
-3.761350073970403
 42
-3.141592653589816
  0
ELLIPSE
  5
26C
330
1F
100
AcDbEntity
  8
VISIBLE
100
AcDbEllipse
 10
255.1515054459333
 20
73.96158805080958
 30
0.0
 11
0.6999999999999886
 21
-1.212435565298222
 31
0.0
210
0.0
220
0.0
230
1.0
 40
0.5773502691896352
 41
-3.141592653589793
 42
-2.131795014935935
  0
ELLIPSE
  5
26D
330
1F
100
AcDbEntity
  8
VISIBLE
100
AcDbEllipse
 10
255.1515054459333
 20
73.96158805080958
 30
0.0
 11
0.6999999999999886
 21
-1.212435565298222
 31
0.0
210
0.0
220
0.0
230
1.0
 40
0.5773502691896352
 41
-3.761350073970378
 42
-3.141592653589793
  0
ELLIPSE
  5
26E
330
1F
100
AcDbEntity
  8
VISIBLE
100
AcDbEllipse
 10
255.1515054459333
 20
73.96158805080958
 30
0.0
 11
0.6999999999999886
 21
-1.212435565298222
 31
0.0
210
0.0
220
0.0
230
1.0
 40
0.5773502691896352
 41
0.0
 42
0.6197574203806137
  0
ELLIPSE
  5
26F
330
1F
100
AcDbEntity
  8
VISIBLE
100
AcDbEllipse
 10
255.1515054459333
 20
73.96158805080958
 30
0.0
 11
0.6999999999999886
 21
-1.212435565298222
 31
0.0
210
0.0
220
0.0
230
1.0
 40
0.5773502691896352
 41
-2.131795014935935
 42
0.0
  0
ELLIPSE
  5
270
330
1F
100
AcDbEntity
  8
VISIBLE
100
AcDbEllipse
 10
257.7241867938553
 20
88.79476857447074
 30
0.0
 11
-0.6999999999999886
 21
1.212435565298208
 31
0.0
210
0.0
220
0.0
230
1.0
 40
0.5773502691896226
 41
0.0
 42
2.356194490192348
  0
ELLIPSE
  5
271
330
1F
100
AcDbEntity
  8
VISIBLE
100
AcDbEllipse
 10
257.7241867938553
 20
88.79476857447074
 30
0.0
 11
-0.6999999999999886
 21
1.212435565298208
 31
0.0
210
0.0
220
0.0
230
1.0
 40
0.5773502691896226
 41
-0.6197574203806019
 42
0.0
  0
ELLIPSE
  5
272
330
1F
100
AcDbEntity
  8
VISIBLE
100
AcDbEllipse
 10
257.7241867938553
 20
88.79476857447074
 30
0.0
 11
-0.6999999999999886
 21
1.212435565298208
 31
0.0
210
0.0
220
0.0
230
1.0
 40
0.5773502691896226
 41
3.141592653589845
 42
3.761350073970436
  0
ELLIPSE
  5
273
330
1F
100
AcDbEntity
  8
VISIBLE
100
AcDbEllipse
 10
257.7241867938553
 20
88.79476857447074
 30
0.0
 11
-0.6999999999999886
 21
1.212435565298208
 31
0.0
210
0.0
220
0.0
230
1.0
 40
0.5773502691896226
 41
2.356194490192348
 42
3.141592653589845
  0
ELLIPSE
  5
274
330
1F
100
AcDbEntity
  8
VISIBLE
100
AcDbEllipse
 10
245.6563422614965
 20
107.0269842490671
 30
0.0
 11
-0.6999999999999886
 21
1.212435565298208
 31
0.0
210
0.0
220
0.0
230
1.0
 40
0.5773502691896226
 41
3.141592653589824
 42
3.76135007397043
  0
ELLIPSE
  5
275
330
1F
100
AcDbEntity
  8
VISIBLE
100
AcDbEllipse
 10
245.6563422614965
 20
107.0269842490671
 30
0.0
 11
-0.6999999999999886
 21
1.212435565298208
 31
0.0
210
0.0
220
0.0
230
1.0
 40
0.5773502691896226
 41
0.5199672208021673
 42
3.141592653589823
  0
ELLIPSE
  5
276
330
1F
100
AcDbEntity
  8
VISIBLE
100
AcDbEllipse
 10
254.8250489909904
 20
84.67031095964289
 30
0.0
 11
0.7000000000000171
 21
-1.212435565298222
 31
0.0
210
0.0
220
0.0
230
1.0
 40
0.5773502691896344
 41
-3.141592653589816
 42
-1.832595714594055
  0
ELLIPSE
  5
277
330
1F
100
AcDbEntity
  8
VISIBLE
100
AcDbEllipse
 10
254.8250489909904
 20
84.67031095964289
 30
0.0
 11
0.7000000000000171
 21
-1.212435565298222
 31
0.0
210
0.0
220
0.0
230
1.0
 40
0.5773502691896344
 41
-3.761350073970403
 42
-3.141592653589816
  0
ELLIPSE
  5
278
330
1F
100
AcDbEntity
  8
VISIBLE
100
AcDbEllipse
 10
254.8250489909904
 20
84.67031095964289
 30
0.0
 11
0.7000000000000171
 21
-1.212435565298222
 31
0.0
210
0.0
220
0.0
230
1.0
 40
0.5773502691896344
 41
0.0
 42
0.6197574203805963
  0
ELLIPSE
  5
279
330
1F
100
AcDbEntity
  8
VISIBLE
100
AcDbEllipse
 10
254.8250489909904
 20
84.67031095964289
 30
0.0
 11
0.7000000000000171
 21
-1.212435565298222
 31
0.0
210
0.0
220
0.0
230
1.0
 40
0.5773502691896344
 41
-1.832595714594055
 42
0.0
  0
ELLIPSE
  5
27A
330
1F
100
AcDbEntity
  8
VISIBLE
100
AcDbEllipse
 10
251.9259111881256
 20
88.79476857447074
 30
0.0
 11
0.6999999999999886
 21
-1.212435565298222
 31
0.0
210
0.0
220
0.0
230
1.0
 40
0.5773502691896125
 41
-3.141592653589754
 42
-2.356194490192308
  0
ELLIPSE
  5
27B
330
1F
100
AcDbEntity
  8
VISIBLE
100
AcDbEllipse
 10
251.9259111881256
 20
88.79476857447074
 30
0.0
 11
0.6999999999999886
 21
-1.212435565298222
 31
0.0
210
0.0
220
0.0
230
1.0
 40
0.5773502691896125
 41
-3.761350073970397
 42
-3.141592653589754
  0
ELLIPSE
  5
27C
330
1F
100
AcDbEntity
  8
VISIBLE
100
AcDbEllipse
 10
251.9259111881256
 20
88.79476857447074
 30
0.0
 11
0.6999999999999886
 21
-1.212435565298222
 31
0.0
210
0.0
220
0.0
230
1.0
 40
0.5773502691896125
 41
0.0
 42
0.6197574203806191
  0
ELLIPSE
  5
27D
330
1F
100
AcDbEntity
  8
VISIBLE
100
AcDbEllipse
 10
251.9259111881256
 20
88.79476857447074
 30
0.0
 11
0.6999999999999886
 21
-1.212435565298222
 31
0.0
210
0.0
220
0.0
230
1.0
 40
0.5773502691896125
 41
-2.356194490192308
 42
0.0
  0
ELLIPSE
  5
27E
330
1F
100
AcDbEntity
  8
VISIBLE
100
AcDbEllipse
 10
245.9155035480399
 20
88.67229408733158
 30
0.0
 11
-15.72499999999999
 21
27.2364989490206
 31
0.0
210
0.0
220
0.0
230
1.0
 40
0.5773502691896254
 41
2.356194490192345
 42
3.926990816987242
  0
ELLIPSE
  5
27F
330
1F
100
AcDbEntity
  8
VISIBLE
100
AcDbEllipse
 10
245.9155035480399
 20
88.67229408733158
 30
0.0
 11
-15.72499999999999
 21
27.2364989490206
 31
0.0
210
0.0
220
0.0
230
1.0
 40
0.5773502691896254
 41
0.785398163397449
 42
2.356194490192345
  0
ELLIPSE
  5
280
330
1F
100
AcDbEntity
  8
VISIBLE
100
AcDbEllipse
 10
245.9155035480399
 20
88.67229408733158
 30
0.0
 11
-15.72499999999999
 21
27.2364989490206
 31
0.0
210
0.0
220
0.0
230
1.0
 40
0.5773502691896254
 41
3.926990816987242
 42
7.068583470577035
  0
ELLIPSE
  5
281
330
1F
100
AcDbEntity
  8
VISIBLE
100
AcDbEllipse
 10
260.6102720688792
 20
73.63380216148319
 30
0.0
 11
0.9499999999999886
 21
-1.645448267190432
 31
0.0
210
0.0
220
0.0
230
1.0
 40
0.5773502691896202
 41
-1.68299606442311
 42
-1.018543024608777
  0
ELLIPSE
  5
282
330
1F
100
AcDbEntity
  8
VISIBLE
100
AcDbEllipse
 10
260.6102720688792
 20
73.63380216148319
 30
0.0
 11
0.9499999999999886
 21
-1.645448267190432
 31
0.0
210
0.0
220
0.0
230
1.0
 40
0.5773502691896202
 41
-4.460305176933275
 42
-3.92699081698724
  0
ELLIPSE
  5
283
330
1F
100
AcDbEntity
  8
VISIBLE
100
AcDbEllipse
 10
260.6102720688792
 20
73.63380216148319
 30
0.0
 11
0.9499999999999886
 21
-1.645448267190432
 31
0.0
210
0.0
220
0.0
230
1.0
 40
0.5773502691896202
 41
-3.92699081698724
 42
-1.68299606442311
  0
ELLIPSE
  5
284
330
1F
100
AcDbEntity
  8
VISIBLE
100
AcDbEllipse
 10
246.0922802433366
 20
88.77435615994754
 30
0.0
 11
-11.25
 21
19.48557158514987
 31
0.0
210
0.0
220
0.0
230
1.0
 40
0.5773502691896255
 41
3.141592653589792
 42
3.921450580162297
  0
ELLIPSE
  5
285
330
1F
100
AcDbEntity
  8
VISIBLE
100
AcDbEllipse
 10
246.0922802433366
 20
88.77435615994754
 30
0.0
 11
-11.25
 21
19.48557158514987
 31
0.0
210
0.0
220
0.0
230
1.0
 40
0.5773502691896255
 41
0.0
 42
3.141592653589792
  0
ELLIPSE
  5
286
330
1F
100
AcDbEntity
  8
VISIBLE
100
AcDbEllipse
 10
246.0922802433366
 20
88.77435615994754
 30
0.0
 11
-11.25
 21
19.48557158514987
 31
0.0
210
0.0
220
0.0
230
1.0
 40
0.5773502691896255
 41
-0.7798579265725043
 42
0.0
  0
ELLIPSE
  5
287
330
1F
100
AcDbEntity
  8
VISIBLE
100
AcDbEllipse
 10
256.5938117702378
 20
85.69150662637395
 30
0.0
 11
-0.9499999999999886
 21
1.645448267190446
 31
0.0
210
0.0
220
0.0
230
1.0
 40
0.5773502691896164
 41
1.832595714594055
 42
3.926990816987272
  0
ELLIPSE
  5
288
330
1F
100
AcDbEntity
  8
VISIBLE
100
AcDbEllipse
 10
256.5938117702378
 20
85.69150662637395
 30
0.0
 11
-0.9499999999999886
 21
1.645448267190446
 31
0.0
210
0.0
220
0.0
230
1.0
 40
0.5773502691896164
 41
3.926990816987272
 42
5.49778714378214
  0
ELLIPSE
  5
289
330
1F
100
AcDbEntity
  8
VISIBLE
100
AcDbEllipse
 10
256.5938117702378
 20
85.69150662637395
 30
0.0
 11
-0.9499999999999886
 21
1.645448267190446
 31
0.0
210
0.0
220
0.0
230
1.0
 40
0.5773502691896164
 41
-0.7853981633974465
 42
1.832595714594055
  0
ELLIPSE
  5
28A
330
1F
100
AcDbEntity
  8
VISIBLE
100
AcDbEllipse
 10
244.3937302290673
 20
91.46965728786617
 30
0.0
 11
0.6999999999999886
 21
-1.212435565298208
 31
0.0
210
0.0
220
0.0
230
1.0
 40
0.5773502691896226
 41
-3.761350073970395
 42
-3.403392041388925
  0
ELLIPSE
  5
28B
330
1F
100
AcDbEntity
  8
VISIBLE
100
AcDbEllipse
 10
244.3937302290673
 20
91.46965728786617
 30
0.0
 11
0.6999999999999886
 21
-1.212435565298208
 31
0.0
210
0.0
220
0.0
230
1.0
 40
0.5773502691896226
 41
0.0
 42
0.6197574203806049
  0
ELLIPSE
  5
28C
330
1F
100
AcDbEntity
  8
VISIBLE
100
AcDbEllipse
 10
244.3937302290673
 20
91.46965728786617
 30
0.0
 11
0.6999999999999886
 21
-1.212435565298208
 31
0.0
210
0.0
220
0.0
230
1.0
 40
0.5773502691896226
 41
-3.141592653589762
 42
0.0
  0
ELLIPSE
  5
28D
330
1F
100
AcDbEntity
  8
VISIBLE
100
AcDbEllipse
 10
244.3937302290673
 20
91.46965728786617
 30
0.0
 11
0.6999999999999886
 21
-1.212435565298208
 31
0.0
210
0.0
220
0.0
230
1.0
 40
0.5773502691896226
 41
-3.403392041388925
 42
-3.141592653589801
  0
ELLIPSE
  5
28E
330
1F
100
AcDbEntity
  8
VISIBLE
100
AcDbEllipse
 10
242.5344435261855
 20
84.0698866364329
 30
0.0
 11
0.9499999999999886
 21
-1.645448267190432
 31
0.0
210
0.0
220
0.0
230
1.0
 40
0.5773502691896202
 41
-3.029392915961577
 42
0.7853981633974607
  0
ELLIPSE
  5
28F
330
1F
100
AcDbEntity
  8
VISIBLE
100
AcDbEllipse
 10
242.5344435261855
 20
84.0698866364329
 30
0.0
 11
0.9499999999999886
 21
-1.645448267190432
 31
0.0
210
0.0
220
0.0
230
1.0
 40
0.5773502691896202
 41
0.7853981633974607
 42
2.356194490192346
  0
ELLIPSE
  5
290
330
1F
100
AcDbEntity
  8
VISIBLE
100
AcDbEllipse
 10
242.5344435261855
 20
84.0698866364329
 30
0.0
 11
0.9499999999999886
 21
-1.645448267190432
 31
0.0
210
0.0
220
0.0
230
1.0
 40
0.5773502691896202
 41
-3.92699081698724
 42
-3.029392915961577
  0
ELLIPSE
  5
291
330
1F
100
AcDbEntity
  8
VISIBLE
100
AcDbEllipse
 10
246.5509038248268
 20
98.185054195711
 30
0.0
 11
0.9500000000000172
 21
-1.645448267190432
 31
0.0
210
0.0
220
0.0
230
1.0
 40
0.5773502691896364
 41
-4.450589592585547
 42
-3.926990816987241
  0
ELLIPSE
  5
292
330
1F
100
AcDbEntity
  8
VISIBLE
100
AcDbEllipse
 10
246.5509038248268
 20
98.185054195711
 30
0.0
 11
0.9500000000000172
 21
-1.645448267190432
 31
0.0
210
0.0
220
0.0
230
1.0
 40
0.5773502691896364
 41
-3.926990816987241
 42
0.7853981633974216
  0
ELLIPSE
  5
293
330
1F
100
AcDbEntity
  8
VISIBLE
100
AcDbEllipse
 10
246.5509038248268
 20
98.185054195711
 30
0.0
 11
0.9500000000000172
 21
-1.645448267190432
 31
0.0
210
0.0
220
0.0
230
1.0
 40
0.5773502691896364
 41
0.7853981633974312
 42
1.832595714594039
  0
ELLIPSE
  5
294
330
1F
100
AcDbEntity
  8
VISIBLE
100
AcDbEllipse
 10
244.0401768384741
 20
101.3084410880453
 30
0.0
 11
0.9499999999999886
 21
-1.645448267190432
 31
0.0
210
0.0
220
0.0
230
1.0
 40
0.5773502691896202
 41
-4.450589592585546
 42
-3.92699081698724
  0
ELLIPSE
  5
295
330
1F
100
AcDbEntity
  8
VISIBLE
100
AcDbEllipse
 10
244.0401768384741
 20
101.3084410880453
 30
0.0
 11
0.9499999999999886
 21
-1.645448267190432
 31
0.0
210
0.0
220
0.0
230
1.0
 40
0.5773502691896202
 41
-3.92699081698724
 42
0.7853981633974514
  0
ELLIPSE
  5
296
330
1F
100
AcDbEntity
  8
VISIBLE
100
AcDbEllipse
 10
244.0401768384741
 20
101.3084410880453
 30
0.0
 11
0.9499999999999886
 21
-1.645448267190432
 31
0.0
210
0.0
220
0.0
230
1.0
 40
0.5773502691896202
 41
0.7853981633974514
 42
1.83259571459404
  0
ELLIPSE
  5
297
330
1F
100
AcDbEntity
  8
VISIBLE
100
AcDbEllipse
 10
258.1954801147547
 20
77.2578248634817
 30
0.0
 11
0.7000000000000455
 21
-1.212435565298208
 31
0.0
210
0.0
220
0.0
230
1.0
 40
0.5773502691896613
 41
-3.141592653589854
 42
-1.784995825903322
  0
ELLIPSE
  5
298
330
1F
100
AcDbEntity
  8
VISIBLE
100
AcDbEllipse
 10
258.1954801147547
 20
77.2578248634817
 30
0.0
 11
0.7000000000000455
 21
-1.212435565298208
 31
0.0
210
0.0
220
0.0
230
1.0
 40
0.5773502691896613
 41
-3.761350073970409
 42
-3.141592653589854
  0
ELLIPSE
  5
299
330
1F
100
AcDbEntity
  8
VISIBLE
100
AcDbEllipse
 10
258.1954801147547
 20
77.2578248634817
 30
0.0
 11
0.7000000000000455
 21
-1.212435565298208
 31
0.0
210
0.0
220
0.0
230
1.0
 40
0.5773502691896613
 41
0.0
 42
0.6197574203805636
  0
ELLIPSE
  5
29A
330
1F
100
AcDbEntity
  8
VISIBLE
100
AcDbEllipse
 10
258.1954801147547
 20
77.2578248634817
 30
0.0
 11
0.7000000000000455
 21
-1.212435565298208
 31
0.0
210
0.0
220
0.0
230
1.0
 40
0.5773502691896613
 41
-1.784995825903322
 42
0.0
  0
ELLIPSE
  5
29B
330
1F
100
AcDbEntity
  8
VISIBLE
100
AcDbEllipse
 10
251.5723577975323
 20
81.89537246563145
 30
0.0
 11
0.9499999999999886
 21
-1.645448267190432
 31
0.0
210
0.0
220
0.0
230
1.0
 40
0.5773502691896202
 41
-2.356194490192322
 42
0.7853981633974607
  0
ELLIPSE
  5
29C
330
1F
100
AcDbEntity
  8
VISIBLE
100
AcDbEllipse
 10
251.5723577975323
 20
81.89537246563145
 30
0.0
 11
0.9499999999999886
 21
-1.645448267190432
 31
0.0
210
0.0
220
0.0
230
1.0
 40
0.5773502691896202
 41
0.7853981633974607
 42
2.356194490192346
  0
ELLIPSE
  5
29D
330
1F
100
AcDbEntity
  8
VISIBLE
100
AcDbEllipse
 10
251.5723577975323
 20
81.89537246563145
 30
0.0
 11
0.9499999999999886
 21
-1.645448267190432
 31
0.0
210
0.0
220
0.0
230
1.0
 40
0.5773502691896202
 41
-3.92699081698724
 42
-2.356194490192322
  0
ELLIPSE
  5
29E
330
1F
100
AcDbEntity
  8
VISIBLE
100
AcDbEllipse
 10
238.8657466674244
 20
106.9451181429094
 30
0.0
 11
0.6999999999999886
 21
-1.212435565298222
 31
0.0
210
0.0
220
0.0
230
1.0
 40
0.5773502691896125
 41
0.0
 42
0.6197574203806071
  0
ELLIPSE
  5
29F
330
1F
100
AcDbEntity
  8
VISIBLE
100
AcDbEllipse
 10
238.8657466674244
 20
106.9451181429094
 30
0.0
 11
0.6999999999999886
 21
-1.212435565298222
 31
0.0
210
0.0
220
0.0
230
1.0
 40
0.5773502691896125
 41
-3.141592653589754
 42
0.0
  0
ELLIPSE
  5
2A0
330
1F
100
AcDbEntity
  8
VISIBLE
100
AcDbEllipse
 10
238.8657466674244
 20
106.9451181429094
 30
0.0
 11
0.6999999999999886
 21
-1.212435565298222
 31
0.0
210
0.0
220
0.0
230
1.0
 40
0.5773502691896125
 41
-3.761350073970366
 42
-3.141592653589754
  0
ELLIPSE
  5
2A1
330
1F
100
AcDbEntity
  8
VISIBLE
100
AcDbEllipse
 10
251.9259111881256
 20
85.44713259266706
 30
0.0
 11
0.6999999999999886
 21
-1.212435565298208
 31
0.0
210
0.0
220
0.0
230
1.0
 40
0.5773502691896226
 41
-3.141592653589771
 42
-2.356194490192322
  0
ELLIPSE
  5
2A2
330
1F
100
AcDbEntity
  8
VISIBLE
100
AcDbEllipse
 10
251.9259111881256
 20
85.44713259266706
 30
0.0
 11
0.6999999999999886
 21
-1.212435565298208
 31
0.0
210
0.0
220
0.0
230
1.0
 40
0.5773502691896226
 41
-3.761350073970395
 42
-3.141592653589771
  0
ELLIPSE
  5
2A3
330
1F
100
AcDbEntity
  8
VISIBLE
100
AcDbEllipse
 10
251.9259111881256
 20
85.44713259266706
 30
0.0
 11
0.6999999999999886
 21
-1.212435565298208
 31
0.0
210
0.0
220
0.0
230
1.0
 40
0.5773502691896226
 41
0.0
 42
0.6197574203806049
  0
ELLIPSE
  5
2A4
330
1F
100
AcDbEntity
  8
VISIBLE
100
AcDbEllipse
 10
251.9259111881256
 20
85.44713259266706
 30
0.0
 11
0.6999999999999886
 21
-1.212435565298208
 31
0.0
210
0.0
220
0.0
230
1.0
 40
0.5773502691896226
 41
-2.356194490192322
 42
0.0
  0
ELLIPSE
  5
2A5
330
1F
100
AcDbEntity
  8
VISIBLE
100
AcDbEllipse
 10
260.9638254594724
 20
73.83792630671513
 30
0.0
 11
0.6999999999999886
 21
-1.212435565298222
 31
0.0
210
0.0
220
0.0
230
1.0
 40
0.5773502691896125
 41
-3.141592653589724
 42
-1.6829960644231
  0
ELLIPSE
  5
2A6
330
1F
100
AcDbEntity
  8
VISIBLE
100
AcDbEllipse
 10
260.9638254594724
 20
73.83792630671513
 30
0.0
 11
0.6999999999999886
 21
-1.212435565298222
 31
0.0
210
0.0
220
0.0
230
1.0
 40
0.5773502691896125
 41
-3.761350073970395
 42
-3.141592653589724
  0
ELLIPSE
  5
2A7
330
1F
100
AcDbEntity
  8
VISIBLE
100
AcDbEllipse
 10
260.9638254594724
 20
73.83792630671513
 30
0.0
 11
0.6999999999999886
 21
-1.212435565298222
 31
0.0
210
0.0
220
0.0
230
1.0
 40
0.5773502691896125
 41
-1.6829960644231
 42
-1.116125651835172
  0
ELLIPSE
  5
2A8
330
1F
100
AcDbEntity
  8
VISIBLE
100
AcDbEllipse
 10
241.0237637798217
 20
103.591146986366
 30
0.0
 11
0.9499999999999886
 21
-1.645448267190432
 31
0.0
210
0.0
220
0.0
230
1.0
 40
0.5773502691896202
 41
-4.355389815204031
 42
-3.92699081698724
  0
ELLIPSE
  5
2A9
330
1F
100
AcDbEntity
  8
VISIBLE
100
AcDbEllipse
 10
241.0237637798217
 20
103.591146986366
 30
0.0
 11
0.9499999999999886
 21
-1.645448267190432
 31
0.0
210
0.0
220
0.0
230
1.0
 40
0.5773502691896202
 41
-3.92699081698724
 42
0.7853981633974603
  0
ELLIPSE
  5
2AA
330
1F
100
AcDbEntity
  8
VISIBLE
100
AcDbEllipse
 10
241.0237637798217
 20
103.591146986366
 30
0.0
 11
0.9499999999999886
 21
-1.645448267190432
 31
0.0
210
0.0
220
0.0
230
1.0
 40
0.5773502691896202
 41
0.7853981633974607
 42
1.927795491975555
  0
ELLIPSE
  5
2AB
330
1F
100
AcDbEntity
  8
VISIBLE
100
AcDbEllipse
 10
248.5976672169622
 20
103.0929653060254
 30
0.0
 11
-0.9500000000000172
 21
1.645448267190432
 31
0.0
210
0.0
220
0.0
230
1.0
 40
0.5773502691896364
 41
4.27605666738609
 42
5.497787143782138
  0
ELLIPSE
  5
2AC
330
1F
100
AcDbEntity
  8
VISIBLE
100
AcDbEllipse
 10
248.5976672169622
 20
103.0929653060254
 30
0.0
 11
-0.9500000000000172
 21
1.645448267190432
 31
0.0
210
0.0
220
0.0
230
1.0
 40
0.5773502691896364
 41
-0.7853981633974486
 42
3.926990816987214
  0
ELLIPSE
  5
2AD
330
1F
100
AcDbEntity
  8
VISIBLE
100
AcDbEllipse
 10
248.5976672169622
 20
103.0929653060254
 30
0.0
 11
-0.9500000000000172
 21
1.645448267190432
 31
0.0
210
0.0
220
0.0
230
1.0
 40
0.5773502691896364
 41
3.926990816987215
 42
4.27605666738609
  0
ELLIPSE
  5
2AE
330
1F
100
AcDbEntity
  8
VISIBLE
100
AcDbEllipse
 10
260.6899998301634
 20
78.31351419548976
 30
0.0
 11
-0.7000000000000455
 21
1.212435565298208
 31
0.0
210
0.0
220
0.0
230
1.0
 40
0.5773502691896613
 41
0.0
 42
1.642196159831008
  0
ELLIPSE
  5
2AF
330
1F
100
AcDbEntity
  8
VISIBLE
100
AcDbEllipse
 10
260.6899998301634
 20
78.31351419548976
 30
0.0
 11
-0.7000000000000455
 21
1.212435565298208
 31
0.0
210
0.0
220
0.0
230
1.0
 40
0.5773502691896613
 41
-0.619757420380618
 42
0.0
  0
ELLIPSE
  5
2B0
330
1F
100
AcDbEntity
  8
VISIBLE
100
AcDbEllipse
 10
260.6899998301634
 20
78.31351419548976
 30
0.0
 11
-0.7000000000000455
 21
1.212435565298208
 31
0.0
210
0.0
220
0.0
230
1.0
 40
0.5773502691896613
 41
3.141592653589724
 42
3.761350073970319
  0
ELLIPSE
  5
2B1
330
1F
100
AcDbEntity
  8
VISIBLE
100
AcDbEllipse
 10
260.6899998301634
 20
78.31351419548976
 30
0.0
 11
-0.7000000000000455
 21
1.212435565298208
 31
0.0
210
0.0
220
0.0
230
1.0
 40
0.5773502691896613
 41
1.642196159831008
 42
3.141592653589724
  0
ELLIPSE
  5
2B2
330
1F
100
AcDbEntity
  8
VISIBLE
100
AcDbEllipse
 10
259.1045387565906
 20
92.61102767945073
 30
0.0
 11
-0.9499999999999886
 21
1.645448267190432
 31
0.0
210
0.0
220
0.0
230
1.0
 40
0.5773502691896202
 41
0.2578288865913684
 42
2.61096683252027
  0
ELLIPSE
  5
2B3
330
1F
100
AcDbEntity
  8
VISIBLE
100
AcDbEllipse
 10
248.3052317741853
 20
80.97642368905953
 30
0.0
 11
0.9499999999999886
 21
-1.645448267190432
 31
0.0
210
0.0
220
0.0
230
1.0
 40
0.5773502691896202
 41
-2.641793822336857
 42
0.7853981633974514
  0
ELLIPSE
  5
2B4
330
1F
100
AcDbEntity
  8
VISIBLE
100
AcDbEllipse
 10
248.3052317741853
 20
80.97642368905953
 30
0.0
 11
0.9499999999999886
 21
-1.645448267190432
 31
0.0
210
0.0
220
0.0
230
1.0
 40
0.5773502691896202
 41
0.7853981633974514
 42
2.356194490192346
  0
ELLIPSE
  5
2B5
330
1F
100
AcDbEntity
  8
VISIBLE
100
AcDbEllipse
 10
248.3052317741853
 20
80.97642368905953
 30
0.0
 11
0.9499999999999886
 21
-1.645448267190432
 31
0.0
210
0.0
220
0.0
230
1.0
 40
0.5773502691896202
 41
-3.92699081698724
 42
-2.641793822336857
  0
ELLIPSE
  5
2B6
330
1F
100
AcDbEntity
  8
VISIBLE
100
AcDbEllipse
 10
254.5470483781024
 20
80.78359551605958
 30
0.0
 11
0.9499999999999886
 21
-1.645448267190432
 31
0.0
210
0.0
220
0.0
230
1.0
 40
0.5773502691896202
 41
-2.007128639793472
 42
0.7853981633974514
  0
ELLIPSE
  5
2B7
330
1F
100
AcDbEntity
  8
VISIBLE
100
AcDbEllipse
 10
254.5470483781024
 20
80.78359551605958
 30
0.0
 11
0.9499999999999886
 21
-1.645448267190432
 31
0.0
210
0.0
220
0.0
230
1.0
 40
0.5773502691896202
 41
0.7853981633974514
 42
2.356194490192346
  0
ELLIPSE
  5
2B8
330
1F
100
AcDbEntity
  8
VISIBLE
100
AcDbEllipse
 10
254.5470483781024
 20
80.78359551605958
 30
0.0
 11
0.9499999999999886
 21
-1.645448267190432
 31
0.0
210
0.0
220
0.0
230
1.0
 40
0.5773502691896202
 41
-3.92699081698724
 42
-2.007128639793472
  0
ELLIPSE
  5
2B9
330
1F
100
AcDbEntity
  8
VISIBLE
100
AcDbEllipse
 10
248.3052317741853
 20
106.6726893111371
 30
0.0
 11
-0.9499999999999886
 21
1.645448267190446
 31
0.0
210
0.0
220
0.0
230
1.0
 40
0.5773502691896294
 41
1.375386671868312
 42
3.054135263245966
  0
ELLIPSE
  5
2BA
330
1F
100
AcDbEntity
  8
VISIBLE
100
AcDbEllipse
 10
248.5976672169622
 20
84.21847233095556
 30
0.0
 11
0.9499999999999886
 21
-1.645448267190432
 31
0.0
210
0.0
220
0.0
230
1.0
 40
0.5773502691896202
 41
-2.705260340591188
 42
0.7853981633974514
  0
ELLIPSE
  5
2BB
330
1F
100
AcDbEntity
  8
VISIBLE
100
AcDbEllipse
 10
248.5976672169622
 20
84.21847233095556
 30
0.0
 11
0.9499999999999886
 21
-1.645448267190432
 31
0.0
210
0.0
220
0.0
230
1.0
 40
0.5773502691896202
 41
0.7853981633974514
 42
2.356194490192346
  0
ELLIPSE
  5
2BC
330
1F
100
AcDbEntity
  8
VISIBLE
100
AcDbEllipse
 10
248.5976672169622
 20
84.21847233095556
 30
0.0
 11
0.9499999999999886
 21
-1.645448267190432
 31
0.0
210
0.0
220
0.0
230
1.0
 40
0.5773502691896202
 41
-3.92699081698724
 42
-2.705260340591188
  0
ELLIPSE
  5
2BD
330
1F
100
AcDbEntity
  8
VISIBLE
100
AcDbEllipse
 10
248.6732199946675
 20
87.81382279621464
 30
0.0
 11
0.9500000000000171
 21
-1.645448267190446
 31
0.0
210
0.0
220
0.0
230
1.0
 40
0.5773502691896325
 41
-2.879793265790646
 42
0.7853981633974296
  0
ELLIPSE
  5
2BE
330
1F
100
AcDbEntity
  8
VISIBLE
100
AcDbEllipse
 10
248.6732199946675
 20
87.81382279621464
 30
0.0
 11
0.9500000000000171
 21
-1.645448267190446
 31
0.0
210
0.0
220
0.0
230
1.0
 40
0.5773502691896325
 41
0.7853981633974294
 42
2.356194490192345
  0
ELLIPSE
  5
2BF
330
1F
100
AcDbEntity
  8
VISIBLE
100
AcDbEllipse
 10
248.6732199946675
 20
87.81382279621464
 30
0.0
 11
0.9500000000000171
 21
-1.645448267190446
 31
0.0
210
0.0
220
0.0
230
1.0
 40
0.5773502691896325
 41
-3.926990816987241
 42
-2.879793265790646
  0
ELLIPSE
  5
2C0
330
1F
100
AcDbEntity
  8
VISIBLE
100
AcDbEllipse
 10
257.8618015481526
 20
73.22648936519353
 30
0.0
 11
0.9499999999999886
 21
-1.645448267190432
 31
0.0
210
0.0
220
0.0
230
1.0
 40
0.5773502691896202
 41
-1.907395539679511
 42
0.7853981633974412
  0
ELLIPSE
  5
2C1
330
1F
100
AcDbEntity
  8
VISIBLE
100
AcDbEllipse
 10
257.8618015481526
 20
73.22648936519353
 30
0.0
 11
0.9499999999999886
 21
-1.645448267190432
 31
0.0
210
0.0
220
0.0
230
1.0
 40
0.5773502691896202
 41
0.7853981633974412
 42
2.356194490192346
  0
ELLIPSE
  5
2C2
330
1F
100
AcDbEntity
  8
VISIBLE
100
AcDbEllipse
 10
257.8618015481526
 20
73.22648936519353
 30
0.0
 11
0.9499999999999886
 21
-1.645448267190432
 31
0.0
210
0.0
220
0.0
230
1.0
 40
0.5773502691896202
 41
-3.92699081698724
 42
-1.907395539679511
  0
ELLIPSE
  5
2C3
330
1F
100
AcDbEntity
  8
VISIBLE
100
AcDbEllipse
 10
254.4366381744784
 20
92.36665364574382
 30
0.0
 11
-0.6999999999999886
 21
1.212435565298222
 31
0.0
210
0.0
220
0.0
230
1.0
 40
0.5773502691896125
 41
0.0
 42
2.879793265790664
  0
ELLIPSE
  5
2C4
330
1F
100
AcDbEntity
  8
VISIBLE
100
AcDbEllipse
 10
254.4366381744784
 20
92.36665364574382
 30
0.0
 11
-0.6999999999999886
 21
1.212435565298222
 31
0.0
210
0.0
220
0.0
230
1.0
 40
0.5773502691896125
 41
-0.6197574203806041
 42
0.0
  0
ELLIPSE
  5
2C5
330
1F
100
AcDbEntity
  8
VISIBLE
100
AcDbEllipse
 10
254.4366381744784
 20
92.36665364574382
 30
0.0
 11
-0.6999999999999886
 21
1.212435565298222
 31
0.0
210
0.0
220
0.0
230
1.0
 40
0.5773502691896125
 41
3.141592653589801
 42
3.761350073970412
  0
ELLIPSE
  5
2C6
330
1F
100
AcDbEntity
  8
VISIBLE
100
AcDbEllipse
 10
254.4366381744784
 20
92.36665364574382
 30
0.0
 11
-0.6999999999999886
 21
1.212435565298222
 31
0.0
210
0.0
220
0.0
230
1.0
 40
0.5773502691896125
 41
2.879793265790664
 42
3.141592653589801
  0
ELLIPSE
  5
2C7
330
1F
100
AcDbEntity
  8
VISIBLE
100
AcDbEllipse
 10
246.9044572154201
 20
98.38917834094293
 30
0.0
 11
0.7000000000000171
 21
-1.212435565298208
 31
0.0
210
0.0
220
0.0
230
1.0
 40
0.5773502691896394
 41
0.0
 42
0.6197574203805862
  0
ELLIPSE
  5
2C8
330
1F
100
AcDbEntity
  8
VISIBLE
100
AcDbEllipse
 10
246.9044572154201
 20
98.38917834094293
 30
0.0
 11
0.7000000000000171
 21
-1.212435565298208
 31
0.0
210
0.0
220
0.0
230
1.0
 40
0.5773502691896394
 41
-3.141592653589831
 42
0.0
  0
ELLIPSE
  5
2C9
330
1F
100
AcDbEntity
  8
VISIBLE
100
AcDbEllipse
 10
246.9044572154201
 20
98.38917834094293
 30
0.0
 11
0.7000000000000171
 21
-1.212435565298208
 31
0.0
210
0.0
220
0.0
230
1.0
 40
0.5773502691896394
 41
-3.761350073970405
 42
-3.141592653589831
  0
ELLIPSE
  5
2CA
330
1F
100
AcDbEntity
  8
VISIBLE
100
AcDbEllipse
 10
242.8879969167788
 20
84.27401078166483
 30
0.0
 11
0.6999999999999886
 21
-1.212435565298208
 31
0.0
210
0.0
220
0.0
230
1.0
 40
0.5773502691896226
 41
-3.141592653589801
 42
-3.029392915961572
  0
ELLIPSE
  5
2CB
330
1F
100
AcDbEntity
  8
VISIBLE
100
AcDbEllipse
 10
242.8879969167788
 20
84.27401078166483
 30
0.0
 11
0.6999999999999886
 21
-1.212435565298208
 31
0.0
210
0.0
220
0.0
230
1.0
 40
0.5773502691896226
 41
-3.761350073970397
 42
-3.141592653589801
  0
ELLIPSE
  5
2CC
330
1F
100
AcDbEntity
  8
VISIBLE
100
AcDbEllipse
 10
242.8879969167788
 20
84.27401078166483
 30
0.0
 11
0.6999999999999886
 21
-1.212435565298208
 31
0.0
210
0.0
220
0.0
230
1.0
 40
0.5773502691896226
 41
0.0
 42
0.619757420380618
  0
ELLIPSE
  5
2CD
330
1F
100
AcDbEntity
  8
VISIBLE
100
AcDbEllipse
 10
242.8879969167788
 20
84.27401078166483
 30
0.0
 11
0.6999999999999886
 21
-1.212435565298208
 31
0.0
210
0.0
220
0.0
230
1.0
 40
0.5773502691896226
 41
-3.029392915961572
 42
0.0
  0
ELLIPSE
  5
2CE
330
1F
100
AcDbEntity
  8
VISIBLE
100
AcDbEllipse
 10
237.4401059711602
 20
103.8221352333376
 30
0.0
 11
0.9499999999999886
 21
-1.645448267190432
 31
0.0
210
0.0
220
0.0
230
1.0
 40
0.5773502691896202
 41
-4.151390292243656
 42
-3.92699081698724
  0
ELLIPSE
  5
2CF
330
1F
100
AcDbEntity
  8
VISIBLE
100
AcDbEllipse
 10
237.4401059711602
 20
103.8221352333376
 30
0.0
 11
0.9499999999999886
 21
-1.645448267190432
 31
0.0
210
0.0
220
0.0
230
1.0
 40
0.5773502691896202
 41
-3.92699081698724
 42
0.7853981633974514
  0
ELLIPSE
  5
2D0
330
1F
100
AcDbEntity
  8
VISIBLE
100
AcDbEllipse
 10
237.4401059711602
 20
103.8221352333376
 30
0.0
 11
0.9499999999999886
 21
-1.645448267190432
 31
0.0
210
0.0
220
0.0
230
1.0
 40
0.5773502691896202
 41
0.7853981633974514
 42
2.13179501493593
  0
ELLIPSE
  5
2D1
330
1F
100
AcDbEntity
  8
VISIBLE
100
AcDbEllipse
 10
240.2391717660677
 20
88.045413942135
 30
0.0
 11
0.9499999999999886
 21
-1.645448267190432
 31
0.0
210
0.0
220
0.0
230
1.0
 40
0.5773502691896202
 41
-3.253792391217995
 42
0.7853981633974518
  0
ELLIPSE
  5
2D2
330
1F
100
AcDbEntity
  8
VISIBLE
100
AcDbEllipse
 10
240.2391717660677
 20
88.045413942135
 30
0.0
 11
0.9499999999999886
 21
-1.645448267190432
 31
0.0
210
0.0
220
0.0
230
1.0
 40
0.5773502691896202
 41
0.7853981633974514
 42
2.356194490192346
  0
ELLIPSE
  5
2D3
330
1F
100
AcDbEntity
  8
VISIBLE
100
AcDbEllipse
 10
240.2391717660677
 20
88.045413942135
 30
0.0
 11
0.9499999999999886
 21
-1.645448267190432
 31
0.0
210
0.0
220
0.0
230
1.0
 40
0.5773502691896202
 41
-3.92699081698724
 42
-3.253792391217995
  0
ELLIPSE
  5
2D4
330
1F
100
AcDbEntity
  8
VISIBLE
100
AcDbEllipse
 10
256.9473651608311
 20
92.59090273521323
 30
0.0
 11
-0.6999999999999886
 21
1.212435565298222
 31
0.0
210
0.0
220
0.0
230
1.0
 40
0.5773502691896125
 41
0.0
 42
2.879793265790637
  0
ELLIPSE
  5
2D5
330
1F
100
AcDbEntity
  8
VISIBLE
100
AcDbEllipse
 10
256.9473651608311
 20
92.59090273521323
 30
0.0
 11
-0.6999999999999886
 21
1.212435565298222
 31
0.0
210
0.0
220
0.0
230
1.0
 40
0.5773502691896125
 41
-0.6197574203806041
 42
0.0
  0
ELLIPSE
  5
2D6
330
1F
100
AcDbEntity
  8
VISIBLE
100
AcDbEllipse
 10
256.9473651608311
 20
92.59090273521323
 30
0.0
 11
-0.6999999999999886
 21
1.212435565298222
 31
0.0
210
0.0
220
0.0
230
1.0
 40
0.5773502691896125
 41
3.141592653589801
 42
3.761350073970412
  0
ELLIPSE
  5
2D7
330
1F
100
AcDbEntity
  8
VISIBLE
100
AcDbEllipse
 10
256.9473651608311
 20
92.59090273521323
 30
0.0
 11
-0.6999999999999886
 21
1.212435565298222
 31
0.0
210
0.0
220
0.0
230
1.0
 40
0.5773502691896125
 41
2.879793265790637
 42
3.141592653589801
  0
ELLIPSE
  5
2D8
330
1F
100
AcDbEntity
  8
VISIBLE
100
AcDbEllipse
 10
257.9363188282113
 20
95.61251502521725
 30
0.0
 11
-15.72499999999999
 21
27.2364989490206
 31
0.0
210
0.0
220
0.0
230
1.0
 40
0.5773502691896254
 41
3.926990816987243
 42
5.497787143782138
  0
ELLIPSE
  5
2D9
330
1F
100
AcDbEntity
  8
VISIBLE
100
AcDbEllipse
 10
260.4911913440619
 20
85.4533050893627
 30
0.0
 11
-0.7000000000000454
 21
1.212435565298221
 31
0.0
210
0.0
220
0.0
230
1.0
 40
0.5773502691896563
 41
0.0
 42
2.181661564992883
  0
ELLIPSE
  5
2DA
330
1F
100
AcDbEntity
  8
VISIBLE
100
AcDbEllipse
 10
260.4911913440619
 20
85.4533050893627
 30
0.0
 11
-0.7000000000000454
 21
1.212435565298221
 31
0.0
210
0.0
220
0.0
230
1.0
 40
0.5773502691896563
 41
-0.619757420380617
 42
0.0
  0
ELLIPSE
  5
2DB
330
1F
100
AcDbEntity
  8
VISIBLE
100
AcDbEllipse
 10
260.4911913440619
 20
85.4533050893627
 30
0.0
 11
-0.7000000000000454
 21
1.212435565298221
 31
0.0
210
0.0
220
0.0
230
1.0
 40
0.5773502691896563
 41
3.141592653589741
 42
3.63662833619899
  0
ELLIPSE
  5
2DC
330
1F
100
AcDbEntity
  8
VISIBLE
100
AcDbEllipse
 10
260.4911913440619
 20
85.4533050893627
 30
0.0
 11
-0.7000000000000454
 21
1.212435565298221
 31
0.0
210
0.0
220
0.0
230
1.0
 40
0.5773502691896563
 41
2.181661564992883
 42
3.141592653589741
  0
ELLIPSE
  5
2DD
330
1F
100
AcDbEntity
  8
VISIBLE
100
AcDbEllipse
 10
246.3353216127595
 20
103.0634467768783
 30
0.0
 11
-0.6999999999999886
 21
1.212435565298222
 31
0.0
210
0.0
220
0.0
230
1.0
 40
0.5773502691896125
 41
3.141592653589831
 42
3.761350073970431
  0
ELLIPSE
  5
2DE
330
1F
100
AcDbEntity
  8
VISIBLE
100
AcDbEllipse
 10
246.3353216127595
 20
103.0634467768783
 30
0.0
 11
-0.6999999999999886
 21
1.212435565298222
 31
0.0
210
0.0
220
0.0
230
1.0
 40
0.5773502691896125
 41
0.0
 42
3.141592653589824
  0
ELLIPSE
  5
2DF
330
1F
100
AcDbEntity
  8
VISIBLE
100
AcDbEllipse
 10
246.3353216127595
 20
103.0634467768783
 30
0.0
 11
-0.6999999999999886
 21
1.212435565298222
 31
0.0
210
0.0
220
0.0
230
1.0
 40
0.5773502691896125
 41
-0.6197574203806041
 42
0.0
  0
ELLIPSE
  5
2E0
330
1F
100
AcDbEntity
  8
VISIBLE
100
AcDbEllipse
 10
254.9006017686957
 20
99.86221263636133
 30
0.0
 11
-0.7000000000000171
 21
1.212435565298208
 31
0.0
210
0.0
220
0.0
230
1.0
 40
0.5773502691896394
 41
1.031582178722475
 42
2.551432553808957
  0
ELLIPSE
  5
2E1
330
1F
100
AcDbEntity
  8
VISIBLE
100
AcDbEllipse
 10
250.1581442351592
 20
91.12178383011475
 30
0.0
 11
11.25
 21
-19.48557158514986
 31
0.0
210
0.0
220
0.0
230
1.0
 40
0.5773502691896261
 41
-2.959889381622503
 42
-2.356194490192346
  0
ELLIPSE
  5
2E2
330
1F
100
AcDbEntity
  8
VISIBLE
100
AcDbEllipse
 10
250.1581442351592
 20
91.12178383011475
 30
0.0
 11
11.25
 21
-19.48557158514986
 31
0.0
210
0.0
220
0.0
230
1.0
 40
0.5773502691896261
 41
-2.356194490192346
 42
-0.1817032719672911
  0
ELLIPSE
  5
2E3
330
1F
100
AcDbEntity
  8
VISIBLE
100
AcDbEllipse
 10
248.7003169303179
 20
77.68618347689318
 30
0.0
 11
0.7000000000000171
 21
-1.212435565298222
 31
0.0
210
0.0
220
0.0
230
1.0
 40
0.5773502691896344
 41
-3.141592653589816
 42
-2.580593965448777
  0
ELLIPSE
  5
2E4
330
1F
100
AcDbEntity
  8
VISIBLE
100
AcDbEllipse
 10
248.7003169303179
 20
77.68618347689318
 30
0.0
 11
0.7000000000000171
 21
-1.212435565298222
 31
0.0
210
0.0
220
0.0
230
1.0
 40
0.5773502691896344
 41
-3.761350073970403
 42
-3.141592653589816
  0
ELLIPSE
  5
2E5
330
1F
100
AcDbEntity
  8
VISIBLE
100
AcDbEllipse
 10
248.7003169303179
 20
77.68618347689318
 30
0.0
 11
0.7000000000000171
 21
-1.212435565298222
 31
0.0
210
0.0
220
0.0
230
1.0
 40
0.5773502691896344
 41
0.0
 42
0.6197574203805963
  0
ELLIPSE
  5
2E6
330
1F
100
AcDbEntity
  8
VISIBLE
100
AcDbEllipse
 10
248.7003169303179
 20
77.68618347689318
 30
0.0
 11
0.7000000000000171
 21
-1.212435565298222
 31
0.0
210
0.0
220
0.0
230
1.0
 40
0.5773502691896344
 41
-2.580593965448777
 42
0.0
  0
ELLIPSE
  5
2E7
330
1F
100
AcDbEntity
  8
VISIBLE
100
AcDbEllipse
 10
246.9044572154201
 20
91.69390637733558
 30
0.0
 11
0.7000000000000171
 21
-1.212435565298208
 31
0.0
210
0.0
220
0.0
230
1.0
 40
0.5773502691896394
 41
-3.761350073970405
 42
-3.40339204138898
  0
ELLIPSE
  5
2E8
330
1F
100
AcDbEntity
  8
VISIBLE
100
AcDbEllipse
 10
246.9044572154201
 20
91.69390637733558
 30
0.0
 11
0.7000000000000171
 21
-1.212435565298208
 31
0.0
210
0.0
220
0.0
230
1.0
 40
0.5773502691896394
 41
0.0
 42
0.6197574203805994
  0
ELLIPSE
  5
2E9
330
1F
100
AcDbEntity
  8
VISIBLE
100
AcDbEllipse
 10
246.9044572154201
 20
91.69390637733558
 30
0.0
 11
0.7000000000000171
 21
-1.212435565298208
 31
0.0
210
0.0
220
0.0
230
1.0
 40
0.5773502691896394
 41
-3.141592653589831
 42
0.0
  0
ELLIPSE
  5
2EA
330
1F
100
AcDbEntity
  8
VISIBLE
100
AcDbEllipse
 10
246.9044572154201
 20
91.69390637733558
 30
0.0
 11
0.7000000000000171
 21
-1.212435565298208
 31
0.0
210
0.0
220
0.0
230
1.0
 40
0.5773502691896394
 41
-3.40339204138898
 42
-3.141592653589831
  0
ELLIPSE
  5
2EB
330
1F
100
AcDbEntity
  8
VISIBLE
100
AcDbEllipse
 10
255.1930372114726
 20
77.40799565617979
 30
0.0
 11
0.7000000000000171
 21
-1.212435565298222
 31
0.0
210
0.0
220
0.0
230
1.0
 40
0.5773502691896344
 41
-3.141592653589816
 42
-2.070595158047833
  0
ELLIPSE
  5
2EC
330
1F
100
AcDbEntity
  8
VISIBLE
100
AcDbEllipse
 10
255.1930372114726
 20
77.40799565617979
 30
0.0
 11
0.7000000000000171
 21
-1.212435565298222
 31
0.0
210
0.0
220
0.0
230
1.0
 40
0.5773502691896344
 41
-3.761350073970403
 42
-3.141592653589816
  0
ELLIPSE
  5
2ED
330
1F
100
AcDbEntity
  8
VISIBLE
100
AcDbEllipse
 10
255.1930372114726
 20
77.40799565617979
 30
0.0
 11
0.7000000000000171
 21
-1.212435565298222
 31
0.0
210
0.0
220
0.0
230
1.0
 40
0.5773502691896344
 41
0.0
 42
0.6197574203805845
  0
ELLIPSE
  5
2EE
330
1F
100
AcDbEntity
  8
VISIBLE
100
AcDbEllipse
 10
255.1930372114726
 20
77.40799565617979
 30
0.0
 11
0.7000000000000171
 21
-1.212435565298222
 31
0.0
210
0.0
220
0.0
230
1.0
 40
0.5773502691896344
 41
-2.070595158047833
 42
0.0
  0
ELLIPSE
  5
2EF
330
1F
100
AcDbEntity
  8
VISIBLE
100
AcDbEllipse
 10
254.0830847838851
 20
92.1625295005119
 30
0.0
 11
-0.9499999999999886
 21
1.645448267190432
 31
0.0
210
0.0
220
0.0
230
1.0
 40
0.5773502691896202
 41
2.879793265790656
 42
3.926990816987253
  0
ELLIPSE
  5
2F0
330
1F
100
AcDbEntity
  8
VISIBLE
100
AcDbEllipse
 10
254.0830847838851
 20
92.1625295005119
 30
0.0
 11
-0.9499999999999886
 21
1.645448267190432
 31
0.0
210
0.0
220
0.0
230
1.0
 40
0.5773502691896202
 41
3.926990816987253
 42
5.497787143782139
  0
ELLIPSE
  5
2F1
330
1F
100
AcDbEntity
  8
VISIBLE
100
AcDbEllipse
 10
254.0830847838851
 20
92.1625295005119
 30
0.0
 11
-0.9499999999999886
 21
1.645448267190432
 31
0.0
210
0.0
220
0.0
230
1.0
 40
0.5773502691896202
 41
-0.7853981633974473
 42
2.879793265790656
  0
LINE
  5
2F2
330
1F
100
AcDbEntity
  8
VISIBLE
100
AcDbLine
 10
245.91550354804
 20
62.99347661715459
 30
0.0
 11
246.0922802433366
 21
62.89141454453863
 31
0.0
  0
LINE
  5
2F3
330
1F
100
AcDbEntity
  8
VISIBLE
100
AcDbLine
 10
280.1748270965282
 20
82.77310629012874
 30
0.0
 11
280.1748270965282
 21
82.56898214489681
 31
0.0
  0
LINE
  5
2F4
330
1F
100
AcDbEntity
  8
VISIBLE
100
AcDbLine
 10
257.9363188282113
 20
121.2913324953942
 30
0.0
 11
257.7595421329146
 21
121.3933945680102
 31
0.0
  0
LINE
  5
2F5
330
1F
100
AcDbEntity
  8
VISIBLE
100
AcDbLine
 10
273.6095421329146
 20
68.05744765263458
 30
0.0
 11
261.9422802433366
 21
61.32135085998084
 31
0.0
  0
LINE
  5
2F6
330
1F
100
AcDbEntity
  8
VISIBLE
100
AcDbLine
 10
241.9095421329146
 20
122.963458252568
 30
0.0
 11
230.2422802433366
 21
116.2273614599142
 31
0.0
  0
LINE
  5
2F7
330
1F
100
AcDbEntity
  8
VISIBLE
100
AcDbLine
 10
223.676995279723
 20
101.5117028224201
 30
0.0
 11
223.676995279723
 21
101.715826967652
 31
0.0
  0
LINE
  5
2F8
330
1F
100
AcDbEntity
  8
VISIBLE
100
AcDbLine
 10
194.9459208846092
 20
169.1549510955811
 30
0.0
 11
194.9459208846092
 21
168.1549510955811
 31
0.0
  0
LINE
  5
2F9
330
1F
100
AcDbEntity
  8
VISIBLE
100
AcDbLine
 10
183.9459208846092
 20
151.9549510955811
 30
0.0
 11
183.9459208846092
 21
151.6549510955811
 31
0.0
  0
LINE
  5
2FA
330
1F
100
AcDbEntity
  8
VISIBLE
100
AcDbLine
 10
183.9459208846092
 20
163.9549510955811
 30
0.0
 11
183.9459208846092
 21
160.1549510955811
 31
0.0
  0
LINE
  5
2FB
330
1F
100
AcDbEntity
  8
VISIBLE
100
AcDbLine
 10
192.4459208846092
 20
151.1549510955811
 30
0.0
 11
192.9459208846092
 21
151.6549510955811
 31
0.0
  0
LINE
  5
2FC
330
1F
100
AcDbEntity
  8
VISIBLE
100
AcDbLine
 10
192.4459208846092
 20
147.0549510955811
 30
0.0
 11
192.4459208846092
 21
144.254951095581
 31
0.0
  0
LINE
  5
2FD
330
1F
100
AcDbEntity
  8
VISIBLE
100
AcDbLine
 10
183.9459208846092
 20
143.754951095581
 30
0.0
 11
183.9459208846092
 21
143.4549510955811
 31
0.0
  0
LINE
  5
2FE
330
1F
100
AcDbEntity
  8
VISIBLE
100
AcDbLine
 10
183.9459208846092
 20
160.1549510955811
 30
0.0
 11
183.9459208846092
 21
159.854951095581
 31
0.0
  0
LINE
  5
2FF
330
1F
100
AcDbEntity
  8
VISIBLE
100
AcDbLine
 10
183.9459208846092
 20
159.854951095581
 30
0.0
 11
184.4459208846092
 21
159.354951095581
 31
0.0
  0
LINE
  5
300
330
1F
100
AcDbEntity
  8
VISIBLE
100
AcDbLine
 10
192.9459208846092
 20
156.0549510955811
 30
0.0
 11
192.4459208846092
 21
156.5549510955811
 31
0.0
  0
LINE
  5
301
330
1F
100
AcDbEntity
  8
VISIBLE
100
AcDbLine
 10
184.4459208846092
 20
144.254951095581
 30
0.0
 11
183.9459208846092
 21
143.754951095581
 31
0.0
  0
LINE
  5
302
330
1F
100
AcDbEntity
  8
VISIBLE
100
AcDbLine
 10
192.9459208846092
 20
151.9549510955811
 30
0.0
 11
192.9459208846092
 21
155.754951095581
 31
0.0
  0
LINE
  5
303
330
1F
100
AcDbEntity
  8
VISIBLE
100
AcDbLine
 10
194.9459208846092
 20
168.1549510955811
 30
0.0
 11
200.6959208846092
 21
168.1549510955811
 31
0.0
  0
LINE
  5
304
330
1F
100
AcDbEntity
  8
VISIBLE
100
AcDbLine
 10
192.9459208846092
 20
143.4549510955811
 30
0.0
 11
192.9459208846092
 21
143.754951095581
 31
0.0
  0
LINE
  5
305
330
1F
100
AcDbEntity
  8
VISIBLE
100
AcDbLine
 10
192.4459208846092
 20
144.254951095581
 30
0.0
 11
184.4459208846092
 21
144.254951095581
 31
0.0
  0
LINE
  5
306
330
1F
100
AcDbEntity
  8
VISIBLE
100
AcDbLine
 10
183.9459208846092
 20
177.104951095581
 30
0.0
 11
183.9459208846092
 21
168.0549510955811
 31
0.0
  0
LINE
  5
307
330
1F
100
AcDbEntity
  8
VISIBLE
100
AcDbLine
 10
183.9459208846092
 20
131.1549510955811
 30
0.0
 11
183.9459208846092
 21
127.3549510955811
 31
0.0
  0
LINE
  5
308
330
1F
100
AcDbEntity
  8
VISIBLE
100
AcDbLine
 10
183.9459208846092
 20
168.0549510955811
 30
0.0
 11
184.4459208846092
 21
167.5549510955811
 31
0.0
  0
LINE
  5
309
330
1F
100
AcDbEntity
  8
VISIBLE
100
AcDbLine
 10
192.4459208846092
 20
167.5549510955811
 30
0.0
 11
192.9459208846092
 21
168.0549510955811
 31
0.0
  0
LINE
  5
30A
330
1F
100
AcDbEntity
  8
VISIBLE
100
AcDbLine
 10
183.9459208846092
 20
151.6549510955811
 30
0.0
 11
183.9459208846092
 21
147.854951095581
 31
0.0
  0
LINE
  5
30B
330
1F
100
AcDbEntity
  8
VISIBLE
100
AcDbLine
 10
183.9459208846092
 20
139.6549510955811
 30
0.0
 11
183.9459208846092
 21
139.354951095581
 31
0.0
  0
LINE
  5
30C
330
1F
100
AcDbEntity
  8
VISIBLE
100
AcDbLine
 10
192.9459208846092
 20
168.0549510955811
 30
0.0
 11
192.9459208846092
 21
169.1549510955811
 31
0.0
  0
LINE
  5
30D
330
1F
100
AcDbEntity
  8
VISIBLE
100
AcDbLine
 10
183.9459208846092
 20
131.1549510955811
 30
0.0
 11
184.4459208846092
 21
130.6549510955811
 31
0.0
  0
LINE
  5
30E
330
1F
100
AcDbEntity
  8
VISIBLE
100
AcDbLine
 10
192.4459208846092
 20
147.0549510955811
 30
0.0
 11
192.9459208846092
 21
147.5549510955811
 31
0.0
  0
LINE
  5
30F
330
1F
100
AcDbEntity
  8
VISIBLE
100
AcDbLine
 10
184.4459208846092
 20
160.6549510955811
 30
0.0
 11
183.9459208846092
 21
160.1549510955811
 31
0.0
  0
LINE
  5
310
330
1F
100
AcDbEntity
  8
VISIBLE
100
AcDbLine
 10
184.4459208846092
 20
140.1549510955811
 30
0.0
 11
183.9459208846092
 21
139.6549510955811
 31
0.0
  0
LINE
  5
311
330
1F
100
AcDbEntity
  8
VISIBLE
100
AcDbLine
 10
192.4459208846092
 20
142.9549510955811
 30
0.0
 11
192.4459208846092
 21
140.1549510955811
 31
0.0
  0
LINE
  5
312
330
1F
100
AcDbEntity
  8
VISIBLE
100
AcDbLine
 10
192.4459208846092
 20
164.754951095581
 30
0.0
 11
184.4459208846092
 21
164.754951095581
 31
0.0
  0
LINE
  5
313
330
1F
100
AcDbEntity
  8
VISIBLE
100
AcDbLine
 10
184.4459208846092
 20
160.6549510955811
 30
0.0
 11
184.4459208846092
 21
163.4549510955811
 31
0.0
  0
LINE
  5
314
330
1F
100
AcDbEntity
  8
VISIBLE
100
AcDbLine
 10
192.9459208846092
 20
135.254951095581
 30
0.0
 11
192.9459208846092
 21
135.5549510955811
 31
0.0
  0
LINE
  5
315
330
1F
100
AcDbEntity
  8
VISIBLE
100
AcDbLine
 10
192.9459208846092
 20
139.6549510955811
 30
0.0
 11
192.4459208846092
 21
140.1549510955811
 31
0.0
  0
LINE
  5
316
330
1F
100
AcDbEntity
  8
VISIBLE
100
AcDbLine
 10
192.4459208846092
 20
130.6549510955811
 30
0.0
 11
192.4459208846092
 21
127.8549510955811
 31
0.0
  0
LINE
  5
317
330
1F
100
AcDbEntity
  8
VISIBLE
100
AcDbLine
 10
183.9459208846092
 20
123.254951095581
 30
0.0
 11
183.9459208846092
 21
114.2049510955811
 31
0.0
  0
LINE
  5
318
330
1F
100
AcDbEntity
  8
VISIBLE
100
AcDbLine
 10
192.9459208846092
 20
151.9549510955811
 30
0.0
 11
192.4459208846092
 21
152.4549510955811
 31
0.0
  0
LINE
  5
319
330
1F
100
AcDbEntity
  8
VISIBLE
100
AcDbLine
 10
192.9459208846092
 20
156.0549510955811
 30
0.0
 11
192.9459208846092
 21
159.854951095581
 31
0.0
  0
LINE
  5
31A
330
1F
100
AcDbEntity
  8
VISIBLE
100
AcDbLine
 10
192.9459208846092
 20
127.3549510955811
 30
0.0
 11
192.9459208846092
 21
131.1549510955811
 31
0.0
  0
LINE
  5
31B
330
1F
100
AcDbEntity
  8
VISIBLE
100
AcDbLine
 10
192.4459208846092
 20
131.9549510955811
 30
0.0
 11
184.4459208846092
 21
131.9549510955811
 31
0.0
  0
LINE
  5
31C
330
1F
100
AcDbEntity
  8
VISIBLE
100
AcDbLine
 10
183.9459208846092
 20
168.0549510955811
 30
0.0
 11
183.9459208846092
 21
164.254951095581
 31
0.0
  0
LINE
  5
31D
330
1F
100
AcDbEntity
  8
VISIBLE
100
AcDbLine
 10
192.9459208846092
 20
135.5549510955811
 30
0.0
 11
192.4459208846092
 21
136.0549510955811
 31
0.0
  0
LINE
  5
31E
330
1F
100
AcDbEntity
  8
VISIBLE
100
AcDbLine
 10
183.9459208846092
 20
147.5549510955811
 30
0.0
 11
183.9459208846092
 21
143.754951095581
 31
0.0
  0
LINE
  5
31F
330
1F
100
AcDbEntity
  8
VISIBLE
100
AcDbLine
 10
200.9459208846092
 20
168.4049510955811
 30
0.0
 11
200.9459208846092
 21
177.104951095581
 31
0.0
  0
LINE
  5
320
330
1F
100
AcDbEntity
  8
VISIBLE
100
AcDbLine
 10
192.4459208846092
 20
151.1549510955811
 30
0.0
 11
192.4459208846092
 21
148.354951095581
 31
0.0
  0
LINE
  5
321
330
1F
100
AcDbEntity
  8
VISIBLE
100
AcDbLine
 10
183.9459208846092
 20
147.854951095581
 30
0.0
 11
183.9459208846092
 21
147.5549510955811
 31
0.0
  0
LINE
  5
322
330
1F
100
AcDbEntity
  8
VISIBLE
100
AcDbLine
 10
183.9459208846092
 20
127.0549510955811
 30
0.0
 11
183.9459208846092
 21
123.254951095581
 31
0.0
  0
LINE
  5
323
330
1F
100
AcDbEntity
  8
VISIBLE
100
AcDbLine
 10
184.4459208846092
 20
147.0549510955811
 30
0.0
 11
192.4459208846092
 21
147.0549510955811
 31
0.0
  0
LINE
  5
324
330
1F
100
AcDbEntity
  8
VISIBLE
100
AcDbLine
 10
192.4459208846092
 20
148.354951095581
 30
0.0
 11
184.4459208846092
 21
148.354951095581
 31
0.0
  0
LINE
  5
325
330
1F
100
AcDbEntity
  8
VISIBLE
100
AcDbLine
 10
184.4459208846092
 20
167.5549510955811
 30
0.0
 11
192.4459208846092
 21
167.5549510955811
 31
0.0
  0
LINE
  5
326
330
1F
100
AcDbEntity
  8
VISIBLE
100
AcDbLine
 10
192.4459208846092
 20
134.754951095581
 30
0.0
 11
192.4459208846092
 21
131.9549510955811
 31
0.0
  0
LINE
  5
327
330
1F
100
AcDbEntity
  8
VISIBLE
100
AcDbLine
 10
192.4459208846092
 20
155.254951095581
 30
0.0
 11
192.9459208846092
 21
155.754951095581
 31
0.0
  0
LINE
  5
328
330
1F
100
AcDbEntity
  8
VISIBLE
100
AcDbLine
 10
192.4459208846092
 20
142.9549510955811
 30
0.0
 11
192.9459208846092
 21
143.4549510955811
 31
0.0
  0
LINE
  5
329
330
1F
100
AcDbEntity
  8
VISIBLE
100
AcDbLine
 10
192.4459208846092
 20
136.0549510955811
 30
0.0
 11
184.4459208846092
 21
136.0549510955811
 31
0.0
  0
LINE
  5
32A
330
1F
100
AcDbEntity
  8
VISIBLE
100
AcDbLine
 10
192.9459208846092
 20
135.5549510955811
 30
0.0
 11
192.9459208846092
 21
139.354951095581
 31
0.0
  0
LINE
  5
32B
330
1F
100
AcDbEntity
  8
VISIBLE
100
AcDbLine
 10
183.9459208846092
 20
155.754951095581
 30
0.0
 11
183.9459208846092
 21
151.9549510955811
 31
0.0
  0
LINE
  5
32C
330
1F
100
AcDbEntity
  8
VISIBLE
100
AcDbLine
 10
184.1959208846092
 20
177.354951095581
 30
0.0
 11
183.9459208846092
 21
177.104951095581
 31
0.0
  0
LINE
  5
32D
330
1F
100
AcDbEntity
  8
VISIBLE
100
AcDbLine
 10
192.9459208846092
 20
123.254951095581
 30
0.0
 11
192.4459208846092
 21
123.7549510955811
 31
0.0
  0
LINE
  5
32E
330
1F
100
AcDbEntity
  8
VISIBLE
100
AcDbLine
 10
192.4459208846092
 20
127.8549510955811
 30
0.0
 11
184.4459208846092
 21
127.8549510955811
 31
0.0
  0
LINE
  5
32F
330
1F
100
AcDbEntity
  8
VISIBLE
100
AcDbLine
 10
192.9459208846092
 20
127.0549510955811
 30
0.0
 11
192.9459208846092
 21
127.3549510955811
 31
0.0
  0
LINE
  5
330
330
1F
100
AcDbEntity
  8
VISIBLE
100
AcDbLine
 10
192.4459208846092
 20
167.5549510955811
 30
0.0
 11
192.4459208846092
 21
164.754951095581
 31
0.0
  0
LINE
  5
331
330
1F
100
AcDbEntity
  8
VISIBLE
100
AcDbLine
 10
183.9459208846092
 20
139.354951095581
 30
0.0
 11
184.4459208846092
 21
138.854951095581
 31
0.0
  0
LINE
  5
332
330
1F
100
AcDbEntity
  8
VISIBLE
100
AcDbLine
 10
183.9459208846092
 20
135.254951095581
 30
0.0
 11
183.9459208846092
 21
131.4549510955811
 31
0.0
  0
LINE
  5
333
330
1F
100
AcDbEntity
  8
VISIBLE
100
AcDbLine
 10
183.9459208846092
 20
131.4549510955811
 30
0.0
 11
183.9459208846092
 21
131.1549510955811
 31
0.0
  0
LINE
  5
334
330
1F
100
AcDbEntity
  8
VISIBLE
100
AcDbLine
 10
194.9459208846092
 20
122.1549510955811
 30
0.0
 11
192.9459208846092
 21
122.1549510955811
 31
0.0
  0
LINE
  5
335
330
1F
100
AcDbEntity
  8
VISIBLE
100
AcDbLine
 10
183.9459208846092
 20
156.0549510955811
 30
0.0
 11
183.9459208846092
 21
155.754951095581
 31
0.0
  0
LINE
  5
336
330
1F
100
AcDbEntity
  8
VISIBLE
100
AcDbLine
 10
192.4459208846092
 20
138.854951095581
 30
0.0
 11
192.9459208846092
 21
139.354951095581
 31
0.0
  0
LINE
  5
337
330
1F
100
AcDbEntity
  8
VISIBLE
100
AcDbLine
 10
192.4459208846092
 20
134.754951095581
 30
0.0
 11
192.9459208846092
 21
135.254951095581
 31
0.0
  0
LINE
  5
338
330
1F
100
AcDbEntity
  8
VISIBLE
100
AcDbLine
 10
200.6959208846092
 20
168.1549510955811
 30
0.0
 11
200.9459208846092
 21
168.4049510955811
 31
0.0
  0
LINE
  5
339
330
1F
100
AcDbEntity
  8
VISIBLE
100
AcDbLine
 10
192.4459208846092
 20
159.354951095581
 30
0.0
 11
192.9459208846092
 21
159.854951095581
 31
0.0
  0
LINE
  5
33A
330
1F
100
AcDbEntity
  8
VISIBLE
100
AcDbLine
 10
184.4459208846092
 20
138.854951095581
 30
0.0
 11
192.4459208846092
 21
138.854951095581
 31
0.0
  0
LINE
  5
33B
330
1F
100
AcDbEntity
  8
VISIBLE
100
AcDbLine
 10
184.4459208846092
 20
164.754951095581
 30
0.0
 11
184.4459208846092
 21
167.5549510955811
 31
0.0
  0
LINE
  5
33C
330
1F
100
AcDbEntity
  8
VISIBLE
100
AcDbLine
 10
192.4459208846092
 20
156.5549510955811
 30
0.0
 11
184.4459208846092
 21
156.5549510955811
 31
0.0
  0
LINE
  5
33D
330
1F
100
AcDbEntity
  8
VISIBLE
100
AcDbLine
 10
192.4459208846092
 20
160.6549510955811
 30
0.0
 11
184.4459208846092
 21
160.6549510955811
 31
0.0
  0
LINE
  5
33E
330
1F
100
AcDbEntity
  8
VISIBLE
100
AcDbLine
 10
200.9459208846092
 20
122.9049510955811
 30
0.0
 11
200.6959208846092
 21
123.1549510955811
 31
0.0
  0
LINE
  5
33F
330
1F
100
AcDbEntity
  8
VISIBLE
100
AcDbLine
 10
200.6959208846092
 20
177.354951095581
 30
0.0
 11
184.1959208846092
 21
177.354951095581
 31
0.0
  0
LINE
  5
340
330
1F
100
AcDbEntity
  8
VISIBLE
100
AcDbLine
 10
184.4459208846092
 20
126.5549510955811
 30
0.0
 11
192.4459208846092
 21
126.5549510955811
 31
0.0
  0
LINE
  5
341
330
1F
100
AcDbEntity
  8
VISIBLE
100
AcDbLine
 10
194.9459208846092
 20
168.1549510955811
 30
0.0
 11
194.9459208846092
 21
123.1549510955811
 31
0.0
  0
LINE
  5
342
330
1F
100
AcDbEntity
  8
VISIBLE
100
AcDbLine
 10
192.4459208846092
 20
123.754951095581
 30
0.0
 11
184.4459208846092
 21
123.754951095581
 31
0.0
  0
LINE
  5
343
330
1F
100
AcDbEntity
  8
VISIBLE
100
AcDbLine
 10
200.9459208846092
 20
122.9049510955811
 30
0.0
 11
200.9459208846092
 21
168.4049510955811
 31
0.0
  0
LINE
  5
344
330
1F
100
AcDbEntity
  8
VISIBLE
100
AcDbLine
 10
192.9459208846092
 20
131.1549510955811
 30
0.0
 11
192.9459208846092
 21
131.4549510955811
 31
0.0
  0
LINE
  5
345
330
1F
100
AcDbEntity
  8
VISIBLE
100
AcDbLine
 10
183.9459208846092
 20
143.4549510955811
 30
0.0
 11
184.4459208846092
 21
142.9549510955811
 31
0.0
  0
LINE
  5
346
330
1F
100
AcDbEntity
  8
VISIBLE
100
AcDbLine
 10
183.9459208846092
 20
147.5549510955811
 30
0.0
 11
184.4459208846092
 21
147.0549510955811
 31
0.0
  0
LINE
  5
347
330
1F
100
AcDbEntity
  8
VISIBLE
100
AcDbLine
 10
184.4459208846092
 20
152.4549510955811
 30
0.0
 11
183.9459208846092
 21
151.9549510955811
 31
0.0
  0
LINE
  5
348
330
1F
100
AcDbEntity
  8
VISIBLE
100
AcDbLine
 10
192.9459208846092
 20
147.5549510955811
 30
0.0
 11
192.9459208846092
 21
147.854951095581
 31
0.0
  0
LINE
  5
349
330
1F
100
AcDbEntity
  8
VISIBLE
100
AcDbLine
 10
192.4459208846092
 20
140.1549510955811
 30
0.0
 11
184.4459208846092
 21
140.1549510955811
 31
0.0
  0
LINE
  5
34A
330
1F
100
AcDbEntity
  8
VISIBLE
100
AcDbLine
 10
184.4459208846092
 20
131.9549510955811
 30
0.0
 11
184.4459208846092
 21
134.754951095581
 31
0.0
  0
LINE
  5
34B
330
1F
100
AcDbEntity
  8
VISIBLE
100
AcDbLine
 10
192.9459208846092
 20
160.1549510955811
 30
0.0
 11
192.4459208846092
 21
160.6549510955811
 31
0.0
  0
LINE
  5
34C
330
1F
100
AcDbEntity
  8
VISIBLE
100
AcDbLine
 10
184.1959208846092
 20
113.9549510955811
 30
0.0
 11
200.6959208846092
 21
113.9549510955811
 31
0.0
  0
LINE
  5
34D
330
1F
100
AcDbEntity
  8
VISIBLE
100
AcDbLine
 10
184.4459208846092
 20
140.1549510955811
 30
0.0
 11
184.4459208846092
 21
142.9549510955811
 31
0.0
  0
LINE
  5
34E
330
1F
100
AcDbEntity
  8
VISIBLE
100
AcDbLine
 10
184.4459208846092
 20
159.354951095581
 30
0.0
 11
192.4459208846092
 21
159.354951095581
 31
0.0
  0
LINE
  5
34F
330
1F
100
AcDbEntity
  8
VISIBLE
100
AcDbLine
 10
200.9459208846092
 20
177.104951095581
 30
0.0
 11
200.6959208846092
 21
177.354951095581
 31
0.0
  0
LINE
  5
350
330
1F
100
AcDbEntity
  8
VISIBLE
100
AcDbLine
 10
192.4459208846092
 20
130.6549510955811
 30
0.0
 11
192.9459208846092
 21
131.1549510955811
 31
0.0
  0
LINE
  5
351
330
1F
100
AcDbEntity
  8
VISIBLE
100
AcDbLine
 10
192.9459208846092
 20
159.854951095581
 30
0.0
 11
192.9459208846092
 21
160.1549510955811
 31
0.0
  0
LINE
  5
352
330
1F
100
AcDbEntity
  8
VISIBLE
100
AcDbLine
 10
184.4459208846092
 20
130.6549510955811
 30
0.0
 11
192.4459208846092
 21
130.6549510955811
 31
0.0
  0
LINE
  5
353
330
1F
100
AcDbEntity
  8
VISIBLE
100
AcDbLine
 10
192.9459208846092
 20
147.854951095581
 30
0.0
 11
192.4459208846092
 21
148.354951095581
 31
0.0
  0
LINE
  5
354
330
1F
100
AcDbEntity
  8
VISIBLE
100
AcDbLine
 10
192.4459208846092
 20
152.4549510955811
 30
0.0
 11
184.4459208846092
 21
152.4549510955811
 31
0.0
  0
LINE
  5
355
330
1F
100
AcDbEntity
  8
VISIBLE
100
AcDbLine
 10
184.4459208846092
 20
156.5549510955811
 30
0.0
 11
184.4459208846092
 21
159.354951095581
 31
0.0
  0
LINE
  5
356
330
1F
100
AcDbEntity
  8
VISIBLE
100
AcDbLine
 10
184.4459208846092
 20
144.254951095581
 30
0.0
 11
184.4459208846092
 21
147.0549510955811
 31
0.0
  0
LINE
  5
357
330
1F
100
AcDbEntity
  8
VISIBLE
100
AcDbLine
 10
192.4459208846092
 20
163.4549510955811
 30
0.0
 11
192.4459208846092
 21
160.6549510955811
 31
0.0
  0
LINE
  5
358
330
1F
100
AcDbEntity
  8
VISIBLE
100
AcDbLine
 10
183.9459208846092
 20
164.254951095581
 30
0.0
 11
183.9459208846092
 21
163.9549510955811
 31
0.0
  0
LINE
  5
359
330
1F
100
AcDbEntity
  8
VISIBLE
100
AcDbLine
 10
200.6959208846092
 20
168.1549510955811
 30
0.0
 11
200.6959208846092
 21
123.1549510955811
 31
0.0
  0
LINE
  5
35A
330
1F
100
AcDbEntity
  8
VISIBLE
100
AcDbLine
 10
184.4459208846092
 20
142.9549510955811
 30
0.0
 11
192.4459208846092
 21
142.9549510955811
 31
0.0
  0
LINE
  5
35B
330
1F
100
AcDbEntity
  8
VISIBLE
100
AcDbLine
 10
192.9459208846092
 20
131.4549510955811
 30
0.0
 11
192.9459208846092
 21
135.254951095581
 31
0.0
  0
LINE
  5
35C
330
1F
100
AcDbEntity
  8
VISIBLE
100
AcDbLine
 10
200.6959208846092
 20
123.1549510955811
 30
0.0
 11
194.9459208846092
 21
123.1549510955811
 31
0.0
  0
LINE
  5
35D
330
1F
100
AcDbEntity
  8
VISIBLE
100
AcDbLine
 10
192.9459208846092
 20
160.1549510955811
 30
0.0
 11
192.9459208846092
 21
163.9549510955811
 31
0.0
  0
LINE
  5
35E
330
1F
100
AcDbEntity
  8
VISIBLE
100
AcDbLine
 10
183.9459208846092
 20
155.754951095581
 30
0.0
 11
184.4459208846092
 21
155.254951095581
 31
0.0
  0
LINE
  5
35F
330
1F
100
AcDbEntity
  8
VISIBLE
100
AcDbLine
 10
192.9459208846092
 20
139.354951095581
 30
0.0
 11
192.9459208846092
 21
139.6549510955811
 31
0.0
  0
LINE
  5
360
330
1F
100
AcDbEntity
  8
VISIBLE
100
AcDbLine
 10
184.4459208846092
 20
131.9549510955811
 30
0.0
 11
183.9459208846092
 21
131.4549510955811
 31
0.0
  0
LINE
  5
361
330
1F
100
AcDbEntity
  8
VISIBLE
100
AcDbLine
 10
192.4459208846092
 20
126.5549510955811
 30
0.0
 11
192.4459208846092
 21
123.754951095581
 31
0.0
  0
LINE
  5
362
330
1F
100
AcDbEntity
  8
VISIBLE
100
AcDbLine
 10
184.4459208846092
 20
148.354951095581
 30
0.0
 11
184.4459208846092
 21
151.1549510955811
 31
0.0
  0
LINE
  5
363
330
1F
100
AcDbEntity
  8
VISIBLE
100
AcDbLine
 10
192.4459208846092
 20
163.4549510955811
 30
0.0
 11
192.9459208846092
 21
163.9549510955811
 31
0.0
  0
LINE
  5
364
330
1F
100
AcDbEntity
  8
VISIBLE
100
AcDbLine
 10
192.4459208846092
 20
155.254951095581
 30
0.0
 11
192.4459208846092
 21
152.4549510955811
 31
0.0
  0
LINE
  5
365
330
1F
100
AcDbEntity
  8
VISIBLE
100
AcDbLine
 10
183.9459208846092
 20
114.2049510955811
 30
0.0
 11
184.1959208846092
 21
113.9549510955811
 31
0.0
  0
LINE
  5
366
330
1F
100
AcDbEntity
  8
VISIBLE
100
AcDbLine
 10
192.9459208846092
 20
143.754951095581
 30
0.0
 11
192.9459208846092
 21
147.5549510955811
 31
0.0
  0
LINE
  5
367
330
1F
100
AcDbEntity
  8
VISIBLE
100
AcDbLine
 10
192.9459208846092
 20
122.1549510955811
 30
0.0
 11
192.9459208846092
 21
123.254951095581
 31
0.0
  0
LINE
  5
368
330
1F
100
AcDbEntity
  8
VISIBLE
100
AcDbLine
 10
192.4459208846092
 20
126.5549510955811
 30
0.0
 11
192.9459208846092
 21
127.0549510955811
 31
0.0
  0
LINE
  5
369
330
1F
100
AcDbEntity
  8
VISIBLE
100
AcDbLine
 10
184.4459208846092
 20
127.8549510955811
 30
0.0
 11
184.4459208846092
 21
130.6549510955811
 31
0.0
  0
LINE
  5
36A
330
1F
100
AcDbEntity
  8
VISIBLE
100
AcDbLine
 10
192.9459208846092
 20
123.254951095581
 30
0.0
 11
192.9459208846092
 21
127.0549510955811
 31
0.0
  0
LINE
  5
36B
330
1F
100
AcDbEntity
  8
VISIBLE
100
AcDbLine
 10
184.4459208846092
 20
151.1549510955811
 30
0.0
 11
192.4459208846092
 21
151.1549510955811
 31
0.0
  0
LINE
  5
36C
330
1F
100
AcDbEntity
  8
VISIBLE
100
AcDbLine
 10
183.9459208846092
 20
139.354951095581
 30
0.0
 11
183.9459208846092
 21
135.5549510955811
 31
0.0
  0
LINE
  5
36D
330
1F
100
AcDbEntity
  8
VISIBLE
100
AcDbLine
 10
183.9459208846092
 20
159.854951095581
 30
0.0
 11
183.9459208846092
 21
156.0549510955811
 31
0.0
  0
LINE
  5
36E
330
1F
100
AcDbEntity
  8
VISIBLE
100
AcDbLine
 10
192.9459208846092
 20
164.254951095581
 30
0.0
 11
192.9459208846092
 21
168.0549510955811
 31
0.0
  0
LINE
  5
36F
330
1F
100
AcDbEntity
  8
VISIBLE
100
AcDbLine
 10
184.4459208846092
 20
123.754951095581
 30
0.0
 11
184.4459208846092
 21
126.5549510955811
 31
0.0
  0
LINE
  5
370
330
1F
100
AcDbEntity
  8
VISIBLE
100
AcDbLine
 10
192.9459208846092
 20
131.4549510955811
 30
0.0
 11
192.4459208846092
 21
131.9549510955811
 31
0.0
  0
LINE
  5
371
330
1F
100
AcDbEntity
  8
VISIBLE
100
AcDbLine
 10
183.9459208846092
 20
143.4549510955811
 30
0.0
 11
183.9459208846092
 21
139.6549510955811
 31
0.0
  0
LINE
  5
372
330
1F
100
AcDbEntity
  8
VISIBLE
100
AcDbLine
 10
192.9459208846092
 20
139.6549510955811
 30
0.0
 11
192.9459208846092
 21
143.4549510955811
 31
0.0
  0
LINE
  5
373
330
1F
100
AcDbEntity
  8
VISIBLE
100
AcDbLine
 10
200.9459208846092
 20
114.2049510955811
 30
0.0
 11
200.9459208846092
 21
122.9049510955811
 31
0.0
  0
LINE
  5
374
330
1F
100
AcDbEntity
  8
VISIBLE
100
AcDbLine
 10
184.4459208846092
 20
163.4549510955811
 30
0.0
 11
192.4459208846092
 21
163.4549510955811
 31
0.0
  0
LINE
  5
375
330
1F
100
AcDbEntity
  8
VISIBLE
100
AcDbLine
 10
192.4459208846092
 20
159.354951095581
 30
0.0
 11
192.4459208846092
 21
156.5549510955811
 31
0.0
  0
LINE
  5
376
330
1F
100
AcDbEntity
  8
VISIBLE
100
AcDbLine
 10
192.9459208846092
 20
127.3549510955811
 30
0.0
 11
192.4459208846092
 21
127.8549510955811
 31
0.0
  0
LINE
  5
377
330
1F
100
AcDbEntity
  8
VISIBLE
100
AcDbLine
 10
183.9459208846092
 20
151.6549510955811
 30
0.0
 11
184.4459208846092
 21
151.1549510955811
 31
0.0
  0
LINE
  5
378
330
1F
100
AcDbEntity
  8
VISIBLE
100
AcDbLine
 10
192.9459208846092
 20
169.1549510955811
 30
0.0
 11
194.9459208846092
 21
169.1549510955811
 31
0.0
  0
LINE
  5
379
330
1F
100
AcDbEntity
  8
VISIBLE
100
AcDbLine
 10
183.9459208846092
 20
163.9549510955811
 30
0.0
 11
184.4459208846092
 21
163.454951095581
 31
0.0
  0
LINE
  5
37A
330
1F
100
AcDbEntity
  8
VISIBLE
100
AcDbLine
 10
184.4459208846092
 20
136.0549510955811
 30
0.0
 11
183.9459208846092
 21
135.5549510955811
 31
0.0
  0
LINE
  5
37B
330
1F
100
AcDbEntity
  8
VISIBLE
100
AcDbLine
 10
183.9459208846092
 20
135.5549510955811
 30
0.0
 11
183.9459208846092
 21
135.254951095581
 31
0.0
  0
LINE
  5
37C
330
1F
100
AcDbEntity
  8
VISIBLE
100
AcDbLine
 10
192.9459208846092
 20
163.9549510955811
 30
0.0
 11
192.9459208846092
 21
164.254951095581
 31
0.0
  0
LINE
  5
37D
330
1F
100
AcDbEntity
  8
VISIBLE
100
AcDbLine
 10
183.9459208846092
 20
127.0549510955811
 30
0.0
 11
184.4459208846092
 21
126.5549510955811
 31
0.0
  0
LINE
  5
37E
330
1F
100
AcDbEntity
  8
VISIBLE
100
AcDbLine
 10
184.4459208846092
 20
148.354951095581
 30
0.0
 11
183.9459208846092
 21
147.854951095581
 31
0.0
  0
LINE
  5
37F
330
1F
100
AcDbEntity
  8
VISIBLE
100
AcDbLine
 10
192.9459208846092
 20
151.6549510955811
 30
0.0
 11
192.9459208846092
 21
151.9549510955811
 31
0.0
  0
LINE
  5
380
330
1F
100
AcDbEntity
  8
VISIBLE
100
AcDbLine
 10
183.9459208846092
 20
135.254951095581
 30
0.0
 11
184.4459208846092
 21
134.754951095581
 31
0.0
  0
LINE
  5
381
330
1F
100
AcDbEntity
  8
VISIBLE
100
AcDbLine
 10
183.9459208846092
 20
127.3549510955811
 30
0.0
 11
183.9459208846092
 21
127.0549510955811
 31
0.0
  0
LINE
  5
382
330
1F
100
AcDbEntity
  8
VISIBLE
100
AcDbLine
 10
194.9459208846092
 20
123.1549510955811
 30
0.0
 11
194.9459208846092
 21
122.1549510955811
 31
0.0
  0
LINE
  5
383
330
1F
100
AcDbEntity
  8
VISIBLE
100
AcDbLine
 10
184.4459208846092
 20
127.8549510955811
 30
0.0
 11
183.9459208846092
 21
127.3549510955811
 31
0.0
  0
LINE
  5
384
330
1F
100
AcDbEntity
  8
VISIBLE
100
AcDbLine
 10
192.4459208846092
 20
138.854951095581
 30
0.0
 11
192.4459208846092
 21
136.0549510955811
 31
0.0
  0
LINE
  5
385
330
1F
100
AcDbEntity
  8
VISIBLE
100
AcDbLine
 10
184.4459208846092
 20
155.254951095581
 30
0.0
 11
192.4459208846092
 21
155.254951095581
 31
0.0
  0
LINE
  5
386
330
1F
100
AcDbEntity
  8
VISIBLE
100
AcDbLine
 10
192.9459208846092
 20
147.854951095581
 30
0.0
 11
192.9459208846092
 21
151.6549510955811
 31
0.0
  0
LINE
  5
387
330
1F
100
AcDbEntity
  8
VISIBLE
100
AcDbLine
 10
184.4459208846092
 20
134.754951095581
 30
0.0
 11
192.4459208846092
 21
134.754951095581
 31
0.0
  0
LINE
  5
388
330
1F
100
AcDbEntity
  8
VISIBLE
100
AcDbLine
 10
200.6959208846092
 20
113.9549510955811
 30
0.0
 11
200.9459208846092
 21
114.2049510955811
 31
0.0
  0
LINE
  5
389
330
1F
100
AcDbEntity
  8
VISIBLE
100
AcDbLine
 10
184.4459208846092
 20
136.0549510955811
 30
0.0
 11
184.4459208846092
 21
138.854951095581
 31
0.0
  0
LINE
  5
38A
330
1F
100
AcDbEntity
  8
VISIBLE
100
AcDbLine
 10
192.9459208846092
 20
155.754951095581
 30
0.0
 11
192.9459208846092
 21
156.0549510955811
 31
0.0
  0
LINE
  5
38B
330
1F
100
AcDbEntity
  8
VISIBLE
100
AcDbLine
 10
192.9459208846092
 20
143.754951095581
 30
0.0
 11
192.4459208846092
 21
144.254951095581
 31
0.0
  0
LINE
  5
38C
330
1F
100
AcDbEntity
  8
VISIBLE
100
AcDbLine
 10
184.4459208846092
 20
156.5549510955811
 30
0.0
 11
183.9459208846092
 21
156.0549510955811
 31
0.0
  0
LINE
  5
38D
330
1F
100
AcDbEntity
  8
VISIBLE
100
AcDbLine
 10
184.4459208846092
 20
152.4549510955811
 30
0.0
 11
184.4459208846092
 21
155.254951095581
 31
0.0
  0
LINE
  5
38E
330
1F
100
AcDbEntity
  8
VISIBLE
100
AcDbLine
 10
184.4459208846092
 20
164.754951095581
 30
0.0
 11
183.9459208846092
 21
164.254951095581
 31
0.0
  0
LINE
  5
38F
330
1F
100
AcDbEntity
  8
VISIBLE
100
AcDbLine
 10
192.9459208846092
 20
164.254951095581
 30
0.0
 11
192.4459208846092
 21
164.754951095581
 31
0.0
  0
LINE
  5
390
330
1F
100
AcDbEntity
  8
VISIBLE
100
AcDbLine
 10
184.4459208846092
 20
123.7549510955811
 30
0.0
 11
183.9459208846092
 21
123.254951095581
 31
0.0
  0
DIMENSION
  5
391
330
1F
100
AcDbEntity
  8
DIMENSIONS
100
AcDbDimension
280
     0
  2
D2
 10
0.0
 20
0.0
 30
0.0
 11
407.5373343229294
 21
290.4893932342529
 31
0.0
 70
    32
  1
<>  +/- 0,1
 71
     5
 42
-1.0
 73
     0
 74
     0
 75
     0
 53
90.0
  3
ISO-25
100
AcDbAlignedDimension
 13
200.6959208846092
 23
168.1549510955811
 33
0.0
 14
200.6959208846092
 24
123.1549510955811
 34
0.0
 50
90.0
100
AcDbRotatedDimension
1001
ACAD
1000
DSTYLE
1002
{
1070
    76
1070
     0
1070
    75
1070
     0
1070
   282
1070
     0
1070
   281
1070
     0
1070
    77
1070
     1
1070
    79
1070
     0
1070
    78
1070
     0
1070
   272
1070
     2
1070
   271
1070
     2
1070
   179
1070
     2
1070
   140
1040
2.707850318471337
1070
    71
1070
     0
1070
    72
1070
     0
1070
    48
1040
0.002
1070
    47
1040
0.005
1002
}
  0
DIMENSION
  5
3A2
330
1F
100
AcDbEntity
  8
DIMENSIONS
100
AcDbDimension
280
     0
  2
D3
 10
0.0
 20
0.0
 30
0.0
 11
377.0164145231247
 21
245.6662502288818
 31
0.0
 70
    32
  1
<>
 71
     5
 42
-1.0
 73
     0
 74
     0
 75
     0
 53
180.0
  3
ISO-25
100
AcDbAlignedDimension
 13
200.9459208846092
 23
114.2049510955811
 33
0.0
 14
183.9459208846092
 24
114.2049510955811
 34
0.0
 50
180.0
100
AcDbRotatedDimension
1001
ACAD
1000
DSTYLE
1002
{
1070
    76
1070
     0
1070
    75
1070
     0
1070
   282
1070
     0
1070
   281
1070
     0
1070
    77
1070
     1
1070
    79
1070
     0
1070
    78
1070
     0
1070
   272
1070
     2
1070
   271
1070
     2
1070
   179
1070
     2
1070
   140
1040
2.707850318471337
1070
    71
1070
     0
1070
    72
1070
     0
1070
    48
1040
0.002
1070
    47
1040
0.005
1002
}
  0
DIMENSION
  5
3B3
330
1F
100
AcDbEntity
  8
DIMENSIONS
100
AcDbDimension
280
     0
  2
D4
 10
0.0
 20
0.0
 30
0.0
 11
381.3382834196091
 21
257.2302074432373
 31
0.0
 70
    32
  1
<>
 71
     5
 42
-1.0
 73
     0
 74
     0
 75
     0
 53
180.0
  3
ISO-25
100
AcDbAlignedDimension
 13
200.9459208846092
 23
114.2049510955811
 33
0.0
 14
192.9459208846092
 24
122.1549510955811
 34
0.0
 50
180.0
100
AcDbRotatedDimension
1001
ACAD
1000
DSTYLE
1002
{
1070
    76
1070
     0
1070
    75
1070
     0
1070
   282
1070
     0
1070
   281
1070
     0
1070
    77
1070
     1
1070
    79
1070
     0
1070
    78
1070
     0
1070
   272
1070
     2
1070
   271
1070
     2
1070
   179
1070
     2
1070
   140
1040
2.707850318471337
1070
    71
1070
     0
1070
    72
1070
     0
1070
    48
1040
0.002
1070
    47
1040
0.005
1002
}
  0
DIMENSION
  5
3C4
330
1F
100
AcDbEntity
  8
DIMENSIONS
100
AcDbDimension
280
     0
  2
D5
 10
0.0
 20
0.0
 30
0.0
 11
388.6811178922653
 21
264.6303234100342
 31
0.0
 70
    32
  1
<>
 71
     5
 42
-1.0
 73
     0
 74
     0
 75
     0
 53
180.0
  3
ISO-25
100
AcDbAlignedDimension
 13
194.9459208846092
 23
122.1549510955811
 33
0.0
 14
192.9459208846092
 24
122.1549510955811
 34
0.0
 50
180.0
100
AcDbRotatedDimension
1001
ACAD
1000
DSTYLE
1002
{
1070
    76
1070
     0
1070
    75
1070
     0
1070
   282
1070
     0
1070
   281
1070
     0
1070
    77
1070
     1
1070
    79
1070
     0
1070
    78
1070
     0
1070
   272
1070
     2
1070
   271
1070
     2
1070
   179
1070
     2
1070
   140
1040
2.707850318471337
1070
    71
1070
     0
1070
    72
1070
     0
1070
    48
1040
0.002
1070
    47
1040
0.005
1002
}
  0
DIMENSION
  5
3D5
330
1F
100
AcDbEntity
  8
DIMENSIONS
100
AcDbDimension
280
     0
  2
D6
 10
0.0
 20
0.0
 30
0.0
 11
418.7858237028122
 21
295.8271923065186
 31
0.0
 70
    32
  1
n<>
 71
     5
 42
-1.0
 73
     0
 74
     0
 75
     0
 53
270.0
  3
ISO-25
100
AcDbAlignedDimension
 13
194.9459208846092
 23
122.1549510955811
 33
0.0
 14
194.9459208846092
 24
169.1549510955811
 34
0.0
 50
270.0
100
AcDbRotatedDimension
1001
ACAD
1000
DSTYLE
1002
{
1070
    76
1070
     0
1070
    75
1070
     0
1070
   282
1070
     0
1070
   281
1070
     0
1070
    77
1070
     1
1070
    79
1070
     0
1070
    78
1070
     0
1070
   272
1070
     2
1070
   271
1070
     2
1070
   179
1070
     2
1070
   140
1040
2.707850318471337
1070
    71
1070
     0
1070
    72
1070
     0
1070
    48
1040
0.002
1070
    47
1040
0.005
1002
}
  0
DIMENSION
  5
3E6
330
1F
100
AcDbEntity
  8
DIMENSIONS
100
AcDbDimension
280
     0
  2
D7
 10
0.0
 20
0.0
 30
0.0
 11
393.3752402067184
 21
326.7734203338623
 31
0.0
 70
    32
  1
<>x45_
 71
     5
 42
-1.0
 73
     0
 74
     0
 75
     0
  3
ISO-25
100
AcDbAlignedDimension
 13
200.9459208846092
 23
177.104951095581
 33
0.0
 14
200.6959208846092
 24
177.354951095581
 34
0.0
100
AcDbRotatedDimension
1001
ACAD
1000
DSTYLE
1002
{
1070
    76
1070
     0
1070
    75
1070
     0
1070
   282
1070
     0
1070
   281
1070
     0
1070
    77
1070
     1
1070
    79
1070
     0
1070
    78
1070
     0
1070
   272
1070
     2
1070
   271
1070
     2
1070
   179
1070
     2
1070
   140
1040
2.707850318471337
1070
    71
1070
     0
1070
    72
1070
     0
1070
    48
1040
0.002
1070
    47
1040
0.005
1002
}
  0
DIMENSION
  5
3F7
330
1F
100
AcDbEntity
  8
DIMENSIONS
100
AcDbDimension
280
     0
  2
D8
 10
0.0
 20
0.0
 30
0.0
 11
375.9545553922653
 21
329.8424510955811
 31
0.0
 70
    32
  1
<>x45_
 71
     5
 42
-1.0
 73
     0
 74
     0
 75
     0
  3
ISO-25
100
AcDbAlignedDimension
 13
184.1959208846092
 23
177.354951095581
 33
0.0
 14
183.9459208846092
 24
177.104951095581
 34
0.0
100
AcDbRotatedDimension
1001
ACAD
1000
DSTYLE
1002
{
1070
    76
1070
     0
1070
    75
1070
     0
1070
   282
1070
     0
1070
   281
1070
     0
1070
    77
1070
     1
1070
    79
1070
     0
1070
    78
1070
     0
1070
   272
1070
     2
1070
   271
1070
     2
1070
   179
1070
     2
1070
   140
1040
2.707850318471337
1070
    71
1070
     0
1070
    72
1070
     0
1070
    48
1040
0.002
1070
    47
1040
0.005
1002
}
  0
DIMENSION
  5
408
330
1F
100
AcDbEntity
  8
DIMENSIONS
100
AcDbDimension
280
     0
  2
D9
 10
0.0
 20
0.0
 30
0.0
 11
393.3910330533981
 21
309.406400680542
 31
0.0
 70
    32
  1
<>x45_
 71
     5
 42
-1.0
 73
     0
 74
     0
 75
     0
 53
180.0
  3
ISO-25
100
AcDbAlignedDimension
 13
200.9459208846092
 23
168.4049510955811
 33
0.0
 14
200.6959208846092
 24
168.1549510955811
 34
0.0
 50
180.0
100
AcDbRotatedDimension
1001
ACAD
1000
DSTYLE
1002
{
1070
    76
1070
     0
1070
    75
1070
     0
1070
   282
1070
     0
1070
   281
1070
     0
1070
    77
1070
     1
1070
    79
1070
     0
1070
    78
1070
     0
1070
   272
1070
     2
1070
   271
1070
     2
1070
   179
1070
     2
1070
   140
1040
2.707850318471337
1070
    71
1070
     0
1070
    72
1070
     0
1070
    48
1040
0.002
1070
    47
1040
0.005
1002
}
  0
MTEXT
  5
419
330
1F
100
AcDbEntity
  8
CONTINUOUS
100
AcDbMText
 10
192.4459208846092
 20
191.5744197845459
 30
0.0
 40
2.626484623805732
 41
0.0
 46
0.0
 71
     5
 72
     1
  1
{\fCE|b0|i0|c0|p0;\C7;Section A-A}{\fCE|b0|i0|c0|p0;\C7;}
 73
     1
 44
1.0
  0
HATCH
  5
41A
330
1F
100
AcDbEntity
  8
0
 62
     7
100
AcDbHatch
 10
0.0
 20
0.0
 30
0.0
210
0.0
220
0.0
230
1.0
  2
NENÍ Bez šraf
 70
     0
 71
     0
 91
       12
 92
        0
 93
       13
 72
     1
 10
184.4459208846092
 20
167.5549510955811
 11
192.4459208846092
 21
167.5549510955811
 72
     1
 10
192.4459208846092
 20
167.5549510955811
 11
192.9459208846092
 21
168.0549510955811
 72
     1
 10
192.9459208846092
 20
168.0549510955811
 11
192.9459208846092
 21
169.1549510955811
 72
     1
 10
192.9459208846092
 20
169.1549510955811
 11
194.9459208846092
 21
169.1549510955811
 72
     1
 10
194.9459208846092
 20
169.1549510955811
 11
194.9459208846092
 21
168.1549510955811
 72
     1
 10
194.9459208846092
 20
168.1549510955811
 11
200.6959208846092
 21
168.1549510955811
 72
     1
 10
200.6959208846092
 20
168.1549510955811
 11
200.9459208846092
 21
168.4049510955811
 72
     1
 10
200.9459208846092
 20
168.4049510955811
 11
200.9459208846092
 21
177.104951095581
 72
     1
 10
200.9459208846092
 20
177.104951095581
 11
200.6959208846092
 21
177.354951095581
 72
     1
 10
200.6959208846092
 20
177.354951095581
 11
184.1959208846092
 21
177.354951095581
 72
     1
 10
184.1959208846092
 20
177.354951095581
 11
183.9459208846092
 21
177.104951095581
 72
     1
 10
183.9459208846092
 20
177.104951095581
 11
183.9459208846092
 21
168.0549510955811
 72
     1
 10
183.9459208846092
 20
168.0549510955811
 11
184.4459208846092
 21
167.5549510955811
 97
        0
 92
        0
 93
       13
 72
     1
 10
184.4459208846092
 20
123.7549510955811
 11
183.9459208846092
 21
123.254951095581
 72
     1
 10
183.9459208846092
 20
123.254951095581
 11
183.9459208846092
 21
114.2049510955811
 72
     1
 10
183.9459208846092
 20
114.2049510955811
 11
184.1959208846092
 21
113.9549510955811
 72
     1
 10
184.1959208846092
 20
113.9549510955811
 11
200.6959208846092
 21
113.9549510955811
 72
     1
 10
200.6959208846092
 20
113.9549510955811
 11
200.9459208846092
 21
114.2049510955811
 72
     1
 10
200.9459208846092
 20
114.2049510955811
 11
200.9459208846092
 21
122.9049510955811
 72
     1
 10
200.9459208846092
 20
122.9049510955811
 11
200.6959208846092
 21
123.1549510955811
 72
     1
 10
200.6959208846092
 20
123.1549510955811
 11
194.9459208846092
 21
123.1549510955811
 72
     1
 10
194.9459208846092
 20
123.1549510955811
 11
194.9459208846092
 21
122.1549510955811
 72
     1
 10
194.9459208846092
 20
122.1549510955811
 11
192.9459208846092
 21
122.1549510955811
 72
     1
 10
192.9459208846092
 20
122.1549510955811
 11
192.9459208846092
 21
123.254951095581
 72
     1
 10
192.9459208846092
 20
123.254951095581
 11
192.4459208846092
 21
123.7549510955811
 72
     1
 10
192.4459208846092
 20
123.754951095581
 11
184.4459208846092
 21
123.754951095581
 97
        0
 92
        0
 93
        8
 72
     1
 10
192.9459208846092
 20
127.0549510955811
 11
192.9459208846092
 21
127.3549510955811
 72
     1
 10
192.9459208846092
 20
127.3549510955811
 11
192.4459208846092
 21
127.8549510955811
 72
     1
 10
192.4459208846092
 20
127.8549510955811
 11
184.4459208846092
 21
127.8549510955811
 72
     1
 10
184.4459208846092
 20
127.8549510955811
 11
183.9459208846092
 21
127.3549510955811
 72
     1
 10
183.9459208846092
 20
127.3549510955811
 11
183.9459208846092
 21
127.0549510955811
 72
     1
 10
183.9459208846092
 20
127.0549510955811
 11
184.4459208846092
 21
126.5549510955811
 72
     1
 10
184.4459208846092
 20
126.5549510955811
 11
192.4459208846092
 21
126.5549510955811
 72
     1
 10
192.4459208846092
 20
126.5549510955811
 11
192.9459208846092
 21
127.0549510955811
 97
        0
 92
        0
 93
        8
 72
     1
 10
192.9459208846092
 20
131.1549510955811
 11
192.9459208846092
 21
131.4549510955811
 72
     1
 10
192.9459208846092
 20
131.4549510955811
 11
192.4459208846092
 21
131.9549510955811
 72
     1
 10
192.4459208846092
 20
131.9549510955811
 11
184.4459208846092
 21
131.9549510955811
 72
     1
 10
184.4459208846092
 20
131.9549510955811
 11
183.9459208846092
 21
131.4549510955811
 72
     1
 10
183.9459208846092
 20
131.4549510955811
 11
183.9459208846092
 21
131.1549510955811
 72
     1
 10
183.9459208846092
 20
131.1549510955811
 11
184.4459208846092
 21
130.6549510955811
 72
     1
 10
184.4459208846092
 20
130.6549510955811
 11
192.4459208846092
 21
130.6549510955811
 72
     1
 10
192.4459208846092
 20
130.6549510955811
 11
192.9459208846092
 21
131.1549510955811
 97
        0
 92
        0
 93
        8
 72
     1
 10
192.9459208846092
 20
135.254951095581
 11
192.9459208846092
 21
135.5549510955811
 72
     1
 10
192.9459208846092
 20
135.5549510955811
 11
192.4459208846092
 21
136.0549510955811
 72
     1
 10
192.4459208846092
 20
136.0549510955811
 11
184.4459208846092
 21
136.0549510955811
 72
     1
 10
184.4459208846092
 20
136.0549510955811
 11
183.9459208846092
 21
135.5549510955811
 72
     1
 10
183.9459208846092
 20
135.5549510955811
 11
183.9459208846092
 21
135.254951095581
 72
     1
 10
183.9459208846092
 20
135.254951095581
 11
184.4459208846092
 21
134.754951095581
 72
     1
 10
184.4459208846092
 20
134.754951095581
 11
192.4459208846092
 21
134.754951095581
 72
     1
 10
192.4459208846092
 20
134.754951095581
 11
192.9459208846092
 21
135.254951095581
 97
        0
 92
        0
 93
        8
 72
     1
 10
192.9459208846092
 20
139.354951095581
 11
192.9459208846092
 21
139.6549510955811
 72
     1
 10
192.9459208846092
 20
139.6549510955811
 11
192.4459208846092
 21
140.1549510955811
 72
     1
 10
192.4459208846092
 20
140.1549510955811
 11
184.4459208846092
 21
140.1549510955811
 72
     1
 10
184.4459208846092
 20
140.1549510955811
 11
183.9459208846092
 21
139.6549510955811
 72
     1
 10
183.9459208846092
 20
139.6549510955811
 11
183.9459208846092
 21
139.354951095581
 72
     1
 10
183.9459208846092
 20
139.354951095581
 11
184.4459208846092
 21
138.854951095581
 72
     1
 10
184.4459208846092
 20
138.854951095581
 11
192.4459208846092
 21
138.854951095581
 72
     1
 10
192.4459208846092
 20
138.854951095581
 11
192.9459208846092
 21
139.354951095581
 97
        0
 92
        0
 93
        8
 72
     1
 10
192.9459208846092
 20
143.4549510955811
 11
192.9459208846092
 21
143.754951095581
 72
     1
 10
192.9459208846092
 20
143.754951095581
 11
192.4459208846092
 21
144.254951095581
 72
     1
 10
192.4459208846092
 20
144.254951095581
 11
184.4459208846092
 21
144.254951095581
 72
     1
 10
184.4459208846092
 20
144.254951095581
 11
183.9459208846092
 21
143.754951095581
 72
     1
 10
183.9459208846092
 20
143.754951095581
 11
183.9459208846092
 21
143.4549510955811
 72
     1
 10
183.9459208846092
 20
143.4549510955811
 11
184.4459208846092
 21
142.9549510955811
 72
     1
 10
184.4459208846092
 20
142.9549510955811
 11
192.4459208846092
 21
142.9549510955811
 72
     1
 10
192.4459208846092
 20
142.9549510955811
 11
192.9459208846092
 21
143.4549510955811
 97
        0
 92
        0
 93
        8
 72
     1
 10
192.9459208846092
 20
147.5549510955811
 11
192.9459208846092
 21
147.854951095581
 72
     1
 10
192.9459208846092
 20
147.854951095581
 11
192.4459208846092
 21
148.354951095581
 72
     1
 10
192.4459208846092
 20
148.354951095581
 11
184.4459208846092
 21
148.354951095581
 72
     1
 10
184.4459208846092
 20
148.354951095581
 11
183.9459208846092
 21
147.854951095581
 72
     1
 10
183.9459208846092
 20
147.854951095581
 11
183.9459208846092
 21
147.5549510955811
 72
     1
 10
183.9459208846092
 20
147.5549510955811
 11
184.4459208846092
 21
147.0549510955811
 72
     1
 10
184.4459208846092
 20
147.0549510955811
 11
192.4459208846092
 21
147.0549510955811
 72
     1
 10
192.4459208846092
 20
147.0549510955811
 11
192.9459208846092
 21
147.5549510955811
 97
        0
 92
        0
 93
        8
 72
     1
 10
192.9459208846092
 20
151.6549510955811
 11
192.9459208846092
 21
151.9549510955811
 72
     1
 10
192.9459208846092
 20
151.9549510955811
 11
192.4459208846092
 21
152.4549510955811
 72
     1
 10
192.4459208846092
 20
152.4549510955811
 11
184.4459208846092
 21
152.4549510955811
 72
     1
 10
184.4459208846092
 20
152.4549510955811
 11
183.9459208846092
 21
151.9549510955811
 72
     1
 10
183.9459208846092
 20
151.9549510955811
 11
183.9459208846092
 21
151.6549510955811
 72
     1
 10
183.9459208846092
 20
151.6549510955811
 11
184.4459208846092
 21
151.1549510955811
 72
     1
 10
184.4459208846092
 20
151.1549510955811
 11
192.4459208846092
 21
151.1549510955811
 72
     1
 10
192.4459208846092
 20
151.1549510955811
 11
192.9459208846092
 21
151.6549510955811
 97
        0
 92
        0
 93
        8
 72
     1
 10
192.9459208846092
 20
155.754951095581
 11
192.9459208846092
 21
156.0549510955811
 72
     1
 10
192.9459208846092
 20
156.0549510955811
 11
192.4459208846092
 21
156.5549510955811
 72
     1
 10
192.4459208846092
 20
156.5549510955811
 11
184.4459208846092
 21
156.5549510955811
 72
     1
 10
184.4459208846092
 20
156.5549510955811
 11
183.9459208846092
 21
156.0549510955811
 72
     1
 10
183.9459208846092
 20
156.0549510955811
 11
183.9459208846092
 21
155.754951095581
 72
     1
 10
183.9459208846092
 20
155.754951095581
 11
184.4459208846092
 21
155.254951095581
 72
     1
 10
184.4459208846092
 20
155.254951095581
 11
192.4459208846092
 21
155.254951095581
 72
     1
 10
192.4459208846092
 20
155.254951095581
 11
192.9459208846092
 21
155.754951095581
 97
        0
 92
        0
 93
        8
 72
     1
 10
192.9459208846092
 20
159.854951095581
 11
192.9459208846092
 21
160.1549510955811
 72
     1
 10
192.9459208846092
 20
160.1549510955811
 11
192.4459208846092
 21
160.6549510955811
 72
     1
 10
192.4459208846092
 20
160.6549510955811
 11
184.4459208846092
 21
160.6549510955811
 72
     1
 10
184.4459208846092
 20
160.6549510955811
 11
183.9459208846092
 21
160.1549510955811
 72
     1
 10
183.9459208846092
 20
160.1549510955811
 11
183.9459208846092
 21
159.854951095581
 72
     1
 10
183.9459208846092
 20
159.854951095581
 11
184.4459208846092
 21
159.354951095581
 72
     1
 10
184.4459208846092
 20
159.354951095581
 11
192.4459208846092
 21
159.354951095581
 72
     1
 10
192.4459208846092
 20
159.354951095581
 11
192.9459208846092
 21
159.854951095581
 97
        0
 92
        0
 93
        8
 72
     1
 10
192.9459208846092
 20
163.9549510955811
 11
192.9459208846092
 21
164.254951095581
 72
     1
 10
192.9459208846092
 20
164.254951095581
 11
192.4459208846092
 21
164.754951095581
 72
     1
 10
192.4459208846092
 20
164.754951095581
 11
184.4459208846092
 21
164.754951095581
 72
     1
 10
184.4459208846092
 20
164.754951095581
 11
183.9459208846092
 21
164.254951095581
 72
     1
 10
183.9459208846092
 20
164.254951095581
 11
183.9459208846092
 21
163.9549510955811
 72
     1
 10
183.9459208846092
 20
163.9549510955811
 11
184.4459208846092
 21
163.454951095581
 72
     1
 10
184.4459208846092
 20
163.4549510955811
 11
192.4459208846092
 21
163.4549510955811
 72
     1
 10
192.4459208846092
 20
163.4549510955811
 11
192.9459208846092
 21
163.9549510955811
 97
        0
 75
     0
 76
     0
 52
0.0
 41
1.0
 77
     0
 78
     1
 53
0.0
 43
183.9459208846092
 44
145.6549510955811
 45
0.0
 46
0.0
 79
     0
 98
        0
  0
INSERT
  5
41B
330
1F
100
AcDbEntity
  8
CONTINUOUS
100
AcDbBlockReference
  2
BLOCK1
 10
0.0
 20
0.0
 30
0.0
  0
MTEXT
  5
467
330
1F
100
AcDbEntity
  8
CONTINUOUS
100
AcDbMText
 10
213.5716247558594
 20
26.56221985111655
 30
0.0
 40
2.188737186504777
 41
0.0
 46
0.0
 71
     1
 72
     1
  1
{\fCE|b0|i0|c0|p0;\C7;`ajba 3D}{\fCE|b0|i0|c0|p0;\C7;}
 73
     1
 44
1.0
  0
MTEXT
  5
468
330
1F
100
AcDbEntity
  8
CONTINUOUS
100
AcDbMText
 10
233.8921813964844
 20
14.96755241642417
 30
0.0
 40
2.188737186504777
 41
0.0
 46
0.0
 71
     1
 72
     1
  1
{\fCE|b0|i0|c0|p0;\C7;27.5.2021}{\fCE|b0|i0|c0|p0;\C7;}
 73
     1
 44
1.0
  0
MTEXT
  5
469
330
1F
100
AcDbEntity
  8
CONTINUOUS
100
AcDbMText
 10
258.7549438476562
 20
14.489422075848
 30
0.0
 40
2.188737186504777
 41
0.0
 46
0.0
 71
     1
 72
     1
  1
{\fCE|b0|i0|c0|p0;\C7;1}{\fCE|b0|i0|c0|p0;\C7;}
 73
     1
 44
1.0
  0
MTEXT
  5
46A
330
1F
100
AcDbEntity
  8
CONTINUOUS
100
AcDbMText
 10
276.2067260742188
 20
14.72848724613608
 30
0.0
 40
2.188737186504777
 41
0.0
 46
0.0
 71
     1
 72
     1
  1
{\fCE|b0|i0|c0|p0;\C7;1:1}{\fCE|b0|i0|c0|p0;\C7;}
 73
     1
 44
1.0
  0
MTEXT
  5
46B
330
1F
100
AcDbEntity
  8
CONTINUOUS
100
AcDbMText
 10
261.7432556152344
 20
25.24736046085776
 30
0.0
 40
2.188737186504777
 41
0.0
 46
0.0
 71
     1
 72
     1
  1
{\fCE|b0|i0|c0|p0;\C7;19 312 }{\fCE|b0|i0|c0|p0;\C7;}
 73
     1
 44
1.0
  0
MTEXT
  5
46C
330
1F
100
AcDbEntity
  8
CONTINUOUS
100
AcDbMText
 10
200.4230499267578
 20
15.44568275700034
 30
0.0
 40
2.188737186504777
 41
0.0
 46
0.0
 71
     1
 72
     1
  1
{\fCE|b0|i0|c0|p0;\C7;50  +/- 2HRC}{\fCE|b0|i0|c0|p0;\C7;}
 73
     1
 44
1.0
  0
ENDSEC
  0
SECTION
  2
OBJECTS
  0
DICTIONARY
  5
C
330
0
100
AcDbDictionary
281
     1
  3
ACAD_DETAILVIEWSTYLE
350
474
  3
ACAD_GROUP
350
D
  3
ACAD_LAYOUT
350
1A
  3
ACAD_MATERIAL
350
43
  3
ACAD_MLEADERSTYLE
350
6B
  3
ACAD_MLINESTYLE
350
17
  3
ACAD_PLOTSETTINGS
350
19
  3
ACAD_PLOTSTYLENAME
350
E
  3
ACAD_SCALELIST
350
47
  3
ACAD_SECTIONVIEWSTYLE
350
475
  3
ACAD_TABLESTYLE
350
69
  3
ACAD_VISUALSTYLE
350
2A
  3
ACDB_RECOMPOSE_DATA
350
471
  3
AcDbVariableDictionary
350
46D
  0
SUN
  5
6D
330
29
100
AcDbSun
 90
        1
290
     0
 63
     7
421
 16777215
 40
1.0
291
     1
 91
  2455826
 92
 54000000
292
     0
 70
     2
 71
   256
280
     1
  0
DICTIONARY
  5
474
102
{ACAD_REACTORS
330
C
102
}
330
C
100
AcDbDictionary
281
     1
  0
DICTIONARY
  5
D
102
{ACAD_REACTORS
330
C
102
}
330
C
100
AcDbDictionary
281
     1
  0
DICTIONARY
  5
1A
102
{ACAD_REACTORS
330
C
102
}
330
C
100
AcDbDictionary
281
     1
  3
Layout1
350
1E
  3
Layout2
350
26
  3
Model
350
22
  0
DICTIONARY
  5
43
102
{ACAD_REACTORS
330
C
102
}
330
C
100
AcDbDictionary
281
     1
  3
ByBlock
350
45
  3
ByLayer
350
44
  3
Global
350
46
  0
DICTIONARY
  5
6B
102
{ACAD_REACTORS
330
C
102
}
330
C
100
AcDbDictionary
281
     1
  3
Standard
350
6C
  0
DICTIONARY
  5
17
102
{ACAD_REACTORS
330
C
102
}
330
C
100
AcDbDictionary
281
     1
  3
Standard
350
18
  0
DICTIONARY
  5
19
102
{ACAD_REACTORS
330
C
102
}
330
C
100
AcDbDictionary
281
     1
  0
ACDBDICTIONARYWDFLT
  5
E
102
{ACAD_REACTORS
330
C
102
}
330
C
100
AcDbDictionary
281
     1
  3
Normal
350
F
100
AcDbDictionaryWithDefault
340
F
  0
DICTIONARY
  5
47
102
{ACAD_REACTORS
330
C
102
}
330
C
100
AcDbDictionary
281
     1
  3
A0
350
48
  3
A1
350
49
  3
A2
350
4A
  3
A3
350
4B
  3
A4
350
4C
  3
A5
350
4D
  3
A6
350
4E
  3
A7
350
4F
  3
A8
350
50
  3
A9
350
51
  3
B0
350
52
  3
B1
350
53
  3
B2
350
54
  3
B3
350
55
  3
B4
350
56
  3
B5
350
57
  3
B6
350
58
  3
B7
350
59
  3
B8
350
5A
  3
B9
350
5B
  3
C0
350
5C
  3
C1
350
5D
  3
C2
350
5E
  3
C3
350
5F
  3
C4
350
60
  3
C5
350
61
  3
C6
350
62
  3
C7
350
63
  3
C8
350
64
  3
C9
350
65
  3
D0
350
66
  3
D1
350
67
  3
D2
350
68
  0
DICTIONARY
  5
475
102
{ACAD_REACTORS
330
C
102
}
330
C
100
AcDbDictionary
281
     1
  0
DICTIONARY
  5
69
102
{ACAD_REACTORS
330
C
102
}
330
C
100
AcDbDictionary
281
     1
  3
Standard
350
6A
  0
DICTIONARY
  5
2A
102
{ACAD_REACTORS
330
C
102
}
330
C
100
AcDbDictionary
281
     1
  3
2dWireframe
350
2F
  3
Basic
350
32
  3
Brighten
350
36
  3
ColorChange
350
3A
  3
Conceptual
350
34
  3
Dim
350
35
  3
EdgeColorOff
350
3D
  3
Facepattern
350
39
  3
Flat
350
2B
  3
FlatWithEdges
350
2C
  3
Gouraud
350
2D
  3
GouraudWithEdges
350
2E
  3
Hidden
350
31
  3
JitterOff
350
3B
  3
Linepattern
350
38
  3
OverhangOff
350
3C
  3
Realistic
350
33
  3
Shaded
350
42
  3
Shaded with edges
350
41
  3
Shades of Gray
350
3E
  3
Sketchy
350
3F
  3
Thicken
350
37
  3
Wireframe
350
30
  3
X-Ray
350
40
  0
XRECORD
  5
471
102
{ACAD_REACTORS
330
C
102
}
330
C
100
AcDbXrecord
280
     1
 90
        1
330
6A
  0
DICTIONARY
  5
46D
102
{ACAD_REACTORS
330
C
102
}
330
C
100
AcDbDictionary
281
     1
  3
CANNOSCALE
350
46E
  3
CENTEREXE
350
476
  3
CENTERLTYPEFILE
350
477
  3
CMLEADERSTYLE
350
473
  3
CTABLESTYLE
350
472
  0
LAYOUT
  5
1E
102
{ACAD_REACTORS
330
1A
102
}
330
1A
100
AcDbPlotSettings
  1

  2
none_device
  4

  6

 40
0.0
 41
0.0
 42
0.0
 43
0.0
 44
0.0
 45
0.0
 46
0.0
 47
0.0
 48
0.0
 49
0.0
140
0.0
141
0.0
142
1.0
143
1.0
 70
   688
 72
     1
 73
     0
 74
     5
  7

 75
    16
 76
     0
 77
     2
 78
   300
147
1.0
148
0.0
149
0.0
100
AcDbLayout
  1
Layout1
 70
     1
 71
     1
 10
0.0
 20
0.0
 11
420.0
 21
297.0
 12
0.0
 22
0.0
 32
0.0
 14
1.000000000000000E+20
 24
1.000000000000000E+20
 34
1.000000000000000E+20
 15
-1.000000000000000E+20
 25
-1.000000000000000E+20
 35
-1.000000000000000E+20
146
0.0
 13
0.0
 23
0.0
 33
0.0
 16
1.0
 26
0.0
 36
0.0
 17
0.0
 27
1.0
 37
0.0
 76
     0
330
1B
  0
LAYOUT
  5
26
102
{ACAD_REACTORS
330
1A
102
}
330
1A
100
AcDbPlotSettings
  1

  2
none_device
  4

  6

 40
0.0
 41
0.0
 42
0.0
 43
0.0
 44
0.0
 45
0.0
 46
0.0
 47
0.0
 48
0.0
 49
0.0
140
0.0
141
0.0
142
1.0
143
1.0
 70
   688
 72
     1
 73
     0
 74
     5
  7

 75
    16
 76
     0
 77
     2
 78
   300
147
1.0
148
0.0
149
0.0
100
AcDbLayout
  1
Layout2
 70
     1
 71
     2
 10
0.0
 20
0.0
 11
0.0
 21
0.0
 12
0.0
 22
0.0
 32
0.0
 14
0.0
 24
0.0
 34
0.0
 15
0.0
 25
0.0
 35
0.0
146
0.0
 13
0.0
 23
0.0
 33
0.0
 16
1.0
 26
0.0
 36
0.0
 17
0.0
 27
1.0
 37
0.0
 76
     0
330
23
  0
LAYOUT
  5
22
102
{ACAD_REACTORS
330
1A
102
}
330
1A
100
AcDbPlotSettings
  1

  2
none_device
  4
Letter_(8.50_x_11.00_Inches)
  6

 40
6.35
 41
6.35
 42
6.35000508
 43
6.35000508
 44
215.9
 45
279.4
 46
0.0
 47
0.0
 48
0.0
 49
0.0
140
0.0
141
0.0
142
1.0
143
1.0
 70
  1712
 72
     1
 73
     0
 74
     0
  7

 75
     0
 76
     0
 77
     2
 78
   300
147
1.0
148
0.0
149
0.0
100
AcDbLayout
  1
Model
 70
     1
 71
     0
 10
0.0
 20
0.0
 11
420.0
 21
297.0
 12
0.0
 22
0.0
 32
0.0
 14
1.000000000000000E+20
 24
1.000000000000000E+20
 34
1.000000000000000E+20
 15
-1.000000000000000E+20
 25
-1.000000000000000E+20
 35
-1.000000000000000E+20
146
0.0
 13
0.0
 23
0.0
 33
0.0
 16
1.0
 26
0.0
 36
0.0
 17
0.0
 27
1.0
 37
0.0
 76
     0
330
1F
331
29
  0
MATERIAL
  5
45
102
{ACAD_REACTORS
330
43
102
}
330
43
100
AcDbMaterial
  1
ByBlock
 72
     1
 94
      127
  0
MATERIAL
  5
44
102
{ACAD_REACTORS
330
43
102
}
330
43
100
AcDbMaterial
  1
ByLayer
 72
     1
 94
      127
  0
MATERIAL
  5
46
102
{ACAD_REACTORS
330
43
102
}
330
43
100
AcDbMaterial
  1
Global
 72
     1
 94
      127
  0
MLEADERSTYLE
  5
6C
102
{ACAD_REACTORS
330
6B
102
}
330
6B
100
AcDbMLeaderStyle
179
     2
170
     2
171
     1
172
     0
 90
        2
 40
0.0
 41
0.0
173
     1
 91
-1056964608
340
14
 92
       -2
290
     1
 42
2.0
291
     1
 43
8.0
  3
Standard
341
0
 44
4.0
300

342
11
174
     1
178
     6
175
     1
176
     0
 93
-1056964608
 45
4.0
292
     0
297
     0
 46
4.0
343
0
 94
-1056964608
 47
1.0
 49
1.0
140
1.0
293
     1
141
0.0
294
     1
177
     0
142
1.0
295
     0
296
     0
143
3.75
271
     0
272
     9
273
     9
298
     0
  0
MLINESTYLE
  5
18
102
{ACAD_REACTORS
330
17
102
}
330
17
100
AcDbMlineStyle
  2
Standard
 70
     0
  3

 62
   256
 51
90.0
 52
90.0
 71
     2
 49
0.5
 62
   256
  6
BYLAYER
 49
-0.5
 62
   256
  6
BYLAYER
  0
ACDBPLACEHOLDER
  5
F
102
{ACAD_REACTORS
330
E
102
}
330
E
  0
SCALE
  5
48
102
{ACAD_REACTORS
330
47
102
}
330
47
100
AcDbScale
 70
     0
300
1:1
140
1.0
141
1.0
290
     1
  0
SCALE
  5
49
102
{ACAD_REACTORS
330
47
102
}
330
47
100
AcDbScale
 70
     0
300
1:2
140
1.0
141
2.0
290
     0
  0
SCALE
  5
4A
102
{ACAD_REACTORS
330
47
102
}
330
47
100
AcDbScale
 70
     0
300
1:4
140
1.0
141
4.0
290
     0
  0
SCALE
  5
4B
102
{ACAD_REACTORS
330
47
102
}
330
47
100
AcDbScale
 70
     0
300
1:5
140
1.0
141
5.0
290
     0
  0
SCALE
  5
4C
102
{ACAD_REACTORS
330
47
102
}
330
47
100
AcDbScale
 70
     0
300
1:8
140
1.0
141
8.0
290
     0
  0
SCALE
  5
4D
102
{ACAD_REACTORS
330
47
102
}
330
47
100
AcDbScale
 70
     0
300
1:10
140
1.0
141
10.0
290
     0
  0
SCALE
  5
4E
102
{ACAD_REACTORS
330
47
102
}
330
47
100
AcDbScale
 70
     0
300
1:16
140
1.0
141
16.0
290
     0
  0
SCALE
  5
4F
102
{ACAD_REACTORS
330
47
102
}
330
47
100
AcDbScale
 70
     0
300
1:20
140
1.0
141
20.0
290
     0
  0
SCALE
  5
50
102
{ACAD_REACTORS
330
47
102
}
330
47
100
AcDbScale
 70
     0
300
1:30
140
1.0
141
30.0
290
     0
  0
SCALE
  5
51
102
{ACAD_REACTORS
330
47
102
}
330
47
100
AcDbScale
 70
     0
300
1:40
140
1.0
141
40.0
290
     0
  0
SCALE
  5
52
102
{ACAD_REACTORS
330
47
102
}
330
47
100
AcDbScale
 70
     0
300
1:50
140
1.0
141
50.0
290
     0
  0
SCALE
  5
53
102
{ACAD_REACTORS
330
47
102
}
330
47
100
AcDbScale
 70
     0
300
1:100
140
1.0
141
100.0
290
     0
  0
SCALE
  5
54
102
{ACAD_REACTORS
330
47
102
}
330
47
100
AcDbScale
 70
     0
300
2:1
140
2.0
141
1.0
290
     0
  0
SCALE
  5
55
102
{ACAD_REACTORS
330
47
102
}
330
47
100
AcDbScale
 70
     0
300
4:1
140
4.0
141
1.0
290
     0
  0
SCALE
  5
56
102
{ACAD_REACTORS
330
47
102
}
330
47
100
AcDbScale
 70
     0
300
8:1
140
8.0
141
1.0
290
     0
  0
SCALE
  5
57
102
{ACAD_REACTORS
330
47
102
}
330
47
100
AcDbScale
 70
     0
300
10:1
140
10.0
141
1.0
290
     0
  0
SCALE
  5
58
102
{ACAD_REACTORS
330
47
102
}
330
47
100
AcDbScale
 70
     0
300
100:1
140
100.0
141
1.0
290
     0
  0
SCALE
  5
59
102
{ACAD_REACTORS
330
47
102
}
330
47
100
AcDbScale
 70
     0
300
1/128" = 1'-0"
140
0.0078125
141
12.0
290
     0
  0
SCALE
  5
5A
102
{ACAD_REACTORS
330
47
102
}
330
47
100
AcDbScale
 70
     0
300
1/64" = 1'-0"
140
0.015625
141
12.0
290
     0
  0
SCALE
  5
5B
102
{ACAD_REACTORS
330
47
102
}
330
47
100
AcDbScale
 70
     0
300
1/32" = 1'-0"
140
0.03125
141
12.0
290
     0
  0
SCALE
  5
5C
102
{ACAD_REACTORS
330
47
102
}
330
47
100
AcDbScale
 70
     0
300
1/16" = 1'-0"
140
0.0625
141
12.0
290
     0
  0
SCALE
  5
5D
102
{ACAD_REACTORS
330
47
102
}
330
47
100
AcDbScale
 70
     0
300
3/32" = 1'-0"
140
0.09375
141
12.0
290
     0
  0
SCALE
  5
5E
102
{ACAD_REACTORS
330
47
102
}
330
47
100
AcDbScale
 70
     0
300
1/8" = 1'-0"
140
0.125
141
12.0
290
     0
  0
SCALE
  5
5F
102
{ACAD_REACTORS
330
47
102
}
330
47
100
AcDbScale
 70
     0
300
3/16" = 1'-0"
140
0.1875
141
12.0
290
     0
  0
SCALE
  5
60
102
{ACAD_REACTORS
330
47
102
}
330
47
100
AcDbScale
 70
     0
300
1/4" = 1'-0"
140
0.25
141
12.0
290
     0
  0
SCALE
  5
61
102
{ACAD_REACTORS
330
47
102
}
330
47
100
AcDbScale
 70
     0
300
3/8" = 1'-0"
140
0.375
141
12.0
290
     0
  0
SCALE
  5
62
102
{ACAD_REACTORS
330
47
102
}
330
47
100
AcDbScale
 70
     0
300
1/2" = 1'-0"
140
0.5
141
12.0
290
     0
  0
SCALE
  5
63
102
{ACAD_REACTORS
330
47
102
}
330
47
100
AcDbScale
 70
     0
300
3/4" = 1'-0"
140
0.75
141
12.0
290
     0
  0
SCALE
  5
64
102
{ACAD_REACTORS
330
47
102
}
330
47
100
AcDbScale
 70
     0
300
1" = 1'-0"
140
1.0
141
12.0
290
     0
  0
SCALE
  5
65
102
{ACAD_REACTORS
330
47
102
}
330
47
100
AcDbScale
 70
     0
300
1-1/2" = 1'-0"
140
1.5
141
12.0
290
     0
  0
SCALE
  5
66
102
{ACAD_REACTORS
330
47
102
}
330
47
100
AcDbScale
 70
     0
300
3" = 1'-0"
140
3.0
141
12.0
290
     0
  0
SCALE
  5
67
102
{ACAD_REACTORS
330
47
102
}
330
47
100
AcDbScale
 70
     0
300
6" = 1'-0"
140
6.0
141
12.0
290
     0
  0
SCALE
  5
68
102
{ACAD_REACTORS
330
47
102
}
330
47
100
AcDbScale
 70
     0
300
1'-0" = 1'-0"
140
12.0
141
12.0
290
     0
  0
TABLESTYLE
  5
6A
102
{ACAD_REACTORS
330
69
102
}
102
{ACAD_XDICTIONARY
360
46F
102
}
330
69
100
AcDbTableStyle
  3
Standard
 70
     0
 71
     0
 40
0.06
 41
0.06
280
     0
281
     0
  7
Standard
140
4.5
170
     2
 62
     0
 63
   257
283
     0
 90
        4
 91
        0
  1

274
    -2
284
     1
 64
     0
275
    -2
285
     1
 65
     0
276
    -2
286
     1
 66
     0
277
    -2
287
     1
 67
     0
278
    -2
288
     1
 68
     0
279
    -2
289
     1
 69
     0
  7
Standard
140
6.0
170
     5
 62
     0
 63
   257
283
     0
 90
        4
 91
        0
  1

274
    -2
284
     1
 64
     0
275
    -2
285
     1
 65
     0
276
    -2
286
     1
 66
     0
277
    -2
287
     1
 67
     0
278
    -2
288
     1
 68
     0
279
    -2
289
     1
 69
     0
  7
Standard
140
4.5
170
     5
 62
     0
 63
   257
283
     0
 90
        4
 91
        0
  1

274
    -2
284
     1
 64
     0
275
    -2
285
     1
 65
     0
276
    -2
286
     1
 66
     0
277
    -2
287
     1
 67
     0
278
    -2
288
     1
 68
     0
279
    -2
289
     1
 69
     0
  0
VISUALSTYLE
  5
2F
102
{ACAD_REACTORS
330
2A
102
}
330
2A
100
AcDbVisualStyle
  2
2dWireframe
 70
     4
177
     3
291
     0
 70
    58
 90
        0
176
     1
 90
        2
176
     1
 90
        0
176
     1
 90
        0
176
     1
 40
0.6
176
     1
 40
30.0
176
     1
 62
     7
420
 16777215
176
     1
 90
        1
176
     1
 90
        4
176
     1
 62
     7
176
     1
 62
   257
176
     1
 90
        1
176
     1
 90
        1
176
     1
 40
1.0
176
     1
 90
        0
176
     1
 62
   257
176
     1
 40
1.0
176
     1
 90
        1
176
     1
 90
        6
176
     1
 90
        2
176
     1
 62
     7
176
     1
 90
        5
176
     1
 90
        0
176
     1
 90
        0
176
     1
290
     0
176
     1
 90
        1
176
     1
 40
0.0
176
     1
 90
        0
176
     1
290
     1
176
     1
290
     1
176
     1
290
     0
176
     1
290
     0
176
     1
290
     0
176
     1
290
     0
176
     1
290
     0
176
     1
290
     0
176
     1
290
     0
176
     1
 90
       50
176
     1
 40
0.0
176
     1
 40
1.0
176
     1
 90
        0
176
     1
 62
    18
420
        0
176
     1
 90
       50
176
     1
 90
        3
176
     1
 62
     5
420
      255
176
     1
290
     0
176
     1
 90
       50
176
     1
 90
       50
176
     1
 90
       50
176
     1
290
     0
176
     1
 90
       50
176
     1
 62
   256
176
     0
 40
1.0
176
     0
 90
        2
176
     1
  1
strokes_ogs.tif
176
     1
290
     0
176
     1
 40
1.0
176
     1
 40
1.0
176
     1
  0
VISUALSTYLE
  5
32
102
{ACAD_REACTORS
330
2A
102
}
330
2A
100
AcDbVisualStyle
  2
Basic
 70
     7
177
     3
291
     1
 70
    58
 90
        1
176
     1
 90
        0
176
     1
 90
        1
176
     1
 90
        0
176
     1
 40
0.6
176
     1
 40
30.0
176
     1
 62
     7
420
 16777215
176
     1
 90
        0
176
     1
 90
        4
176
     1
 62
     7
176
     1
 62
   257
176
     1
 90
        1
176
     1
 90
        1
176
     1
 40
1.0
176
     1
 90
        8
176
     1
 62
     7
176
     1
 40
1.0
176
     1
 90
        1
176
     1
 90
        6
176
     1
 90
        2
176
     1
 62
     7
176
     1
 90
        5
176
     1
 90
        0
176
     1
 90
        0
176
     1
290
     0
176
     1
 90
        1
176
     1
 40
0.0
176
     1
 90
        0
176
     1
290
     0
176
     1
290
     1
176
     1
290
     1
176
     1
290
     0
176
     1
290
     0
176
     1
290
     0
176
     1
290
     0
176
     1
290
     0
176
     1
290
     0
176
     1
 90
       50
176
     1
 40
0.0
176
     1
 40
1.0
176
     1
 90
        0
176
     1
 62
    18
420
        0
176
     1
 90
       50
176
     1
 90
        3
176
     1
 62
     5
420
      255
176
     1
290
     0
176
     1
 90
       50
176
     1
 90
       50
176
     1
 90
       50
176
     1
290
     0
176
     1
 90
       50
176
     1
 62
   256
176
     0
 40
1.0
176
     0
 90
        2
176
     1
  1
strokes_ogs.tif
176
     1
290
     0
176
     1
 40
1.0
176
     1
 40
1.0
176
     1
  0
VISUALSTYLE
  5
36
102
{ACAD_REACTORS
330
2A
102
}
330
2A
100
AcDbVisualStyle
  2
Brighten
 70
    12
177
     3
291
     1
 70
    58
 90
        2
176
     1
 90
        2
176
     1
 90
        0
176
     1
 90
        0
176
     1
 40
0.6
176
     1
 40
30.0
176
     1
 62
     7
420
 16777215
176
     1
 90
        1
176
     1
 90
        4
176
     1
 62
     7
176
     1
 62
   257
176
     1
 90
        1
176
     1
 90
        1
176
     1
 40
1.0
176
     1
 90
        8
176
     1
 62
     7
176
     1
 40
1.0
176
     1
 90
        1
176
     1
 90
        6
176
     1
 90
        2
176
     1
 62
     7
176
     1
 90
        5
176
     1
 90
        0
176
     1
 90
        0
176
     1
290
     0
176
     1
 90
        1
176
     1
 40
50.0
176
     1
 90
        0
176
     1
290
     0
176
     1
290
     1
176
     1
290
     1
176
     1
290
     0
176
     1
290
     0
176
     1
290
     0
176
     1
290
     0
176
     1
290
     0
176
     1
290
     0
176
     1
 90
       50
176
     1
 40
0.0
176
     1
 40
1.0
176
     1
 90
        0
176
     1
 62
    18
420
        0
176
     1
 90
       50
176
     1
 90
        3
176
     1
 62
     5
420
      255
176
     1
290
     0
176
     1
 90
       50
176
     1
 90
       50
176
     1
 90
       50
176
     1
290
     0
176
     1
 90
       50
176
     1
 62
   256
176
     0
 40
1.0
176
     0
 90
        2
176
     1
  1
strokes_ogs.tif
176
     1
290
     0
176
     1
 40
1.0
176
     1
 40
1.0
176
     1
  0
VISUALSTYLE
  5
3A
102
{ACAD_REACTORS
330
2A
102
}
330
2A
100
AcDbVisualStyle
  2
ColorChange
 70
    16
177
     3
291
     1
 70
    58
 90
        2
176
     1
 90
        2
176
     1
 90
        3
176
     1
 90
        0
176
     1
 40
0.6
176
     1
 40
30.0
176
     1
 62
     8
420
  8421504
176
     1
 90
        1
176
     1
 90
        4
176
     1
 62
     7
176
     1
 62
   257
176
     1
 90
        1
176
     1
 90
        1
176
     1
 40
1.0
176
     1
 90
        8
176
     1
 62
     8
420
  8421504
176
     1
 40
1.0
176
     1
 90
        1
176
     1
 90
        6
176
     1
 90
        2
176
     1
 62
     7
176
     1
 90
        5
176
     1
 90
        0
176
     1
 90
        0
176
     1
290
     0
176
     1
 90
        1
176
     1
 40
0.0
176
     1
 90
        0
176
     1
290
     0
176
     1
290
     1
176
     1
290
     1
176
     1
290
     0
176
     1
290
     0
176
     1
290
     0
176
     1
290
     0
176
     1
290
     0
176
     1
290
     0
176
     1
 90
       50
176
     1
 40
0.0
176
     1
 40
1.0
176
     1
 90
        0
176
     1
 62
    18
420
        0
176
     1
 90
       50
176
     1
 90
        3
176
     1
 62
     5
420
      255
176
     1
290
     0
176
     1
 90
       50
176
     1
 90
       50
176
     1
 90
       50
176
     1
290
     0
176
     1
 90
       50
176
     1
 62
   256
176
     0
 40
1.0
176
     0
 90
        2
176
     1
  1
strokes_ogs.tif
176
     1
290
     0
176
     1
 40
1.0
176
     1
 40
1.0
176
     1
  0
VISUALSTYLE
  5
34
102
{ACAD_REACTORS
330
2A
102
}
330
2A
100
AcDbVisualStyle
  2
Conceptual
 70
     9
177
     3
291
     0
 70
    58
 90
        3
176
     1
 90
        2
176
     1
 90
        0
176
     1
 90
        0
176
     1
 40
0.6
176
     1
 40
30.0
176
     1
 62
     7
420
 16777215
176
     1
 90
        2
176
     1
 90
        2
176
     1
 62
     7
176
     1
 62
   257
176
     1
 90
        1
176
     1
 90
        1
176
     1
 40
179.0
176
     1
 90
        8
176
     1
 62
     7
176
     1
 40
1.0
176
     1
 90
        1
176
     1
 90
        6
176
     1
 90
        2
176
     1
 62
     7
176
     1
 90
        3
176
     1
 90
        0
176
     1
 90
        0
176
     1
290
     0
176
     1
 90
        1
176
     1
 40
0.0
176
     1
 90
        0
176
     1
290
     0
176
     1
290
     1
176
     1
290
     1
176
     1
290
     0
176
     1
290
     0
176
     1
290
     0
176
     1
290
     0
176
     1
290
     0
176
     1
290
     0
176
     1
 90
       50
176
     1
 40
0.0
176
     1
 40
1.0
176
     1
 90
        0
176
     1
 62
    18
420
        0
176
     1
 90
       50
176
     1
 90
        3
176
     1
 62
     5
420
      255
176
     1
290
     0
176
     1
 90
       50
176
     1
 90
       50
176
     1
 90
       50
176
     1
290
     0
176
     1
 90
       50
176
     1
 62
   256
176
     0
 40
1.0
176
     0
 90
        2
176
     1
  1
strokes_ogs.tif
176
     1
290
     0
176
     1
 40
1.0
176
     1
 40
1.0
176
     1
  0
VISUALSTYLE
  5
35
102
{ACAD_REACTORS
330
2A
102
}
330
2A
100
AcDbVisualStyle
  2
Dim
 70
    11
177
     3
291
     1
 70
    58
 90
        2
176
     1
 90
        2
176
     1
 90
        0
176
     1
 90
        0
176
     1
 40
0.6
176
     1
 40
30.0
176
     1
 62
     7
420
 16777215
176
     1
 90
        1
176
     1
 90
        4
176
     1
 62
     7
176
     1
 62
   257
176
     1
 90
        1
176
     1
 90
        1
176
     1
 40
1.0
176
     1
 90
        8
176
     1
 62
     7
176
     1
 40
1.0
176
     1
 90
        1
176
     1
 90
        6
176
     1
 90
        2
176
     1
 62
     7
176
     1
 90
        5
176
     1
 90
        0
176
     1
 90
        0
176
     1
290
     0
176
     1
 90
        1
176
     1
 40
-50.0
176
     1
 90
        0
176
     1
290
     0
176
     1
290
     1
176
     1
290
     1
176
     1
290
     0
176
     1
290
     0
176
     1
290
     0
176
     1
290
     0
176
     1
290
     0
176
     1
290
     0
176
     1
 90
       50
176
     1
 40
0.0
176
     1
 40
1.0
176
     1
 90
        0
176
     1
 62
    18
420
        0
176
     1
 90
       50
176
     1
 90
        3
176
     1
 62
     5
420
      255
176
     1
290
     0
176
     1
 90
       50
176
     1
 90
       50
176
     1
 90
       50
176
     1
290
     0
176
     1
 90
       50
176
     1
 62
   256
176
     0
 40
1.0
176
     0
 90
        2
176
     1
  1
strokes_ogs.tif
176
     1
290
     0
176
     1
 40
1.0
176
     1
 40
1.0
176
     1
  0
VISUALSTYLE
  5
3D
102
{ACAD_REACTORS
330
2A
102
}
330
2A
100
AcDbVisualStyle
  2
EdgeColorOff
 70
    22
177
     3
291
     1
 70
    58
 90
        2
176
     0
 90
        2
176
     0
 90
        0
176
     0
 90
        0
176
     0
 40
0.6
176
     0
 40
30.0
176
     0
 62
     7
420
 16777215
176
     0
 90
        1
176
     0
 90
        4
176
     0
 62
     7
176
     0
 62
   257
176
     0
 90
        1
176
     0
 90
        1
176
     0
 40
1.0
176
     0
 90
        8
176
     2
 62
     7
176
     0
 40
1.0
176
     0
 90
        1
176
     0
 90
        6
176
     0
 90
        2
176
     0
 62
     7
176
     0
 90
        5
176
     0
 90
        0
176
     0
 90
        0
176
     0
290
     0
176
     0
 90
        1
176
     0
 40
0.0
176
     0
 90
        0
176
     0
290
     0
176
     0
290
     1
176
     0
290
     1
176
     0
290
     0
176
     0
290
     0
176
     0
290
     0
176
     0
290
     0
176
     0
290
     0
176
     0
290
     0
176
     0
 90
       50
176
     0
 40
0.0
176
     0
 40
1.0
176
     0
 90
        0
176
     0
 62
    18
420
        0
176
     0
 90
       50
176
     0
 90
        3
176
     0
 62
     5
420
      255
176
     0
290
     0
176
     0
 90
       50
176
     0
 90
       50
176
     0
 90
       50
176
     0
290
     0
176
     0
 90
       50
176
     0
 62
   256
176
     0
 40
1.0
176
     0
 90
        2
176
     0
  1
strokes_ogs.tif
176
     0
290
     0
176
     0
 40
1.0
176
     0
 40
1.0
176
     0
  0
VISUALSTYLE
  5
39
102
{ACAD_REACTORS
330
2A
102
}
330
2A
100
AcDbVisualStyle
  2
Facepattern
 70
    15
177
     3
291
     1
 70
    58
 90
        2
176
     1
 90
        2
176
     1
 90
        0
176
     1
 90
        0
176
     1
 40
0.6
176
     1
 40
30.0
176
     1
 62
     7
420
 16777215
176
     1
 90
        1
176
     1
 90
        4
176
     1
 62
     7
176
     1
 62
   257
176
     1
 90
        1
176
     1
 90
        1
176
     1
 40
1.0
176
     1
 90
        8
176
     1
 62
     7
176
     1
 40
1.0
176
     1
 90
        1
176
     1
 90
        6
176
     1
 90
        2
176
     1
 62
     7
176
     1
 90
        5
176
     1
 90
        0
176
     1
 90
        0
176
     1
290
     0
176
     1
 90
        1
176
     1
 40
0.0
176
     1
 90
        0
176
     1
290
     0
176
     1
290
     1
176
     1
290
     1
176
     1
290
     0
176
     1
290
     0
176
     1
290
     0
176
     1
290
     0
176
     1
290
     0
176
     1
290
     0
176
     1
 90
       50
176
     1
 40
0.0
176
     1
 40
1.0
176
     1
 90
        0
176
     1
 62
    18
420
        0
176
     1
 90
       50
176
     1
 90
        3
176
     1
 62
     5
420
      255
176
     1
290
     0
176
     1
 90
       50
176
     1
 90
       50
176
     1
 90
       50
176
     1
290
     0
176
     1
 90
       50
176
     1
 62
   256
176
     0
 40
1.0
176
     0
 90
        2
176
     1
  1
strokes_ogs.tif
176
     1
290
     0
176
     1
 40
1.0
176
     1
 40
1.0
176
     1
  0
VISUALSTYLE
  5
2B
102
{ACAD_REACTORS
330
2A
102
}
330
2A
100
AcDbVisualStyle
  2
Flat
 70
     0
177
     3
291
     1
 70
    58
 90
        2
176
     1
 90
        1
176
     1
 90
        1
176
     1
 90
        2
176
     1
 40
0.6
176
     1
 40
30.0
176
     1
 62
     7
420
 16777215
176
     1
 90
        0
176
     1
 90
        0
176
     1
 62
     7
176
     1
 62
   257
176
     1
 90
        1
176
     1
 90
        1
176
     1
 40
1.0
176
     1
 90
        8
176
     1
 62
     7
176
     1
 40
1.0
176
     1
 90
        1
176
     1
 90
        6
176
     1
 90
        2
176
     1
 62
     7
176
     1
 90
        5
176
     1
 90
        0
176
     1
 90
        0
176
     1
290
     0
176
     1
 90
       13
176
     1
 40
0.0
176
     1
 90
        0
176
     1
290
     0
176
     1
290
     1
176
     1
290
     1
176
     1
290
     0
176
     1
290
     0
176
     1
290
     0
176
     1
290
     0
176
     1
290
     0
176
     1
290
     0
176
     1
 90
       50
176
     1
 40
0.0
176
     1
 40
1.0
176
     1
 90
        0
176
     1
 62
    18
420
        0
176
     1
 90
       50
176
     1
 90
        3
176
     1
 62
     5
420
      255
176
     1
290
     0
176
     1
 90
       50
176
     1
 90
       50
176
     1
 90
       50
176
     1
290
     0
176
     1
 90
       50
176
     1
 62
   256
176
     0
 40
1.0
176
     0
 90
        2
176
     1
  1
strokes_ogs.tif
176
     1
290
     0
176
     1
 40
1.0
176
     1
 40
1.0
176
     1
  0
VISUALSTYLE
  5
2C
102
{ACAD_REACTORS
330
2A
102
}
330
2A
100
AcDbVisualStyle
  2
FlatWithEdges
 70
     1
177
     3
291
     1
 70
    58
 90
        2
176
     1
 90
        1
176
     1
 90
        1
176
     1
 90
        2
176
     1
 40
0.6
176
     1
 40
30.0
176
     1
 62
     7
420
 16777215
176
     1
 90
        1
176
     1
 90
        0
176
     1
 62
     7
176
     1
 62
   257
176
     1
 90
        1
176
     1
 90
        1
176
     1
 40
1.0
176
     1
 90
        0
176
     1
 62
   257
176
     1
 40
1.0
176
     1
 90
        1
176
     1
 90
        6
176
     1
 90
        2
176
     1
 62
     7
176
     1
 90
        5
176
     1
 90
        0
176
     1
 90
        0
176
     1
290
     0
176
     1
 90
       13
176
     1
 40
0.0
176
     1
 90
        0
176
     1
290
     0
176
     1
290
     1
176
     1
290
     1
176
     1
290
     0
176
     1
290
     0
176
     1
290
     0
176
     1
290
     0
176
     1
290
     0
176
     1
290
     0
176
     1
 90
       50
176
     1
 40
0.0
176
     1
 40
1.0
176
     1
 90
        0
176
     1
 62
    18
420
        0
176
     1
 90
       50
176
     1
 90
        3
176
     1
 62
     5
420
      255
176
     1
290
     0
176
     1
 90
       50
176
     1
 90
       50
176
     1
 90
       50
176
     1
290
     0
176
     1
 90
       50
176
     1
 62
   256
176
     0
 40
1.0
176
     0
 90
        2
176
     1
  1
strokes_ogs.tif
176
     1
290
     0
176
     1
 40
1.0
176
     1
 40
1.0
176
     1
  0
VISUALSTYLE
  5
2D
102
{ACAD_REACTORS
330
2A
102
}
330
2A
100
AcDbVisualStyle
  2
Gouraud
 70
     2
177
     3
291
     1
 70
    58
 90
        2
176
     1
 90
        2
176
     1
 90
        1
176
     1
 90
        2
176
     1
 40
0.6
176
     1
 40
30.0
176
     1
 62
     7
420
 16777215
176
     1
 90
        0
176
     1
 90
        0
176
     1
 62
     7
176
     1
 62
   257
176
     1
 90
        1
176
     1
 90
        1
176
     1
 40
1.0
176
     1
 90
        0
176
     1
 62
     7
176
     1
 40
1.0
176
     1
 90
        1
176
     1
 90
        6
176
     1
 90
        2
176
     1
 62
     7
176
     1
 90
        5
176
     1
 90
        0
176
     1
 90
        0
176
     1
290
     0
176
     1
 90
       13
176
     1
 40
0.0
176
     1
 90
        0
176
     1
290
     0
176
     1
290
     1
176
     1
290
     1
176
     1
290
     0
176
     1
290
     0
176
     1
290
     0
176
     1
290
     0
176
     1
290
     0
176
     1
290
     0
176
     1
 90
       50
176
     1
 40
0.0
176
     1
 40
1.0
176
     1
 90
        0
176
     1
 62
    18
420
        0
176
     1
 90
       50
176
     1
 90
        3
176
     1
 62
     5
420
      255
176
     1
290
     0
176
     1
 90
       50
176
     1
 90
       50
176
     1
 90
       50
176
     1
290
     0
176
     1
 90
       50
176
     1
 62
   256
176
     0
 40
1.0
176
     0
 90
        2
176
     1
  1
strokes_ogs.tif
176
     1
290
     0
176
     1
 40
1.0
176
     1
 40
1.0
176
     1
  0
VISUALSTYLE
  5
2E
102
{ACAD_REACTORS
330
2A
102
}
330
2A
100
AcDbVisualStyle
  2
GouraudWithEdges
 70
     3
177
     3
291
     1
 70
    58
 90
        2
176
     1
 90
        2
176
     1
 90
        1
176
     1
 90
        2
176
     1
 40
0.6
176
     1
 40
30.0
176
     1
 62
     7
420
 16777215
176
     1
 90
        1
176
     1
 90
        0
176
     1
 62
     7
176
     1
 62
   257
176
     1
 90
        1
176
     1
 90
        1
176
     1
 40
1.0
176
     1
 90
        0
176
     1
 62
   257
176
     1
 40
1.0
176
     1
 90
        1
176
     1
 90
        6
176
     1
 90
        2
176
     1
 62
     7
176
     1
 90
        5
176
     1
 90
        0
176
     1
 90
        0
176
     1
290
     0
176
     1
 90
       13
176
     1
 40
0.0
176
     1
 90
        0
176
     1
290
     0
176
     1
290
     1
176
     1
290
     1
176
     1
290
     0
176
     1
290
     0
176
     1
290
     0
176
     1
290
     0
176
     1
290
     0
176
     1
290
     0
176
     1
 90
       50
176
     1
 40
0.0
176
     1
 40
1.0
176
     1
 90
        0
176
     1
 62
    18
420
        0
176
     1
 90
       50
176
     1
 90
        3
176
     1
 62
     5
420
      255
176
     1
290
     0
176
     1
 90
       50
176
     1
 90
       50
176
     1
 90
       50
176
     1
290
     0
176
     1
 90
       50
176
     1
 62
   256
176
     0
 40
1.0
176
     0
 90
        2
176
     1
  1
strokes_ogs.tif
176
     1
290
     0
176
     1
 40
1.0
176
     1
 40
1.0
176
     1
  0
VISUALSTYLE
  5
31
102
{ACAD_REACTORS
330
2A
102
}
330
2A
100
AcDbVisualStyle
  2
Hidden
 70
     6
177
     3
291
     0
 70
    58
 90
        1
176
     1
 90
        2
176
     1
 90
        2
176
     1
 90
        0
176
     1
 40
0.6
176
     1
 40
30.0
176
     1
 62
     7
420
 16777215
176
     1
 90
        2
176
     1
 90
        2
176
     1
 62
     7
176
     1
 62
   257
176
     1
 90
        2
176
     1
 90
        1
176
     1
 40
40.0
176
     1
 90
        0
176
     1
 62
   257
176
     1
 40
1.0
176
     1
 90
        1
176
     1
 90
        6
176
     1
 90
        2
176
     1
 62
     7
176
     1
 90
        3
176
     1
 90
        0
176
     1
 90
        0
176
     1
290
     0
176
     1
 90
        1
176
     1
 40
0.0
176
     1
 90
        0
176
     1
290
     0
176
     1
290
     1
176
     1
290
     1
176
     1
290
     0
176
     1
290
     0
176
     1
290
     0
176
     1
290
     0
176
     1
290
     0
176
     1
290
     0
176
     1
 90
       50
176
     1
 40
0.0
176
     1
 40
1.0
176
     1
 90
        0
176
     1
 62
    18
420
        0
176
     1
 90
       50
176
     1
 90
        3
176
     1
 62
     5
420
      255
176
     1
290
     0
176
     1
 90
       50
176
     1
 90
       50
176
     1
 90
       50
176
     1
290
     0
176
     1
 90
       50
176
     1
 62
   256
176
     0
 40
1.0
176
     0
 90
        2
176
     1
  1
strokes_ogs.tif
176
     1
290
     0
176
     1
 40
1.0
176
     1
 40
1.0
176
     1
  0
VISUALSTYLE
  5
3B
102
{ACAD_REACTORS
330
2A
102
}
330
2A
100
AcDbVisualStyle
  2
JitterOff
 70
    20
177
     3
291
     1
 70
    58
 90
        2
176
     0
 90
        2
176
     0
 90
        0
176
     0
 90
        0
176
     0
 40
0.6
176
     0
 40
30.0
176
     0
 62
     7
420
 16777215
176
     0
 90
        1
176
     0
 90
        4
176
     0
 62
     7
176
     0
 62
   257
176
     0
 90
        1
176
     0
 90
        1
176
     0
 40
1.0
176
     0
 90
       10
176
     2
 62
     7
176
     0
 40
1.0
176
     0
 90
        1
176
     0
 90
        6
176
     0
 90
        2
176
     0
 62
     7
176
     0
 90
        5
176
     0
 90
        0
176
     0
 90
        0
176
     0
290
     0
176
     0
 90
        1
176
     0
 40
0.0
176
     0
 90
        0
176
     0
290
     0
176
     0
290
     1
176
     0
290
     1
176
     0
290
     0
176
     0
290
     0
176
     0
290
     0
176
     0
290
     0
176
     0
290
     0
176
     0
290
     0
176
     0
 90
       50
176
     0
 40
0.0
176
     0
 40
1.0
176
     0
 90
        0
176
     0
 62
    18
420
        0
176
     0
 90
       50
176
     0
 90
        3
176
     0
 62
     5
420
      255
176
     0
290
     0
176
     0
 90
       50
176
     0
 90
       50
176
     0
 90
       50
176
     0
290
     0
176
     0
 90
       50
176
     0
 62
   256
176
     0
 40
1.0
176
     0
 90
        2
176
     0
  1
strokes_ogs.tif
176
     0
290
     0
176
     0
 40
1.0
176
     0
 40
1.0
176
     0
  0
VISUALSTYLE
  5
38
102
{ACAD_REACTORS
330
2A
102
}
330
2A
100
AcDbVisualStyle
  2
Linepattern
 70
    14
177
     3
291
     1
 70
    58
 90
        2
176
     1
 90
        2
176
     1
 90
        0
176
     1
 90
        0
176
     1
 40
0.6
176
     1
 40
30.0
176
     1
 62
     7
420
 16777215
176
     1
 90
        1
176
     1
 90
        4
176
     1
 62
     7
176
     1
 62
   257
176
     1
 90
        7
176
     1
 90
        7
176
     1
 40
1.0
176
     1
 90
        8
176
     1
 62
     7
176
     1
 40
1.0
176
     1
 90
        1
176
     1
 90
        6
176
     1
 90
        2
176
     1
 62
     7
176
     1
 90
        5
176
     1
 90
        0
176
     1
 90
        0
176
     1
290
     0
176
     1
 90
        1
176
     1
 40
0.0
176
     1
 90
        0
176
     1
290
     0
176
     1
290
     1
176
     1
290
     1
176
     1
290
     0
176
     1
290
     0
176
     1
290
     0
176
     1
290
     0
176
     1
290
     0
176
     1
290
     0
176
     1
 90
       50
176
     1
 40
0.0
176
     1
 40
1.0
176
     1
 90
        0
176
     1
 62
    18
420
        0
176
     1
 90
       50
176
     1
 90
        3
176
     1
 62
     5
420
      255
176
     1
290
     0
176
     1
 90
       50
176
     1
 90
       50
176
     1
 90
       50
176
     1
290
     0
176
     1
 90
       50
176
     1
 62
   256
176
     0
 40
1.0
176
     0
 90
        2
176
     1
  1
strokes_ogs.tif
176
     1
290
     0
176
     1
 40
1.0
176
     1
 40
1.0
176
     1
  0
VISUALSTYLE
  5
3C
102
{ACAD_REACTORS
330
2A
102
}
330
2A
100
AcDbVisualStyle
  2
OverhangOff
 70
    21
177
     3
291
     1
 70
    58
 90
        2
176
     0
 90
        2
176
     0
 90
        0
176
     0
 90
        0
176
     0
 40
0.6
176
     0
 40
30.0
176
     0
 62
     7
420
 16777215
176
     0
 90
        1
176
     0
 90
        4
176
     0
 62
     7
176
     0
 62
   257
176
     0
 90
        1
176
     0
 90
        1
176
     0
 40
1.0
176
     0
 90
        9
176
     2
 62
     7
176
     0
 40
1.0
176
     0
 90
        1
176
     0
 90
        6
176
     0
 90
        2
176
     0
 62
     7
176
     0
 90
        5
176
     0
 90
        0
176
     0
 90
        0
176
     0
290
     0
176
     0
 90
        1
176
     0
 40
0.0
176
     0
 90
        0
176
     0
290
     0
176
     0
290
     1
176
     0
290
     1
176
     0
290
     0
176
     0
290
     0
176
     0
290
     0
176
     0
290
     0
176
     0
290
     0
176
     0
290
     0
176
     0
 90
       50
176
     0
 40
0.0
176
     0
 40
1.0
176
     0
 90
        0
176
     0
 62
    18
420
        0
176
     0
 90
       50
176
     0
 90
        3
176
     0
 62
     5
420
      255
176
     0
290
     0
176
     0
 90
       50
176
     0
 90
       50
176
     0
 90
       50
176
     0
290
     0
176
     0
 90
       50
176
     0
 62
   256
176
     0
 40
1.0
176
     0
 90
        2
176
     0
  1
strokes_ogs.tif
176
     0
290
     0
176
     0
 40
1.0
176
     0
 40
1.0
176
     0
  0
VISUALSTYLE
  5
33
102
{ACAD_REACTORS
330
2A
102
}
330
2A
100
AcDbVisualStyle
  2
Realistic
 70
     8
177
     3
291
     0
 70
    58
 90
        2
176
     1
 90
        3
176
     1
 90
        0
176
     1
 90
        2
176
     1
 40
0.6
176
     1
 40
30.0
176
     1
 62
     7
420
 16777215
176
     1
 90
        0
176
     1
 90
        0
176
     1
 62
     7
176
     1
 62
   257
176
     1
 90
        1
176
     1
 90
        1
176
     1
 40
1.0
176
     1
 90
        8
176
     1
 62
   257
176
     1
 40
1.0
176
     1
 90
        1
176
     1
 90
        6
176
     1
 90
        2
176
     1
 62
     7
176
     1
 90
        3
176
     1
 90
        0
176
     1
 90
        0
176
     1
290
     0
176
     1
 90
       13
176
     1
 40
0.0
176
     1
 90
        0
176
     1
290
     0
176
     1
290
     1
176
     1
290
     1
176
     1
290
     0
176
     1
290
     0
176
     1
290
     0
176
     1
290
     0
176
     1
290
     0
176
     1
290
     0
176
     1
 90
       50
176
     1
 40
0.0
176
     1
 40
1.0
176
     1
 90
        0
176
     1
 62
    18
420
        0
176
     1
 90
       50
176
     1
 90
        3
176
     1
 62
     5
420
      255
176
     1
290
     0
176
     1
 90
       50
176
     1
 90
       50
176
     1
 90
       50
176
     1
290
     0
176
     1
 90
       50
176
     1
 62
   256
176
     0
 40
1.0
176
     0
 90
        2
176
     1
  1
strokes_ogs.tif
176
     1
290
     0
176
     1
 40
1.0
176
     1
 40
1.0
176
     1
  0
VISUALSTYLE
  5
42
102
{ACAD_REACTORS
330
2A
102
}
330
2A
100
AcDbVisualStyle
  2
Shaded
 70
    27
177
     3
291
     0
 70
    58
 90
        2
176
     1
 90
        2
176
     1
 90
        1
176
     1
 90
        2
176
     1
 40
0.6
176
     1
 40
30.0
176
     1
 62
     7
420
 16777215
176
     1
 90
        0
176
     1
 90
        4
176
     1
 62
     7
176
     1
 62
   257
176
     1
 90
        1
176
     1
 90
        1
176
     1
 40
1.0
176
     1
 90
        8
176
     1
 62
   257
176
     1
 40
1.0
176
     1
 90
        1
176
     1
 90
        6
176
     1
 90
        2
176
     1
 62
     8
420
  7895160
176
     1
 90
        3
176
     1
 90
        0
176
     1
 90
        0
176
     1
290
     0
176
     1
 90
        5
176
     1
 40
0.0
176
     1
 90
        0
176
     1
290
     0
176
     1
290
     1
176
     1
290
     1
176
     1
290
     0
176
     1
290
     0
176
     1
290
     0
176
     1
290
     0
176
     1
290
     0
176
     1
290
     0
176
     1
 90
       50
176
     1
 40
0.0
176
     1
 40
1.0
176
     1
 90
        0
176
     1
 62
    18
420
        0
176
     1
 90
       50
176
     1
 90
        3
176
     1
 62
     5
420
      255
176
     1
290
     0
176
     1
 90
       50
176
     1
 90
       50
176
     1
 90
       50
176
     1
290
     0
176
     1
 90
       50
176
     1
 62
   256
176
     0
 40
1.0
176
     0
 90
        2
176
     1
  1
strokes_ogs.tif
176
     1
290
     0
176
     1
 40
1.0
176
     1
 40
1.0
176
     1
  0
VISUALSTYLE
  5
41
102
{ACAD_REACTORS
330
2A
102
}
330
2A
100
AcDbVisualStyle
  2
Shaded with edges
 70
    26
177
     3
291
     0
 70
    58
 90
        2
176
     1
 90
        2
176
     1
 90
        1
176
     1
 90
        2
176
     1
 40
0.6
176
     1
 40
30.0
176
     1
 62
     7
420
 16777215
176
     1
 90
        1
176
     1
 90
       10
176
     1
 62
     7
176
     1
 62
   257
176
     1
 90
        2
176
     1
 90
        1
176
     1
 40
1.0
176
     1
 90
        8
176
     1
 62
   257
176
     1
 40
1.0
176
     1
 90
        1
176
     1
 90
        6
176
     1
 90
        2
176
     1
 62
     7
176
     1
 90
        3
176
     1
 90
        0
176
     1
 90
        0
176
     1
290
     0
176
     1
 90
        5
176
     1
 40
0.0
176
     1
 90
        0
176
     1
290
     0
176
     1
290
     1
176
     1
290
     1
176
     1
290
     0
176
     1
290
     0
176
     1
290
     0
176
     1
290
     0
176
     1
290
     0
176
     1
290
     0
176
     1
 90
       50
176
     1
 40
0.0
176
     1
 40
1.0
176
     1
 90
        0
176
     1
 62
    18
420
        0
176
     1
 90
       50
176
     1
 90
        3
176
     1
 62
     5
420
      255
176
     1
290
     0
176
     1
 90
       50
176
     1
 90
       50
176
     1
 90
       50
176
     1
290
     0
176
     1
 90
       50
176
     1
 62
   256
176
     0
 40
1.0
176
     0
 90
        2
176
     1
  1
strokes_ogs.tif
176
     1
290
     0
176
     1
 40
1.0
176
     1
 40
1.0
176
     1
  0
VISUALSTYLE
  5
3E
102
{ACAD_REACTORS
330
2A
102
}
330
2A
100
AcDbVisualStyle
  2
Shades of Gray
 70
    23
177
     3
291
     0
 70
    58
 90
        2
176
     1
 90
        2
176
     1
 90
        3
176
     1
 90
        0
176
     1
 40
0.6
176
     1
 40
30.0
176
     1
 62
     7
420
 16777215
176
     1
 90
        2
176
     1
 90
        2
176
     1
 62
     7
176
     1
 62
     7
176
     1
 90
        1
176
     1
 90
        1
176
     1
 40
40.0
176
     1
 90
        8
176
     1
 62
     7
176
     1
 40
1.0
176
     1
 90
        1
176
     1
 90
        6
176
     1
 90
        2
176
     1
 62
     7
176
     1
 90
        3
176
     1
 90
        0
176
     1
 90
        0
176
     1
290
     0
176
     1
 90
        1
176
     1
 40
0.0
176
     1
 90
        0
176
     1
290
     0
176
     1
290
     1
176
     1
290
     1
176
     1
290
     0
176
     1
290
     0
176
     1
290
     0
176
     1
290
     0
176
     1
290
     0
176
     1
290
     0
176
     1
 90
       50
176
     1
 40
0.0
176
     1
 40
1.0
176
     1
 90
        0
176
     1
 62
    18
420
        0
176
     1
 90
       50
176
     1
 90
        3
176
     1
 62
     5
420
      255
176
     1
290
     0
176
     1
 90
       50
176
     1
 90
       50
176
     1
 90
       50
176
     1
290
     0
176
     1
 90
       50
176
     1
 62
   256
176
     0
 40
1.0
176
     0
 90
        2
176
     1
  1
strokes_ogs.tif
176
     1
290
     0
176
     1
 40
1.0
176
     1
 40
1.0
176
     1
  0
VISUALSTYLE
  5
3F
102
{ACAD_REACTORS
330
2A
102
}
330
2A
100
AcDbVisualStyle
  2
Sketchy
 70
    24
177
     3
291
     0
 70
    58
 90
        1
176
     1
 90
        2
176
     1
 90
        2
176
     1
 90
        0
176
     1
 40
0.6
176
     1
 40
30.0
176
     1
 62
     7
420
 16777215
176
     1
 90
        2
176
     1
 90
        2
176
     1
 62
     7
176
     1
 62
     7
176
     1
 90
        1
176
     1
 90
        1
176
     1
 40
40.0
176
     1
 90
       11
176
     1
 62
     7
176
     1
 40
1.0
176
     1
 90
        1
176
     1
 90
        6
176
     1
 90
        2
176
     1
 62
     7
176
     1
 90
        6
176
     1
 90
        0
176
     1
 90
        0
176
     1
290
     0
176
     1
 90
        1
176
     1
 40
0.0
176
     1
 90
        0
176
     1
290
     0
176
     1
290
     1
176
     1
290
     1
176
     1
290
     0
176
     1
290
     0
176
     1
290
     0
176
     1
290
     0
176
     1
290
     0
176
     1
290
     0
176
     1
 90
       50
176
     1
 40
0.0
176
     1
 40
1.0
176
     1
 90
        0
176
     1
 62
    18
420
        0
176
     1
 90
       50
176
     1
 90
        3
176
     1
 62
     5
420
      255
176
     1
290
     0
176
     1
 90
       50
176
     1
 90
       50
176
     1
 90
       50
176
     1
290
     0
176
     1
 90
       50
176
     1
 62
   256
176
     0
 40
1.0
176
     0
 90
        2
176
     1
  1
strokes_ogs.tif
176
     1
290
     0
176
     1
 40
1.0
176
     1
 40
1.0
176
     1
  0
VISUALSTYLE
  5
37
102
{ACAD_REACTORS
330
2A
102
}
330
2A
100
AcDbVisualStyle
  2
Thicken
 70
    13
177
     3
291
     1
 70
    58
 90
        2
176
     1
 90
        2
176
     1
 90
        0
176
     1
 90
        0
176
     1
 40
0.6
176
     1
 40
30.0
176
     1
 62
     7
420
 16777215
176
     1
 90
        1
176
     1
 90
        4
176
     1
 62
     7
176
     1
 62
   257
176
     1
 90
        1
176
     1
 90
        1
176
     1
 40
1.0
176
     1
 90
       12
176
     1
 62
     7
176
     1
 40
1.0
176
     1
 90
        1
176
     1
 90
        6
176
     1
 90
        2
176
     1
 62
     7
176
     1
 90
        5
176
     1
 90
        0
176
     1
 90
        0
176
     1
290
     0
176
     1
 90
        1
176
     1
 40
0.0
176
     1
 90
        0
176
     1
290
     0
176
     1
290
     1
176
     1
290
     1
176
     1
290
     0
176
     1
290
     0
176
     1
290
     0
176
     1
290
     0
176
     1
290
     0
176
     1
290
     0
176
     1
 90
       50
176
     1
 40
0.0
176
     1
 40
1.0
176
     1
 90
        0
176
     1
 62
    18
420
        0
176
     1
 90
       50
176
     1
 90
        3
176
     1
 62
     5
420
      255
176
     1
290
     0
176
     1
 90
       50
176
     1
 90
       50
176
     1
 90
       50
176
     1
290
     0
176
     1
 90
       50
176
     1
 62
   256
176
     0
 40
1.0
176
     0
 90
        2
176
     1
  1
strokes_ogs.tif
176
     1
290
     0
176
     1
 40
1.0
176
     1
 40
1.0
176
     1
  0
VISUALSTYLE
  5
30
102
{ACAD_REACTORS
330
2A
102
}
330
2A
100
AcDbVisualStyle
  2
Wireframe
 70
     5
177
     3
291
     0
 70
    58
 90
        0
176
     1
 90
        2
176
     1
 90
        0
176
     1
 90
        0
176
     1
 40
0.6
176
     1
 40
30.0
176
     1
 62
     7
420
 16777215
176
     1
 90
        1
176
     1
 90
        4
176
     1
 62
     7
176
     1
 62
   257
176
     1
 90
        1
176
     1
 90
        1
176
     1
 40
1.0
176
     1
 90
        0
176
     1
 62
   257
176
     1
 40
1.0
176
     1
 90
        1
176
     1
 90
        6
176
     1
 90
        2
176
     1
 62
     7
176
     1
 90
        3
176
     1
 90
        0
176
     1
 90
        0
176
     1
290
     0
176
     1
 90
        1
176
     1
 40
0.0
176
     1
 90
        0
176
     1
290
     0
176
     1
290
     1
176
     1
290
     1
176
     1
290
     0
176
     1
290
     0
176
     1
290
     0
176
     1
290
     0
176
     1
290
     0
176
     1
290
     0
176
     1
 90
       50
176
     1
 40
0.0
176
     1
 40
1.0
176
     1
 90
        0
176
     1
 62
    18
420
        0
176
     1
 90
       50
176
     1
 90
        3
176
     1
 62
     5
420
      255
176
     1
290
     0
176
     1
 90
       50
176
     1
 90
       50
176
     1
 90
       50
176
     1
290
     0
176
     1
 90
       50
176
     1
 62
   256
176
     0
 40
1.0
176
     0
 90
        2
176
     1
  1
strokes_ogs.tif
176
     1
290
     0
176
     1
 40
1.0
176
     1
 40
1.0
176
     1
  0
VISUALSTYLE
  5
40
102
{ACAD_REACTORS
330
2A
102
}
330
2A
100
AcDbVisualStyle
  2
X-Ray
 70
    25
177
     3
291
     0
 70
    58
 90
        2
176
     1
 90
        2
176
     1
 90
        1
176
     1
 90
        1
176
     1
 40
0.5
176
     1
 40
30.0
176
     1
 62
     7
420
 16777215
176
     1
 90
        1
176
     1
 90
        0
176
     1
 62
     7
176
     1
 62
   257
176
     1
 90
        1
176
     1
 90
        1
176
     1
 40
1.0
176
     1
 90
        8
176
     1
 62
     7
176
     1
 40
1.0
176
     1
 90
        1
176
     1
 90
        6
176
     1
 90
        2
176
     1
 62
     7
176
     1
 90
        3
176
     1
 90
        0
176
     1
 90
        0
176
     1
290
     0
176
     1
 90
       13
176
     1
 40
0.0
176
     1
 90
        0
176
     1
290
     0
176
     1
290
     1
176
     1
290
     1
176
     1
290
     0
176
     1
290
     0
176
     1
290
     0
176
     1
290
     0
176
     1
290
     0
176
     1
290
     0
176
     1
 90
       50
176
     1
 40
0.0
176
     1
 40
1.0
176
     1
 90
        0
176
     1
 62
    18
420
        0
176
     1
 90
       50
176
     1
 90
        3
176
     1
 62
     5
420
      255
176
     1
290
     0
176
     1
 90
       50
176
     1
 90
       50
176
     1
 90
       50
176
     1
290
     0
176
     1
 90
       50
176
     1
 62
   256
176
     0
 40
1.0
176
     0
 90
        2
176
     1
  1
strokes_ogs.tif
176
     1
290
     0
176
     1
 40
1.0
176
     1
 40
1.0
176
     1
  0
DICTIONARYVAR
  5
46E
102
{ACAD_REACTORS
330
46D
102
}
330
46D
100
DictionaryVariables
280
     0
  1
1:1
  0
DICTIONARYVAR
  5
476
102
{ACAD_REACTORS
330
46D
102
}
330
46D
100
DictionaryVariables
280
     0
  1
3.500000
  0
DICTIONARYVAR
  5
477
102
{ACAD_REACTORS
330
46D
102
}
330
46D
100
DictionaryVariables
280
     0
  1
acadiso.lin
  0
DICTIONARYVAR
  5
473
102
{ACAD_REACTORS
330
46D
102
}
330
46D
100
DictionaryVariables
280
     0
  1
Standard
  0
DICTIONARYVAR
  5
472
102
{ACAD_REACTORS
330
46D
102
}
330
46D
100
DictionaryVariables
280
     0
  1
Standard
  0
DICTIONARY
  5
46F
330
6A
100
AcDbDictionary
280
     1
281
     1
  3
ACAD_ROUNDTRIP_2008_TABLESTYLE_CELLSTYLEMAP
360
470
  0
CELLSTYLEMAP
  5
470
102
{ACAD_REACTORS
330
46F
102
}
330
46F
100
AcDbCellStyleMap
 90
        3
300
CELLSTYLE
  1
TABLEFORMAT_BEGIN
 90
        5
170
     1
 91
        0
 92
    32768
 62
   257
 93
        1
300
CONTENTFORMAT
  1
CONTENTFORMAT_BEGIN
 90
        0
 91
        0
 92
        4
 93
        0
300

 40
0.0
140
1.0
 94
        5
 62
     0
340
11
144
6.0
309
CONTENTFORMAT_END
171
     1
301
MARGIN
  1
CELLMARGIN_BEGIN
 40
1.5
 40
1.5
 40
1.5
 40
1.5
 40
1.5
 40
1.5
309
CELLMARGIN_END
 94
        6
 95
        1
302
GRIDFORMAT
  1
GRIDFORMAT_BEGIN
 90
        0
 91
        1
 62
     0
 92
       -2
340
14
 93
        0
 40
0.045
309
GRIDFORMAT_END
 95
        2
302
GRIDFORMAT
  1
GRIDFORMAT_BEGIN
 90
        0
 91
        1
 62
     0
 92
       -2
340
14
 93
        0
 40
0.045
309
GRIDFORMAT_END
 95
        4
302
GRIDFORMAT
  1
GRIDFORMAT_BEGIN
 90
        0
 91
        1
 62
     0
 92
       -2
340
14
 93
        0
 40
0.045
309
GRIDFORMAT_END
 95
        8
302
GRIDFORMAT
  1
GRIDFORMAT_BEGIN
 90
        0
 91
        1
 62
     0
 92
       -2
340
14
 93
        0
 40
0.045
309
GRIDFORMAT_END
 95
       16
302
GRIDFORMAT
  1
GRIDFORMAT_BEGIN
 90
        0
 91
        1
 62
     0
 92
       -2
340
14
 93
        0
 40
0.045
309
GRIDFORMAT_END
 95
       32
302
GRIDFORMAT
  1
GRIDFORMAT_BEGIN
 90
        0
 91
        1
 62
     0
 92
       -2
340
14
 93
        0
 40
0.045
309
GRIDFORMAT_END
309
TABLEFORMAT_END
  1
CELLSTYLE_BEGIN
 90
        1
 91
        1
300
_TITLE
309
CELLSTYLE_END
300
CELLSTYLE
  1
TABLEFORMAT_BEGIN
 90
        5
170
     1
 91
        0
 92
        0
 62
   257
 93
        1
300
CONTENTFORMAT
  1
CONTENTFORMAT_BEGIN
 90
        0
 91
        0
 92
        4
 93
        0
300

 40
0.0
140
1.0
 94
        5
 62
     0
340
11
144
4.5
309
CONTENTFORMAT_END
171
     1
301
MARGIN
  1
CELLMARGIN_BEGIN
 40
1.5
 40
1.5
 40
1.5
 40
1.5
 40
1.5
 40
1.5
309
CELLMARGIN_END
 94
        6
 95
        1
302
GRIDFORMAT
  1
GRIDFORMAT_BEGIN
 90
        0
 91
        1
 62
     0
 92
       -2
340
14
 93
        0
 40
0.045
309
GRIDFORMAT_END
 95
        2
302
GRIDFORMAT
  1
GRIDFORMAT_BEGIN
 90
        0
 91
        1
 62
     0
 92
       -2
340
14
 93
        0
 40
0.045
309
GRIDFORMAT_END
 95
        4
302
GRIDFORMAT
  1
GRIDFORMAT_BEGIN
 90
        0
 91
        1
 62
     0
 92
       -2
340
14
 93
        0
 40
0.045
309
GRIDFORMAT_END
 95
        8
302
GRIDFORMAT
  1
GRIDFORMAT_BEGIN
 90
        0
 91
        1
 62
     0
 92
       -2
340
14
 93
        0
 40
0.045
309
GRIDFORMAT_END
 95
       16
302
GRIDFORMAT
  1
GRIDFORMAT_BEGIN
 90
        0
 91
        1
 62
     0
 92
       -2
340
14
 93
        0
 40
0.045
309
GRIDFORMAT_END
 95
       32
302
GRIDFORMAT
  1
GRIDFORMAT_BEGIN
 90
        0
 91
        1
 62
     0
 92
       -2
340
14
 93
        0
 40
0.045
309
GRIDFORMAT_END
309
TABLEFORMAT_END
  1
CELLSTYLE_BEGIN
 90
        2
 91
        1
300
_HEADER
309
CELLSTYLE_END
300
CELLSTYLE
  1
TABLEFORMAT_BEGIN
 90
        5
170
     1
 91
        0
 92
        0
 62
   257
 93
        1
300
CONTENTFORMAT
  1
CONTENTFORMAT_BEGIN
 90
        0
 91
        0
 92
        4
 93
        0
300

 40
0.0
140
1.0
 94
        2
 62
     0
340
11
144
4.5
309
CONTENTFORMAT_END
171
     1
301
MARGIN
  1
CELLMARGIN_BEGIN
 40
1.5
 40
1.5
 40
1.5
 40
1.5
 40
1.5
 40
1.5
309
CELLMARGIN_END
 94
        6
 95
        1
302
GRIDFORMAT
  1
GRIDFORMAT_BEGIN
 90
        0
 91
        1
 62
     0
 92
       -2
340
14
 93
        0
 40
0.045
309
GRIDFORMAT_END
 95
        2
302
GRIDFORMAT
  1
GRIDFORMAT_BEGIN
 90
        0
 91
        1
 62
     0
 92
       -2
340
14
 93
        0
 40
0.045
309
GRIDFORMAT_END
 95
        4
302
GRIDFORMAT
  1
GRIDFORMAT_BEGIN
 90
        0
 91
        1
 62
     0
 92
       -2
340
14
 93
        0
 40
0.045
309
GRIDFORMAT_END
 95
        8
302
GRIDFORMAT
  1
GRIDFORMAT_BEGIN
 90
        0
 91
        1
 62
     0
 92
       -2
340
14
 93
        0
 40
0.045
309
GRIDFORMAT_END
 95
       16
302
GRIDFORMAT
  1
GRIDFORMAT_BEGIN
 90
        0
 91
        1
 62
     0
 92
       -2
340
14
 93
        0
 40
0.045
309
GRIDFORMAT_END
 95
       32
302
GRIDFORMAT
  1
GRIDFORMAT_BEGIN
 90
        0
 91
        1
 62
     0
 92
       -2
340
14
 93
        0
 40
0.045
309
GRIDFORMAT_END
309
TABLEFORMAT_END
  1
CELLSTYLE_BEGIN
 90
        3
 91
        2
300
_DATA
309
CELLSTYLE_END
  0
ENDSEC
  0
EOF
