  0
SECTION
  2
HEADER
  9
$ACADVER
  1
AC1021
  9
$ACADMAINTVER
 70
     1
  9
$DWGCODEPAGE
  3
ANSI_1252
  9
$LASTSAVEDBY
  1
RH
  9
$INSBASE
 10
0.0
 20
0.0
 30
0.0
  9
$EXTMIN
 10
1.000000000000000E+20
 20
1.000000000000000E+20
 30
1.000000000000000E+20
  9
$EXTMAX
 10
-1.000000000000000E+20
 20
-1.000000000000000E+20
 30
-1.000000000000000E+20
  9
$LIMMIN
 10
0.0
 20
0.0
  9
$LIMMAX
 10
420.0
 20
297.0
  9
$ORTHOMODE
 70
     0
  9
$REGENMODE
 70
     1
  9
$FILLMODE
 70
     1
  9
$QTEXTMODE
 70
     0
  9
$MIRRTEXT
 70
     0
  9
$LTSCALE
 40
1.0
  9
$ATTMODE
 70
     1
  9
$TEXTSIZE
 40
2.5
  9
$TRACEWID
 40
1.0
  9
$TEXTSTYLE
  7
ISO Proportional
  9
$CLAYER
  8
0
  9
$CELTYPE
  6
ByLayer
  9
$CECOLOR
 62
     0
  9
$CELTSCALE
 40
1.0
  9
$DISPSILH
 70
     0
  9
$DIMSCALE
 40
1.0
  9
$DIMASZ
 40
2.5
  9
$DIMEXO
 40
0.625
  9
$DIMDLI
 40
3.75
  9
$DIMRND
 40
0.0
  9
$DIMDLE
 40
0.0
  9
$DIMEXE
 40
1.25
  9
$DIMTP
 40
0.0
  9
$DIMTM
 40
0.0
  9
$DIMTXT
 40
2.5
  9
$DIMCEN
 40
2.5
  9
$DIMTSZ
 40
0.0
  9
$DIMTOL
 70
     0
  9
$DIMLIM
 70
     0
  9
$DIMTIH
 70
     0
  9
$DIMTOH
 70
     0
  9
$DIMSE1
 70
     0
  9
$DIMSE2
 70
     0
  9
$DIMTAD
 70
     1
  9
$DIMZIN
 70
     8
  9
$DIMBLK
  1

  9
$DIMASO
 70
     1
  9
$DIMSHO
 70
     1
  9
$DIMPOST
  1

  9
$DIMAPOST
  1

  9
$DIMALT
 70
     0
  9
$DIMALTD
 70
     3
  9
$DIMALTF
 40
0.03937007874016
  9
$DIMLFAC
 40
1.0
  9
$DIMTOFL
 70
     1
  9
$DIMTVP
 40
0.0
  9
$DIMTIX
 70
     0
  9
$DIMSOXD
 70
     0
  9
$DIMSAH
 70
     0
  9
$DIMBLK1
  1

  9
$DIMBLK2
  1

  9
$DIMSTYLE
  2
ISO-25
  9
$DIMCLRD
 70
     0
  9
$DIMCLRE
 70
     0
  9
$DIMCLRT
 70
     0
  9
$DIMTFAC
 40
1.0
  9
$DIMGAP
 40
0.625
  9
$DIMJUST
 70
     0
  9
$DIMSD1
 70
     0
  9
$DIMSD2
 70
     0
  9
$DIMTOLJ
 70
     0
  9
$DIMTZIN
 70
     8
  9
$DIMALTZ
 70
     0
  9
$DIMALTTZ
 70
     0
  9
$DIMUPT
 70
     0
  9
$DIMDEC
 70
     2
  9
$DIMTDEC
 70
     2
  9
$DIMALTU
 70
     2
  9
$DIMALTTD
 70
     3
  9
$DIMTXSTY
  7
Standard
  9
$DIMAUNIT
 70
     0
  9
$DIMADEC
 70
     0
  9
$DIMALTRND
 40
0.0
  9
$DIMAZIN
 70
     0
  9
$DIMDSEP
 70
    44
  9
$DIMATFIT
 70
     3
  9
$DIMFRAC
 70
     0
  9
$DIMLDRBLK
  1

  9
$DIMLUNIT
 70
     2
  9
$DIMLWD
 70
    -2
  9
$DIMLWE
 70
    -2
  9
$DIMTMOVE
 70
     0
  9
$DIMFXL
 40
1.0
  9
$DIMFXLON
 70
     0
  9
$DIMJOGANG
 40
0.7853981633974483
  9
$DIMTFILL
 70
     0
  9
$DIMTFILLCLR
 70
     0
  9
$DIMARCSYM
 70
     0
  9
$DIMLTYPE
  6

  9
$DIMLTEX1
  6

  9
$DIMLTEX2
  6

  9
$LUNITS
 70
     2
  9
$LUPREC
 70
     4
  9
$SKETCHINC
 40
1.0
  9
$FILLETRAD
 40
0.0
  9
$AUNITS
 70
     0
  9
$AUPREC
 70
     0
  9
$MENU
  1
.
  9
$ELEVATION
 40
0.0
  9
$PELEVATION
 40
0.0
  9
$THICKNESS
 40
0.0
  9
$LIMCHECK
 70
     0
  9
$CHAMFERA
 40
0.0
  9
$CHAMFERB
 40
0.0
  9
$CHAMFERC
 40
0.0
  9
$CHAMFERD
 40
0.0
  9
$SKPOLY
 70
     0
  9
$TDCREATE
 40
2457102.589205000
  9
$TDUCREATE
 40
2457102.547538333
  9
$TDUPDATE
 40
2459296.279291655
  9
$TDUUPDATE
 40
2459296.237624989
  9
$TDINDWG
 40
0.1626341551
  9
$TDUSRTIMER
 40
0.1626341551
  9
$USRTIMER
 70
     1
  9
$ANGBASE
 50
0.0
  9
$ANGDIR
 70
     0
  9
$PDMODE
 70
     0
  9
$PDSIZE
 40
0.0
  9
$PLINEWID
 40
0.0
  9
$SPLFRAME
 70
     0
  9
$SPLINETYPE
 70
     6
  9
$SPLINESEGS
 70
     8
  9
$HANDSEED
  5
7E5
  9
$SURFTAB1
 70
     6
  9
$SURFTAB2
 70
     6
  9
$SURFTYPE
 70
     6
  9
$SURFU
 70
     6
  9
$SURFV
 70
     6
  9
$UCSBASE
  2

  9
$UCSNAME
  2

  9
$UCSORG
 10
0.0
 20
0.0
 30
0.0
  9
$UCSXDIR
 10
1.0
 20
0.0
 30
0.0
  9
$UCSYDIR
 10
0.0
 20
1.0
 30
0.0
  9
$UCSORTHOREF
  2

  9
$UCSORTHOVIEW
 70
     0
  9
$UCSORGTOP
 10
0.0
 20
0.0
 30
0.0
  9
$UCSORGBOTTOM
 10
0.0
 20
0.0
 30
0.0
  9
$UCSORGLEFT
 10
0.0
 20
0.0
 30
0.0
  9
$UCSORGRIGHT
 10
0.0
 20
0.0
 30
0.0
  9
$UCSORGFRONT
 10
0.0
 20
0.0
 30
0.0
  9
$UCSORGBACK
 10
0.0
 20
0.0
 30
0.0
  9
$PUCSBASE
  2

  9
$PUCSNAME
  2

  9
$PUCSORG
 10
0.0
 20
0.0
 30
0.0
  9
$PUCSXDIR
 10
1.0
 20
0.0
 30
0.0
  9
$PUCSYDIR
 10
0.0
 20
1.0
 30
0.0
  9
$PUCSORTHOREF
  2

  9
$PUCSORTHOVIEW
 70
     0
  9
$PUCSORGTOP
 10
0.0
 20
0.0
 30
0.0
  9
$PUCSORGBOTTOM
 10
0.0
 20
0.0
 30
0.0
  9
$PUCSORGLEFT
 10
0.0
 20
0.0
 30
0.0
  9
$PUCSORGRIGHT
 10
0.0
 20
0.0
 30
0.0
  9
$PUCSORGFRONT
 10
0.0
 20
0.0
 30
0.0
  9
$PUCSORGBACK
 10
0.0
 20
0.0
 30
0.0
  9
$USERI1
 70
     0
  9
$USERI2
 70
     0
  9
$USERI3
 70
     0
  9
$USERI4
 70
     0
  9
$USERI5
 70
     0
  9
$USERR1
 40
0.0
  9
$USERR2
 40
0.0
  9
$USERR3
 40
0.0
  9
$USERR4
 40
0.0
  9
$USERR5
 40
0.0
  9
$WORLDVIEW
 70
     1
  9
$SHADEDGE
 70
     3
  9
$SHADEDIF
 70
    70
  9
$TILEMODE
 70
     0
  9
$MAXACTVP
 70
    64
  9
$PINSBASE
 10
0.0
 20
0.0
 30
0.0
  9
$PLIMCHECK
 70
     0
  9
$PEXTMIN
 10
4.54578996496275
 20
12.87018586548765
 30
0.0
  9
$PEXTMAX
 10
194.6257899649627
 20
281.6701858654876
 30
0.0
  9
$PLIMMIN
 10
-4.984749794006347
 20
-5.154074668884277
  9
$PLIMMAX
 10
205.0309209823609
 20
291.8565759658814
  9
$UNITMODE
 70
     0
  9
$VISRETAIN
 70
     1
  9
$PLINEGEN
 70
     0
  9
$PSLTSCALE
 70
     1
  9
$TREEDEPTH
 70
  3020
  9
$CMLSTYLE
  2
Standard
  9
$CMLJUST
 70
     0
  9
$CMLSCALE
 40
20.0
  9
$PROXYGRAPHICS
 70
     1
  9
$MEASUREMENT
 70
     1
  9
$CELWEIGHT
370
    18
  9
$ENDCAPS
280
     0
  9
$JOINSTYLE
280
     0
  9
$LWDISPLAY
290
     0
  9
$INSUNITS
 70
     4
  9
$HYPERLINKBASE
  1

  9
$STYLESHEET
  1

  9
$XEDIT
290
     1
  9
$CEPSNTYPE
380
     0
  9
$PSTYLEMODE
290
     1
  9
$FINGERPRINTGUID
  2
{1DF9EE87-BEEF-4C32-B7FC-4C5F91CB8BD8}
  9
$VERSIONGUID
  2
{4C499045-C0FE-4F9E-A1EE-CF3CDB7560E1}
  9
$EXTNAMES
290
     1
  9
$PSVPSCALE
 40
0.0
  9
$OLESTARTUP
290
     0
  9
$SORTENTS
280
   127
  9
$INDEXCTL
280
     0
  9
$HIDETEXT
280
     1
  9
$XCLIPFRAME
290
     0
  9
$HALOGAP
280
     0
  9
$OBSCOLOR
 70
   257
  9
$OBSLTYPE
280
     0
  9
$INTERSECTIONDISPLAY
280
     0
  9
$INTERSECTIONCOLOR
 70
   257
  9
$DIMASSOC
280
     2
  9
$PROJECTNAME
  1

  9
$CAMERADISPLAY
290
     0
  9
$LENSLENGTH
 40
50.0
  9
$CAMERAHEIGHT
 40
0.0
  9
$STEPSPERSEC
 40
2.0
  9
$STEPSIZE
 40
6.0
  9
$3DDWFPREC
 40
2.0
  9
$PSOLWIDTH
 40
5.0
  9
$PSOLHEIGHT
 40
80.0
  9
$LOFTANG1
 40
1.570796326794896
  9
$LOFTANG2
 40
1.570796326794896
  9
$LOFTMAG1
 40
0.0
  9
$LOFTMAG2
 40
0.0
  9
$LOFTPARAM
 70
     7
  9
$LOFTNORMALS
280
     1
  9
$LATITUDE
 40
37.795
  9
$LONGITUDE
 40
-122.394
  9
$NORTHDIRECTION
 40
0.0
  9
$TIMEZONE
 70
 -8000
  9
$LIGHTGLYPHDISPLAY
280
     1
  9
$TILEMODELIGHTSYNCH
280
     1
  9
$CMATERIAL
347
EC
  9
$SOLIDHIST
280
     1
  9
$SHOWHIST
280
     1
  9
$DWFFRAME
280
     2
  9
$DGNFRAME
280
     0
  9
$REALWORLDSCALE
290
     1
  9
$INTERFERECOLOR
 62
     1
  9
$INTERFEREOBJVS
345
F9
  9
$INTERFEREVPVS
346
F6
  9
$CSHADOW
280
     0
  9
$SHADOWPLANELOCATION
 40
0.0
  0
ENDSEC
  0
SECTION
  2
CLASSES
  0
CLASS
  1
ACDBDICTIONARYWDFLT
  2
AcDbDictionaryWithDefault
  3
ObjectDBX Classes
 90
        0
 91
        1
280
     0
281
     0
  0
CLASS
  1
DICTIONARYVAR
  2
AcDbDictionaryVar
  3
ObjectDBX Classes
 90
        0
 91
        3
280
     0
281
     0
  0
CLASS
  1
TABLESTYLE
  2
AcDbTableStyle
  3
ObjectDBX Classes
 90
     4095
 91
        1
280
     0
281
     0
  0
CLASS
  1
MATERIAL
  2
AcDbMaterial
  3
ObjectDBX Classes
 90
     1024
 91
        3
280
     0
281
     0
  0
CLASS
  1
VISUALSTYLE
  2
AcDbVisualStyle
  3
ObjectDBX Classes
 90
     4095
 91
       16
280
     0
281
     0
  0
CLASS
  1
DIMASSOC
  2
AcDbDimAssoc
  3
"AcDbDimAssoc|Product Desc:     AcDim ARX App For Dimension|Company:          Autodesk, Inc.|WEB Address:      www.autodesk.com"
 90
        0
 91
        9
280
     0
281
     0
  0
ENDSEC
  0
SECTION
  2
TABLES
  0
TABLE
  2
VPORT
  5
8
330
0
100
AcDbSymbolTable
 70
     1
  0
VPORT
  5
EA
330
8
100
AcDbSymbolTableRecord
100
AcDbViewportTableRecord
  2
*Active
 70
     0
 10
0.0
 20
0.0
 11
1.0
 21
1.0
 12
316.3779868173838
 22
148.8020807323697
 13
0.0
 23
0.0
 14
10.0
 24
10.0
 15
10.0
 25
10.0
 16
0.0
 26
0.0
 36
1.0
 17
0.0
 27
0.0
 37
0.0
 40
300.0421802151127
 41
1.635398230088495
 42
50.0
 43
0.0
 44
0.0
 50
0.0
 51
0.0
 71
     0
 72
  1000
 73
     1
 74
     3
 75
     0
 76
     0
 77
     0
 78
     0
281
     0
 65
     1
110
0.0
120
0.0
130
0.0
111
1.0
121
0.0
131
0.0
112
0.0
122
1.0
132
0.0
 79
     0
146
0.0
348
F5
 60
     2
 61
     5
292
     1
282
     1
141
0.0
142
0.0
 63
   250
421
  3355443
  0
ENDTAB
  0
TABLE
  2
LTYPE
  5
5
330
0
100
AcDbSymbolTable
 70
     6
  0
LTYPE
  5
14
330
5
100
AcDbSymbolTableRecord
100
AcDbLinetypeTableRecord
  2
ByBlock
 70
     0
  3

 72
    65
 73
     0
 40
0.0
  0
LTYPE
  5
15
330
5
100
AcDbSymbolTableRecord
100
AcDbLinetypeTableRecord
  2
ByLayer
 70
     0
  3

 72
    65
 73
     0
 40
0.0
  0
LTYPE
  5
16
330
5
100
AcDbSymbolTableRecord
100
AcDbLinetypeTableRecord
  2
Continuous
 70
     0
  3
Solid line
 72
    65
 73
     0
 40
0.0
  0
LTYPE
  5
403
330
5
100
AcDbSymbolTableRecord
100
AcDbLinetypeTableRecord
  2
VERDECKT2
 70
     0
  3
Verdeckt (.5x) _ _ _ _ _ _ _ _ _ _ _ _ _ _ _ _ _
 72
    65
 73
     2
 40
4.762499999999999
 49
3.174999999999999
 74
     0
 49
-1.587499999999999
 74
     0
  0
LTYPE
  5
4CD
330
5
100
AcDbSymbolTableRecord
100
AcDbLinetypeTableRecord
  2
STRICHPUNKT
 70
     0
  3
Strichpunkt __ . __ . __ . __ . __ . __ . __ . __
 72
    65
 73
     4
 40
25.4
 49
12.7
 74
     0
 49
-6.349999999999999
 74
     0
 49
0.0
 74
     0
 49
-6.349999999999999
 74
     0
  0
LTYPE
  5
556
330
5
100
AcDbSymbolTableRecord
100
AcDbLinetypeTableRecord
  2
DASHED
 70
     0
  3
__ __ __ __ __ __ __ __ __ __ __ __ __ __ __ __
 72
    65
 73
     2
 40
0.75
 49
0.5
 74
     0
 49
-0.25
 74
     0
  0
LTYPE
  5
557
330
5
100
AcDbSymbolTableRecord
100
AcDbLinetypeTableRecord
  2
STRICHLINIE2
 70
     0
  3
Strichlinie (.5x) _ _ _ _ _ _ _ _ _ _ _ _ _ _ _ _ _
 72
    65
 73
     2
 40
9.524999999999998
 49
6.349999999999999
 74
     0
 49
-3.174999999999999
 74
     0
  0
LTYPE
  5
618
330
5
100
AcDbSymbolTableRecord
100
AcDbLinetypeTableRecord
  2
MITTE2
 70
     0
  3
Mitte (.5x) ___ _ ___ _ ___ _ ___ _ ___ _ ___
 72
    65
 73
     4
 40
28.575
 49
19.05
 74
     0
 49
-3.174999999999999
 74
     0
 49
3.174999999999999
 74
     0
 49
-3.174999999999999
 74
     0
  0
ENDTAB
  0
TABLE
  2
LAYER
  5
2
102
{ACAD_XDICTIONARY
360
12F
102
}
330
0
100
AcDbSymbolTable
 70
     4
  0
LAYER
  5
10
330
2
100
AcDbSymbolTableRecord
100
AcDbLayerTableRecord
  2
0
 70
     0
 62
     7
  6
Continuous
370
    -3
390
F
347
EE
  0
LAYER
  5
128
102
{ACAD_XDICTIONARY
360
129
102
}
330
2
100
AcDbSymbolTableRecord
100
AcDbLayerTableRecord
  2
07
 70
     0
 62
     7
  6
Continuous
370
    -3
390
F
347
EE
  0
LAYER
  5
12B
102
{ACAD_XDICTIONARY
360
12C
102
}
330
2
100
AcDbSymbolTableRecord
100
AcDbLayerTableRecord
  2
035
 70
     0
 62
     5
  6
Continuous
370
    -3
390
F
347
EE
  0
LAYER
  5
2E4
330
2
100
AcDbSymbolTableRecord
100
AcDbLayerTableRecord
  2
Defpoints
 70
     0
 62
     7
  6
Continuous
290
     0
370
    -3
390
F
347
EE
  0
ENDTAB
  0
TABLE
  2
STYLE
  5
3
330
0
100
AcDbSymbolTable
 70
     3
  0
STYLE
  5
11
330
3
100
AcDbSymbolTableRecord
100
AcDbTextStyleTableRecord
  2
Standard
 70
     0
 40
0.0
 41
1.0
 50
0.0
 71
     0
 42
2.5
  3
txt
  4

  0
STYLE
  5
12E
330
3
100
AcDbSymbolTableRecord
100
AcDbTextStyleTableRecord
  2
ISO Proportional
 70
     0
 40
0.0
 41
1.0
 50
0.0
 71
     0
 42
2.5
  3
isocp.shx
  4

  0
STYLE
  5
617
330
3
100
AcDbSymbolTableRecord
100
AcDbTextStyleTableRecord
  2

 70
     1
 40
0.0
 41
1.0
 50
0.0
 71
     0
 42
2.5
  3
ltypeshp.shx
  4

  0
ENDTAB
  0
TABLE
  2
VIEW
  5
6
330
0
100
AcDbSymbolTable
 70
     0
  0
ENDTAB
  0
TABLE
  2
UCS
  5
7
330
0
100
AcDbSymbolTable
 70
     0
  0
ENDTAB
  0
TABLE
  2
APPID
  5
9
330
0
100
AcDbSymbolTable
 70
     3
  0
APPID
  5
12
330
9
100
AcDbSymbolTableRecord
100
AcDbRegAppTableRecord
  2
ACAD
 70
     0
  0
APPID
  5
9E
330
9
100
AcDbSymbolTableRecord
100
AcDbRegAppTableRecord
  2
ACAD_PSEXT
 70
     0
  0
APPID
  5
3A6
330
9
100
AcDbSymbolTableRecord
100
AcDbRegAppTableRecord
  2
ACAD_EXEMPT_FROM_CAD_STANDARDS
 70
     0
  0
ENDTAB
  0
TABLE
  2
DIMSTYLE
  5
A
330
0
100
AcDbSymbolTable
 70
     1
100
AcDbDimStyleTable
 71
     1
340
27
  0
DIMSTYLE
105
27
102
{ACAD_REACTORS
330
5CE
330
5E6
330
5FE
330
626
330
64A
330
660
330
676
330
699
330
6B1
330
798
102
}
330
A
100
AcDbSymbolTableRecord
100
AcDbDimStyleTableRecord
  2
ISO-25
 70
     0
 41
2.5
 42
0.625
 43
3.75
 44
1.25
 73
     0
 74
     0
 77
     1
 78
     8
140
2.5
141
2.5
143
0.03937007874016
147
0.625
171
     3
172
     1
271
     2
272
     2
274
     3
278
    44
283
     0
284
     8
340
11
  0
ENDTAB
  0
TABLE
  2
BLOCK_RECORD
  5
1
330
0
100
AcDbSymbolTable
 70
    11
  0
BLOCK_RECORD
  5
1F
330
1
100
AcDbSymbolTableRecord
100
AcDbBlockTableRecord
  2
*Model_Space
340
22
 70
     0
280
     1
281
     0
  0
BLOCK_RECORD
  5
D2
330
1
100
AcDbSymbolTableRecord
100
AcDbBlockTableRecord
  2
*Paper_Space
340
D3
 70
     0
280
     1
281
     0
  0
BLOCK_RECORD
  5
3C0
330
1
100
AcDbSymbolTableRecord
100
AcDbBlockTableRecord
  2
Kreuzschlitz-Linsensenkschraube - 10 mm oben
340
0
310
2800000020000000200000000100080000000000000400000000000000000000000000000000000000000000000080000080000000808000800000008000800080800000C0C0C000C0DCC000F0CAA6000020400000206000002080000020A0000020C0000020E00000400000004020000040400000406000004080000040A0
310
000040C0000040E00000600000006020000060400000606000006080000060A0000060C0000060E00000800000008020000080400000806000008080000080A0000080C0000080E00000A0000000A0200000A0400000A0600000A0800000A0A00000A0C00000A0E00000C0000000C0200000C0400000C0600000C0800000C0
310
A00000C0C00000C0E00000E0000000E0200000E0400000E0600000E0800000E0A00000E0C00000E0E00040000000400020004000400040006000400080004000A0004000C0004000E00040200000402020004020400040206000402080004020A0004020C0004020E000404000004040200040404000404060004040800040
310
40A0004040C0004040E00040600000406020004060400040606000406080004060A0004060C0004060E00040800000408020004080400040806000408080004080A0004080C0004080E00040A0000040A0200040A0400040A0600040A0800040A0A00040A0C00040A0E00040C0000040C0200040C0400040C0600040C08000
310
40C0A00040C0C00040C0E00040E0000040E0200040E0400040E0600040E0800040E0A00040E0C00040E0E00080000000800020008000400080006000800080008000A0008000C0008000E00080200000802020008020400080206000802080008020A0008020C0008020E00080400000804020008040400080406000804080
310
008040A0008040C0008040E00080600000806020008060400080606000806080008060A0008060C0008060E00080800000808020008080400080806000808080008080A0008080C0008080E00080A0000080A0200080A0400080A0600080A0800080A0A00080A0C00080A0E00080C0000080C0200080C0400080C0600080C0
310
800080C0A00080C0C00080C0E00080E0000080E0200080E0400080E0600080E0800080E0A00080E0C00080E0E000C0000000C0002000C0004000C0006000C0008000C000A000C000C000C000E000C0200000C0202000C0204000C0206000C0208000C020A000C020C000C020E000C0400000C0402000C0404000C0406000C0
310
408000C040A000C040C000C040E000C0600000C0602000C0604000C0606000C0608000C060A000C060C000C060E000C0800000C0802000C0804000C0806000C0808000C080A000C080C000C080E000C0A00000C0A02000C0A04000C0A06000C0A08000C0A0A000C0A0C000C0A0E000C0C00000C0C02000C0C04000C0C06000
310
C0C08000C0C0A000F0FBFF00A4A0A000808080000000FF0000FF000000FFFF00FF000000FF00FF00FFFF0000FFFFFF00FFFFFFFFFFFFFFFFFFFFFFFFFFFFFFFFFFFFFFFFFFFFFFFFFFFFFFFFFFFFFFFFFFFFFFFFFFFFFFFFFFFFFFFFFFFFFFFFFFFFFFFFFFFFFFFFFFFFFFFFFFFFFFFFFFFFFFFFFFFFFFFFFFFFFF00000000
310
00000000FFFFFFFFFFFFFFFFFFFFFFFFFFFFFFFFFFFFFFFFFFFF0000FFFFFFFFFFFFFFFF00000000FFFFFFFFFFFFFFFFFFFFFFFFFFFFFFFFFF00FFFFFFFFFFFFFFFFFFFFFFFFFFFF0000FFFFFFFFFFFFFFFFFFFFFFFFFF0000FFFFFFFFFFFFFFFFFFFFFFFFFFFFFFFFFF00FFFFFFFFFFFFFFFFFFFFFF00FFFFFFFFFFFFFFFF
310
FFFFFFFFFFFFFFFFFFFFFFFF00FFFFFFFFFFFFFFFFFFFF00FFFFFFFFFFFFFFFFFFFFFFFFFFFFFFFFFFFFFFFF00FFFFFFFFFFFFFFFFFF00FFFFFFFFFFFFFFFF000000000000FFFFFFFFFFFFFFFF00FFFFFFFFFFFFFFFF00FFFFFFFFFFFFFFFF00FFFFFFFF00FFFFFFFFFFFFFFFFFF00FFFFFFFFFFFF00FFFFFFFFFFFFFFFFFF
310
00FFFFFFFF00FFFFFFFFFFFFFFFFFF00FFFFFFFFFFFF00FFFFFFFFFFFFFFFFFF00FFFFFFFF00FFFFFFFFFFFFFFFFFFFF00FFFFFFFF00FFFFFFFFFFFFFFFFFFFF00FFFFFFFF00FFFFFFFFFFFFFFFFFFFF00FFFFFFFF00FFFFFFFFFF00000000000000000000000000000000FFFFFFFFFF00FFFFFFFF00FFFFFFFFFF00FFFFFF
310
FF00FFFFFFFF00FFFFFFFF00FFFFFFFFFF00FFFFFFFF00FFFFFFFFFF00FFFFFFFF00FFFFFFFF00FFFFFFFF00FFFFFFFFFFFF00FFFFFF00FFFFFFFFFF00FFFFFFFF00FFFFFFFF00FFFFFFFF00FFFFFFFFFFFF00FFFFFF00FFFFFFFFFF00FFFFFFFF00FFFFFFFF00FFFFFFFF00FFFFFFFFFFFF00FFFFFF00FFFFFFFFFF000000
310
00000000000000000000000000FFFFFFFFFF00FFFFFFFF00FFFFFFFFFFFFFFFFFFFF00FFFFFFFF00FFFFFFFFFFFFFFFFFFFF00FFFFFFFFFF00FFFFFFFFFFFFFFFFFF00FFFFFFFF00FFFFFFFFFFFFFFFFFFFF00FFFFFFFFFF00FFFFFFFFFFFFFFFFFF00FFFFFFFF00FFFFFFFFFFFFFFFFFF00FFFFFFFFFFFFFF00FFFFFFFFFF
310
FFFFFF00FFFFFFFF00FFFFFFFFFFFFFFFFFF00FFFFFFFFFFFFFF00FFFFFFFFFFFFFFFF000000000000FFFFFFFFFFFFFFFF00FFFFFFFFFFFFFFFFFF00FFFFFFFFFFFFFFFFFFFFFFFFFFFFFFFFFFFFFFFF00FFFFFFFFFFFFFFFFFFFF00FFFFFFFFFFFFFFFFFFFFFFFFFFFFFFFFFFFFFFFF00FFFFFFFFFFFFFFFFFFFFFF0000FF
310
FFFFFFFFFFFFFFFFFFFFFFFFFFFFFFFF00FFFFFFFFFFFFFFFFFFFFFFFFFFFF00FFFFFFFFFFFFFFFFFFFFFFFFFFFF0000FFFFFFFFFFFFFFFFFFFFFFFFFFFFFFFF0000FFFFFFFFFFFFFFFF00000000FFFFFFFFFFFFFFFFFFFFFFFFFFFFFFFFFFFFFFFF0000000000000000FFFFFFFFFFFFFFFFFFFFFFFFFFFFFFFFFFFFFFFFFF
310
FFFFFFFFFFFFFFFFFFFFFFFFFFFFFFFFFFFFFFFFFFFFFFFFFFFFFFFFFFFFFFFFFFFFFFFFFFFFFFFFFFFFFFFFFFFFFFFFFFFFFFFFFFFFFFFF
 70
     4
280
     1
281
     0
  0
BLOCK_RECORD
  5
5CF
330
1
100
AcDbSymbolTableRecord
100
AcDbBlockTableRecord
  2
*D1
340
0
 70
     0
280
     1
281
     0
  0
BLOCK_RECORD
  5
5E7
330
1
100
AcDbSymbolTableRecord
100
AcDbBlockTableRecord
  2
*D2
340
0
 70
     0
280
     1
281
     0
  0
BLOCK_RECORD
  5
5FF
330
1
100
AcDbSymbolTableRecord
100
AcDbBlockTableRecord
  2
*D3
340
0
 70
     0
280
     1
281
     0
  0
BLOCK_RECORD
  5
627
330
1
100
AcDbSymbolTableRecord
100
AcDbBlockTableRecord
  2
*D4
340
0
 70
     0
280
     1
281
     0
  0
BLOCK_RECORD
  5
64B
330
1
100
AcDbSymbolTableRecord
100
AcDbBlockTableRecord
  2
*D5
340
0
 70
     0
280
     1
281
     0
  0
BLOCK_RECORD
  5
661
330
1
100
AcDbSymbolTableRecord
100
AcDbBlockTableRecord
  2
*D6
340
0
 70
     0
280
     1
281
     0
  0
BLOCK_RECORD
  5
677
330
1
100
AcDbSymbolTableRecord
100
AcDbBlockTableRecord
  2
*D7
340
0
 70
     0
280
     1
281
     0
  0
BLOCK_RECORD
  5
69A
330
1
100
AcDbSymbolTableRecord
100
AcDbBlockTableRecord
  2
*D8
340
0
 70
     0
280
     1
281
     0
  0
BLOCK_RECORD
  5
6B2
330
1
100
AcDbSymbolTableRecord
100
AcDbBlockTableRecord
  2
*D9
340
0
 70
     0
280
     1
281
     0
  0
BLOCK_RECORD
  5
799
330
1
100
AcDbSymbolTableRecord
100
AcDbBlockTableRecord
  2
*D10
340
0
 70
     0
280
     1
281
     0
  0
ENDTAB
  0
ENDSEC
  0
SECTION
  2
BLOCKS
  0
BLOCK
  5
20
330
1F
100
AcDbEntity
  8
0
100
AcDbBlockBegin
  2
*Model_Space
 70
     0
 10
0.0
 20
0.0
 30
0.0
  3
*Model_Space
  1

  0
ENDBLK
  5
21
330
1F
100
AcDbEntity
  8
0
100
AcDbBlockEnd
  0
BLOCK
  5
D4
330
D2
100
AcDbEntity
 67
     1
  8
0
100
AcDbBlockBegin
  2
*Paper_Space
 70
     0
 10
0.0
 20
0.0
 30
0.0
  3
*Paper_Space
  1

  0
ENDBLK
  5
D5
330
D2
100
AcDbEntity
 67
     1
  8
0
100
AcDbBlockEnd
  0
BLOCK
  5
3C1
330
3C0
100
AcDbEntity
  8
0
100
AcDbBlockBegin
  2
Kreuzschlitz-Linsensenkschraube - 10 mm oben
 70
     2
 10
0.0
 20
0.0
 30
0.0
  3
Kreuzschlitz-Linsensenkschraube - 10 mm oben
  1
OVAL_HEAD_CROSS_PT_10MM_TOP
  4
DesignCenter Metric Fasteners Beispiel
  0
LINE
  5
3C2
330
3C0
100
AcDbEntity
  8
0
  6
Continuous
 62
     0
100
AcDbLine
 10
-1.968499999999999
 20
-1.968499999999999
 30
0.0
 11
-1.968499999999999
 21
-5.085020726115581
 31
0.0
  0
LINE
  5
3C3
330
3C0
100
AcDbEntity
  8
0
  6
Continuous
 62
     0
100
AcDbLine
 10
1.968499999999999
 20
-1.968499999999999
 30
0.0
 11
1.968499999999999
 21
-5.085020726115581
 31
0.0
  0
LINE
  5
3C4
330
3C0
100
AcDbEntity
  8
0
  6
Continuous
 62
     0
100
AcDbLine
 10
-1.968499999999999
 20
1.968499999999999
 30
0.0
 11
-1.968499999999999
 21
5.085020726115581
 31
0.0
  0
LINE
  5
3C5
330
3C0
100
AcDbEntity
  8
0
  6
Continuous
 62
     0
100
AcDbLine
 10
1.968499999999999
 20
1.968499999999999
 30
0.0
 11
1.968499999999999
 21
5.085020726115581
 31
0.0
  0
LINE
  5
3C6
330
3C0
100
AcDbEntity
  8
0
  6
Continuous
 62
     0
100
AcDbLine
 10
-1.968499999999999
 20
-1.968499999999999
 30
0.0
 11
-5.085020726115565
 21
-1.968499999999999
 31
0.0
  0
LINE
  5
3C7
330
3C0
100
AcDbEntity
  8
0
  6
Continuous
 62
     0
100
AcDbLine
 10
1.968499999999999
 20
-1.968499999999999
 30
0.0
 11
5.085020726115565
 21
-1.968499999999999
 31
0.0
  0
LINE
  5
3C8
330
3C0
100
AcDbEntity
  8
0
  6
Continuous
 62
     0
100
AcDbLine
 10
-1.968499999999999
 20
1.968499999999999
 30
0.0
 11
-5.085020726115565
 21
1.968499999999999
 31
0.0
  0
LINE
  5
3C9
330
3C0
100
AcDbEntity
  8
0
  6
Continuous
 62
     0
100
AcDbLine
 10
1.968499999999999
 20
1.968499999999999
 30
0.0
 11
5.085020726115565
 21
1.968499999999999
 31
0.0
  0
LINE
  5
3CA
330
3C0
100
AcDbEntity
  8
0
  6
Continuous
 62
     0
100
AcDbLine
 10
-1.968499999999999
 20
1.968499999999999
 30
0.0
 11
-1.968499999999999
 21
-1.968499999999999
 31
0.0
  0
LINE
  5
3CB
330
3C0
100
AcDbEntity
  8
0
  6
Continuous
 62
     0
100
AcDbLine
 10
1.968499999999999
 20
1.968499999999999
 30
0.0
 11
1.968499999999999
 21
-1.968499999999999
 31
0.0
  0
LINE
  5
3CC
330
3C0
100
AcDbEntity
  8
0
  6
Continuous
 62
     0
100
AcDbLine
 10
1.968499999999999
 20
-1.968499999999999
 30
0.0
 11
-1.968499999999999
 21
-1.968499999999999
 31
0.0
  0
LINE
  5
3CD
330
3C0
100
AcDbEntity
  8
0
  6
Continuous
 62
     0
100
AcDbLine
 10
1.968499999999999
 20
1.968499999999999
 30
0.0
 11
-1.968499999999999
 21
1.968499999999999
 31
0.0
  0
ARC
  5
3CE
330
3C0
100
AcDbEntity
  8
0
  6
Continuous
 62
     0
100
AcDbCircle
 10
0.0
 20
0.0
 30
0.0
 40
5.452744999999999
100
AcDbArc
 50
248.8377124471915
 51
291.1622875528085
  0
ARC
  5
3CF
330
3C0
100
AcDbEntity
  8
0
  6
Continuous
 62
     0
100
AcDbCircle
 10
0.0
 20
0.0
 30
0.0
 40
5.452744999999999
100
AcDbArc
 50
158.8377124471915
 51
201.1622875528086
  0
ARC
  5
3D0
330
3C0
100
AcDbEntity
  8
0
  6
Continuous
 62
     0
100
AcDbCircle
 10
0.0
 20
0.0
 30
0.0
 40
5.452744999999999
100
AcDbArc
 50
68.83771244719152
 51
111.1622875528085
  0
ARC
  5
3D1
330
3C0
100
AcDbEntity
  8
0
  6
Continuous
 62
     0
100
AcDbCircle
 10
0.0
 20
0.0
 30
0.0
 40
5.452744999999999
100
AcDbArc
 50
338.8377124471916
 51
21.1622875528085
  0
CIRCLE
  5
3D2
330
3C0
100
AcDbEntity
  8
0
  6
Continuous
 62
     0
100
AcDbCircle
 10
0.0
 20
0.0
 30
0.0
 40
9.842499999999999
  0
ENDBLK
  5
3D3
330
3C0
100
AcDbEntity
  8
0
100
AcDbBlockEnd
  0
BLOCK
  5
5D9
330
5CF
100
AcDbEntity
  8
0
 62
     0
370
    18
100
AcDbBlockBegin
  2
*D1
 70
     1
 10
0.0
 20
0.0
 30
0.0
  3
*D1
  1

  0
LINE
  5
6C9
330
5CF
100
AcDbEntity
  8
0
 62
     0
370
    -2
100
AcDbLine
 10
110.2107899649627
 20
255.3548854447037
 30
0.0
 11
122.7119087866979
 21
255.3548854447037
 31
0.0
  0
LINE
  5
6CA
330
5CF
100
AcDbEntity
  8
0
 62
     0
370
    -2
100
AcDbLine
 10
117.2107899649627
 20
241.3548854447037
 30
0.0
 11
122.7119087866979
 21
241.3548854447037
 31
0.0
  0
LINE
  5
6CB
330
5CF
100
AcDbEntity
  8
0
 62
     0
370
    -2
100
AcDbLine
 10
121.4619087866979
 20
252.8548854447037
 30
0.0
 11
121.4619087866979
 21
243.8548854447037
 31
0.0
  0
SOLID
  5
6CC
330
5CF
100
AcDbEntity
  8
0
 62
     0
370
    18
100
AcDbTrace
 10
121.0452421200312
 20
252.8548854447037
 30
0.0
 11
121.8785754533646
 21
252.8548854447037
 31
0.0
 12
121.4619087866979
 22
255.3548854447037
 32
0.0
 13
121.4619087866979
 23
255.3548854447037
 33
0.0
  0
SOLID
  5
6CD
330
5CF
100
AcDbEntity
  8
0
 62
     0
370
    18
100
AcDbTrace
 10
121.0452421200312
 20
243.8548854447037
 30
0.0
 11
121.8785754533646
 21
243.8548854447037
 31
0.0
 12
121.4619087866979
 22
241.3548854447037
 32
0.0
 13
121.4619087866979
 23
241.3548854447037
 33
0.0
  0
MTEXT
  5
6CE
330
5CF
100
AcDbEntity
  8
0
 62
     0
370
    18
100
AcDbMText
 10
119.5869087866978
 20
248.3548854447037
 30
0.0
 40
2.5
 41
0.0
 46
0.0
 71
     5
 72
     1
  1
14
 11
0.0000000000000001
 21
1.0
 31
0.0
 73
     1
 44
1.0
  0
POINT
  5
6CF
330
5CF
100
AcDbEntity
  8
Defpoints
 62
     0
370
    18
100
AcDbPoint
 10
109.5857899649627
 20
255.3548854447037
 30
0.0
  0
POINT
  5
6D0
330
5CF
100
AcDbEntity
  8
Defpoints
 62
     0
370
    18
100
AcDbPoint
 10
116.5857899649627
 20
241.3548854447037
 30
0.0
  0
POINT
  5
6D1
330
5CF
100
AcDbEntity
  8
Defpoints
 62
     0
370
    18
100
AcDbPoint
 10
121.4619087866979
 20
241.3548854447037
 30
0.0
  0
ENDBLK
  5
5DA
330
5CF
100
AcDbEntity
  8
0
 62
     0
370
    18
100
AcDbBlockEnd
  0
BLOCK
  5
5F1
330
5E7
100
AcDbEntity
  8
0
 62
     0
370
    18
100
AcDbBlockBegin
  2
*D2
 70
     1
 10
0.0
 20
0.0
 30
0.0
  3
*D2
  1

  0
LINE
  5
6D2
330
5E7
100
AcDbEntity
  8
0
 62
     0
370
    -2
100
AcDbLine
 10
110.2107899649627
 20
255.3548854447037
 30
0.0
 11
131.9894240704598
 21
255.3548854447037
 31
0.0
  0
LINE
  5
6D3
330
5E7
100
AcDbEntity
  8
0
 62
     0
370
    -2
100
AcDbLine
 10
110.2107899649627
 20
227.3548854447037
 30
0.0
 11
131.9894240704598
 21
227.3548854447037
 31
0.0
  0
LINE
  5
6D4
330
5E7
100
AcDbEntity
  8
0
 62
     0
370
    -2
100
AcDbLine
 10
130.7394240704598
 20
252.8548854447037
 30
0.0
 11
130.7394240704598
 21
229.8548854447037
 31
0.0
  0
SOLID
  5
6D5
330
5E7
100
AcDbEntity
  8
0
 62
     0
370
    18
100
AcDbTrace
 10
130.3227574037931
 20
252.8548854447037
 30
0.0
 11
131.1560907371264
 21
252.8548854447037
 31
0.0
 12
130.7394240704598
 22
255.3548854447037
 32
0.0
 13
130.7394240704598
 23
255.3548854447037
 33
0.0
  0
SOLID
  5
6D6
330
5E7
100
AcDbEntity
  8
0
 62
     0
370
    18
100
AcDbTrace
 10
130.3227574037931
 20
229.8548854447037
 30
0.0
 11
131.1560907371264
 21
229.8548854447037
 31
0.0
 12
130.7394240704598
 22
227.3548854447037
 32
0.0
 13
130.7394240704598
 23
227.3548854447037
 33
0.0
  0
MTEXT
  5
6D7
330
5E7
100
AcDbEntity
  8
0
 62
     0
370
    18
100
AcDbMText
 10
128.8644240704597
 20
241.3548854447038
 30
0.0
 40
2.5
 41
0.0
 46
0.0
 71
     5
 72
     1
  1
28
 11
0.0000000000000001
 21
1.0
 31
0.0
 73
     1
 44
1.0
  0
POINT
  5
6D8
330
5E7
100
AcDbEntity
  8
Defpoints
 62
     0
370
    18
100
AcDbPoint
 10
109.5857899649627
 20
255.3548854447037
 30
0.0
  0
POINT
  5
6D9
330
5E7
100
AcDbEntity
  8
Defpoints
 62
     0
370
    18
100
AcDbPoint
 10
109.5857899649627
 20
227.3548854447037
 30
0.0
  0
POINT
  5
6DA
330
5E7
100
AcDbEntity
  8
Defpoints
 62
     0
370
    18
100
AcDbPoint
 10
130.7394240704598
 20
227.3548854447037
 30
0.0
  0
ENDBLK
  5
5F2
330
5E7
100
AcDbEntity
  8
0
 62
     0
370
    18
100
AcDbBlockEnd
  0
BLOCK
  5
609
330
5FF
100
AcDbEntity
  8
0
 62
     0
370
    18
100
AcDbBlockBegin
  2
*D3
 70
     1
 10
0.0
 20
0.0
 30
0.0
  3
*D3
  1

  0
LINE
  5
6DB
330
5FF
100
AcDbEntity
  8
0
 62
     0
370
    -2
100
AcDbLine
 10
110.2107899649627
 20
255.3548854447037
 30
0.0
 11
141.9541629073924
 21
255.3548854447037
 31
0.0
  0
LINE
  5
6DC
330
5FF
100
AcDbEntity
  8
0
 62
     0
370
    -2
100
AcDbLine
 10
110.2107899649627
 20
207.3548854447038
 30
0.0
 11
141.9541629073924
 21
207.3548854447038
 31
0.0
  0
LINE
  5
6DD
330
5FF
100
AcDbEntity
  8
0
 62
     0
370
    -2
100
AcDbLine
 10
140.7041629073924
 20
252.8548854447037
 30
0.0
 11
140.7041629073924
 21
209.8548854447038
 31
0.0
  0
SOLID
  5
6DE
330
5FF
100
AcDbEntity
  8
0
 62
     0
370
    18
100
AcDbTrace
 10
140.2874962407257
 20
252.8548854447037
 30
0.0
 11
141.120829574059
 21
252.8548854447037
 31
0.0
 12
140.7041629073924
 22
255.3548854447037
 32
0.0
 13
140.7041629073924
 23
255.3548854447037
 33
0.0
  0
SOLID
  5
6DF
330
5FF
100
AcDbEntity
  8
0
 62
     0
370
    18
100
AcDbTrace
 10
140.2874962407257
 20
209.8548854447038
 30
0.0
 11
141.120829574059
 21
209.8548854447038
 31
0.0
 12
140.7041629073924
 22
207.3548854447038
 32
0.0
 13
140.7041629073924
 23
207.3548854447038
 33
0.0
  0
MTEXT
  5
6E0
330
5FF
100
AcDbEntity
  8
0
 62
     0
370
    18
100
AcDbMText
 10
138.8291629073923
 20
231.3548854447038
 30
0.0
 40
2.5
 41
0.0
 46
0.0
 71
     5
 72
     1
  1
48
 11
0.0000000000000001
 21
1.0
 31
0.0
 73
     1
 44
1.0
  0
POINT
  5
6E1
330
5FF
100
AcDbEntity
  8
Defpoints
 62
     0
370
    18
100
AcDbPoint
 10
109.5857899649627
 20
255.3548854447037
 30
0.0
  0
POINT
  5
6E2
330
5FF
100
AcDbEntity
  8
Defpoints
 62
     0
370
    18
100
AcDbPoint
 10
109.5857899649627
 20
207.3548854447038
 30
0.0
  0
POINT
  5
6E3
330
5FF
100
AcDbEntity
  8
Defpoints
 62
     0
370
    18
100
AcDbPoint
 10
140.7041629073924
 20
207.3548854447038
 30
0.0
  0
ENDBLK
  5
60A
330
5FF
100
AcDbEntity
  8
0
 62
     0
370
    18
100
AcDbBlockEnd
  0
BLOCK
  5
632
330
627
100
AcDbEntity
  8
0
 62
     0
370
    18
100
AcDbBlockBegin
  2
*D4
 70
     1
 10
0.0
 20
0.0
 30
0.0
  3
*D4
  1

  0
LINE
  5
748
330
627
100
AcDbEntity
  8
0
 62
     0
370
    -2
100
AcDbLine
 10
108.8230645402142
 20
83.99774181066
 30
0.0
 11
120.0908861074913
 21
90.40190472268017
 31
0.0
  0
LINE
  5
749
330
627
100
AcDbEntity
  8
0
 62
     0
370
    -2
100
AcDbLine
 10
99.58578996496269
 20
96.3726576759617
 30
0.0
 11
99.58578996496266
 21
102.333255867237
 31
0.0
  0
ARC
  5
74A
330
627
100
AcDbEntity
  8
0
 62
     0
370
    -2
100
AcDbCircle
 10
99.58578996496267
 20
78.7476576759617
 30
0.0
 40
22.33559819127534
100
AcDbArc
 50
36.02851433152298
 51
83.58359132979757
  0
SOLID
  5
74B
330
627
100
AcDbEntity
  8
0
 62
     0
370
    18
100
AcDbTrace
 10
117.9992886325117
 20
92.11101997605979
 30
0.0
 11
117.2989765258759
 21
91.65934819506849
 31
0.0
 12
119.0041479221676
 22
89.78424776565683
 32
0.0
 13
119.0041479221676
 23
89.78424776565683
 33
0.0
  0
SOLID
  5
74C
330
627
100
AcDbEntity
  8
0
 62
     0
370
    18
100
AcDbTrace
 10
102.0585533359989
 20
100.5273310324143
 30
0.0
 11
102.105190397507
 21
101.3593583330111
 31
0.0
 12
99.58578996496266
 22
101.083255867237
 32
0.0
 13
99.58578996496266
 23
101.083255867237
 33
0.0
  0
MTEXT
  5
74D
330
627
100
AcDbEntity
  8
0
 62
     0
370
    18
100
AcDbMText
 10
111.7619931931072
 20
99.67355406599255
 30
0.0
 40
2.5
 41
0.0
 46
0.0
 71
     5
 72
     1
  1
60\U+00B0
 11
0.8643279370755825
 21
-0.5029286402569137
 31
0.0
 73
     1
 44
1.0
  0
POINT
  5
74E
330
627
100
AcDbEntity
  8
Defpoints
 62
     0
370
    18
100
AcDbPoint
 10
99.58578996496267
 20
78.7476576759617
 30
0.0
  0
POINT
  5
74F
330
627
100
AcDbEntity
  8
Defpoints
 62
     0
370
    18
100
AcDbPoint
 10
108.2796954475524
 20
83.68891333214834
 30
0.0
  0
POINT
  5
750
330
627
100
AcDbEntity
  8
Defpoints
 62
     0
370
    18
100
AcDbPoint
 10
99.58578996496269
 20
95.74765767596169
 30
0.0
  0
POINT
  5
751
330
627
100
AcDbEntity
  8
Defpoints
 62
     0
370
    18
100
AcDbPoint
 10
114.0199130347142
 20
95.79274605265746
 30
0.0
  0
ENDBLK
  5
633
330
627
100
AcDbEntity
  8
0
 62
     0
370
    18
100
AcDbBlockEnd
  0
BLOCK
  5
654
330
64B
100
AcDbEntity
  8
0
 62
     0
370
    18
100
AcDbBlockBegin
  2
*D5
 70
     1
 10
0.0
 20
0.0
 30
0.0
  3
*D5
  1

  0
LINE
  5
738
330
64B
100
AcDbEntity
  8
0
 62
     0
370
    -2
100
AcDbLine
 10
73.32640204817558
 20
222.6531815316273
 30
0.0
 11
94.41797239061544
 21
226.4295954802777
 31
0.0
  0
LINE
  5
739
330
64B
100
AcDbEntity
  8
0
 62
     0
370
    -2
100
AcDbLine
 10
104.75360753931
 20
228.2801754091297
 30
0.0
 11
107.2144730509039
 21
228.720789677904
 31
0.0
  0
MTEXT
  5
73A
330
64B
100
AcDbEntity
  8
0
 62
     0
370
    18
100
AcDbMText
 10
77.47081026211919
 20
225.5116956173752
 30
0.0
 40
2.5
 41
0.0
 46
0.0
 71
     5
 72
     1
  1
\U+22055,5
 11
0.9843462046375746
 21
0.1762457075097207
 31
0.0
 73
     1
 44
1.0
  0
LINE
  5
73B
330
64B
100
AcDbEntity
  8
0
 62
     0
370
    -2
100
AcDbLine
 10
102.292742027716
 20
227.8395611403555
 30
0.0
 11
96.87883790220938
 21
226.870209749052
 31
0.0
  0
SOLID
  5
73C
330
64B
100
AcDbEntity
  8
0
 62
     0
370
    18
100
AcDbTrace
 10
104.6801718278476
 20
228.690319661062
 30
0.0
 11
104.8270432507723
 21
227.8700311571974
 31
0.0
 12
102.292742027716
 22
227.8395611403555
 32
0.0
 13
102.292742027716
 23
227.8395611403555
 33
0.0
  0
SOLID
  5
73D
330
64B
100
AcDbEntity
  8
0
 62
     0
370
    18
100
AcDbTrace
 10
94.34453667915306
 20
226.83973973221
 30
0.0
 11
94.49140810207783
 21
226.0194512283454
 31
0.0
 12
96.87883790220938
 22
226.870209749052
 32
0.0
 13
96.87883790220938
 23
226.870209749052
 33
0.0
  0
POINT
  5
73E
330
64B
100
AcDbEntity
  8
Defpoints
 62
     0
370
    18
100
AcDbPoint
 10
96.87883790220938
 20
226.870209749052
 30
0.0
  0
POINT
  5
73F
330
64B
100
AcDbEntity
  8
Defpoints
 62
     0
370
    18
100
AcDbPoint
 10
102.292742027716
 20
227.8395611403555
 30
0.0
  0
ENDBLK
  5
655
330
64B
100
AcDbEntity
  8
0
 62
     0
370
    18
100
AcDbBlockEnd
  0
BLOCK
  5
66A
330
661
100
AcDbEntity
  8
0
 62
     0
370
    18
100
AcDbBlockBegin
  2
*D6
 70
     1
 10
0.0
 20
0.0
 30
0.0
  3
*D6
  1

  0
LINE
  5
730
330
661
100
AcDbEntity
  8
0
 62
     0
370
    -2
100
AcDbLine
 10
73.84713294171319
 20
202.9004793876657
 30
0.0
 11
94.4126876001496
 21
206.4596134619159
 31
0.0
  0
LINE
  5
731
330
661
100
AcDbEntity
  8
0
 62
     0
370
    -2
100
AcDbLine
 10
104.7588923297758
 20
208.2501574274917
 30
0.0
 11
107.2222744082582
 21
208.6764774192954
 31
0.0
  0
MTEXT
  5
732
330
661
100
AcDbEntity
  8
0
 62
     0
370
    18
100
AcDbMText
 10
78.00806675909455
 20
205.7348844380412
 30
0.0
 40
2.5
 41
0.0
 46
0.0
 71
     5
 72
     1
  1
\U+22055,5
 11
0.9853528313929748
 21
0.1705279967214997
 31
0.0
 73
     1
 44
1.0
  0
LINE
  5
733
330
661
100
AcDbEntity
  8
0
 62
     0
370
    -2
100
AcDbLine
 10
102.2955102512934
 20
207.8238374356879
 30
0.0
 11
96.87606967863203
 21
206.8859334537196
 31
0.0
  0
SOLID
  5
734
330
661
100
AcDbEntity
  8
0
 62
     0
370
    18
100
AcDbTrace
 10
104.6878389978086
 20
208.6607211072387
 30
0.0
 11
104.8299456617431
 21
207.8395937477446
 31
0.0
 12
102.2955102512934
 22
207.8238374356879
 32
0.0
 13
102.2955102512934
 23
207.8238374356879
 33
0.0
  0
SOLID
  5
735
330
661
100
AcDbEntity
  8
0
 62
     0
370
    18
100
AcDbTrace
 10
94.3416342681823
 20
206.870177141663
 30
0.0
 11
94.48374093211688
 21
206.0490497821688
 31
0.0
 12
96.87606967863203
 22
206.8859334537196
 32
0.0
 13
96.87606967863203
 23
206.8859334537196
 33
0.0
  0
POINT
  5
736
330
661
100
AcDbEntity
  8
Defpoints
 62
     0
370
    18
100
AcDbPoint
 10
96.87606967863203
 20
206.8859334537196
 30
0.0
  0
POINT
  5
737
330
661
100
AcDbEntity
  8
Defpoints
 62
     0
370
    18
100
AcDbPoint
 10
102.2955102512934
 20
207.8238374356879
 30
0.0
  0
ENDBLK
  5
66B
330
661
100
AcDbEntity
  8
0
 62
     0
370
    18
100
AcDbBlockEnd
  0
BLOCK
  5
680
330
677
100
AcDbEntity
  8
0
 62
     0
370
    18
100
AcDbBlockBegin
  2
*D7
 70
     1
 10
0.0
 20
0.0
 30
0.0
  3
*D7
  1

  0
LINE
  5
740
330
677
100
AcDbEntity
  8
0
 62
     0
370
    -2
100
AcDbLine
 10
75.13327492907658
 20
255.2554504077887
 30
0.0
 11
94.80437453036135
 21
244.0729852298028
 31
0.0
  0
LINE
  5
741
330
677
100
AcDbEntity
  8
0
 62
     0
370
    -2
100
AcDbLine
 10
104.3672053995641
 20
238.6367856596046
 30
0.0
 11
106.5405760516556
 21
237.4012857572869
 31
0.0
  0
MTEXT
  5
742
330
677
100
AcDbEntity
  8
0
 62
     0
370
    18
100
AcDbMText
 10
78.41438472891404
 20
255.5470201693464
 30
0.0
 40
2.5
 41
0.0
 46
0.0
 71
     5
 72
     1
  1
\U+22056
 11
0.8693482608366164
 21
-0.4941999609271035
 31
0.0
 73
     1
 44
1.0
  0
LINE
  5
743
330
677
100
AcDbEntity
  8
0
 62
     0
370
    -2
100
AcDbLine
 10
102.1938347474726
 20
239.8722855619224
 30
0.0
 11
96.97774518245289
 21
242.837485327485
 31
0.0
  0
SOLID
  5
744
330
677
100
AcDbEntity
  8
0
 62
     0
370
    18
100
AcDbTrace
 10
104.5731220499504
 20
238.9990141016199
 30
0.0
 11
104.1612887491778
 21
238.2745572175894
 31
0.0
 12
102.1938347474726
 22
239.8722855619224
 32
0.0
 13
102.1938347474726
 23
239.8722855619224
 33
0.0
  0
SOLID
  5
745
330
677
100
AcDbEntity
  8
0
 62
     0
370
    18
100
AcDbTrace
 10
95.01029118074763
 20
244.4352136718181
 30
0.0
 11
94.59845787997503
 21
243.7107567877875
 31
0.0
 12
96.97774518245289
 22
242.837485327485
 32
0.0
 13
96.97774518245289
 23
242.837485327485
 33
0.0
  0
POINT
  5
746
330
677
100
AcDbEntity
  8
Defpoints
 62
     0
370
    18
100
AcDbPoint
 10
96.97774518245289
 20
242.837485327485
 30
0.0
  0
POINT
  5
747
330
677
100
AcDbEntity
  8
Defpoints
 62
     0
370
    18
100
AcDbPoint
 10
102.1938347474726
 20
239.8722855619224
 30
0.0
  0
ENDBLK
  5
681
330
677
100
AcDbEntity
  8
0
 62
     0
370
    18
100
AcDbBlockEnd
  0
BLOCK
  5
6A4
330
69A
100
AcDbEntity
  8
0
 62
     0
370
    18
100
AcDbBlockBegin
  2
*D8
 70
     1
 10
0.0
 20
0.0
 30
0.0
  3
*D8
  1

  0
LINE
  5
727
330
69A
100
AcDbEntity
  8
0
 62
     0
370
    -2
100
AcDbLine
 10
91.08578996496271
 20
134.7298854447037
 30
0.0
 11
91.08578996496271
 21
127.3463001414281
 31
0.0
  0
LINE
  5
728
330
69A
100
AcDbEntity
  8
0
 62
     0
370
    -2
100
AcDbLine
 10
108.0857899649627
 20
134.7298854447037
 30
0.0
 11
108.0857899649627
 21
127.3463001414281
 31
0.0
  0
LINE
  5
729
330
69A
100
AcDbEntity
  8
0
 62
     0
370
    -2
100
AcDbLine
 10
93.58578996496271
 20
128.5963001414281
 30
0.0
 11
105.5857899649627
 21
128.5963001414281
 31
0.0
  0
SOLID
  5
72A
330
69A
100
AcDbEntity
  8
0
 62
     0
370
    18
100
AcDbTrace
 10
93.58578996496271
 20
129.0129668080947
 30
0.0
 11
93.58578996496271
 21
128.1796334747614
 31
0.0
 12
91.08578996496271
 22
128.5963001414281
 32
0.0
 13
91.08578996496271
 23
128.5963001414281
 33
0.0
  0
SOLID
  5
72B
330
69A
100
AcDbEntity
  8
0
 62
     0
370
    18
100
AcDbTrace
 10
105.5857899649627
 20
129.0129668080947
 30
0.0
 11
105.5857899649627
 21
128.1796334747614
 31
0.0
 12
108.0857899649627
 22
128.5963001414281
 32
0.0
 13
108.0857899649627
 23
128.5963001414281
 33
0.0
  0
MTEXT
  5
72C
330
69A
100
AcDbEntity
  8
0
 62
     0
370
    18
100
AcDbMText
 10
99.58578996496271
 20
130.4713001414281
 30
0.0
 40
2.5
 41
0.0
 46
0.0
 71
     5
 72
     1
  1
17
 73
     1
 44
1.0
  0
POINT
  5
72D
330
69A
100
AcDbEntity
  8
Defpoints
 62
     0
370
    18
100
AcDbPoint
 10
91.08578996496271
 20
135.3548854447037
 30
0.0
  0
POINT
  5
72E
330
69A
100
AcDbEntity
  8
Defpoints
 62
     0
370
    18
100
AcDbPoint
 10
108.0857899649627
 20
135.3548854447037
 30
0.0
  0
POINT
  5
72F
330
69A
100
AcDbEntity
  8
Defpoints
 62
     0
370
    18
100
AcDbPoint
 10
108.0857899649627
 20
128.5963001414281
 30
0.0
  0
ENDBLK
  5
6A5
330
69A
100
AcDbEntity
  8
0
 62
     0
370
    18
100
AcDbBlockEnd
  0
BLOCK
  5
6BC
330
6B2
100
AcDbEntity
  8
0
 62
     0
370
    18
100
AcDbBlockBegin
  2
*D9
 70
     1
 10
0.0
 20
0.0
 30
0.0
  3
*D9
  1

  0
LINE
  5
71E
330
6B2
100
AcDbEntity
  8
0
 62
     0
370
    -2
100
AcDbLine
 10
89.58578996496271
 20
134.7298854447037
 30
0.0
 11
89.58578996496271
 21
120.561674127364
 31
0.0
  0
LINE
  5
71F
330
6B2
100
AcDbEntity
  8
0
 62
     0
370
    -2
100
AcDbLine
 10
109.5857899649627
 20
134.7298854447037
 30
0.0
 11
109.5857899649627
 21
120.561674127364
 31
0.0
  0
LINE
  5
720
330
6B2
100
AcDbEntity
  8
0
 62
     0
370
    -2
100
AcDbLine
 10
92.08578996496271
 20
121.811674127364
 30
0.0
 11
107.0857899649627
 21
121.811674127364
 31
0.0
  0
SOLID
  5
721
330
6B2
100
AcDbEntity
  8
0
 62
     0
370
    18
100
AcDbTrace
 10
92.08578996496271
 20
122.2283407940307
 30
0.0
 11
92.08578996496271
 21
121.3950074606973
 31
0.0
 12
89.58578996496271
 22
121.811674127364
 32
0.0
 13
89.58578996496271
 23
121.811674127364
 33
0.0
  0
SOLID
  5
722
330
6B2
100
AcDbEntity
  8
0
 62
     0
370
    18
100
AcDbTrace
 10
107.0857899649627
 20
122.2283407940307
 30
0.0
 11
107.0857899649627
 21
121.3950074606973
 31
0.0
 12
109.5857899649627
 22
121.811674127364
 32
0.0
 13
109.5857899649627
 23
121.811674127364
 33
0.0
  0
MTEXT
  5
723
330
6B2
100
AcDbEntity
  8
0
 62
     0
370
    18
100
AcDbMText
 10
99.58578996496271
 20
123.686674127364
 30
0.0
 40
2.5
 41
0.0
 46
0.0
 71
     5
 72
     1
  1
20
 73
     1
 44
1.0
  0
POINT
  5
724
330
6B2
100
AcDbEntity
  8
Defpoints
 62
     0
370
    18
100
AcDbPoint
 10
89.58578996496271
 20
135.3548854447037
 30
0.0
  0
POINT
  5
725
330
6B2
100
AcDbEntity
  8
Defpoints
 62
     0
370
    18
100
AcDbPoint
 10
109.5857899649627
 20
135.3548854447037
 30
0.0
  0
POINT
  5
726
330
6B2
100
AcDbEntity
  8
Defpoints
 62
     0
370
    18
100
AcDbPoint
 10
109.5857899649627
 20
121.811674127364
 30
0.0
  0
ENDBLK
  5
6BD
330
6B2
100
AcDbEntity
  8
0
 62
     0
370
    18
100
AcDbBlockEnd
  0
BLOCK
  5
7A3
330
799
100
AcDbEntity
  8
0
 62
     0
370
    18
100
AcDbBlockBegin
  2
*D10
 70
     1
 10
0.0
 20
0.0
 30
0.0
  3
*D10
  1

  0
LINE
  5
7A5
330
799
100
AcDbEntity
  8
0
 62
     0
370
    -2
100
AcDbLine
 10
110.2107899649627
 20
255.3548854447037
 30
0.0
 11
155.9404362224716
 21
255.3548854447037
 31
0.0
  0
LINE
  5
7A6
330
799
100
AcDbEntity
  8
0
 62
     0
370
    -2
100
AcDbLine
 10
110.2107899649627
 20
135.3548854447037
 30
0.0
 11
155.9404362224715
 21
135.3548854447037
 31
0.0
  0
LINE
  5
7A7
330
799
100
AcDbEntity
  8
0
 62
     0
370
    -2
100
AcDbLine
 10
154.6904362224716
 20
252.8548854447037
 30
0.0
 11
154.6904362224715
 21
137.8548854447037
 31
0.0
  0
SOLID
  5
7A8
330
799
100
AcDbEntity
  8
0
 62
     0
370
    18
100
AcDbTrace
 10
154.2737695558049
 20
252.8548854447037
 30
0.0
 11
155.1071028891382
 21
252.8548854447037
 31
0.0
 12
154.6904362224716
 22
255.3548854447037
 32
0.0
 13
154.6904362224716
 23
255.3548854447037
 33
0.0
  0
SOLID
  5
7A9
330
799
100
AcDbEntity
  8
0
 62
     0
370
    18
100
AcDbTrace
 10
154.2737695558049
 20
137.8548854447037
 30
0.0
 11
155.1071028891382
 21
137.8548854447037
 31
0.0
 12
154.6904362224715
 22
135.3548854447037
 32
0.0
 13
154.6904362224715
 23
135.3548854447037
 33
0.0
  0
MTEXT
  5
7AA
330
799
100
AcDbEntity
  8
0
 62
     0
370
    18
100
AcDbMText
 10
152.8154362224715
 20
195.3548854447037
 30
0.0
 40
2.5
 41
0.0
 46
0.0
 71
     5
 72
     1
  1
155
 11
0.0000000000000001
 21
1.0
 31
0.0
 73
     1
 44
1.0
  0
POINT
  5
7AB
330
799
100
AcDbEntity
  8
Defpoints
 62
     0
370
    18
100
AcDbPoint
 10
109.5857899649627
 20
255.3548854447037
 30
0.0
  0
POINT
  5
7AC
330
799
100
AcDbEntity
  8
Defpoints
 62
     0
370
    18
100
AcDbPoint
 10
109.5857899649627
 20
135.3548854447037
 30
0.0
  0
POINT
  5
7AD
330
799
100
AcDbEntity
  8
Defpoints
 62
     0
370
    18
100
AcDbPoint
 10
154.6904362224715
 20
135.3548854447037
 30
0.0
  0
ENDBLK
  5
7A4
330
799
100
AcDbEntity
  8
0
 62
     0
370
    18
100
AcDbBlockEnd
  0
ENDSEC
  0
SECTION
  2
ENTITIES
  0
VIEWPORT
  5
115
330
D2
100
AcDbEntity
 67
     1
  8
0
100
AcDbViewport
 10
157.5738160936054
 20
97.68527476202798
 30
0.0
 40
458.4200431605573
 41
184.2495942703009
 68
     1
 69
     1
 12
157.5738160936054
 22
97.68527476202798
 13
0.0
 23
0.0
 14
10.0
 24
10.0
 15
10.0
 25
10.0
 16
0.0
 26
0.0
 36
1.0
 17
0.0
 27
0.0
 37
0.0
 42
50.0
 43
0.0
 44
0.0
 45
184.2495942703009
 50
0.0
 51
0.0
 72
  1000
 90
   819232
  1

281
     0
 71
     1
 74
     0
110
0.0
120
0.0
130
0.0
111
1.0
121
0.0
131
0.0
112
0.0
122
1.0
132
0.0
 79
     0
146
0.0
170
     0
 61
     5
348
F5
292
     1
282
     1
141
0.0
142
0.0
 63
   250
421
  3355443
  0
LINE
  5
1B6
330
D2
100
AcDbEntity
 67
     1
  8
035
100
AcDbLine
 10
7.745789964962796
 20
134.4701858654875
 30
0.0
 11
4.54578996496275
 21
134.4701858654875
 31
0.0
  0
LINE
  5
1B7
330
D2
100
AcDbEntity
 67
     1
  8
035
100
AcDbLine
 10
4.54578996496275
 20
201.6701858654876
 30
0.0
 11
7.745789964962796
 21
201.6701858654876
 31
0.0
  0
LWPOLYLINE
  5
1B8
330
D2
100
AcDbEntity
 67
     1
  8
07
100
AcDbPolyline
 90
        4
 70
     1
 43
0.0
 10
191.4257899649626
 20
273.3501858654877
 10
191.4257899649626
 20
16.07018586548747
 10
7.745789964962796
 20
16.0701858654877
 10
7.745789964962796
 20
273.3501858654877
  0
LWPOLYLINE
  5
1B9
330
D2
100
AcDbEntity
 67
     1
  8
035
100
AcDbPolyline
 90
        4
 70
     1
 43
0.0
 10
188.2257899649626
 20
270.1501858654874
 10
188.2257899649626
 20
19.27018586548775
 10
10.94578996496261
 20
19.27018586548775
 10
10.94578996496261
 20
270.1501858654876
  0
LWPOLYLINE
  5
1BA
330
D2
100
AcDbEntity
 67
     1
  8
035
100
AcDbPolyline
 90
        4
 70
     1
 43
0.0
 10
194.6257899649627
 20
281.6701858654874
 10
194.6257899649627
 20
12.87018586548765
 10
4.54578996496275
 20
12.87018586548765
 10
4.54578996496275
 20
281.6701858654876
  0
LINE
  5
1BC
330
D2
100
AcDbEntity
 67
     1
  8
035
100
AcDbLine
 10
191.4257898002301
 20
240.7101858654876
 30
0.0
 11
188.2257898002303
 21
240.7101858654876
 31
0.0
  0
LINE
  5
1BE
330
D2
100
AcDbEntity
 67
     1
  8
035
100
AcDbLine
 10
191.4257898002301
 20
208.7101858654876
 30
0.0
 11
188.2257898002303
 21
208.7101858654876
 31
0.0
  0
LINE
  5
1C0
330
D2
100
AcDbEntity
 67
     1
  8
035
100
AcDbLine
 10
191.4257898002304
 20
176.7101858654875
 30
0.0
 11
188.2257898002303
 21
176.7101858654875
 31
0.0
  0
LINE
  5
1C2
330
D2
100
AcDbEntity
 67
     1
  8
035
100
AcDbLine
 10
191.4257899649628
 20
144.7101858654876
 30
0.0
 11
188.2257899649628
 21
144.7101858654876
 31
0.0
  0
LINE
  5
1C3
330
D2
100
AcDbEntity
 67
     1
  8
07
100
AcDbLine
 10
188.2257899649626
 20
144.7101858654876
 30
0.0
 11
181.8257899649627
 21
144.7101858654876
 31
0.0
  0
LINE
  5
1C5
330
D2
100
AcDbEntity
 67
     1
  8
035
100
AcDbLine
 10
191.4257899649628
 20
112.7101858654875
 30
0.0
 11
188.2257899649628
 21
112.7101858654875
 31
0.0
  0
LINE
  5
1C7
330
D2
100
AcDbEntity
 67
     1
  8
035
100
AcDbLine
 10
191.4257899649628
 20
80.71018586548758
 30
0.0
 11
188.2257899649628
 21
80.71018586548758
 31
0.0
  0
LINE
  5
1C9
330
D2
100
AcDbEntity
 67
     1
  8
035
100
AcDbLine
 10
191.4257899649628
 20
48.71018586548757
 30
0.0
 11
188.2257899649628
 21
48.71018586548757
 31
0.0
  0
LINE
  5
1CB
330
D2
100
AcDbEntity
 67
     1
  8
035
100
AcDbLine
 10
10.94578980023038
 20
240.7101858654878
 30
0.0
 11
7.74578980023034
 21
240.7101858654878
 31
0.0
  0
LINE
  5
1CD
330
D2
100
AcDbEntity
 67
     1
  8
035
100
AcDbLine
 10
10.94578980023038
 20
208.7101858654878
 30
0.0
 11
7.74578980023034
 21
208.7101858654878
 31
0.0
  0
LINE
  5
1D1
330
D2
100
AcDbEntity
 67
     1
  8
035
100
AcDbLine
 10
10.94578980023038
 20
176.7101858654878
 30
0.0
 11
7.74578980023034
 21
176.7101858654878
 31
0.0
  0
LINE
  5
1D2
330
D2
100
AcDbEntity
 67
     1
  8
035
100
AcDbLine
 10
10.94578996496284
 20
112.7101858654878
 30
0.0
 11
7.745789964962796
 21
112.7101858654878
 31
0.0
  0
LINE
  5
1D3
330
D2
100
AcDbEntity
 67
     1
  8
035
100
AcDbLine
 10
10.94578996496284
 20
144.7101858654878
 30
0.0
 11
7.745789964962796
 21
144.7101858654878
 31
0.0
  0
LINE
  5
1D5
330
D2
100
AcDbEntity
 67
     1
  8
035
100
AcDbLine
 10
10.94578996496284
 20
80.71018586548779
 30
0.0
 11
7.745789964962796
 21
80.71018586548779
 31
0.0
  0
LINE
  5
1D9
330
D2
100
AcDbEntity
 67
     1
  8
035
100
AcDbLine
 10
10.94578996496284
 20
48.7101858654878
 30
0.0
 11
7.745789964962796
 21
48.7101858654878
 31
0.0
  0
LINE
  5
1DA
330
D2
100
AcDbEntity
 67
     1
  8
07
100
AcDbLine
 10
99.58578996496271
 20
270.1501858654874
 30
0.0
 11
99.58578996496271
 21
263.7501858654875
 31
0.0
  0
LINE
  5
1DC
330
D2
100
AcDbEntity
 67
     1
  8
035
100
AcDbLine
 10
35.58578996496271
 20
16.07018586548747
 30
0.0
 11
35.58578996496271
 21
19.25937874604824
 31
0.0
  0
LINE
  5
1DE
330
D2
100
AcDbEntity
 67
     1
  8
035
100
AcDbLine
 10
67.61005802861541
 20
16.08099298492698
 30
0.0
 11
67.61005802861541
 21
19.27018586548775
 31
0.0
  0
LINE
  5
1E0
330
D2
100
AcDbEntity
 67
     1
  8
035
100
AcDbLine
 10
99.61005802861542
 20
16.08099298492698
 30
0.0
 11
99.61005802861542
 21
19.27018586548775
 31
0.0
  0
LINE
  5
1E2
330
D2
100
AcDbEntity
 67
     1
  8
035
100
AcDbLine
 10
131.6100580286154
 20
16.08099298492698
 30
0.0
 11
131.6100580286154
 21
19.27018586548775
 31
0.0
  0
LINE
  5
1E4
330
D2
100
AcDbEntity
 67
     1
  8
035
100
AcDbLine
 10
163.6343260922681
 20
16.09180010436648
 30
0.0
 11
163.6343260922681
 21
19.28099298492702
 31
0.0
  0
LINE
  5
1E6
330
D2
100
AcDbEntity
 67
     1
  8
035
100
AcDbLine
 10
35.56152190131002
 20
16.07018586548747
 30
0.0
 11
35.56152190131002
 21
19.25937874604824
 31
0.0
  0
LINE
  5
1E8
330
D2
100
AcDbEntity
 67
     1
  8
035
100
AcDbLine
 10
67.58578996496272
 20
16.08099298492698
 30
0.0
 11
67.58578996496272
 21
19.27018586548775
 31
0.0
  0
LINE
  5
1EB
330
D2
100
AcDbEntity
 67
     1
  8
035
100
AcDbLine
 10
131.5857899649627
 20
16.08099298492698
 30
0.0
 11
131.5857899649627
 21
19.27018586548775
 31
0.0
  0
LINE
  5
1EC
330
D2
100
AcDbEntity
 67
     1
  8
035
100
AcDbLine
 10
99.58578996496271
 20
16.08099298492698
 30
0.0
 11
99.58578996496271
 21
19.27018586548775
 31
0.0
  0
LINE
  5
1EF
330
D2
100
AcDbEntity
 67
     1
  8
035
100
AcDbLine
 10
163.6100580286154
 20
16.09180010436648
 30
0.0
 11
163.6100580286154
 21
19.28099298492702
 31
0.0
  0
LINE
  5
280
330
D2
100
AcDbEntity
 67
     1
  8
0
 62
     5
100
AcDbLine
 10
188.2257899649626
 20
46.91384914395871
 30
0.0
 11
188.2257899649626
 21
19.27018586548775
 31
0.0
  0
LINE
  5
281
330
D2
100
AcDbEntity
 67
     1
  8
0
 62
     5
100
AcDbLine
 10
58.54283357369334
 20
19.27018586548797
 30
0.0
 11
58.54283357369334
 21
46.91384914395871
 31
0.0
  0
LINE
  5
282
330
D2
100
AcDbEntity
 67
     1
  8
0
100
AcDbLine
 10
98.54421105878055
 20
46.91384914395871
 30
0.0
 11
98.54421105878078
 21
19.27018586548797
 31
0.0
  0
LINE
  5
283
330
D2
100
AcDbEntity
 67
     1
  8
0
 62
     5
100
AcDbLine
 10
152.4391597366471
 20
46.91384914395871
 30
0.0
 11
188.2257899649626
 21
46.91384914395871
 31
0.0
  0
LINE
  5
284
330
D2
100
AcDbEntity
 67
     1
  8
0
100
AcDbLine
 10
152.4391597366471
 20
46.91384914395871
 30
0.0
 11
152.4391597366471
 21
37.29110229773437
 31
0.0
  0
LINE
  5
285
330
D2
100
AcDbEntity
 67
     1
  8
0
100
AcDbLine
 10
152.4391597366471
 20
37.29110229773437
 30
0.0
 11
123.5413847954573
 21
37.29110229773437
 31
0.0
  0
LINE
  5
286
330
D2
100
AcDbEntity
 67
     1
  8
0
100
AcDbLine
 10
123.5413847954573
 20
37.29110229773437
 30
0.0
 11
98.54421105878078
 21
37.29110229773437
 31
0.0
  0
LINE
  5
287
330
D2
100
AcDbEntity
 67
     1
  8
0
100
AcDbLine
 10
123.5413847954573
 20
37.29110229773437
 30
0.0
 11
123.5413847954573
 21
46.91384914395871
 31
0.0
  0
LINE
  5
288
330
D2
100
AcDbEntity
 67
     1
  8
0
100
AcDbLine
 10
152.4391597366471
 20
37.29110229773437
 30
0.0
 11
188.2257899649626
 21
37.29110229773437
 31
0.0
  0
LINE
  5
289
330
D2
100
AcDbEntity
 67
     1
  8
0
 62
     5
100
AcDbLine
 10
98.54421105878055
 20
46.91384914395871
 30
0.0
 11
123.5413847954573
 21
46.91384914395871
 31
0.0
  0
LINE
  5
28A
330
D2
100
AcDbEntity
 67
     1
  8
0
 62
     5
100
AcDbLine
 10
123.5413847954573
 20
46.91384914395871
 30
0.0
 11
152.4391597366471
 21
46.91384914395871
 31
0.0
  0
LINE
  5
28B
330
D2
100
AcDbEntity
 67
     1
  8
0
 62
     5
100
AcDbLine
 10
151.6015645546986
 20
19.27018586548775
 30
0.0
 11
173.3790273491115
 21
19.27018586548775
 31
0.0
  0
LINE
  5
28C
330
D2
100
AcDbEntity
 67
     1
  8
0
 62
     5
100
AcDbLine
 10
173.3790273491115
 20
19.27018586548775
 30
0.0
 11
180.4985816211747
 21
19.27018586548775
 31
0.0
  0
LINE
  5
28D
330
D2
100
AcDbEntity
 67
     1
  8
0
 62
     5
100
AcDbLine
 10
180.4985816211747
 20
19.27018586548775
 30
0.0
 11
188.2257899649626
 21
19.27018586548775
 31
0.0
  0
LINE
  5
28E
330
D2
100
AcDbEntity
 67
     1
  8
0
100
AcDbLine
 10
139.9956771839988
 20
19.27018586548775
 30
0.0
 11
139.9956771839988
 21
28.11189874702086
 31
0.0
  0
LINE
  5
28F
330
D2
100
AcDbEntity
 67
     1
  8
0
100
AcDbLine
 10
139.9956771839988
 20
28.11189874702086
 30
0.0
 11
151.600806679985
 21
28.11189874702086
 31
0.0
  0
LINE
  5
290
330
D2
100
AcDbEntity
 67
     1
  8
0
100
AcDbLine
 10
151.6015645546986
 20
28.11189874702086
 30
0.0
 11
188.2257899649626
 21
28.11189874702086
 31
0.0
  0
LINE
  5
291
330
D2
100
AcDbEntity
 67
     1
  8
0
100
AcDbLine
 10
151.6015645546986
 20
19.27018586548775
 30
0.0
 11
151.6015645546986
 21
28.11189874702086
 31
0.0
  0
LINE
  5
292
330
D2
100
AcDbEntity
 67
     1
  8
0
100
AcDbLine
 10
173.3790273491115
 20
19.27018586548775
 30
0.0
 11
173.3790273491115
 21
28.11189874702086
 31
0.0
  0
LINE
  5
293
330
D2
100
AcDbEntity
 67
     1
  8
0
100
AcDbLine
 10
180.4985816211747
 20
19.27018586548775
 30
0.0
 11
180.4985816211747
 21
28.11189874702086
 31
0.0
  0
POINT
  5
294
330
D2
100
AcDbEntity
 67
     1
  8
0
100
AcDbPoint
 10
152.4391597366471
 20
42.50739907051115
 30
0.0
 50
360.0
  0
POINT
  5
295
330
D2
100
AcDbEntity
 67
     1
  8
0
100
AcDbPoint
 10
188.2257899649626
 20
42.50739907051115
 30
0.0
 50
360.0
  0
POINT
  5
296
330
D2
100
AcDbEntity
 67
     1
  8
0
100
AcDbPoint
 10
81.03421105878078
 20
33.32765986872414
 30
0.0
 50
360.0
  0
POINT
  5
297
330
D2
100
AcDbEntity
 67
     1
  8
0
100
AcDbPoint
 10
188.2257899649626
 20
33.32765986872414
 30
0.0
 50
360.0
  0
POINT
  5
298
330
D2
100
AcDbEntity
 67
     1
  8
0
100
AcDbPoint
 10
144.9008066799851
 20
23.8491111612866
 30
0.0
 50
360.0
  0
POINT
  5
299
330
D2
100
AcDbEntity
 67
     1
  8
0
100
AcDbPoint
 10
151.6015645546986
 20
23.8491111612866
 30
0.0
 50
360.0
  0
POINT
  5
29A
330
D2
100
AcDbEntity
 67
     1
  8
0
100
AcDbPoint
 10
173.3790273491115
 20
23.8491111612866
 30
0.0
 50
360.0
  0
POINT
  5
29B
330
D2
100
AcDbEntity
 67
     1
  8
0
100
AcDbPoint
 10
180.4985816211747
 20
23.8491111612866
 30
0.0
 50
360.0
  0
POINT
  5
29C
330
D2
100
AcDbEntity
 67
     1
  8
0
100
AcDbPoint
 10
188.2257899649626
 20
23.8491111612866
 30
0.0
 50
360.0
  0
MTEXT
  5
29D
330
D2
100
AcDbEntity
 67
     1
  8
0
100
AcDbMText
 10
98.54421105878055
 20
44.71062410723493
 30
0.0
 40
1.799999999999999
 41
35.80717373667667
 46
0.0
 71
     4
 72
     5
  1
{\fArial|b1|i0|c0|p34; Erstellt durch}
 73
     1
 44
1.0
  0
MTEXT
  5
29E
330
D2
100
AcDbEntity
 67
     1
  8
0
100
AcDbMText
 10
123.5413847954573
 20
44.71062410723493
 30
0.0
 40
1.799999999999999
 41
35.59777494118962
 46
0.0
 71
     4
 72
     5
  1
{\fArial|b1|i0|c0|p34; Werkstoffname}
 73
     1
 44
1.0
  0
MTEXT
  5
29F
330
D2
100
AcDbEntity
 67
     1
  8
0
100
AcDbMText
 10
152.4391597366471
 20
44.71062410723493
 30
0.0
 40
1.799999999999999
 41
35.7866302283157
 46
0.0
 71
     4
 72
     5
  1
{\fArial|b1|i0|c0|p34; Werkstoffnummer}
 73
     1
 44
1.0
  0
MTEXT
  5
2A0
330
D2
100
AcDbEntity
 67
     1
  8
0
100
AcDbMText
 10
98.54421105878055
 20
35.30938108322926
 30
0.0
 40
1.799999999999999
 41
52.26146612521797
 46
0.0
 71
     4
 72
     5
  1
{\fArial|b1|i0|c0|p34; Titel, Zusätzlicher Titel}
 73
     1
 44
1.0
  0
MTEXT
  5
2A1
330
D2
100
AcDbEntity
 67
     1
  8
0
100
AcDbMText
 10
139.9956771839988
 20
35.30938108322926
 30
0.0
 40
1.799999999999999
 41
54.93011278096401
 46
0.0
 71
     4
 72
     5
  1
{\fArial|b1|i0|c0|p34; Materialstärke}
 73
     1
 44
1.0
  0
POINT
  5
2A2
330
D2
100
AcDbEntity
 67
     1
  8
0
100
AcDbPoint
 10
144.9008066799851
 20
23.8491111612866
 30
0.0
 50
360.0
  0
POINT
  5
2A3
330
D2
100
AcDbEntity
 67
     1
  8
0
100
AcDbPoint
 10
151.6015645546986
 20
23.8491111612866
 30
0.0
 50
360.0
  0
POINT
  5
2A4
330
D2
100
AcDbEntity
 67
     1
  8
0
100
AcDbPoint
 10
173.3790273491115
 20
23.8491111612866
 30
0.0
 50
360.0
  0
POINT
  5
2A5
330
D2
100
AcDbEntity
 67
     1
  8
0
100
AcDbPoint
 10
180.4985816211747
 20
23.8491111612866
 30
0.0
 50
360.0
  0
POINT
  5
2A6
330
D2
100
AcDbEntity
 67
     1
  8
0
100
AcDbPoint
 10
188.2257899649626
 20
23.8491111612866
 30
0.0
 50
360.0
  0
MTEXT
  5
2A7
330
D2
100
AcDbEntity
 67
     1
  8
0
100
AcDbMText
 10
139.9956771839988
 20
25.0504230987649
 30
0.0
 40
1.799999999999999
 41
11.60512949598633
 46
0.0
 71
     7
 72
     5
  1
{\fArial|b1|i0|c0|p34; Maßstab}
 73
     1
 44
1.0
  0
MTEXT
  5
2A8
330
D2
100
AcDbEntity
 67
     1
  8
0
100
AcDbMText
 10
151.6015645546986
 20
24.81590740981551
 30
0.0
 40
1.799999999999999
 41
21.77746279441299
 46
0.0
 71
     7
 72
     5
  1
{\fArial|b1|i0|c0|p34; Ausgabedatum}
 73
     1
 44
1.0
  0
MTEXT
  5
2A9
330
D2
100
AcDbEntity
 67
     1
  8
0
100
AcDbMText
 10
173.3790273491113
 20
24.81713524064753
 30
0.0
 40
1.799999999999999
 41
7.119554272063123
 46
0.0
 71
     7
 72
     5
  1
{\fArial|b1|i0|c0|p34; Spr.}
 73
     1
 44
1.0
  0
MTEXT
  5
2AA
330
D2
100
AcDbEntity
 67
     1
  8
0
100
AcDbMText
 10
180.4985816211747
 20
25.06577098416733
 30
0.0
 40
1.799999999999999
 41
7.72720834378806
 46
0.0
 71
     7
 72
     5
  1
{\fArial|b1|i0|c0|p34; Blatt}
 73
     1
 44
1.0
  0
LINE
  5
2AC
330
D2
100
AcDbEntity
 67
     1
  8
0
 62
     5
100
AcDbLine
 10
58.54283357369334
 20
46.91384914395871
 30
0.0
 11
58.54283357369334
 21
42.50739907051115
 31
0.0
  0
MTEXT
  5
2AD
330
D2
100
AcDbEntity
 67
     1
  8
0
370
    50
100
AcDbMText
 10
58.54283357369334
 20
44.71062410723493
 30
0.0
 40
1.799999999999999
 41
42.83137748508726
 46
0.0
 71
     4
 72
     5
  1
{\fArial|b1|i0|c0|p34; Firma}
 73
     1
 44
1.0
  0
MTEXT
  5
2AF
330
D2
100
AcDbEntity
 67
     1
  8
0
370
    50
100
AcDbMText
 10
118.3149441213895
 20
26.29892286710606
 30
0.0
 40
2.5
 41
52.26146612521791
 46
0.0
 71
     5
 72
     5
  1
{\fArial|b0|i0|c0|p34;\C5;Griffrohr}
 73
     1
 44
1.0
  0
MTEXT
  5
2B1
330
D2
100
AcDbEntity
 67
     1
  8
0
 62
     1
100
AcDbMText
 10
145.7982419319919
 20
21.55964851338717
 30
0.0
 40
2.5
 41
11.60512949598632
 46
0.0
 71
     5
 72
     5
  1
{\fArial|b1|i0|c0|p34;\C5;1 : 1}
 73
     1
 44
1.0
  0
MTEXT
  5
2B3
330
D2
100
AcDbEntity
 67
     1
  8
0
 62
     1
100
AcDbMText
 10
176.938804485143
 20
21.55964851338717
 30
0.0
 40
2.5
 41
7.119554272063169
 46
0.0
 71
     5
 72
     5
  1
{\fArial|b0|i0|c0|p34;\C5;De}
 73
     1
 44
1.0
  0
MTEXT
  5
2B4
330
D2
100
AcDbEntity
 67
     1
  8
0
 62
     1
100
AcDbMText
 10
184.3621857930689
 20
21.50083877417296
 30
0.0
 40
2.0
 41
7.727208343787992
 46
0.0
 71
     5
 72
     5
  1
{\fArial|b0|i0|c0|p34;\C5;1/1}
 73
     1
 44
1.0
  0
LINE
  5
2B6
330
D2
100
AcDbEntity
 67
     1
  8
0
 62
     5
100
AcDbLine
 10
98.54421105878078
 20
19.27018586548775
 30
0.0
 11
139.9956771839988
 21
19.27018586548775
 31
0.0
  0
LINE
  5
2B7
330
D2
100
AcDbEntity
 67
     1
  8
0
 62
     5
100
AcDbLine
 10
139.9956771839988
 20
19.27018586548775
 30
0.0
 11
151.6015645546986
 21
19.27018586548775
 31
0.0
  0
LINE
  5
2B8
330
D2
100
AcDbEntity
 67
     1
  8
0
 62
     5
100
AcDbLine
 10
58.54283357369334
 20
46.91384914395871
 30
0.0
 11
98.54421105878055
 21
46.91384914395871
 31
0.0
  0
LINE
  5
2B9
330
D2
100
AcDbEntity
 67
     1
  8
0
 62
     5
100
AcDbLine
 10
58.54283357369334
 20
19.27018586548797
 30
0.0
 11
98.54421105878078
 21
19.27018586548797
 31
0.0
  0
LINE
  5
2BA
330
D2
100
AcDbEntity
 67
     1
  8
0
100
AcDbLine
 10
139.9956771839988
 20
28.11189874702086
 30
0.0
 11
139.9956771839988
 21
33.61189874702086
 31
0.0
  0
LINE
  5
2BB
330
D2
100
AcDbEntity
 67
     1
  8
0
100
AcDbLine
 10
139.9956771839988
 20
33.61189874702086
 30
0.0
 11
139.9956771839988
 21
37.29110229773437
 31
0.0
  0
LINE
  5
2BC
330
D2
100
AcDbEntity
 67
     1
  8
0
100
AcDbLine
 10
139.9956771839988
 20
37.29110229773437
 30
0.0
 11
164.1107271839987
 21
37.29110229773437
 31
0.0
  0
LINE
  5
2BD
330
D2
100
AcDbEntity
 67
     1
  8
0
100
AcDbLine
 10
164.1107271839987
 20
37.29110229773437
 30
0.0
 11
164.1107271839987
 21
28.11189874702086
 31
0.0
  0
MTEXT
  5
2BE
330
D2
100
AcDbEntity
 67
     1
  8
0
100
AcDbMText
 10
152.0532021839985
 20
30.86189874702086
 30
0.0
 40
2.5
 41
24.11505
 46
0.0
 71
     5
 72
     5
  1
{\fArial|b0|i0|c0|p34;\C5;Rohr 20x1,5}
 73
     1
 44
1.0
  0
LINE
  5
2BF
330
D2
100
AcDbEntity
 67
     1
  8
0
100
AcDbLine
 10
164.1107271839987
 20
28.11189874702086
 30
0.0
 11
164.1107271839987
 21
33.61189874702086
 31
0.0
  0
MTEXT
  5
2C0
330
D2
100
AcDbEntity
 67
     1
  8
0
100
AcDbMText
 10
164.1107271839987
 20
35.45150052237773
 30
0.0
 40
1.799999999999999
 41
24.11506278096402
 46
0.0
 71
     4
 72
     5
  1
{\fArial|b1|i0|c0|p34; Stückzahl}
 73
     1
 44
1.0
  0
MTEXT
  5
2DC
330
D2
100
AcDbEntity
 67
     1
  8
0
 62
     5
100
AcDbMText
 10
51.59792399678906
 20
17.67018586548761
 30
0.0
 40
2.0
 41
32.0242680636527
 46
0.0
 71
     5
 72
     5
  1
2
  7
ISO Proportional
 73
     1
 44
1.0
  0
MTEXT
  5
2DD
330
D2
100
AcDbEntity
 67
     1
  8
0
 62
     5
100
AcDbMText
 10
21.66578996496276
 20
17.67018586548784
 30
0.0
 40
2.0
 41
27.83999999999992
 46
0.0
 71
     5
 72
     5
  1
1
  7
ISO Proportional
 73
     1
 44
1.0
  0
MTEXT
  5
2DE
330
D2
100
AcDbEntity
 67
     1
  8
0
 62
     5
100
AcDbMText
 10
83.59792399678907
 20
17.67018586548761
 30
0.0
 40
2.0
 41
31.9757319363473
 46
0.0
 71
     5
 72
     5
  1
3
  7
ISO Proportional
 73
     1
 44
1.0
  0
MTEXT
  5
2DF
330
D2
100
AcDbEntity
 67
     1
  8
0
 62
     5
100
AcDbMText
 10
115.6100580286154
 20
17.67558942520736
 30
0.0
 40
2.0
 41
32.0
 46
0.0
 71
     5
 72
     5
  1
4
  7
ISO Proportional
 73
     1
 44
1.0
  0
MTEXT
  5
2E0
330
D2
100
AcDbEntity
 67
     1
  8
0
 62
     5
100
AcDbMText
 10
147.6221920604418
 20
17.68099298492711
 30
0.0
 40
2.0
 41
32.0242680636527
 46
0.0
 71
     5
 72
     5
  1
5
  7
ISO Proportional
 73
     1
 44
1.0
  0
MTEXT
  5
2E2
330
D2
100
AcDbEntity
 67
     1
  8
0
 62
     5
100
AcDbMText
 10
177.5300580286154
 20
17.67018586548761
 30
0.0
 40
2.0
 41
27.79146387269452
 46
0.0
 71
     5
 72
     5
  1
6
  7
ISO Proportional
 73
     1
 44
1.0
  0
POINT
  5
32F
330
D2
100
AcDbEntity
 67
     1
  8
0
100
AcDbPoint
 10
30.98300316998621
 20
273.3501858654877
 30
0.0
 50
270.0
  0
POINT
  5
330
330
D2
100
AcDbEntity
 67
     1
  8
0
100
AcDbPoint
 10
21.80326396819919
 20
273.3501858654877
 30
0.0
 50
270.0
  0
POINT
  5
331
330
D2
100
AcDbEntity
 67
     1
  8
0
100
AcDbPoint
 10
12.32471526076165
 20
273.3501858654877
 30
0.0
 50
270.0
  0
POINT
  5
332
330
D2
100
AcDbEntity
 67
     1
  8
0
100
AcDbPoint
 10
12.32471526076165
 20
273.3501858654877
 30
0.0
 50
270.0
  0
MTEXT
  5
33A
330
D2
100
AcDbEntity
 67
     1
  8
0
 62
     5
100
AcDbMText
 10
9.345789964962705
 20
257.0301858654878
 30
0.0
 40
2.0
 41
3.199999999999818
 46
0.0
 71
     5
 72
     5
  1
A
  7
ISO Proportional
 73
     1
 44
1.0
  0
MTEXT
  5
33B
330
D2
100
AcDbEntity
 67
     1
  8
0
 62
     5
100
AcDbMText
 10
9.345789964962705
 20
224.7101858654878
 30
0.0
 40
2.0
 41
3.199999999999818
 46
0.0
 71
     5
 72
     5
  1
B
  7
ISO Proportional
 73
     1
 44
1.0
  0
MTEXT
  5
33C
330
D2
100
AcDbEntity
 67
     1
  8
0
 62
     5
100
AcDbMText
 10
9.345789964962705
 20
192.7101858654878
 30
0.0
 40
2.0
 41
3.199999999999818
 46
0.0
 71
     5
 72
     5
  1
C
  7
ISO Proportional
 73
     1
 44
1.0
  0
MTEXT
  5
33D
330
D2
100
AcDbEntity
 67
     1
  8
0
 62
     5
100
AcDbMText
 10
9.345789882596477
 20
160.7101858654878
 30
0.0
 40
2.0
 41
3.200000164732273
 46
0.0
 71
     5
 72
     5
  1
D
  7
ISO Proportional
 73
     1
 44
1.0
  0
MTEXT
  5
33E
330
D2
100
AcDbEntity
 67
     1
  8
0
 62
     5
100
AcDbMText
 10
9.345789964962705
 20
128.7101858654878
 30
0.0
 40
2.0
 41
3.199999999999818
 46
0.0
 71
     5
 72
     5
  1
E
  7
ISO Proportional
 73
     1
 44
1.0
  0
MTEXT
  5
33F
330
D2
100
AcDbEntity
 67
     1
  8
0
 62
     5
100
AcDbMText
 10
9.345789964962705
 20
96.71018586548781
 30
0.0
 40
2.0
 41
3.199999999999818
 46
0.0
 71
     5
 72
     5
  1
F
  7
ISO Proportional
 73
     1
 44
1.0
  0
MTEXT
  5
340
330
D2
100
AcDbEntity
 67
     1
  8
0
 62
     5
100
AcDbMText
 10
9.345789964962818
 20
64.7101858654878
 30
0.0
 40
2.0
 41
3.200000000000045
 46
0.0
 71
     5
 72
     5
  1
G
  7
ISO Proportional
 73
     1
 44
1.0
  0
MTEXT
  5
341
330
D2
100
AcDbEntity
 67
     1
  8
0
 62
     5
100
AcDbMText
 10
9.345789964962818
 20
32.39018586548775
 30
0.0
 40
2.0
 41
3.200000000000045
 46
0.0
 71
     5
 72
     5
  1
H
  7
ISO Proportional
 73
     1
 44
1.0
  0
LINE
  5
342
330
D2
100
AcDbEntity
 67
     1
  8
0
 62
     5
100
AcDbLine
 10
10.94578996496261
 20
270.1501858654876
 30
0.0
 11
10.94578996496261
 21
19.27018586548775
 31
0.0
  0
LINE
  5
359
330
D2
100
AcDbEntity
 67
     1
  8
035
100
AcDbLine
 10
188.2257899649628
 20
134.4701858654873
 30
0.0
 11
185.0257899649627
 21
134.4701858654873
 31
0.0
  0
LINE
  5
35A
330
D2
100
AcDbEntity
 67
     1
  8
035
100
AcDbLine
 10
185.0257899649627
 20
201.6701858654874
 30
0.0
 11
188.2257899649628
 21
201.6701858654874
 31
0.0
  0
LINE
  5
35B
330
D2
100
AcDbEntity
 67
     1
  8
035
100
AcDbLine
 10
191.4257898002304
 20
240.7101858654876
 30
0.0
 11
188.2257898002303
 21
240.7101858654876
 31
0.0
  0
LINE
  5
35C
330
D2
100
AcDbEntity
 67
     1
  8
035
100
AcDbLine
 10
191.4257898002304
 20
208.7101858654876
 30
0.0
 11
188.2257898002303
 21
208.7101858654876
 31
0.0
  0
LINE
  5
35D
330
D2
100
AcDbEntity
 67
     1
  8
035
100
AcDbLine
 10
191.4257898002304
 20
176.7101858654875
 30
0.0
 11
188.2257898002303
 21
176.7101858654875
 31
0.0
  0
LINE
  5
35E
330
D2
100
AcDbEntity
 67
     1
  8
035
100
AcDbLine
 10
191.4257899649628
 20
112.7101858654875
 30
0.0
 11
188.2257899649628
 21
112.7101858654875
 31
0.0
  0
LINE
  5
35F
330
D2
100
AcDbEntity
 67
     1
  8
035
100
AcDbLine
 10
191.4257899649628
 20
144.7101858654876
 30
0.0
 11
188.2257899649628
 21
144.7101858654876
 31
0.0
  0
LINE
  5
360
330
D2
100
AcDbEntity
 67
     1
  8
035
100
AcDbLine
 10
191.4257899649628
 20
80.71018586548758
 30
0.0
 11
188.2257899649628
 21
80.71018586548758
 31
0.0
  0
LINE
  5
361
330
D2
100
AcDbEntity
 67
     1
  8
035
100
AcDbLine
 10
191.4257899649628
 20
48.71018586548757
 30
0.0
 11
188.2257899649628
 21
48.71018586548757
 31
0.0
  0
MTEXT
  5
362
330
D2
100
AcDbEntity
 67
     1
  8
0
 62
     5
100
AcDbMText
 10
189.8257899649627
 20
257.0301858654875
 30
0.0
 40
2.0
 41
3.199999999999818
 46
0.0
 71
     5
 72
     5
  1
A
  7
ISO Proportional
 73
     1
 44
1.0
  0
MTEXT
  5
363
330
D2
100
AcDbEntity
 67
     1
  8
0
 62
     5
100
AcDbMText
 10
189.8257899649627
 20
224.7101858654876
 30
0.0
 40
2.0
 41
3.199999999999818
 46
0.0
 71
     5
 72
     5
  1
B
  7
ISO Proportional
 73
     1
 44
1.0
  0
MTEXT
  5
364
330
D2
100
AcDbEntity
 67
     1
  8
0
 62
     5
100
AcDbMText
 10
189.8257899649627
 20
192.7101858654875
 30
0.0
 40
2.0
 41
3.199999999999818
 46
0.0
 71
     5
 72
     5
  1
C
  7
ISO Proportional
 73
     1
 44
1.0
  0
MTEXT
  5
365
330
D2
100
AcDbEntity
 67
     1
  8
0
 62
     5
100
AcDbMText
 10
189.8257898825965
 20
160.7101858654876
 30
0.0
 40
2.0
 41
3.200000164732273
 46
0.0
 71
     5
 72
     5
  1
D
  7
ISO Proportional
 73
     1
 44
1.0
  0
MTEXT
  5
366
330
D2
100
AcDbEntity
 67
     1
  8
0
 62
     5
100
AcDbMText
 10
189.8257899649627
 20
128.7101858654875
 30
0.0
 40
2.0
 41
3.199999999999818
 46
0.0
 71
     5
 72
     5
  1
E
  7
ISO Proportional
 73
     1
 44
1.0
  0
MTEXT
  5
367
330
D2
100
AcDbEntity
 67
     1
  8
0
 62
     5
100
AcDbMText
 10
189.8257899649627
 20
96.71018586548758
 30
0.0
 40
2.0
 41
3.199999999999818
 46
0.0
 71
     5
 72
     5
  1
F
  7
ISO Proportional
 73
     1
 44
1.0
  0
MTEXT
  5
368
330
D2
100
AcDbEntity
 67
     1
  8
0
 62
     5
100
AcDbMText
 10
189.8257899649628
 20
64.71018586548757
 30
0.0
 40
2.0
 41
3.200000000000045
 46
0.0
 71
     5
 72
     5
  1
G
  7
ISO Proportional
 73
     1
 44
1.0
  0
MTEXT
  5
369
330
D2
100
AcDbEntity
 67
     1
  8
0
 62
     5
100
AcDbMText
 10
189.8257899649628
 20
32.39018586548752
 30
0.0
 40
2.0
 41
3.200000000000045
 46
0.0
 71
     5
 72
     5
  1
H
  7
ISO Proportional
 73
     1
 44
1.0
  0
LINE
  5
374
330
D2
100
AcDbEntity
 67
     1
  8
07
100
AcDbLine
 10
17.34578996496248
 20
144.7101858654878
 30
0.0
 11
10.94578996496261
 21
144.7101858654878
 31
0.0
  0
LINE
  5
39A
330
D2
100
AcDbEntity
 67
     1
  8
035
100
AcDbLine
 10
35.58578996496271
 20
270.1501858654876
 30
0.0
 11
35.58578996496271
 21
273.3393787460483
 31
0.0
  0
LINE
  5
39B
330
D2
100
AcDbEntity
 67
     1
  8
035
100
AcDbLine
 10
67.61005802861541
 20
270.1609929849271
 30
0.0
 11
67.61005802861541
 21
273.3501858654879
 31
0.0
  0
LINE
  5
39C
330
D2
100
AcDbEntity
 67
     1
  8
035
100
AcDbLine
 10
131.6100580286154
 20
270.1609929849271
 30
0.0
 11
131.6100580286154
 21
273.3501858654879
 31
0.0
  0
LINE
  5
39D
330
D2
100
AcDbEntity
 67
     1
  8
035
100
AcDbLine
 10
99.61005802861542
 20
270.1609929849271
 30
0.0
 11
99.61005802861542
 21
273.3501858654879
 31
0.0
  0
LINE
  5
39E
330
D2
100
AcDbEntity
 67
     1
  8
035
100
AcDbLine
 10
163.6343260922681
 20
270.1718001043666
 30
0.0
 11
163.6343260922681
 21
273.3609929849271
 31
0.0
  0
MTEXT
  5
39F
330
D2
100
AcDbEntity
 67
     1
  8
0
 62
     5
100
AcDbMText
 10
51.62219206044176
 20
271.7501858654877
 30
0.0
 40
2.0
 41
32.0242680636527
 46
0.0
 71
     5
 72
     5
  1
2
  7
ISO Proportional
 73
     1
 44
1.0
  0
MTEXT
  5
3A0
330
D2
100
AcDbEntity
 67
     1
  8
0
 62
     5
100
AcDbMText
 10
21.69005802861545
 20
271.750185865488
 30
0.0
 40
2.0
 41
27.83999999999992
 46
0.0
 71
     5
 72
     5
  1
1
  7
ISO Proportional
 73
     1
 44
1.0
  0
MTEXT
  5
3A1
330
D2
100
AcDbEntity
 67
     1
  8
0
 62
     5
100
AcDbMText
 10
83.62219206044176
 20
271.7501858654877
 30
0.0
 40
2.0
 41
31.9757319363473
 46
0.0
 71
     5
 72
     5
  1
3
  7
ISO Proportional
 73
     1
 44
1.0
  0
MTEXT
  5
3A2
330
D2
100
AcDbEntity
 67
     1
  8
0
 62
     5
100
AcDbMText
 10
115.6343260922681
 20
271.7555894252074
 30
0.0
 40
2.0
 41
32.0
 46
0.0
 71
     5
 72
     5
  1
4
  7
ISO Proportional
 73
     1
 44
1.0
  0
MTEXT
  5
3A3
330
D2
100
AcDbEntity
 67
     1
  8
0
 62
     5
100
AcDbMText
 10
147.6464601240945
 20
271.7609929849272
 30
0.0
 40
2.0
 41
32.0242680636527
 46
0.0
 71
     5
 72
     5
  1
5
  7
ISO Proportional
 73
     1
 44
1.0
  0
MTEXT
  5
3A4
330
D2
100
AcDbEntity
 67
     1
  8
0
 62
     5
100
AcDbMText
 10
177.5543260922681
 20
271.7501858654877
 30
0.0
 40
2.0
 41
27.79146387269452
 46
0.0
 71
     5
 72
     5
  1
6
  7
ISO Proportional
 73
     1
 44
1.0
  0
MTEXT
  5
489
330
D2
100
AcDbEntity
 67
     1
  8
0
 62
    84
370
    18
100
AcDbMText
 10
68.43723641602514
 20
182.5364074318902
 30
0.0
 40
2.5
 41
35.3219609614373
 46
0.0
 71
     9
 72
     1
  1

 73
     1
 44
1.0
  0
LINE
  5
50F
330
D2
100
AcDbEntity
 67
     1
  8
0
370
    35
100
AcDbLine
 10
89.58578996496271
 20
255.3548854447037
 30
0.0
 11
89.58578996496271
 21
160.2427277535337
 31
0.0
  0
LINE
  5
510
330
D2
100
AcDbEntity
 67
     1
  8
0
370
    35
100
AcDbLine
 10
89.58578996496271
 20
158.7867896043713
 30
0.0
 11
89.58578996496273
 21
135.3548854447037
 31
0.0
  0
LINE
  5
511
102
{ACAD_REACTORS
330
6C8
102
}
330
D2
100
AcDbEntity
 67
     1
  8
0
370
    35
100
AcDbLine
 10
89.58578996496271
 20
135.3548854447037
 30
0.0
 11
109.5857899649627
 21
135.3548854447037
 31
0.0
  0
LINE
  5
512
330
D2
100
AcDbEntity
 67
     1
  8
0
370
    35
100
AcDbLine
 10
109.5857899649627
 20
135.3548854447037
 30
0.0
 11
109.5857899649627
 21
158.7867896043713
 31
0.0
  0
CIRCLE
  5
513
102
{ACAD_REACTORS
330
68B
102
}
330
D2
100
AcDbEntity
 67
     1
  8
0
370
    35
100
AcDbCircle
 10
99.58578996496271
 20
241.3548854447037
 30
0.0
 40
3.0
  0
ELLIPSE
  5
514
330
D2
100
AcDbEntity
 67
     1
  8
0
370
    35
100
AcDbEllipse
 10
91.32443414403359
 20
241.3548854447037
 30
0.0
 11
0.0
 21
-3.0
 31
0.0
210
0.0
220
0.0
230
1.0
 40
0.5
 41
0.0
 42
6.283185307179586
  0
ELLIPSE
  5
515
330
D2
100
AcDbEntity
 67
     1
  8
0
370
    35
100
AcDbEllipse
 10
107.8471457858919
 20
241.3548854447037
 30
0.0
 11
0.0
 21
3.0
 31
0.0
210
0.0
220
0.0
230
1.0
 40
0.4999999999999953
 41
0.0
 42
6.283185307179586
  0
LINE
  5
51D
330
D2
100
AcDbEntity
 67
     1
  8
0
370
    35
100
AcDbLine
 10
89.58578996496271
 20
255.3548854447037
 30
0.0
 11
99.58578996496271
 21
255.3548854447037
 31
0.0
  0
LINE
  5
51E
102
{ACAD_REACTORS
330
5FD
102
}
330
D2
100
AcDbEntity
 67
     1
  8
0
370
    35
100
AcDbLine
 10
99.58578996496271
 20
255.3548854447037
 30
0.0
 11
109.5857899649627
 21
255.3548854447037
 31
0.0
  0
LINE
  5
535
330
D2
100
AcDbEntity
 67
     1
  8
0
  6
VERDECKT2
370
    18
100
AcDbLine
 10
91.08578996496271
 20
255.3548854447037
 30
0.0
 11
91.08578996496271
 21
160.7667392523945
 31
0.0
  0
LINE
  5
536
102
{ACAD_REACTORS
330
6B0
102
}
330
D2
100
AcDbEntity
 67
     1
  8
0
  6
VERDECKT2
370
    18
100
AcDbLine
 10
91.08578996496271
 20
159.3108011264274
 30
0.0
 11
91.08578996496271
 21
135.3548854447037
 31
0.0
  0
LINE
  5
537
330
D2
100
AcDbEntity
 67
     1
  8
0
  6
VERDECKT2
370
    18
100
AcDbLine
 10
108.0857899649627
 20
255.3548854447037
 30
0.0
 11
108.0857899649627
 21
160.8089471046355
 31
0.0
  0
LINE
  5
538
102
{ACAD_REACTORS
330
6B0
102
}
330
D2
100
AcDbEntity
 67
     1
  8
0
  6
VERDECKT2
370
    18
100
AcDbLine
 10
108.0857899649627
 20
159.3530091769377
 30
0.0
 11
108.0857899649627
 21
135.3548854447037
 31
0.0
  0
LINE
  5
539
330
D2
100
AcDbEntity
 67
     1
  8
0
370
    35
100
AcDbLine
 10
91.08578996496271
 20
244.3166747388944
 30
0.0
 11
91.08578996496271
 21
238.3930961505131
 31
0.0
  0
LINE
  5
53A
330
D2
100
AcDbEntity
 67
     1
  8
0
370
    35
100
AcDbLine
 10
108.0857899649627
 20
244.3166747388944
 30
0.0
 11
108.0857899649627
 21
238.3930961505131
 31
0.0
  0
POINT
  5
53F
330
D2
100
AcDbEntity
 67
     1
  8
0
 62
     5
100
AcDbPoint
 10
109.5857899649627
 20
241.3548854447037
 30
0.0
  0
POINT
  5
540
102
{ACAD_REACTORS
330
5FD
102
}
330
D2
100
AcDbEntity
 67
     1
  8
0
 62
     5
100
AcDbPoint
 10
109.5857899649627
 20
227.3548854447037
 30
0.0
  0
POINT
  5
541
102
{ACAD_REACTORS
330
615
102
}
330
D2
100
AcDbEntity
 67
     1
  8
0
 62
     5
100
AcDbPoint
 10
109.5857899649627
 20
207.3548854447038
 30
0.0
  0
SPLINE
  5
542
330
D2
100
AcDbEntity
 67
     1
  8
0
370
    18
100
AcDbSpline
210
0.0
220
0.0
230
1.0
 70
     8
 71
     3
 72
    11
 73
     7
 74
     5
 42
0.0000000001
 43
0.0000000001
 44
0.0000000001
 40
0.0
 40
0.0
 40
0.0
 40
0.0
 40
4.262609594385578
 40
8.281488949660639
 40
16.01069483714319
 40
21.06280175013911
 40
21.06280175013911
 40
21.06280175013911
 40
21.06280175013911
 10
89.58578996496271
 20
158.7867896043713
 30
0.0
 10
91.04134631454348
 20
159.331374612508
 30
0.0
 10
93.86923227448178
 20
160.3894059961411
 30
0.0
 10
98.19156599473124
 20
155.3946981476257
 30
0.0
 10
103.7794186424509
 20
161.0804974766869
 30
0.0
 10
107.9408778185997
 20
159.4365840680413
 30
0.0
 10
109.5857899649627
 20
158.7867896043713
 30
0.0
 11
89.58578996496271
 21
158.7867896043713
 31
0.0
 11
93.79557417089143
 21
159.4557869837841
 31
0.0
 11
97.27602578730445
 21
157.4463473061465
 31
0.0
 11
104.6370405820762
 21
159.8034821860899
 31
0.0
 11
109.5857899649627
 21
158.7867896043713
 31
0.0
  0
SPLINE
  5
543
330
D2
100
AcDbEntity
 67
     1
  8
0
370
    18
100
AcDbSpline
210
0.0
220
0.0
230
1.0
 70
     8
 71
     3
 72
    11
 73
     7
 74
     5
 42
0.0000000001
 43
0.0000000001
 44
0.0000000001
 40
0.0
 40
0.0
 40
0.0
 40
0.0
 40
4.262609594385578
 40
8.281488949660625
 40
16.01069483714316
 40
21.06280175013909
 40
21.06280175013909
 40
21.06280175013909
 40
21.06280175013909
 10
89.58578965588902
 20
160.2427276378962
 30
0.0
 10
91.04134600546975
 20
160.7873126460329
 30
0.0
 10
93.86923196540806
 20
161.8453440296659
 30
0.0
 10
98.19156568565755
 20
156.8506361811506
 30
0.0
 10
103.7794183333772
 20
162.5364355102118
 30
0.0
 10
107.940877509526
 20
160.8925221015662
 30
0.0
 10
109.585789655889
 20
160.2427276378962
 30
0.0
 11
89.58578965588902
 21
160.2427276378962
 31
0.0
 11
93.79557386181772
 21
160.911725017309
 31
0.0
 11
97.27602547823074
 21
158.9022853396715
 31
0.0
 11
104.6370402730025
 21
161.2594202196149
 31
0.0
 11
109.585789655889
 21
160.2427276378962
 31
0.0
  0
LINE
  5
544
102
{ACAD_REACTORS
330
5E5
102
}
330
D2
100
AcDbEntity
 67
     1
  8
0
370
    35
100
AcDbLine
 10
109.585789655889
 20
160.2427276378962
 30
0.0
 11
109.5857899649627
 21
255.3548854447037
 31
0.0
  0
LINE
  5
545
330
D2
100
AcDbEntity
 67
     1
  8
0
  6
STRICHPUNKT
 48
0.2
370
    18
100
AcDbLine
 10
82.58578996496272
 20
241.3548854447037
 30
0.0
 11
116.5857899649627
 21
241.3548854447037
 31
0.0
  0
MTEXT
  5
546
330
D2
100
AcDbEntity
 67
     1
  8
0
370
    25
100
AcDbMText
 10
88.40626067188861
 20
243.9904650523653
 30
0.0
 40
2.0
 41
25.05404926585697
 46
0.0
 71
     1
 72
     5
  1
{\fWingdings 3|b0|i0|c2|p18;\H1.083x;Æ}
 11
-0.0000000000000002
 21
-1.0
 31
0.0
 73
     1
 44
1.0
  0
MTEXT
  5
547
330
D2
100
AcDbEntity
 67
     1
  8
0
370
    25
100
AcDbMText
 10
83.52583994250442
 20
243.8615992645911
 30
0.0
 40
2.0
 41
12.70499240941126
 46
0.0
 71
     1
 72
     5
  1
{\fSwis721 BlkEx BT|b0|i0|c0|p34;A}
 73
     1
 44
1.0
  0
MTEXT
  5
548
330
D2
100
AcDbEntity
 67
     1
  8
0
370
    25
100
AcDbMText
 10
110.7840252892279
 20
243.9819345732796
 30
0.0
 40
2.0
 41
25.05404926585697
 46
0.0
 71
     7
 72
     5
  1
{\fWingdings 3|b0|i0|c2|p18;\H1.083x;Æ}
 11
0.0000000000000002
 21
-1.0
 31
0.0
 73
     1
 44
1.0
  0
MTEXT
  5
549
330
D2
100
AcDbEntity
 67
     1
  8
0
370
    25
100
AcDbMText
 10
115.664446018612
 20
243.8530687855054
 30
0.0
 40
2.0
 41
12.70499240941126
 46
0.0
 71
     3
 72
     5
  1
{\fSwis721 BlkEx BT|b0|i0|c0|p34;A}
 73
     1
 44
1.0
  0
CIRCLE
  5
550
102
{ACAD_REACTORS
330
65F
102
}
330
D2
100
AcDbEntity
 67
     1
  8
0
 62
     0
370
    35
100
AcDbCircle
 10
99.58578996496271
 20
227.3548854447037
 30
0.0
 40
2.75
  0
CIRCLE
  5
551
102
{ACAD_REACTORS
330
675
102
}
330
D2
100
AcDbEntity
 67
     1
  8
0
 62
     0
370
    35
100
AcDbCircle
 10
99.58578996496271
 20
207.3548854447038
 30
0.0
 40
2.75
  0
HATCH
  5
5B0
330
D2
100
AcDbEntity
 67
     1
  8
0
370
    18
100
AcDbHatch
 10
0.0
 20
0.0
 30
0.0
210
0.0
220
0.0
230
1.0
  2
LINE
 70
     0
 71
     1
 91
        6
 92
        7
 72
     1
 73
     1
 93
        4
 10
92.82443414403351
 20
86.11542989439973
 42
0.0
 10
94.29093897321914
 20
85.26874293650156
 42
-0.0793617648033201
 10
96.58578996496268
 20
86.59367577433476
 42
0.0
 10
96.5857899649627
 20
88.28704969013116
 42
0.1098922470406347
 97
        4
330
5B1
330
5C6
330
5B2
330
5C7
 92
        7
 72
     1
 73
     1
 93
        4
 10
104.8806409567062
 20
85.26874293650156
 42
0.0
 10
106.3471457858918
 20
86.11542989439975
 42
0.1098922470406336
 10
102.5857899649627
 20
88.28704969013115
 42
0.0
 10
102.5857899649627
 20
86.59367577433476
 42
-0.0793617648033197
 97
        4
330
5CA
330
5B2
330
5C0
330
5B1
 92
        7
 72
     1
 73
     1
 93
        6
 10
109.3471457858918
 20
80.91927747169313
 42
0.0
 10
107.8806409567062
 20
80.07259051379497
 42
-0.0396185979670768
 10
107.9857899649625
 20
78.7476576759617
 42
-0.039618597967073
 10
107.8806409567062
 20
77.42272483812858
 42
0.0
 10
109.3471457858918
 20
76.57603788023031
 42
0.0547812311221519
 10
109.5857899649627
 20
78.7476576759617
 42
0.0547812311221527
 97
        4
330
5C2
330
5B2
330
5C5
330
5B1
 92
        7
 72
     1
 73
     1
 93
        4
 10
106.3471457858918
 20
71.37988545752367
 42
0.0
 10
104.8806409567063
 20
72.22657241542188
 42
-0.0793617648033216
 10
102.5857899649627
 20
70.90163957758864
 42
0.0
 10
102.5857899649627
 20
69.20826566179224
 42
0.1098922470406347
 97
        4
330
5B2
330
5C9
330
5B1
330
5C4
 92
        7
 72
     1
 73
     1
 93
        4
 10
96.58578996496267
 20
69.20826566179226
 42
0.0
 10
96.58578996496267
 20
70.90163957758865
 42
-0.0793617648033203
 10
94.2909389732191
 20
72.22657241542188
 42
0.0
 10
92.82443414403351
 20
71.37988545752368
 42
0.109892247040634
 97
        4
330
5C1
330
5B1
330
5C8
330
5B2
 92
        7
 72
     1
 73
     1
 93
        6
 10
91.29093897321915
 20
80.07259051379501
 42
0.0
 10
89.82443414403354
 20
80.91927747169316
 42
0.0547812311221538
 10
89.58578996496269
 20
78.7476576759617
 42
0.0547812311221527
 10
89.82443414403354
 20
76.57603788023028
 42
0.0
 10
91.29093897321913
 20
77.42272483812849
 42
-0.0396185979670755
 10
91.18578996496282
 20
78.7476576759617
 42
-0.0396185979670781
 97
        4
330
5C3
330
5B1
330
5BF
330
5B2
 75
     0
 76
     1
 52
74.99999999999999
 41
0.2
 77
     0
 78
     1
 53
74.99999999999999
 43
-67.99813601597197
 44
-238.6977305757729
 45
-0.6133628996935584
 46
0.1643500936401008
 79
     0
 47
0.0683594734755652
 98
        6
 10
94.68866355306069
 20
86.72606381693029
 10
104.1635733926933
 20
86.59203953237806
 10
109.089895855802
 20
79.01687005240479
 10
104.5186061838432
 20
70.93113871053219
 10
95.19867775977596
 20
70.52316366409105
 10
90.39759717263036
 20
78.5653155272542
1001
ACAD
1010
0.0
1020
0.0
1030
0.0
  0
CIRCLE
  5
5B1
102
{ACAD_REACTORS
330
5B0
330
63F
102
}
330
D2
100
AcDbEntity
 67
     1
  8
0
370
    35
100
AcDbCircle
 10
99.58578996496269
 20
78.7476576759617
 30
0.0
 40
10.0
  0
CIRCLE
  5
5B2
102
{ACAD_REACTORS
330
5B0
102
}
330
D2
100
AcDbEntity
 67
     1
  8
0
370
    35
100
AcDbCircle
 10
99.58578996496269
 20
78.7476576759617
 30
0.0
 40
8.399999999999863
  0
LINE
  5
5BF
102
{ACAD_REACTORS
330
5B0
102
}
330
D2
100
AcDbEntity
 67
     1
  8
0
370
    35
100
AcDbLine
 10
89.82443414403354
 20
76.5760378802303
 30
0.0
 11
91.29093897321913
 21
77.42272483812849
 31
0.0
  0
LINE
  5
5C0
102
{ACAD_REACTORS
330
5B0
102
}
330
D2
100
AcDbEntity
 67
     1
  8
0
370
    35
100
AcDbLine
 10
104.8806409567062
 20
85.26874293650156
 30
0.0
 11
106.3471457858918
 21
86.11542989439973
 31
0.0
  0
LINE
  5
5C1
102
{ACAD_REACTORS
330
5B0
102
}
330
D2
100
AcDbEntity
 67
     1
  8
0
370
    35
100
AcDbLine
 10
92.82443414403353
 20
71.3798854575237
 30
0.0
 11
94.2909389732191
 21
72.22657241542188
 31
0.0
  0
LINE
  5
5C2
102
{ACAD_REACTORS
330
5B0
102
}
330
D2
100
AcDbEntity
 67
     1
  8
0
370
    35
100
AcDbLine
 10
107.8806409567062
 20
80.07259051379495
 30
0.0
 11
109.3471457858918
 21
80.91927747169311
 31
0.0
  0
LINE
  5
5C3
102
{ACAD_REACTORS
330
5B0
102
}
330
D2
100
AcDbEntity
 67
     1
  8
0
370
    35
100
AcDbLine
 10
89.82443414403354
 20
80.91927747169316
 30
0.0
 11
91.29093897321915
 21
80.07259051379501
 31
0.0
  0
LINE
  5
5C4
102
{ACAD_REACTORS
330
5B0
102
}
330
D2
100
AcDbEntity
 67
     1
  8
0
370
    35
100
AcDbLine
 10
104.8806409567063
 20
72.22657241542188
 30
0.0
 11
106.3471457858918
 21
71.37988545752367
 31
0.0
  0
LINE
  5
5C5
102
{ACAD_REACTORS
330
5B0
102
}
330
D2
100
AcDbEntity
 67
     1
  8
0
370
    35
100
AcDbLine
 10
109.3471457858918
 20
76.57603788023033
 30
0.0
 11
107.8806409567062
 21
77.42272483812858
 31
0.0
  0
LINE
  5
5C6
102
{ACAD_REACTORS
330
5B0
102
}
330
D2
100
AcDbEntity
 67
     1
  8
0
370
    35
100
AcDbLine
 10
94.29093897321914
 20
85.26874293650156
 30
0.0
 11
92.82443414403351
 21
86.11542989439973
 31
0.0
  0
LINE
  5
5C7
102
{ACAD_REACTORS
330
5B0
102
}
330
D2
100
AcDbEntity
 67
     1
  8
0
370
    35
100
AcDbLine
 10
96.5857899649627
 20
88.28704969013116
 30
0.0
 11
96.58578996496268
 21
86.59367577433476
 31
0.0
  0
LINE
  5
5C8
102
{ACAD_REACTORS
330
5B0
102
}
330
D2
100
AcDbEntity
 67
     1
  8
0
370
    35
100
AcDbLine
 10
96.58578996496267
 20
70.90163957758867
 30
0.0
 11
96.58578996496267
 21
69.20826566179224
 31
0.0
  0
LINE
  5
5C9
102
{ACAD_REACTORS
330
5B0
102
}
330
D2
100
AcDbEntity
 67
     1
  8
0
370
    35
100
AcDbLine
 10
102.5857899649627
 20
69.20826566179224
 30
0.0
 11
102.5857899649627
 21
70.90163957758864
 31
0.0
  0
LINE
  5
5CA
102
{ACAD_REACTORS
330
5B0
102
}
330
D2
100
AcDbEntity
 67
     1
  8
0
370
    35
100
AcDbLine
 10
102.5857899649627
 20
86.59367577433474
 30
0.0
 11
102.5857899649627
 21
88.2870496901312
 31
0.0
  0
MTEXT
  5
5CB
330
D2
100
AcDbEntity
 67
     1
  8
0
  6
STRICHPUNKT
370
    35
100
AcDbMText
 10
52.46568083406763
 20
97.55164651189769
 30
0.0
 40
2.5
 41
30.36909567060968
 46
0.0
 71
     1
 72
     5
  1
{\fArial|b0|i0|c0|p34;\LSchnitt A - A}
 73
     1
 44
1.0
  0
POINT
  5
5CD
102
{ACAD_REACTORS
330
5E5
102
}
330
D2
100
AcDbEntity
 67
     1
  8
0
 62
     0
370
    35
100
AcDbPoint
 10
116.5857899649627
 20
241.3548854447037
 30
0.0
  0
DIMENSION
  5
5CE
102
{ACAD_XDICTIONARY
360
5DB
102
}
102
{ACAD_REACTORS
330
5E5
102
}
330
D2
100
AcDbEntity
 67
     1
  8
0
 62
     0
370
    18
100
AcDbDimension
  2
*D1
 10
121.4619087866979
 20
241.3548854447037
 30
0.0
 11
119.5869087866978
 21
248.3548854447037
 31
0.0
 70
    32
 71
     5
 42
14.0
 73
     0
 74
     0
 75
     0
  3
ISO-25
100
AcDbAlignedDimension
 13
109.5857899649627
 23
255.3548854447037
 33
0.0
 14
116.5857899649627
 24
241.3548854447037
 34
0.0
 50
90.0
100
AcDbRotatedDimension
  0
DIMENSION
  5
5E6
102
{ACAD_XDICTIONARY
360
5F3
102
}
102
{ACAD_REACTORS
330
5FD
102
}
330
D2
100
AcDbEntity
 67
     1
  8
0
 62
     0
370
    18
100
AcDbDimension
  2
*D2
 10
130.7394240704598
 20
227.3548854447037
 30
0.0
 11
128.8644240704597
 21
241.3548854447038
 31
0.0
 70
    32
 71
     5
 42
28.0
 73
     0
 74
     0
 75
     0
  3
ISO-25
100
AcDbAlignedDimension
 13
109.5857899649627
 23
255.3548854447037
 33
0.0
 14
109.5857899649627
 24
227.3548854447037
 34
0.0
 50
90.0
100
AcDbRotatedDimension
  0
DIMENSION
  5
5FE
102
{ACAD_XDICTIONARY
360
60B
102
}
102
{ACAD_REACTORS
330
615
102
}
330
D2
100
AcDbEntity
 67
     1
  8
0
 62
     0
370
    18
100
AcDbDimension
  2
*D3
 10
140.7041629073924
 20
207.3548854447038
 30
0.0
 11
138.8291629073923
 21
231.3548854447038
 31
0.0
 70
    32
 71
     5
 42
47.99999999999994
 73
     0
 74
     0
 75
     0
  3
ISO-25
100
AcDbAlignedDimension
 13
109.5857899649627
 23
255.3548854447037
 33
0.0
 14
109.5857899649627
 24
207.3548854447038
 34
0.0
 50
90.0
100
AcDbRotatedDimension
  0
LINE
  5
621
330
D2
100
AcDbEntity
 67
     1
  8
0
  6
MITTE2
 62
     0
 48
0.2
370
    18
100
AcDbLine
 10
82.58578996496268
 20
78.7476576759617
 30
0.0
 11
116.5857899649627
 21
78.7476576759617
 31
0.0
  0
LINE
  5
622
330
D2
100
AcDbEntity
 67
     1
  8
0
  6
MITTE2
 62
     0
 48
0.2
370
    18
100
AcDbLine
 10
99.58578996496269
 20
95.7476576759617
 30
0.0
 11
99.58578996496269
 21
61.7476576759617
 31
0.0
  0
POINT
  5
624
330
D2
100
AcDbEntity
 67
     1
  8
0
  6
MITTE2
 62
     0
370
    18
100
AcDbPoint
 10
108.246044002807
 20
83.74765767596171
 30
0.0
  0
POINT
  5
625
330
D2
100
AcDbEntity
 67
     1
  8
0
  6
MITTE2
 62
     0
370
    18
100
AcDbPoint
 10
99.58578996496269
 20
95.7476576759617
 30
0.0
  0
DIMENSION
  5
626
102
{ACAD_XDICTIONARY
360
634
102
}
102
{ACAD_REACTORS
330
63F
102
}
330
D2
100
AcDbEntity
 67
     1
  8
0
 62
     0
370
    18
100
AcDbDimension
  2
*D4
 10
114.0199130347142
 20
95.79274605265746
 30
0.0
 11
111.7619931931072
 21
99.67355406599256
 31
0.0
 70
    37
 71
     5
 42
1.0539675845564
 73
     0
 74
     0
 75
     0
  3
ISO-25
100
AcDb3PointAngularDimension
 13
108.2796954475524
 23
83.68891333214834
 33
0.0
 14
99.58578996496269
 24
95.7476576759617
 34
0.0
 15
99.58578996496269
 25
78.7476576759617
 35
0.0
  0
DIMENSION
  5
64A
102
{ACAD_XDICTIONARY
360
656
102
}
102
{ACAD_REACTORS
330
65F
102
}
330
D2
100
AcDbEntity
 67
     1
  8
0
 62
     0
370
    18
100
AcDbDimension
  2
*D5
 10
102.292742027716
 20
227.8395611403555
 30
0.0
 11
77.83798881943112
 21
223.4609743577136
 31
0.0
 70
   163
 71
     5
 42
5.5
 73
     0
 74
     0
 75
     0
  3
ISO-25
100
AcDbDiametricDimension
 15
96.87883790220938
 25
226.870209749052
 35
0.0
 40
0.0
1001
ACAD
1000
DSTYLE
1002
{
1070
   288
1070
     1
1002
}
  0
DIMENSION
  5
660
102
{ACAD_XDICTIONARY
360
66C
102
}
102
{ACAD_REACTORS
330
675
102
}
330
D2
100
AcDbEntity
 67
     1
  8
0
 62
     0
370
    18
100
AcDbDimension
  2
*D6
 10
102.2955102512934
 20
207.8238374356879
 30
0.0
 11
78.36333341893101
 21
203.6820660393059
 31
0.0
 70
   163
 71
     5
 42
5.5
 73
     0
 74
     0
 75
     0
  3
ISO-25
100
AcDbDiametricDimension
 15
96.87606967863203
 25
206.8859334537196
 35
0.0
 40
0.0
1001
ACAD
1000
DSTYLE
1002
{
1070
   288
1070
     1
1002
}
  0
DIMENSION
  5
676
102
{ACAD_XDICTIONARY
360
682
102
}
102
{ACAD_REACTORS
330
68B
102
}
330
D2
100
AcDbEntity
 67
     1
  8
0
 62
     0
370
    18
100
AcDbDimension
  2
*D7
 10
102.1938347474726
 20
239.8722855619224
 30
0.0
 11
77.48775980217574
 21
253.9169921802778
 31
0.0
 70
   163
 71
     5
 42
6.000000000000014
 73
     0
 74
     0
 75
     0
  3
ISO-25
100
AcDbDiametricDimension
 15
96.97774518245289
 25
242.837485327485
 35
0.0
 40
0.0
1001
ACAD
1000
DSTYLE
1002
{
1070
   288
1070
     1
1002
}
  0
DIMENSION
  5
699
102
{ACAD_XDICTIONARY
360
6A6
102
}
102
{ACAD_REACTORS
330
6B0
102
}
330
D2
100
AcDbEntity
 67
     1
  8
0
 62
     0
370
    18
100
AcDbDimension
  2
*D8
 10
108.0857899649627
 20
128.5963001414281
 30
0.0
 11
99.58578996496271
 21
130.4713001414281
 31
0.0
 70
    32
 71
     5
 42
17.0
 73
     0
 74
     0
 75
     0
  3
ISO-25
100
AcDbAlignedDimension
 13
91.08578996496271
 23
135.3548854447037
 33
0.0
 14
108.0857899649627
 24
135.3548854447037
 34
0.0
100
AcDbRotatedDimension
  0
DIMENSION
  5
6B1
102
{ACAD_XDICTIONARY
360
6BE
102
}
102
{ACAD_REACTORS
330
6C8
102
}
330
D2
100
AcDbEntity
 67
     1
  8
0
 62
     0
370
    18
100
AcDbDimension
  2
*D9
 10
109.5857899649627
 20
121.811674127364
 30
0.0
 11
99.58578996496271
 21
123.686674127364
 31
0.0
 70
    32
 71
     5
 42
20.0
 73
     0
 74
     0
 75
     0
  3
ISO-25
100
AcDbAlignedDimension
 13
89.58578996496271
 23
135.3548854447037
 33
0.0
 14
109.5857899649627
 24
135.3548854447037
 34
0.0
100
AcDbRotatedDimension
  0
LINE
  5
793
330
D2
100
AcDbEntity
 67
     1
  8
0
  6
VERDECKT2
 62
     0
 48
0.1
370
    18
100
AcDbLine
 10
96.83578996496265
 20
69.13321541444701
 30
0.0
 11
96.83578996496265
 21
70.90163957758867
 31
0.0
  0
LINE
  5
797
330
D2
100
AcDbEntity
 67
     1
  8
0
  6
VERDECKT2
 62
     0
 48
0.1
370
    18
100
AcDbLine
 10
102.3357899649626
 20
69.13321541444698
 30
0.0
 11
102.3357899649626
 21
70.81056122952752
 31
0.0
  0
DIMENSION
  5
798
330
D2
100
AcDbEntity
 67
     1
  8
0
 62
     0
370
    18
100
AcDbDimension
  2
*D10
 10
154.6904362224715
 20
135.3548854447037
 30
0.0
 11
152.8154362224715
 21
195.3548854447037
 31
0.0
 70
    32
  1
155
 71
     5
 42
119.9999999999999
 73
     0
 74
     0
 75
     0
  3
ISO-25
100
AcDbAlignedDimension
 13
109.5857899649627
 23
255.3548854447037
 33
0.0
 14
109.5857899649627
 24
135.3548854447037
 34
0.0
 50
90.0
100
AcDbRotatedDimension
  0
ENDSEC
  0
SECTION
  2
OBJECTS
  0
DICTIONARY
  5
C
330
0
100
AcDbDictionary
281
     1
  3
ACAD_COLOR
350
6B
  3
ACAD_GROUP
350
D
  3
ACAD_LAYOUT
350
1A
  3
ACAD_MATERIAL
350
6A
  3
ACAD_MLINESTYLE
350
17
  3
ACAD_PLOTSETTINGS
350
19
  3
ACAD_PLOTSTYLENAME
350
E
  3
ACAD_TABLESTYLE
350
7E
  3
ACAD_VISUALSTYLE
350
EF
  3
AcDbVariableDictionary
350
5E
  0
DICTIONARY
  5
12F
330
2
100
AcDbDictionary
280
     1
281
     1
  3
ACAD_LAYERSTATES
360
130
  0
DICTIONARY
  5
129
330
128
100
AcDbDictionary
280
     1
281
     1
  3
ADSK_XREC_LAYER_RECONCILED
360
12A
  0
DICTIONARY
  5
12C
330
12B
100
AcDbDictionary
280
     1
281
     1
  3
ADSK_XREC_LAYER_RECONCILED
360
12D
  0
DICTIONARY
  5
5DB
330
5CE
100
AcDbDictionary
280
     1
281
     1
  3
ACAD_DIMASSOC
360
5E5
  0
DICTIONARY
  5
5F3
330
5E6
100
AcDbDictionary
280
     1
281
     1
  3
ACAD_DIMASSOC
360
5FD
  0
DICTIONARY
  5
60B
330
5FE
100
AcDbDictionary
280
     1
281
     1
  3
ACAD_DIMASSOC
360
615
  0
DICTIONARY
  5
634
330
626
100
AcDbDictionary
280
     1
281
     1
  3
ACAD_DIMASSOC
360
63F
  0
DICTIONARY
  5
656
330
64A
100
AcDbDictionary
280
     1
281
     1
  3
ACAD_DIMASSOC
360
65F
  0
DICTIONARY
  5
66C
330
660
100
AcDbDictionary
280
     1
281
     1
  3
ACAD_DIMASSOC
360
675
  0
DICTIONARY
  5
682
330
676
100
AcDbDictionary
280
     1
281
     1
  3
ACAD_DIMASSOC
360
68B
  0
DICTIONARY
  5
6A6
330
699
100
AcDbDictionary
280
     1
281
     1
  3
ACAD_DIMASSOC
360
6B0
  0
DICTIONARY
  5
6BE
330
6B1
100
AcDbDictionary
280
     1
281
     1
  3
ACAD_DIMASSOC
360
6C8
  0
DICTIONARY
  5
6B
102
{ACAD_REACTORS
330
C
102
}
330
C
100
AcDbDictionary
281
     1
  0
DICTIONARY
  5
D
102
{ACAD_REACTORS
330
C
102
}
330
C
100
AcDbDictionary
281
     1
  0
DICTIONARY
  5
1A
102
{ACAD_REACTORS
330
C
102
}
330
C
100
AcDbDictionary
281
     1
  3
Layout1
350
D3
  3
Model
350
22
  0
DICTIONARY
  5
6A
102
{ACAD_REACTORS
330
C
102
}
330
C
100
AcDbDictionary
281
     1
  3
ByBlock
350
ED
  3
ByLayer
350
EC
  3
Global
350
EE
  0
DICTIONARY
  5
17
102
{ACAD_REACTORS
330
C
102
}
330
C
100
AcDbDictionary
281
     1
  3
Standard
350
18
  0
DICTIONARY
  5
19
102
{ACAD_REACTORS
330
C
102
}
330
C
100
AcDbDictionary
281
     1
  0
ACDBDICTIONARYWDFLT
  5
E
102
{ACAD_REACTORS
330
C
102
}
330
C
100
AcDbDictionary
281
     1
  3
Normal
350
F
100
AcDbDictionaryWithDefault
340
F
  0
DICTIONARY
  5
7E
102
{ACAD_REACTORS
330
C
102
}
330
C
100
AcDbDictionary
281
     1
  3
Standard
350
7F
  0
DICTIONARY
  5
EF
102
{ACAD_REACTORS
330
C
102
}
330
C
100
AcDbDictionary
281
     1
  3
2dWireframe
350
F5
  3
3D Hidden
350
F7
  3
3dWireframe
350
F6
  3
Basic
350
F4
  3
Brighten
350
FB
  3
ColorChange
350
FF
  3
Conceptual
350
F8
  3
Dim
350
FA
  3
Facepattern
350
FE
  3
Flat
350
F0
  3
FlatWithEdges
350
F1
  3
Gouraud
350
F2
  3
GouraudWithEdges
350
F3
  3
Linepattern
350
FD
  3
Realistic
350
F9
  3
Thicken
350
FC
  0
DICTIONARY
  5
5E
102
{ACAD_REACTORS
330
C
102
}
330
C
100
AcDbDictionary
281
     1
  3
CTABLESTYLE
350
84
  3
DIMASSOC
350
5F
  3
HIDETEXT
350
63
  0
DICTIONARY
  5
130
102
{ACAD_REACTORS
330
12F
102
}
330
12F
100
AcDbDictionary
281
     1
  0
XRECORD
  5
12A
102
{ACAD_REACTORS
330
129
102
}
330
129
100
AcDbXrecord
280
     1
290
     1
  0
XRECORD
  5
12D
102
{ACAD_REACTORS
330
12C
102
}
330
12C
100
AcDbXrecord
280
     1
290
     1
  0
DIMASSOC
  5
5E5
102
{ACAD_REACTORS
330
5DB
102
}
330
5DB
100
AcDbDimAssoc
330
5CE
 90
        3
 70
     0
 71
     0
  1
AcDbOsnapPointRef
 72
     1
331
544
 73
     2
 91
        0
 40
1.0
 10
0.0
 20
0.0
 30
2.000000000000000E+50
 75
     0
  1
AcDbOsnapPointRef
 72
     4
331
5CD
 73
     2
 91
        0
 40
0.0
 10
0.0
 20
0.0
 30
0.0
 75
     0
  0
DIMASSOC
  5
5FD
102
{ACAD_REACTORS
330
5F3
102
}
330
5F3
100
AcDbDimAssoc
330
5E6
 90
        3
 70
     0
 71
     0
  1
AcDbOsnapPointRef
 72
     1
331
51E
 73
     2
 91
        0
 40
1.0
 10
0.0
 20
0.0
 30
2.000000000000000E+50
 75
     0
  1
AcDbOsnapPointRef
 72
     4
331
540
 73
     2
 91
        0
 40
0.0
 10
0.0
 20
0.0
 30
0.0
 75
     0
  0
DIMASSOC
  5
615
102
{ACAD_REACTORS
330
60B
102
}
330
60B
100
AcDbDimAssoc
330
5FE
 90
        2
 70
     0
 71
     0
  1
AcDbOsnapPointRef
 72
     4
331
541
 73
     2
 91
        0
 40
0.0
 10
0.0
 20
0.0
 30
0.0
 75
     0
  0
DIMASSOC
  5
63F
102
{ACAD_REACTORS
330
634
102
}
330
634
100
AcDbDimAssoc
330
626
 90
        5
 70
     0
 71
     0
  1
AcDbOsnapPointRef
 72
    10
331
5B1
 73
     2
 91
        0
 40
0.5168287422384961
 10
0.0
 20
0.0
 30
0.0
 75
     0
  1
AcDbOsnapPointRef
 72
     3
331
5B1
 73
     2
 91
        0
 40
0.0
 10
0.0
 20
0.0
 30
0.0
 75
     0
  0
DIMASSOC
  5
65F
102
{ACAD_REACTORS
330
656
102
}
330
656
100
AcDbDimAssoc
330
64A
 90
        2
 70
     0
 71
     0
  1
AcDbOsnapPointRef
 72
     3
331
550
 73
     2
 91
        0
 40
0.0
 10
0.0
 20
0.0
 30
0.0
 75
     0
  0
DIMASSOC
  5
675
102
{ACAD_REACTORS
330
66C
102
}
330
66C
100
AcDbDimAssoc
330
660
 90
        2
 70
     0
 71
     0
  1
AcDbOsnapPointRef
 72
     3
331
551
 73
     2
 91
        0
 40
0.0
 10
0.0
 20
0.0
 30
0.0
 75
     0
  0
DIMASSOC
  5
68B
102
{ACAD_REACTORS
330
682
102
}
330
682
100
AcDbDimAssoc
330
676
 90
        2
 70
     0
 71
     0
  1
AcDbOsnapPointRef
 72
     3
331
513
 73
     2
 91
        0
 40
0.0
 10
0.0
 20
0.0
 30
0.0
 75
     0
  0
DIMASSOC
  5
6B0
102
{ACAD_REACTORS
330
6A6
102
}
330
6A6
100
AcDbDimAssoc
330
699
 90
        3
 70
     0
 71
     0
  1
AcDbOsnapPointRef
 72
     1
331
536
 73
     2
 91
        0
 40
1.0
 10
0.0
 20
0.0
 30
2.000000000000000E+50
 75
     0
  1
AcDbOsnapPointRef
 72
     1
331
538
 73
     2
 91
        0
 40
1.0
 10
0.0
 20
0.0
 30
2.000000000000000E+50
 75
     0
  0
DIMASSOC
  5
6C8
102
{ACAD_REACTORS
330
6BE
102
}
330
6BE
100
AcDbDimAssoc
330
6B1
 90
        3
 70
     0
 71
     0
  1
AcDbOsnapPointRef
 72
    13
331
511
 73
     2
 91
        0
 40
0.0
 10
0.0
 20
0.0
 30
2.000000000000000E+50
 75
     0
  1
AcDbOsnapPointRef
 72
     1
331
511
 73
     2
 91
        0
 40
1.0
 10
0.0
 20
0.0
 30
2.000000000000000E+50
 75
     0
  0
LAYOUT
  5
D3
102
{ACAD_XDICTIONARY
360
379
102
}
102
{ACAD_REACTORS
330
1A
102
}
330
1A
100
AcDbPlotSettings
  1

  2
CD1120-A4
  4
A4
  6

 40
4.984749794006347
 41
5.154074668884277
 42
5.111740112304687
 43
4.9847412109375
 44
210.0156707763672
 45
297.0106506347656
 46
0.0
 47
0.0
 48
0.0
 49
0.0
140
0.0
141
0.0
142
1.0
143
1.0
 70
   672
 72
     1
 73
     0
 74
     5
  7

 75
    16
147
1.0
 76
     0
 77
     2
 78
   300
148
0.0
149
0.0
100
AcDbLayout
  1
Layout1
 70
     1
 71
     1
 10
-4.984749794006347
 20
-5.154074668884277
 11
205.0309209823609
 21
291.8565759658814
 12
0.0
 22
0.0
 32
0.0
 14
4.54578996496275
 24
12.87018586548765
 34
0.0
 15
194.6257899649627
 25
281.6701858654876
 35
0.0
146
0.0
 13
0.0
 23
0.0
 33
0.0
 16
1.0
 26
0.0
 36
0.0
 17
0.0
 27
1.0
 37
0.0
 76
     0
330
D2
331
115
1001
ACAD_PSEXT
1000
CD1120-A4
1000
CD 1120_DC 2120 KX
1000
IP_192.168.2.200
1000

1070
     0
  0
LAYOUT
  5
22
102
{ACAD_REACTORS
330
1A
102
}
330
1A
100
AcDbPlotSettings
  1

  2
none_device
  4
ISO_A4_(210.00_x_297.00_MM)
  6

 40
7.5
 41
20.0
 42
7.5
 43
20.0
 44
210.0
 45
297.0
 46
11.54999923706054
 47
-13.65000009536743
 48
0.0
 49
0.0
140
0.0
141
0.0
142
1.0
143
8.704084754739808
 70
 11952
 72
     1
 73
     0
 74
     0
  7

 75
     0
147
0.1148885871608098
 76
     0
 77
     2
 78
   300
148
0.0
149
0.0
100
AcDbLayout
  1
Model
 70
     1
 71
     0
 10
0.0
 20
0.0
 11
12.0
 21
9.0
 12
0.0
 22
0.0
 32
0.0
 14
0.0
 24
0.0
 34
0.0
 15
0.0
 25
0.0
 35
0.0
146
0.0
 13
0.0
 23
0.0
 33
0.0
 16
1.0
 26
0.0
 36
0.0
 17
0.0
 27
1.0
 37
0.0
 76
     0
330
1F
331
EA
1001
ACAD_PSEXT
1000
None
1000
None
1000
Not applicable
1000
The layout will not be plotted unless a new plotter configuration name is selected.
1070
     0
  0
MATERIAL
  5
ED
102
{ACAD_REACTORS
330
6A
102
}
330
6A
100
AcDbMaterial
  1
ByBlock
  0
MATERIAL
  5
EC
102
{ACAD_REACTORS
330
6A
102
}
330
6A
100
AcDbMaterial
  1
ByLayer
  0
MATERIAL
  5
EE
102
{ACAD_REACTORS
330
6A
102
}
330
6A
100
AcDbMaterial
  1
Global
  0
MLINESTYLE
  5
18
102
{ACAD_REACTORS
330
17
102
}
330
17
100
AcDbMlineStyle
  2
STANDARD
 70
     0
  3

 62
   256
 51
90.0
 52
90.0
 71
     2
 49
0.5
 62
   256
  6
BYLAYER
 49
-0.5
 62
   256
  6
BYLAYER
  0
ACDBPLACEHOLDER
  5
F
102
{ACAD_REACTORS
330
E
102
}
330
E
  0
TABLESTYLE
  5
7F
102
{ACAD_REACTORS
330
7E
102
}
330
7E
100
AcDbTableStyle
  3
Standard
 70
     0
 71
     0
 40
1.5
 41
1.5
280
     0
281
     0
  7
Standard
140
4.5
170
     2
 62
     0
 63
     7
283
     0
 90
      512
 91
        0
  1

274
    -2
284
     1
 64
     0
275
    -2
285
     1
 65
     0
276
    -2
286
     1
 66
     0
277
    -2
287
     1
 67
     0
278
    -2
288
     1
 68
     0
279
    -2
289
     1
 69
     0
  7
Standard
140
6.0
170
     5
 62
     0
 63
     7
283
     0
 90
      512
 91
        0
  1

274
    -2
284
     1
 64
     0
275
    -2
285
     1
 65
     0
276
    -2
286
     1
 66
     0
277
    -2
287
     1
 67
     0
278
    -2
288
     1
 68
     0
279
    -2
289
     1
 69
     0
  7
Standard
140
4.5
170
     5
 62
     0
 63
     7
283
     0
 90
      512
 91
        0
  1

274
    -2
284
     1
 64
     0
275
    -2
285
     1
 65
     0
276
    -2
286
     1
 66
     0
277
    -2
287
     1
 67
     0
278
    -2
288
     1
 68
     0
279
    -2
289
     1
 69
     0
  0
VISUALSTYLE
  5
F5
102
{ACAD_REACTORS
330
EF
102
}
330
EF
100
AcDbVisualStyle
  2
2dWireframe
 70
     4
 71
     0
 72
     2
 73
     1
 90
        0
 40
-0.6
 41
-30.0
 62
     5
 63
     7
421
 16777215
 74
     1
 91
        4
 64
     7
 65
   257
 75
     1
175
     1
 42
1.0
 92
        0
 66
   257
 43
1.0
 76
     1
 77
     6
 78
     2
 67
     7
 79
     5
170
     0
171
     0
290
     0
174
     0
 93
        1
 44
0.0
173
     0
291
     0
 45
0.0
  0
VISUALSTYLE
  5
F7
102
{ACAD_REACTORS
330
EF
102
}
330
EF
100
AcDbVisualStyle
  2
3D Hidden
 70
     6
 71
     1
 72
     2
 73
     2
 90
        0
 40
-0.6
 41
-30.0
 62
     5
 63
     7
421
 16777215
 74
     2
 91
        2
 64
     7
 65
   257
 75
     2
175
     1
 42
40.0
 92
        0
 66
   257
 43
1.0
 76
     1
 77
     6
 78
     2
 67
     7
 79
     3
170
     0
171
     0
290
     0
174
     0
 93
        1
 44
0.0
173
     0
291
     0
 45
0.0
  0
VISUALSTYLE
  5
F6
102
{ACAD_REACTORS
330
EF
102
}
330
EF
100
AcDbVisualStyle
  2
3dWireframe
 70
     5
 71
     0
 72
     2
 73
     1
 90
        0
 40
-0.6
 41
-30.0
 62
     5
 63
     7
421
 16777215
 74
     1
 91
        4
 64
     7
 65
   257
 75
     1
175
     1
 42
1.0
 92
        0
 66
   257
 43
1.0
 76
     1
 77
     6
 78
     2
 67
     7
 79
     5
170
     0
171
     0
290
     0
174
     0
 93
        1
 44
0.0
173
     0
291
     0
 45
0.0
  0
VISUALSTYLE
  5
F4
102
{ACAD_REACTORS
330
EF
102
}
330
EF
100
AcDbVisualStyle
  2
Basic
 70
     7
 71
     1
 72
     0
 73
     1
 90
        0
 40
-0.6
 41
-30.0
 62
     5
 63
     7
421
 16777215
 74
     0
 91
        4
 64
     7
 65
   257
 75
     1
175
     1
 42
1.0
 92
        8
 66
     7
 43
1.0
 76
     1
 77
     6
 78
     2
 67
     7
 79
     5
170
     0
171
     0
290
     0
174
     0
 93
        1
 44
0.0
173
     0
291
     1
 45
0.0
  0
VISUALSTYLE
  5
FB
102
{ACAD_REACTORS
330
EF
102
}
330
EF
100
AcDbVisualStyle
  2
Brighten
 70
    12
 71
     2
 72
     2
 73
     1
 90
        0
 40
-0.6
 41
-30.0
 62
     5
 63
     7
421
 16777215
 74
     1
 91
        4
 64
     7
 65
   257
 75
     1
175
     1
 42
1.0
 92
        8
 66
     7
 43
1.0
 76
     1
 77
     6
 78
     2
 67
     7
 79
     5
170
     0
171
     0
290
     0
174
     0
 93
        1
 44
50.0
173
     0
291
     1
 45
0.0
  0
VISUALSTYLE
  5
FF
102
{ACAD_REACTORS
330
EF
102
}
330
EF
100
AcDbVisualStyle
  2
ColorChange
 70
    16
 71
     2
 72
     2
 73
     3
 90
        0
 40
-0.6
 41
-30.0
 62
     5
 63
     8
421
  8421504
 74
     1
 91
        4
 64
     7
 65
   257
 75
     1
175
     1
 42
1.0
 92
        8
 66
     8
424
  8421504
 43
1.0
 76
     1
 77
     6
 78
     2
 67
     7
 79
     5
170
     0
171
     0
290
     0
174
     0
 93
        1
 44
0.0
173
     0
291
     1
 45
0.0
  0
VISUALSTYLE
  5
F8
102
{ACAD_REACTORS
330
EF
102
}
330
EF
100
AcDbVisualStyle
  2
Conceptual
 70
     9
 71
     3
 72
     2
 73
     1
 90
        0
 40
-0.6
 41
-30.0
 62
     5
 63
     7
421
 16777215
 74
     2
 91
        2
 64
     7
 65
   257
 75
     1
175
     1
 42
40.0
 92
        8
 66
     7
 43
1.0
 76
     1
 77
     6
 78
     2
 67
     7
 79
     3
170
     0
171
     0
290
     0
174
     0
 93
        1
 44
0.0
173
     0
291
     0
 45
0.0
  0
VISUALSTYLE
  5
FA
102
{ACAD_REACTORS
330
EF
102
}
330
EF
100
AcDbVisualStyle
  2
Dim
 70
    11
 71
     2
 72
     2
 73
     1
 90
        0
 40
-0.6
 41
-30.0
 62
     5
 63
     7
421
 16777215
 74
     1
 91
        4
 64
     7
 65
   257
 75
     1
175
     1
 42
1.0
 92
        8
 66
     7
 43
1.0
 76
     1
 77
     6
 78
     2
 67
     7
 79
     5
170
     0
171
     0
290
     0
174
     0
 93
        1
 44
-50.0
173
     0
291
     1
 45
0.0
  0
VISUALSTYLE
  5
FE
102
{ACAD_REACTORS
330
EF
102
}
330
EF
100
AcDbVisualStyle
  2
Facepattern
 70
    15
 71
     2
 72
     2
 73
     1
 90
        0
 40
-0.6
 41
-30.0
 62
     5
 63
     7
421
 16777215
 74
     1
 91
        4
 64
     7
 65
   257
 75
     1
175
     1
 42
1.0
 92
        8
 66
     7
 43
1.0
 76
     1
 77
     6
 78
     2
 67
     7
 79
     5
170
     0
171
     0
290
     0
174
     0
 93
        1
 44
0.0
173
     0
291
     1
 45
0.0
  0
VISUALSTYLE
  5
F0
102
{ACAD_REACTORS
330
EF
102
}
330
EF
100
AcDbVisualStyle
  2
Flat
 70
     0
 71
     2
 72
     1
 73
     1
 90
        2
 40
-0.6
 41
30.0
 62
     5
 63
     7
421
 16777215
 74
     0
 91
        4
 64
     7
 65
   257
 75
     1
175
     1
 42
1.0
 92
        8
 66
     7
 43
1.0
 76
     1
 77
     6
 78
     2
 67
     7
 79
     5
170
     0
171
     0
290
     0
174
     0
 93
       13
 44
0.0
173
     0
291
     1
 45
0.0
  0
VISUALSTYLE
  5
F1
102
{ACAD_REACTORS
330
EF
102
}
330
EF
100
AcDbVisualStyle
  2
FlatWithEdges
 70
     1
 71
     2
 72
     1
 73
     1
 90
        2
 40
-0.6
 41
30.0
 62
     5
 63
     7
421
 16777215
 74
     1
 91
        4
 64
     7
 65
   257
 75
     1
175
     1
 42
1.0
 92
        0
 66
   257
 43
1.0
 76
     1
 77
     6
 78
     2
 67
     7
 79
     5
170
     0
171
     0
290
     0
174
     0
 93
       13
 44
0.0
173
     0
291
     1
 45
0.0
  0
VISUALSTYLE
  5
F2
102
{ACAD_REACTORS
330
EF
102
}
330
EF
100
AcDbVisualStyle
  2
Gouraud
 70
     2
 71
     2
 72
     2
 73
     1
 90
        2
 40
-0.6
 41
30.0
 62
     5
 63
     7
421
 16777215
 74
     0
 91
        4
 64
     7
 65
   257
 75
     1
175
     1
 42
1.0
 92
        0
 66
     7
 43
1.0
 76
     1
 77
     6
 78
     2
 67
     7
 79
     5
170
     0
171
     0
290
     0
174
     0
 93
       13
 44
0.0
173
     0
291
     1
 45
0.0
  0
VISUALSTYLE
  5
F3
102
{ACAD_REACTORS
330
EF
102
}
330
EF
100
AcDbVisualStyle
  2
GouraudWithEdges
 70
     3
 71
     2
 72
     2
 73
     1
 90
        2
 40
-0.6
 41
30.0
 62
     5
 63
     7
421
 16777215
 74
     1
 91
        4
 64
     7
 65
   257
 75
     1
175
     1
 42
1.0
 92
        0
 66
   257
 43
1.0
 76
     1
 77
     6
 78
     2
 67
     7
 79
     5
170
     0
171
     0
290
     0
174
     0
 93
       13
 44
0.0
173
     0
291
     1
 45
0.0
  0
VISUALSTYLE
  5
FD
102
{ACAD_REACTORS
330
EF
102
}
330
EF
100
AcDbVisualStyle
  2
Linepattern
 70
    14
 71
     2
 72
     2
 73
     1
 90
        0
 40
-0.6
 41
-30.0
 62
     5
 63
     7
421
 16777215
 74
     1
 91
        4
 64
     7
 65
   257
 75
     7
175
     7
 42
1.0
 92
        8
 66
     7
 43
1.0
 76
     1
 77
     6
 78
     2
 67
     7
 79
     5
170
     0
171
     0
290
     0
174
     0
 93
        1
 44
0.0
173
     0
291
     1
 45
0.0
  0
VISUALSTYLE
  5
F9
102
{ACAD_REACTORS
330
EF
102
}
330
EF
100
AcDbVisualStyle
  2
Realistic
 70
     8
 71
     2
 72
     2
 73
     1
 90
        0
 40
-0.6
 41
-30.0
 62
     5
 63
     7
421
 16777215
 74
     1
 91
        0
 64
     7
 65
   257
 75
     1
175
     1
 42
1.0
 92
        8
 66
     8
424
  7895160
 43
1.0
 76
     1
 77
     6
 78
     2
 67
     7
 79
     5
170
     0
171
     0
290
     0
174
     0
 93
       13
 44
0.0
173
     0
291
     0
 45
0.0
  0
VISUALSTYLE
  5
FC
102
{ACAD_REACTORS
330
EF
102
}
330
EF
100
AcDbVisualStyle
  2
Thicken
 70
    13
 71
     2
 72
     2
 73
     1
 90
        0
 40
-0.6
 41
-30.0
 62
     5
 63
     7
421
 16777215
 74
     1
 91
        4
 64
     7
 65
   257
 75
     1
175
     1
 42
1.0
 92
       12
 66
     7
 43
1.0
 76
     1
 77
     6
 78
     2
 67
     7
 79
     5
170
     0
171
     0
290
     0
174
     0
 93
        1
 44
0.0
173
     0
291
     1
 45
0.0
  0
DICTIONARYVAR
  5
84
102
{ACAD_REACTORS
330
5E
102
}
330
5E
100
DictionaryVariables
280
     0
  1
STANDARD
  0
DICTIONARYVAR
  5
5F
102
{ACAD_REACTORS
330
5E
102
}
330
5E
100
DictionaryVariables
280
     0
  1
2
  0
DICTIONARYVAR
  5
63
102
{ACAD_REACTORS
330
5E
102
}
330
5E
100
DictionaryVariables
280
     0
  1
1
  0
DICTIONARY
  5
379
330
D3
100
AcDbDictionary
280
     1
281
     1
  3
ADSK_XREC_LAYOUTTHUMBNAIL
360
37A
  0
XRECORD
  5
37A
102
{ACAD_REACTORS
330
379
102
}
330
379
100
AcDbXrecord
280
     1
310
28000000630000008C0000000100080000000000B036000000000000000000000001000000000000FFFFFF0000000000FFFFFF000000000000000000000000000000000000000000000000000000000000000000330000006600000099000000CC000000FF00000000330000333300006633000099330000CC330000FF3300
310
0000660000336600006666000099660000CC660000FF66000000990000339900006699000099990000CC990000FF99000000CC000033CC000066CC000099CC0000CCCC0000FFCC000000FF000033FF000066FF000099FF0000CCFF0000FFFF000000003300330033006600330099003300CC003300FF003300003333003333
310
33006633330099333300CC333300FF33330000663300336633006666330099663300CC663300FF66330000993300339933006699330099993300CC993300FF99330000CC330033CC330066CC330099CC3300CCCC3300FFCC330000FF330033FF330066FF330099FF3300CCFF3300FFFF330000006600330066006600660099
310
006600CC006600FF00660000336600333366006633660099336600CC336600FF33660000666600336666006666660099666600CC666600FF66660000996600339966006699660099996600CC996600FF99660000CC660033CC660066CC660099CC6600CCCC6600FFCC660000FF660033FF660066FF660099FF6600CCFF6600
310
FFFF660000009900330099006600990099009900CC009900FF00990000339900333399006633990099339900CC339900FF33990000669900336699006666990099669900CC669900FF66990000999900339999006699990099999900CC999900FF99990000CC990033CC990066CC990099CC9900CCCC9900FFCC990000FF99
310
0033FF990066FF990099FF9900CCFF9900FFFF99000000CC003300CC006600CC009900CC00CC00CC00FF00CC000033CC003333CC006633CC009933CC00CC33CC00FF33CC000066CC003366CC006666CC009966CC00CC66CC00FF66CC000099CC003399CC006699CC009999CC00CC99CC00FF99CC0000CCCC0033CCCC0066CC
310
CC0099CCCC00CCCCCC00FFCCCC0000FFCC0033FFCC0066FFCC0099FFCC00CCFFCC00FFFFCC000000FF003300FF006600FF009900FF00CC00FF00FF00FF000033FF003333FF006633FF009933FF00CC33FF00FF33FF000066FF003366FF006666FF009966FF00CC66FF00FF66FF000099FF003399FF006699FF009999FF00CC
310
99FF00FF99FF0000CCFF0033CCFF0066CCFF0099CCFF00CCCCFF00FFCCFF0000FFFF0033FFFF0066FFFF0099FFFF00CCFFFF00FFFFFF00000000000D0D0D001A1A1A00282828003535350043434300505050005D5D5D006B6B6B00787878008686860093939300A1A1A100AEAEAE00BBBBBB00C9C9C900D6D6D600E4E4E400
310
F1F1F100FFFFFF0000000000000000000000000000000000000000000000000000000000000000000000000000000000E2E2E2E2E2E2E2E2E2E2E2E2E2E2E2E2E2E2E2E2E2E2E2E2E2E2E2E2E2E2E2E2E2E2E2E2E2E2E2E2E2E2E2E2E2E2E2E2E2E2E2E2E2E2E2E2E2E2E2E2E2E2E2E2E2E2E2E2E2E2E2E2E2E2E2E2E2E2E2
310
E2E2E2E2E2E2E2E2E2E2E2E2E2E2E2E2E2E2E2E233E2F5F5F5F5F5F5F5F5F5F5F5F5F5F5F5F5F5F5F5F5F5F5F5F5F5F5F5F5F5F5F5F5F5F5F5F5F5F5F5F5F5F5F5F5F5F5F5F5F5F5F5F5F5F5F5F5F5F5F5F5F5F5F5F5F5F5F5F5F5F5F5F5F5F5F5F5F5F5F5F5F5F5F5F5F5F5F5F5F5F5F5F5F5F5F5F5F5E200E2F5F5F5F5F5
310
F5F5F5F5F5F5F5F5F5F5F5F5F5F5F5F5F5F5F5F5F5F5F5F5F5F5F5F5F5F5F5F5F5F5F5F5F5F5F5F5F5F5F5F5F5F5F5F5F5F5F5F5F5F5F5F5F5F5F5F5F5F5F5F5F5F5F5F5F5F5F5F5F5F5F5F5F5F5F5F5F5F5F5F5F5F5F5F5F5F5F5F5E200E2F5E2E2E2E2E2E2E2E2F5F5F5F5F5F5F5F5E2E2E2E2E2E2E2E2E2E2E2E2E2E2E2
310
E2F5F5F5F5F5F5F5F5E2E2E2E2E2E2E2E2E2E2E2E2E2E2E2F5F5F5F5F5F5F5F5E2E2E2E2E2E2E2E2E2E2E2E2E2E2E2E2F5F5F5F5F5F5F5F5E2E2E2E2E2E2E2E2F5E209E2F5E2F5F5F5F5F5F5F5F5F5F5F5F5F5F5F5F5F5F5F5F5F5F5F5F5F5F5F5F5F5F5F5F5F5F5F5F5F5F5F5F5F5F5F5F5F5F5F5F5F5F5F5F5F5F5F5F5F5
310
F5F5F5F5F5F5F5F5F5F5F5F5F5F5F5F5F5F5F5F5F5F5F5F5F5F5F5F5F5F5F5F5F5F5F5F5E2F5E233E2F5E2F5F5F5F5F5F5F5F5F5F5F5F5F5F5F5F5F5F5F5F5F5F5F5F5F5F5F5F5F5F5F5F5F5F5F5F5F5F5F5F5F5F5F5F5F5F5F5F5F5F5F5F5F5F5F5F5F5F5F5F5F5F5F5F5F5F5F5F5F5F5F5F5F5F5F5F5F5F5F5F5F5F5F5F5
310
F5F5F5F5F5F5F5F5F5E2F5E200E2F5E2F5F5F5F5F5F5F5F5F5F5F5F5F5F5F5F5F5F5F5F5F5F5F5F5F5F5F5F5F5F5F5F5F5F5F5F5F5F5F5F5F5F5F5F5F5F5F5F5F5F5F5F5F5F5F5F5F5F5F5F5F5F5F5F5F5F5F5F5F5F5F5F5F5F5F5F5F5F5F5F5F5F5F5F5F5F5F5F5F5F5F5F5F5E2F5E200E2F5E2F5F5F5F5F5F5F5F5F5F5F5
310
F5F5F5F5F5F5F5F5F5F5F5F5F5F5F5F5F5F5F5F5F5F5F5F5F5F5F5F5F5F5F5F5F5F5F5F5F5F5F5F5F5F5F5F5F5F5F5F5F5F5F5F5F5F5F5F5F5F5F5F5F5F5F5F5F5F5F5F5F5F5F5F5F5F5F5F5F5F5F5F5F5F5E2F5E209E2F5E2F5F5F5F5F5F5F5F5F5F5F5F5F5F5F5F5F5F5F5F5F5F5F5F5F5F5F5F5F5F5F5F5F5F5F5F5F5F5
310
F5F5F5F5F5F5F5F5F5F5F5F5F5F5F5F5F5F5F5F5F5F5F5F5F5F5F5F5F5F5F5F5F5F5F5F5F5F5F5F5F5F5F5F5F5F5F5F5F5F5F5F5F5F5F5E2F5E200E2F5E2F50F0F0F0F0F0F0F0F0F0F0F0F0F0F0F0F0F0F0F0F0F0F0F0F0F0F0F0F0F0F0F0F0F0F0F0F0F0F0F0F0F0F0F0F0F0F0F0F0F0F0F0F0F0F0F0F0F0F0F0F0F0F0F0F
310
0F0F0F0F0F0F0F0F0F0F0F0F0F0F0F0F0F0F0F0F0F0F0F0F0F0FF5F5E2F5E27EE2F5E2F50FF5E2E2E2E2E2E2E2E2E2E2E2E2E20FE2E2E2E2E2E2E2E2E2E2E2E2E2E20FE2E2E2E2E2E2E2E2E2E2E2E2E2E20FE2E2E2E2E2E2E2E2E2E2E2E2E2E20FE2E2E2E2E2E2E2E2E2E2E2E2E2E20FE2E2E2E2E2E2E2E2E2E2E2E2E20FF5
310
F5E2F5E200E2F5E2F50FF5E2F5F5F5F5F50FF5F5F5F5F5F50FF5F5F5F5F5F50FF5F5F5F5F5F5F50FF5F5F5F5F5F50FF5F5F5F5F5F5F50FF5F5F5F5F5F50F0FF5F5F5F5F5F50FF5F5F5F5F5F50FF5F5F5F5F5F5F50FF5F5F5F5F50F0FF5F5F5F5F5E20FF5F5E2F5E233E2F5F5F50FF5E20F0F0F0F0F0F0F0F0F0F0F0F0F0F0F
310
0F0F0F0F0F0F0F0F0F0F0F0F0F0F0F0F0F0F0F0F0F0F0F0F0F0F0F0F0F0F0F0F0F0F0F0F0F0F0F0F0F0F0F0F0F0F0F0F0F0F0F0F0F0F0F0F0F0F0F0F0FE20F0F0FE20F0F0FF5E20FF5F5F5F5E200E2F5F5F50FF5E20FF5F5F5F5F5F5F5F5F5F5F5F5F5F5F5F5F5F5F5F5F5F50FF5F5F5F5F5F5F5F5F5F5F5F5F5F5F5F5F5E2
310
F5F5F5F5F5F5F5F5F5F5F5F5F5F5F5F5F5F5F5E20F0F0FF5E2F5F5F5F5F5F5F5F5F5E20F0FF5E20F0F0FF5E20FF5F5F5F5E200E2F5F5F50FF5E20FF5F5F5F5F5F5F5F5F5F5F5F5F5F5F5F5F5F5F5F5F5F50FF5F5F5F5F5F5F5F5F5F5F5F5F5F5F5F5F5E2F5F5F5F5F5F50F0F0F0F0F0FF5F5F5F5F5F5F5E2E2E2E2E2E2E2E2
310
E2E2E2E2E2E2F5E2E2E2F5E2E2E2E2F5E20FF5F5F5F5E200E2F5F5F50FF5E20FF5F5F5F5F5F5F5F5F5F5F5F5F5F5F5F5F5F5F5F5F5F50FF5F5F5F5F5F5F5F5F5F5F5F5F5F5F5F5F5E2F5F5F5F5F5F50F0F0F0F0F0FF5F5F5F5F5F5F5E2E2E2E2E2E2E2E2E2E2E2E2E2E2F5E2E2E2F5E2E2E20FF5E20FF5F5F5F5E200E2F5F5
310
F50FF5E20FF5F5F5F5F5F5F5F5F5F5F5F5F5F5F5F5F5F5F5F5F5F50FF5F5F5F5F5F5F5F5F5F5F5F5F5F5F5F5F5E2F5F5F5F5F5F5F5F5F5F5F5F5F5F5F5F5F5F5F5E20F0F0F0F0F0F0F0F0FE2E2E2E2E2E2E2E2E2E2E2E2E2F5E20FF5F5F5F5E200E2F5F5F50FF50F0FF5F5F5F5F5F5F5F5F5F5F5F5F5F5F5F5F5F5F5F5F5F5
310
0FF5F5F5F5F5F5F5F5F5F5F5F5F5F5F5F5F5E2F5F5F5F5F5F5F5F5F5F5F5F5F5F5F5F5F5F5F5E20F0F0F0F0F0F0F0F0FF5E2F5F5F5F5F5F5F5F5F5F50F0FE20FF5F5F5F5E200E2F5F5F50FF50F0FF5F5F5F5F5F5F5F5F5F5F5F5F5F5F5F5F5F5F5F5F5F50FF5F5F5F5F5F5F5F5F5E2F5F5F5F5F5F5F5E2F5F5F5F5F5F5F5F5
310
F5F5F5F5F5F5F5F5F5F5F5E2F5F5F5F5F5F5F5F5F5F5E2F5F5F5F5F5F5F5F5F5F5E20FE20FF5F5F5F5E200E2F5F5F50FF5E20FF5F5F5F5F5F5F5F5F5F5F5F5F5F5F5F5F5F5F5F5F5F50FF5F5F5F5F5F5F5F5F5F5F5F5F5F5F5F5F5E2E2E2E2E2E2E2E2E2E2E2E2E2F5F5F5F5F5F5F5E2E2E2E2E2E2E2E2F5F5F5E2E2E2E2E2
310
E2F5F5F5F5F50FF5E20FF5F5F5F5E200E2F5F5F50FF5E20FF5F5F5F5F5F5F5F5F5F5F5F5F5F5F5F5F5F5F5F5F5F50FF5F5F5F5F5F5F5F5F5F5F5F5F5F5F5F5F5E2E2E2E2E2E2E2E2E2E2E2E2E2E2E2E2E2E2E2E2E2E2E2E2E2E2E2E2E2E2E2E2E2E2E2E2E2E2E2E2E2E2E2F5E20FF5F5F5F5E200E2F5F5F50FF5E20FF5F5F5
310
F5F5F5F5F5F5F5F5F5F5F5F5F5F5F5F5F5F5F50FF5F5F5F5F5F5F5F5F5F5F5F5F5F5F5F5F5E2F5F5F5F5F5F5F5F5F5F5F5E2F5F5F5F5F5F5F5F5F5F5F5F5F5E2F5F5F5F5F5F5F5F5F5F5F5F5F5F5F50FF5E20FF5F5F5F5E200E2F5E2F50FF5E20FF5F5F5F5F5F5F5F5F5F5F5F5F5F5F5F5F5F5F5F5F5F50FF5F5F5F5F5F5F5
310
F5F5F5F5F5F5F5F5F5F5E2F5F5F5F5F5F5F5F5F5F5F5E2F5F5F5F5F5F5F5F5F5F5F5F5F5E2F5F5F5F5F5F5F5F5F5F5F5F5F5F5F50FF5E20FF5F5E2F5E200E2F5E2F50FF5E20FF5F5F5F5F5F5F5F5F5F5F5F5F5F5F5F5F5F5F5F5F5F5E2E2E2F5F5F5F5F5F5F5F5F5F5F5F5F5F5F5E2E2E2E2E2E2E2E2F5F5F5F5E2E2E2E2E2
310
E2E2E2E2F5F5F5F5F5E2E2E2E2E2E2E2E2E2E2F5F5F5F5F5F5E2F5E20FF5F5E2F5E26BE2F5E2F50FF5E20FF5F5F5F5F5F5F5F5F5F5F5F5F5F5F5F5F5F5F5F5F5F50FF5F5F5F5F5F5F5F5F5F5F5F5F5F5F5F5F5E2F5F5F5F5F5F5F5F5F5F5F5E2F5F5F5F5F5F5F5F5F5F5F5F5F5E2F5F5F5F5F5F5F5F5F5F5F5F5F5F5F50FF5
310
E20FF5F5E2F5E200E2F5E2F50FF50F0FF5F5F5F5F5F5F5F5F5F5F5F5F5F5F5F5F5F5F5F5F5F50F0F0F0F0F0F0F0F0F0F0F0F0F0F0F0F0F0F0F0F0F0F0F0F0F0F0F0F0F0F0F0F0F0F0F0F0F0F0F0F0F0F0F0F0F0F0F0F0F0F0F0F0F0F0F0F0F0F0F0F0F0F0F0FF5F5E2F5E200E2F5E2F50FF5E20FF5F5F5F5F5F5F5F5F5F5F5
310
F5F5F5F5F5F5F5F5F5F5F5F5F5F5F5F5F5F5F5F5F5F5F5F5F5F5F5F5F5F5F5F5F5F5F5F5F5F5F5F5F5F5F5F5F5F5F5F5F5F5F5F5F5F5F5F5F5F5F5F5F5F5F5F5F5F5F5F5F5F5F50FF5E20FF5F5E2F5E200E2F5E2F50FF5E20FF5F5F5F5F5F5F5F5F5F5F5F5F5F5F5F5F5F5F5F5F5F5F5F5F5F5F5F5F5F5F5F5F5F5F5F5F5F5
310
F5F5F5F5F5F5F5F5F5F5F5F5F5F5F5F5F5F5F5F5F5F5F5F5F5F5F5F5F5F5F5F5F5F5F5F5F5F5F5F5F5F5F5F50FF5E20FF5F5E2F5E200E2F5E2F50FF5E20FF5F5F5F5F5F5F5F5F5F5F5F5F5F5F5F5F5F5F5F5F5F5F5F5F5F5F5F5F5F5F5F5F5F5F5F5F5F5F5F5F5F5F5F5F5F5F5F5F5F5F5F5F5F5F5F5F5F5F5F5F5F5F5F5F5
310
F5F5F5F5F5F5F5F5F5F5F5F5F5F5F5F5F50FF5E20FF5F5E2F5E200E2F5E2F50FF5E20FF5F5F5F5F5F5F5F5F5F5F5F5F5F5F5F5F5F5F5F5F5F5F5F5F5F5F5F5F5F5F5F5F5F5F5F5F5F5F5F5F5F5F5F5F5F5F5F5F5F5F5F5F5F5F5F5F5F5F5F5F5F5F5F5F5F5F5F5F5F5F5F5F5F5F5F5F5F5F5F5F5F50FF5E20FF5F5E2F5E200
310
E2F5E2F50FF5E20FF5F5F5F5F5F5F5F5F5F5F5F5F5F5F5F5F5F5F5F5F5F5F5F5F5F5F5F5F5F5F5F5F5F5F5F5F5F5F5F5F5F5F5F5F5F5F5F5F5F5F5F5F5F5F5F5F5F5F5F5F5F5F5F5F5F5F5F5F5F5F5F5F5F5F5F5F5F5F5F5F5F50FF5E20FF5F5E2F5E200E2F5E2F50FF5E20FF5F5F5F5F5F5F5F5F5F5F5F5F5F5F5F5F5F5F5
310
F5F5F5F5F5F5F5F5F5F5F5F5F5F5F5F5F5F5F5F5F5F5F5F5F5F5F5F5F5F5F5F5F5F5F5F5F5F5F5F5F5F5F5F5F5F5F5F5F5F5F5F5F5F5F5F5F5F5F5F5F5F5F50FF5E20FF5F5E2F5E200E2F5E2F50FF5E20FF5F5F5F5F5F5F5F5F5F5F5F5F5F5F5F5F5F5F5F5F5F5F5F5F5F5F5F5F5F5F5F5F5F5F5F5F5F5F5F5F5E2F5F5F5F5
310
F5F5F5F5F5F5F5F5F5F5F5F5F5F5F5F5F5F5F5F5F5F5F5F5F5F5F5F5F5F5F5F5F5F5F5F50FF5E20FF5F5E2F5E200E2F5E2F50FF50F0FF5F5F5F5F5F5F5F5F5F5F5F5F5F5F5F5F5F5F5F5F5F5F5F5F5F5F5F5F5F5F5F5F5F5F5F5F5F5F5F5F5E2F5F5F5F5F5F5F5F5F5F5F5F5F5F5F5F5F5F5F5F5F5F5F5F5F5F5F5F5F5F5F5
310
F5F5F5F5F5F5F5F5F50F0FE20FF5F5E2F5E200E2F5E2F50FF5E20FF5F5F5F5F5F5F5F5F5F5F5F5F5F5F5F5F5F5F5F5F5F5F5F5F5F5F5F5F5F5F5F5F5F5F5F5F5F5F5F5F5E2F5F5F5F5F5F5F5F5F5F5F5F5F5F5F5F5F5F5F5F5F5F5F5F5F5F5F5F5F5F5F5F5F5F5F5F5F5F5F5F50FF5E20FF5F5E2F5E200E2F5E2F50FF5E20F
310
F5F5F5F5F5F5F5F5F5F5F5F5F5F5F5F5F5F5F5F5F5F5F5F5F5F5F5F5F5F5F5F5F5F5F5F5F5F5E2E2E2E2E2E2F5F5F5F5F5F5F5F5F5F5F5F5F5F5F5F5F5F5F5F5F5F5F5F5F5F5F5F5F5F5F5F5F5F5F5F5F5F50FF5E20FF5F5E2F5E200E2F5E2F50FF5E20FF5F5F5F5F5F5F5F5F5F5F5F5F5F5F5F5F5F5F5F5F5F5F5F5F5F5F5
310
F5F5F5F5F5F5F5F5F5F5E2E2E2E2E2E2E2E2F5F5F5F5F5F5F5F5F5F5F5F5F5F5F5F5F5F5F5F5F5F5F5F5F5F5F5F5F5F5F5F5F5F5F5F5F50FF5E20FF5F5E2F5E200E2F5E2F50FF5E20FF5F5F5F5F5F5F5F5F5F5F5F5F5F5F5F5F5F5F5F5F5F5F5F5F5F5F5F5F5F5F5F5F5F5F5F5F5E2E2F5F5E2F5E2E2E2F5F5F5F5F5F5F5F5
310
F5F5F5F5F5F5F5F5F5F5F5F5F5F5F5F5F5F5F5F5F5F5F5F5F5F5F5F50FF5E20FF5F5E2F5E200E2F5E2F50FF5E20FF5F5F5F5F5F5F5F5F5F5F5F5F5F5F5F5F5F5F5F5F5F5F5F5F5F5F5F5F5F5F5F5F5F5F5F5E2E2F5F5F5E2F5F5E2E2F5F5F5F5F5F5F5F5F5F5F5F5F5F5F5F5F5F5F5F5F5F5F5F5F5F5F5F5F5F5F5F5F5F5F5
310
F50FF5E20FF5F5E2F5E200E2F5F5F50FF5E20FF5F5F5F5F5F5F5F5F5F5F5F5F5F5F5F5F5F5F5F5F5F5F5F5F5F5F5F5F5F5F5F5F5E2E2E2E2E2E2E2E2E2E2E2E2E2E2E2E2E2F5F5F5F5F5F5F5F5F5F5F5F5F5F5F5F5F5F5F5F5F5F5F5F5F5F5F5F5F5F5F5F50FF5E20FF5F5F5F5E200E2F5F5F50FF50F0FF5F5F5F5F5F5F5F5
310
F5F5F5F5F5F5F5F5F5F5F5F5F5F5F5F5F5F5F5F5F5F5F5F5F5F5F5F5E2E2F5F5F5E2F5F5F5E2F5F5F5F5F5F5F5F5F5F5F5F5F5F5F5F5F5F5F5F5F5F5F5F5F5F5F5F5F5F5F5F5F5F5F5F50F0F0F0FF5F5F5F5E200E2F5F5F50FF5E20FF5F5F5F5F5F5F5F5F5F5F5F5F5F5F5F5F5F5F5F5F5F5F5F5F5F5F5F5F5F5F5F5F5F5F5
310
F5E2E2F5F5F5E2F5F5E2E2F5F5F5F5F5F5F5F5F5F5F5F5F5F5F5F5F5F5F5F5F5F5F5F5F5F5F5F5F5F5F5F5F5F5F5F50FF5E20FF5F5F5F5E200E2F5F5F50FF5E20FF5F5F5F5F5F5F5F5F5F5F5F5F5F5F5F5F5F5F5F5F5F5F5F5F5F5F5F5F5F5F5F5F5F5F5F5F5E2E2F5F5E2F5E2E2E2F5F5F5F5F5F5F5F5F5F5F5F5F5F5F5F5
310
F5F5F5F5F5F5F5F5F5F5F5F5F5F5F5F5F5F5F5F50FF5E20FF5F5F5F5E200E2F5F5F50FF5E20FF5F5F5F5F5F5F5F5F5F5F5F5F5F5F5F5F5F5F5F5F5F5F5F5F5F5F5F5F5F5F5F5F5F5F5F5F5E2E2E2E2E2E2E2E2F5E2E2F5F5F5F5F5F5F5F5F5F5F5F5F5F5F5F5F5F5F5F5F5F5F5F5F5F5F5F5F5F5F5F5F5F50FF5E20FF5F5F5
310
F5E200E2F5F5F50FF5E20FF5F5F5F5F5F5F5F5F5F5F5F5F5F5F5F5F5F5F5F5F5F5F5F5F5F5F5F5F5F5F5F5F5F5F5F5F5F5F5E2E2E2E2E2F5F5F5F5E2E2F5F5F5F5F5F5F5F5F5F5F5F5F5F5F5F5F5F5F5F5F5F5F5F5F5F5F5F5F5F5F5F50FF5E20FF5F5F5F5E200E2F5F5F50FF5E20FF5F5F5F5F5F5F5F5F5F5F5F5F5F5F5F5
310
F5F5F5F5F5F5F5F5F5F5F5F5F5F5F5F5F5F5F5F5F5F5F5F5F5E2F5F5F5F5F5F5F5E2E2F5F5F5F5F5F5F5F5F5F5F5F5F5F5F5F5F5F5F5F5F5F5F5F5F5F5F5F5F5F5F50FF5E20FF5F5F5F5E200E2F5F5F50FF5E20FF5F5F5F5F5F5F5F5F5F5F5F5F5F5F5F5F5F5F5F5F5F5F5F5F5F5F5F5F5F5F5F5F5F5F5F5F5F5F5F5F5E2F5
310
F5F5F5F5F5F5E2F5F5F5F5F5F5F5F5F5F5F5F5F5F5F5F5F5F5F5F5F5F5F5F5F5F5F5F5F5F5F5F50FF5E20FF5F5F5F5E200E2F5F5F50FF50F0FF5F5F5F5F5F5F5F5F5F5F5F5F5F5F5F5F5F5F5E2E2E2E2E2E2E2E2E2E2F5F5F5F5F5F5F5F5F5F5F5F5E2F5F5F5F5F5F5E2F5F5F5F5F5F5F5F5F5F5F5F5F5F5F5F5F5F5F5F5F5
310
F5F5F5F5F5F5F5F5F5F5F5F50F0FE20FF5F5F5F5E200E2F5E2F50FF50F0FF5F5F5F5F5F5F5F5F5F5F5F5F5F5F5F5F5F5F5F5F5F5F5F5F5F5F5F5F5F5F5F5F5F5F5F5F5F5F5F5F5E2F5F5F5F5E2E2F5F5F5F5F5F5F5F5F5F5F5F5F5F5F5F5F5F5F5F5F5F5F5F5F5F5F5F5F5F5F5F5F5F50F0FE20FF5F5E2F5E200E2F5E2F50F
310
F5E20FF5F5F5F5F5F5F5F5F5F5F5F5F5F5F5F5F5F5F5F5F5F5F5F5F5F5F5F5F5F5F5F5F5F5F5F5F5F5F5F5F5E2F5F5E2E2E2E2E2F5F5F5F5F5F5F5F5F5F5F5F5F5F5F5F5F5F5F5F5F5F5F5F5F5F5F5F5F5F5F5F5F50FF5E20FF5F5E2F5E200E2F5E2F50FF5E20FF5F5F5F5F5F5F5F5F5F5F5F5F5F5F5F5F5F5F5F5F5F5F5F5
310
F5F5F5F5F5F5F5F5F5F5F5F5F5F5F5F5F5E2E2E2F5E2E2E2F5F5F5F5F5F5F5F5F5F5F5F5F5F5F5F5F5F5F5F5F5F5F5F5F5F5F5F5F5F5F5F5F5F50FF5E20FF5F5E2F5E200E2F5E2F50FF5E20FF5F5F5F5F5F5F5F5F5F5F5F5F5F5F5F5F5F5F5F5F5F5F5F5F5F5F5F5F5F5F5F5F5F5F5F5F5F5F5F5F5F5F5F5F5F5F5F5F5F5F5
310
F5F5F5F5F5F5F5F5F5F5F5F5F5F5F5F5F5F5F5F5F5F5F5F5F5F5F5F5F5F5F50FF5E20FF5F5E2F5E200E2F5E2F50FF5E20FF5F5F5F5F5F5F5F5F5F5F5F5F5F5F5F5F5F5F5F5F5F5F5F5F5F5F5F5F5F5F5F5F5F5F5F5F5F5F5F5F5F5F5F5F5F5F5F5F5F5F5F5F5F5F5F5F5F5F5F5F5F5F5F5F5F5F5F5F5F5F5F5F5F5F5F5F5F5
310
F5F5F5F50FF5E20FF5F5E2F5E200E2F5E2F50FF5E20FF5F5F5F5F5F5F5F5F5F5F5F5F5F5F5F5F5F5F5F5F5F5F5F5F5F5F5F5F5F5F5F5F5F5F5F5F5F5F5F5F5F5F5F5F5F5F5F5F5F5F5F5F5F5F5F5F5F5F5F5F5F5F5F5F5F5F5F5F5F5F5F5F5F5F5F5F5F5F5F5F5F50FF5E20FF5F5E2F5E200E2F5E2F50FF5E20FF5F5F5F5F5
310
F5F5F5F5F5F5F5F5F5F5F5F5F5F5F5F5F5F5F5F5F5F5F5F5F5F5F5F5F5F5F5F5F5F5F5F5F5F5F5F5F5F5F5F5F5F5F5F5F5F5F5F5F5F5F5F5F5F5F5F5F5F5F5F5F5F5F5F5F5F5F5F5F5F5F5F5F50FF5E20FF5F5E2F5E200E2F5E2F50FF50F0FF5F5F5F5F5F5F5F5F5F5F5F5F5F5F5F5F5F5F5F5F5F5F5F5F5F5F5F5F5F5F5F5
310
F5F5F5F5F5F5F5F5F5F5F5F5F5F5F5F5F5F5F5F5F5F5F5F5F5F5F5F5F5F5F5F5F5F5F5F5F5F5F5F5F5F5F5F5F5F5F5F5F5F50F0F0F0FF5F5E2F5E200E2F5E2F50FF5E20FF5F5F5F5F5F5F5F5F5F5F5F5F5F5F5F5F5F5F5F5F5F5F5F5F5F5F5F5F5F5F5F5F5F5F5F5F5F5F5F5F5F5F5F5F5F5F5F5F5F5F5F5F5F5F5F5F5F5F5
310
F5F5F5F5F5F5F5F5F5F5F5F5F5F5F5F5F5F5F5F5F5F5F50FF5E20FF5F5E2F5E200E2F5E2F50FF5E20FF5F5F5F5F5F5F5F5F5F5F5F5F5F5F5F5F5F5F5F5F5F5F5F5F5F5F5F5F5F5F5F5F5F5F5F5F5F5F5F5F5F5F5F5F5F5F5F5F5F5F5F5F5F5F5F5F5F5F5F5F5F5F5F5F5F5F5F5F5F5F5F5F5F5F5F5F5F5F5F5F5F50FF5E20F
310
F5F5E2F5E200E2F5E2F50FF5E20FF5F5F5F5F5F5F5F5F5F5F5F5F5F5F5F5F5F5F5F5F5F5F5F5F5F5F5F5F5F5F5F5F5F5F5F5F5F5F5F5F5F5F5F5F5F5F5F5F5F5F5F5F5F5F5F5F5F5F5F5F5F5F5F5F5F5F5F5F5F5F5F5F5F5F5F5F5F5F5F5F5F50FF5E20FF5F5E2F5E200E2F5E2F50FF5E20FF5F5F5F5F5F5F5F5F5F5F5F5F5
310
F5F5F5F5F5F5F5F5F5F5F5F5F5F5F5F5F5F5F5F5F5F5F5E2E2E2E2E2E2E2E2E2E2F5F5F5F5F5F5F5F5F5F5F5F5F5F5F5F5F5F5F5F5F5F5F5F5F5F5F5F5F5F5F5F5F5F5F5F50FF5E20FF5F5E2F5E200E2F5E2F50FF5E20FF5F5F5F5F5F5F5F5F5F5F5F5F5F5F5F5F5F5F5F5F5F5F5F5F5F5F5F5F5F5F5F5F5F5F5F5E2E2F5F5
310
E2E2E2F5E2E2F5F5F5F5F5F5F5F5F5F5F5F5F5F5F5F5F5F5F5F5F5F5F5F5F5F5F5F5F5F5F5F5F5F5F5F50FF5E20FF5F5E2F5E200E2F5E2F50FF5E20FF5F5F5F5F5F5F5F5F5F5F5F5F5F5F5F5F5F5F5F5F5F5F5F5F5F5F5F5F5F5F5F5F5F5F5F5E2F5F5F5E2E2E2F5F5E2F5F5F5F5F5F5F5F5F5F5F5F5F5F5F5F5F5F5F5F5F5
310
F5F5F5F5F5F5F5F5F5F5F5F5F5F5F50FF5E20FF5F5E2F5E200E2F5E2F50FF50F0FF5F5F5F5F5F5F5F5F5F5F5F5F5F5F5F5F5F5F5F5F5F5F5F5F5F5F5F5F5F5F5F5F5F5F5F5E2E2E2F5F5F5F5F5E2E2F5F5F5F5F5F5F5F5F5F5F5F5F5F5F5F5F5F5F5F5F5F5F5F5F5F5F5F5F5F5F5F5F5F5F5F50F0FE20FF5F5E2F5E200E2F5
310
E2F50FF50F0FF5F5F5F5F5F5F5F5F5F5F5F5F5F5F5F5F5F5F5F5F5F5F5F5F5F5F5F5F5F5F5F5F5F5F5F5E2E2E2E2E2E2E2E2E2E2F5F5F5F5F5F5F5F5F5F5F5F5F5F5F5F5F5F5F5F5F5F5F5F5F5F5F5F5F5F5F5F5F5F5F5F50F0FE20FF5F5E2F5E200E2F5E2F50FF5E20FF5F5F5F5F5F5F5F5F5F5F5F5F5F5F5F5F5F5F5F5F5
310
F5F5F5F5F5F5F5F5F5F5F5F5F5F5F5E2E2F5F5E2E2E2F5F5E2F5F5F5F5F5F5F5F5F5F5F5F5F5F5F5F5F5F5F5F5F5F5F5F5F5F5F5F5F5F5F5F5F5F5F5F50FF5E20FF5F5E2F5E200E2F5F5F50F0FE20FF5F5F5F5F5F5F5F5F5F5F5F5F5F5F5F5F5F5F5F5F5F5F5F5F5F5F5F5F5F5F5F5F5F5F5F5E2E2F5F5F5F5F5F5F5E2F5F5
310
F5F5F5F5F5F5F5F5F5F5F5F5F5F5F5F5F5F5F5F5F5F5F5F5F5F5F5F5F5F5F5F5F50F0FF5E20FF5F5F5F5E200E2F5F5F50FF5E20FF5F5F5F5F5F5F5F5F5F5F5F5F5F5F5F5F5F5F5F5F5F5F5F5F5F5F5F5F5F5F5F5F5F5F5F5E2E2E2E2E2E2E2E2E2E2E2E2E2E2E2E2E2E2E2E2E2E2E2E2E2E2E2E2E2E2E2E2F5F5F5F5F5F5F5
310
F5F5F5F5F5F5F50FF5E20FF5F5F5F5E200E2F5F5F50FF5E20FF5F5F5F5F5F5F5F5F5F5F5F5F5F5F5F5F5F5F5F5F5F5F5F5F5F5F5F5F5F5F5F5F5F5F5F5E2E2F5F5F5F5F5F5F5E2F5F5F5F5F5F5F5F5F5F5F5F5F5F5F5F5F5F5F5F5E2E2F5F5F5F5F5F5F5F5F5F5F5F5F5F50FF5E20FF5F5F5F5E200E2F5F5F50FF5E20FF5F5
310
F5F5F5F5F5F5F5F5F5F5F5F5F5F5F5F5F5F5F5F5F5F5F5F5F5F5F5F5F5F5F5F5F5F5E2E2F5F5F5F5F5F5F5E2F5F5F5F5F5F5F5F5F5F5F5F5F5F5F5F5F5F5F5F5F5E2F5F5F5F5F5F5F5F5F5F5F5F5F5F50FF5E20FF5F5F5F5E200E2F5F5F50FF5E20FF5F5F5F5F5F5F5F5F5F5F5F5F5F5F5F5F5F5F5F5F5F5F5F5F5F5F5F5F5
310
F5F5F5F5F5F5F5E2E2F5F5F5F5F5F5F5E2F5F5F5F5F5F5F5F5F5F5F5F5F5F5F5F5F5F5F5F5F5E2F5F5F5F5F5F5F5F5F5F5F5F5F5F50FF5E20FF5F5F5F5E200E2F5F5F50FF50FE2E2E2E2F5F5F5F5F5F5F5F5F5F5F5F5F5F5F5F5F5F5F5F5F5F5F5F5F5F5F5F5F5F5F5F5F5E2E2F5F5F5F5F5F5F5E2F5F5F5F5F5F5F5F5F5F5
310
F5F5F5F5F5F5F5F5F5F5F5E2F5F5F5F5F5F5F5F5F5F5F5E2E2E20F0F0F0FF5F5F5F5E200E2F5F5F50FF5E20FF5F5F5F5F5F5F5F5F5F5F5F5F5F5F5F5F5F5F5F5F5F5F5F5F5F5F5F5F5F5F5F5F5F5F5F5E2E2F5F5F5F5F5F5F5E2F5F5F5F5F5F5F5F5F5F5F5F5F5F5F5F5F5F5F5F5F5E2F5F5F5F5F5F5F5F5F5F5F5F5F5F50F
310
F5E20FF5F5F5F5E200E2F5F5F50FF5E20FF5F5F5F5F5F5F5F5F5F5F5F5F5F5F5F5F5F5F5F5F5F5F5F5F5F5F5F5F5F5F5F5F5F5F5F5E2E2F5F5F5F5F5F5F5E2F5F5F5F5F5F5F5F5F5F5F5F5F5F5F5F5F5F5F5F5F5E2F5F5F5F5F5F5F5F5F5F5F5F5F5F50FF5E20FF5F5F5F5E200E2F5F5F50FF5E20FF5F5F5F5F5F5F5F5F5F5
310
F5F5F5F5F5F5F5F5F5F5F5F5F5F5F5F5F5F5F5F5F5F5F5F5F5F5E2E2F5F5F5F5F5F5F5E2F5F5F5F5F5F5F5F5F5F5F5F5F5F5F5F5F5F5F5F5F5E2F5F5F5F5F5F5F5F5F5F5F5F5F5F50FF5E20FF5F5F5F5E200E2F5F5F50FF5E20FF5F5F5F5F5F5F5F5F5F5F5F5F5F5F5F5F5F5F5F5F5F5F5F5F5F5F5F5F5F5F5F5F5F5F5F5E2
310
E2F5F5F5F5F5F5F5E2F5F5F5F5F5F5F5F5F5F5F5F5F5F5F5F5F5F5F5F5F5E2F5F5F5F5F5F5F5F5F5F5F5F5F5F50FF5E20FF5F5F5F5E200E2F5E2F50FF5E20FF5F5F5F5F5F5F5F5F5F5F5F5F5F5F5F5F5F5F5F5F5F5F5F5F5F5F5F5F5F5F5F5F5F5F5F5E2E2F5F5F5F5F5F5F5E2F5F5F5F5F5F5F5F5F5F5F5F5F5F5F5F5F5F5
310
F5F5F5E2F5F5F5F5F5F5F5F5F5F5F5F5F5F50FF5E20FF5F5E2F5E200E2F5E2F50FF5E20FF5F5F5F5F5F5F5F5F5F5F5F5F5F5F5F5F5F5F5F5F5F5F5F5F5F5F5F5F5F5F5F5F5F5F5F5E2E2F5E2E2E2F5F5F5E2F5F5F5F5F5F5F5F5F5F5F5F5F5F5F5F5F5F5F5F5F5E2F5F5F5F5F5F5F5F5F5F5F5F5F5F50FF5E20FF5F5E2F5E2
310
00E2F5E2F50FF50F0FF5F5F5F5F5F5F5F5F5F5F5F5F5F5F5F5F5F5F5F5F5F5F5F5F5F5F5F5F5F5F5F5F5F5F5F5E2E2E2E2E2E2E2E2E2E2F5F5F5F5F5F5F5F5F5F5F5F5F5F5F5F5F5F5F5F5F5E2F5F5F5F5F5F5F5F5F5F5F5F5F5F50F0FE20FF5F5E2F5E200E2F5E2F50FF50F0FF5F5F5F5F5F5F5F5F5F5F5F5F5F5F5F5F5F5
310
F5F5F5F5F5F5F5F5F5F5F5F5F5F5F5F5F5F5E2E2E2F5F5F5E2E2E2E2F5F5F5F5F5F5F5F5F5F5F5F5F5F5F5F5F5F5F5F5F5E2F5F5F5F5F5F5F5F5F5F5F5F5F5F50F0FE20FF5F5E2F5E200E2F5E2F50FF5E20FF5F5F5F5F5F5F5F5F5F5F5F5F5F5F5F5F5F5F5F5F5F5F5F5F5F5F5F5F5F5F5F5F5F5F5F5E2E2F5F5F5F5F5F5F5
310
E2F5F5F5F5F5F5F5F5F5F5F5F5F5F5F5F5F5F5F5F5F5E2F5F5F5F5F5F5F5F5F5F5F5F5F5F50FF5E20FF5F5E2F5E200E2F5E2F50FF5E20FF5F5F5F5F5F5F5F5F5F5F5F5F5F5F5F5F5F5F5F5F5F5F5F5F5F5F5F5F5F5F5F5F5F5F5F5E2E2F5F5F5F5F5F5F5E2F5F5F5F5F5F5F5F5F5F5F5F5F5F5F5F5F5F5F5F5F5E2F5F5F5F5
310
F5F5F5F5F5F5F5F5F5F50FF5E20FF5F5E2F5E200E2F5E2F50FF5E20FF5F5F5F5F5F5F5F5F5F5F5F5F5F5F5F5F5F5F5F5F5F5F5F5F5F5F5F5F5F5F5F5F5F5F5F5E2E2F5F5F5F5F5F5F5E2F5F5F5F5F5F5F5F5F5F5F5F5F5F5F5F5F5F5F5F5F5E2F5F5F5F5F5F5F5F5F5F5F5F5F5F50FF5E20FF5F5E2F5E200E2F5E2F50FF5E2
310
0FF5F5F5F5F5F5F5F5F5F5F5F5F5F5F5F5F5F5F5F5F5F5F5F5F5F5F5F5F5F5F5F5F5F5F5F5E2E2F5F5F5F5F5F5F5E2F5F5F5F5F5F5F5F5F5F5F5F5F5F5F5F5F5F5F5F5F5E2F5F5F5F5F5F5F5F5F5F5F5F5F5F50FF5E20FF5F5E2F5E200E2F5E2F50FF5E20FF5F5F5F5F5F5F5F5F5F5F5F5F5F5F5F5F5F5F5F5F5F5F5F5F5F5
310
F5F5F5F5F5F5F5F5F5F5E2E2F5F5F5F5F5F5F5E2F5F5F5F5F5F5F5F5F5F5F5F5F5F5F5F5F5F5F5F5F5E2F5F5F5F5F5F5F5F5F5F5F5F5F5F50FF5E20FF5F5E2F5E200E2F5E2F50FF5E20FF5F5F5F5F5F5F5F5F5F5F5F5F5F5F5F5F5F5F5F5F5F5F5F5F5F5F5F5F5F5F5F5F5F5F5F5E2E2F5F5F5F5F5F5F5E2F5F5F5F5F5F5F5
310
F5F5F5F5F5F5F5F5F5F5F5F5F5F5E2F5F5F5F5F5F5F5F5F5F5F5F5F5F50FF5E20FF5F5E2F5E200E2F5E2F50FF50F0FF5F5F5F5F5F5F5F5F5F5F5F5F5F5F5F5F5F5F5F5F5F5F5F5F5F5F5F5F5F5F5F5F5F5F5F5E2E2F5F5F5F5F5F5F5E2F5F5F5F5F5F5F5F5F5F5F5F5F5F5F5F5F5F5F5F5F5E2F5F5F5F5F5F5F5F5F5F5F5F5
310
F5F50F0F0F0FF5F5E2F5E200E2F5E2F50FF5E20FF5F5F5F5F5F5F5F5F5F5F5F5F5F5F5F5F5F5F5F5F5F5F5F5F5F5F5F5F5F5F5F5F5F5F5F5E2E2F5F5F5F5F5F5F5E2F5F5F5F5F5F5F5F5F5F5F5F5F5F5F5F5F5F5F5F5F5E2F5F5F5F5F5F5F5F5F5F5F5F5F5F50FF5E20FF5F5E2F5E200E2F5E2F50FF5E20FF5F5F5F5F5F5F5
310
F5F5F5F5F5F5F5F5F5F5F5F5F5F5F5F5F5F5F5F5F5F5F5F5F5F5F5F5F5E2E2F5F5F5F5F5F5F5E2F5F5F5F5F5F5F5F5F5F5F5F5F5F5F5F5F5F5F5F5F5E2F5F5F5F5F5F5F5F5F5F5F5F5F5F50FF5E20FF5F5E2F5E200E2F5E2F50FF5E20FF5F5F5F5F5F5F5F5F5F5F5F5F5F5F5F5F5F5F5F5F5F5F5F5F5F5F5F5F5F5F5F5F5F5
310
F5F5E2E2F5F5F5F5F5F5F5E2F5F5F5F5F5F5F5F5F5F5F5F5F5F5F5F5F5F5F5F5F5E2F5F5F5F5F5F5F5F5F5F5F5F5F5F50FF5E20FF5F5E2F5E200E2F5E2F50FF5E20FF5F5F5F5F5F5F5F5F5F5F5F5F5F5F5F5F5F5F5F5F5F5F5F5F5F5F5F5F5F5F5F5F5F5F5F5E2E2F5F5F5F5F5F5F5E2F5F5F5F5F5F5F5F5F5F5F5F5F5F5F5
310
F5F5F5F5F5F5E2F5F5F5F5F5F5F5F5F5F5F5F5F5F50FF5E20FF5F5E2F5E200E2F5E2F50FF5E20FF5F5F5F5F5F5F5F5F5F5F5F5F5F5F5F5F5F5F5F5F5F5F5F5F5F5F5F5F5F5F5F5F5F5F5F5E2E2F5F5F5F5F5F5F5E2F5F5F5F5F5F5F5F5F5F5F5F5F5F5F5F5F5F5F5F5F5E2F5F5F5F5F5F5F5F5F5F5F5F5F5F50FF5E20FF5F5
310
E2F5E200E2F5E2F50FF5E20FF5F5F5F5F5F5F5F5F5F5F5F5F5F5F5F5F5F5F5F5F5F5F5F5F5F5F5F5F5F5F5F5F5F5F5F5E2E2F5F5F5F5F5F5F5E2F5F5F5F5F5F5F5F5F5F5F5F5F5F5F5F5F5F5F5F5F5E2F5F5F5F5F5F5F5F5F5F5F5F5F5F50FF5E20FF5F5E2F5E200E2F5F5F50FF50F0FF5F5F5F5F5F5F5F5F5F5F5F5F5F5F5
310
F5F5F5F5F5F5F5F5F5F5F5F5F5F5F5F5F5F5F5F5F5E2E2F5F5F5F5F5F5F5E2F5F5F5F5F5F5F5F5F5F5F5F5F5F5F5F5F5F5F5E2E2E2F5F5F5F5F5F5F5F5F5F5F5F5F5F50F0FE20FF5F5F5F5E200E2F5F5F50FF50F0FF5F5F5F5F5F5F5F5F5F5F5F5F5F5F5F5F5F5F5F5F5F5F5F5F5F5F5F5F5F5F5F5F5F5F5F5E2E2F5F5F5F5
310
F5F5F5E2F5F5F5F5F5F5F5F5F5F5F5F5F5F5F5F5F5F5F5E2E2E2F5F5F5F5F5F5F5F5F5F5F5F5F5F50F0FE20FF5F5F5F5E200E2F5F5F50FF5E20FF5F5F5F5F5F5F5F5F5F5F5F5F5F5F5F5F5F5F5F5F5F5F5F5F5F5F5F5F5F5F5F5F5F5F5F5E2E2F5F5F5F5F5F5F5E2F5F5F5F5F5F5F5F5F5F5F5F5F5F5F5F5F5F5F5E2E2E2F5
310
F5F5F5F5F5F5F5F5F5F5F5F5F50FF5E20FF5F5F5F5E200E2F5F5F50FF5E20FF5F5F5F5F5F5F5F5F5F5F5F5F5F5F5F5F5F5F5F5F5F5F5F5F5F5F5F5F5F5F5F5F5F5F5F5E2E2F5F5F5F5F5F5F5E2F5F5F5F5F5F5F5F5F5F5F5F5F5F5F5F5F5F5F5E2E2E2F5F5F5F5F5F5F5F5F5F5F5F5F5F50FF5E20FF5F5F5F5E200E2F5F5F5
310
0FF5E20FF5F5F5F5F5F5F5F5F5F5F5F5F5F5F5F5F5F5F5F5F5F5F5F5F5F5F5F5F5F5F5F5F5F5F5F5E2E2F5F5F5F5F5F5F5E2F5F5F5F5F5F5F5F5F5F5F5F5F5F5F5F5F5F5F5F5F5E2F5F5F5F5F5F5F5F5F5F5F5F5F5F50FF5E20FF5F5F5F5E200E2F5F5F50F0FE20FF5F5F5F5F5F5F5F5F5F5F5F5F5F5F5F5F5F5F5F5F5F5F5
310
F5F5F5F5F5F5E2E2E2F5F5F5F5E2E2F5F5F5F5F5F5F5E2F5F5F5F5F5F5F5F5F5F5F5F5F5F5F5F5F5F5F5F5F5E2F5F5F5F5F5F5F5F5F5F5F5F5F50F0FF5E20FF5F5F5F5E200E2F5F5F50FF5E20FF5F5F5F5F5F5F5F5F5F5F5F5F5F5F5F5F5F5F5F5F5F5F5F5F5F5F5F5F5E2E2E2E2E2E2E2E2E2F5F5E2E2E2F5F5E2F5F5F5F5
310
F5F5F5F5F5F5F5F5F5F5F5F5F5F5F5F5F5E2F5F5F5F5F5F5F5F5F5F5F5F5F5F50FF5E20FF5F5F5F5E200E2F5F5F50FF5E20FF5F5F5F5F5F5F5F5F5F5F5F5F5F5F5F5F5F5F5F5F5F5F5F5F5F5F5F5F5E2E2E2E2E2F5F5E2E2E2E2E2E2E2E2F5E2E2E2E2E2E2E2E2E2E2E2E2E2E2E2E2E2F5F5F5F5F5E2F5F5F5F5F5F5F5F5F5
310
F5F5F5F5F50FF5E20FF5F5F5F5E200E2F5F5F50FF50F0FF5F5F5F5F5F5F5F5F5F5F5F5F5F5F5F5F5F5F5F5F5F5F5F5F5F5F5F5F5F5F5F5F5F5F5F5E2E2F5F5E2E2E2E2E2E2F5F5F5F5F5F5F5F5F5F5F5F5F5F5E2F5F5F5F5F5F5E2F5F5F5F5F5F5F5F5F5F5F5F5F5F50F0F0F0FF5F5F5F5E200E2F5E2F50FF5E20FF5F5F5F5
310
F5F5F5F5F5F5F5F5F5F5F5F5F5F5F5F5F5F5F5F5F5F5F5F5F5F5F5F5F5F5F5F5E2E2F5F5F5E2F5F5F5E2F5F5F5F5F5F5F5F5F5F5F5F5F5F5E2F5F5F5F5F5F5E2F5F5F5F5F5F5F5F5F5F5F5F5F5F50FF5E20FF5F5E2F5E200E2F5E2F50FF5E20FF5F5F5F5F5F5F5F5F5F5F5F5F5F5F5F5F5F5F5F5F5F5F5F5F5F5F5F5F5F5F5
310
F5F5F5F5F5E2E2F5F5F5F5F5F5F5E2F5F5F5F5F5F5F5F5F5F5F5F5F5F5E2F5F5F5F5F5F5E2F5F5F5F5F5F5F5F5F5F5F5F5F5F50FF5E20FF5F5E2F5E200E2F5E2F50FF5E20FF5F5F5F5F5F5F5F5F5F5F5F5F5F5F5F5F5F5F5F5F5F5F5F5F5F5F5F5F5F5F5F5F5F5F5F5E2E2F5F5F5F5F5F5F5E2F5F5F5F5F5F5F5F5F5F5F5F5
310
F5F5E2F5F5F5F5F5F5E2F5F5F5F5F5F5F5F5F5F5F5F5F5F50FF5E20FF5F5E2F5E200E2F5E2F50FF5E20FF5F5F5F5F5F5F5F5F5F5F5F5F5F5F5F5F5F5F5F5F5F5F5F5F5F5F5F5F5F5F5F5F5F5F5F5E2E2F5F5F5F5F5F5F5E2F5F5F5F5F5F5F5F5F5F5F5F5F5F5E2F5F5F5F5F5F5E2F5F5F5F5F5F5F5F5F5F5F5F5F5F50FF5E2
310
0FF5F5E2F5E200E2F5E2F50FF5E20FF5F5F5F5F5F5F5F5F5F5F5F5F5F5F5F5F5F5F5F5F5F5F5F5F5F5F5F5F5F5F5F5F5F5F5F5E2E2F5F5F5F5F5F5F5E2F5F5F5F5F5F5F5F5F5F5F5F5F5F5E2F5F5F5F5F5F5E2F5F5F5F5F5F5F5F5F5F5F5F5F5F50FF5E20FF5F5E2F5E200E2F5E2F50FF5E20FF5F5F5F5F5F5F5F5F5F5F5F5
310
F5F5F5F5F5F5F5F5F5F5F5F5F5F5F5F5E2E2E2F5F5F5F5F5E2E2F5F5F5F5F5F5F5E2F5F5F5F5F5F5F5F5F5F5F5F5F5F5E2F5F5F5F5F5F5E2F5F5F5F5F5F5F5F5F5F5F5F5F5F50FF5E20FF5F5E2F5E200E2F5E2F50FF50F0FF5F5F5F5F5F5F5F5F5F5F5F5F5F5F5F5F5F5F5F5F5F5F5F5F5F5F5F5F5E2E2E2E2E2E2E2E2E2F5
310
F5E2E2F5F5F5E2F5F5F5F5F5F5F5F5F5F5F5F5F5F5E2F5F5F5F5F5F5E2F5F5F5F5F5F5F5F5F5F5F5F5F5F50F0FE20FF5F5E2F5E200E2F5E2F50FF50F0FF5F5F5F5F5F5F5F5F5F5F5F5F5F5F5F5F5F5F5F5F5F5F5F5F5F5F5F5F5E2E2E2E2F5F5F5E2E2E2E2E2F5E2F5F5E2F5F5F5F5F5F5F5F5F5F5F5F5F5F5E2F5F5F5F5F5
310
F5E2F5F5F5F5F5F5F5F5F5F5F5F5F5F50F0FE20FF5F5E2F5E200E2F5E2F50FF5E20FF5F5F5F5F5F5F5F5F5F5F5F5F5F5F5F5F5F5F5F5F5F5F5F5F5F5F5F5F5F5F5E2E2F5F5F5E2E2F5F5E2E2E2E2E2E2E2E2E2E2E2E2E2E2E2E2E2F5F5E2E2F5F5F5F5F5F5E2F5F5F5F5F5F5F5F5F5F5F5F5F5F50FF5E20FF5F5E2F5E200E2
310
F5E2F50FF5E20FF5F5F5F5F5F5F5F5F5F5F5F5F5F5F5F5F5F5F5F5F5F5F5F5F5F5F5F5F5F5F5F5F5F5F5F5E2E2F5F5E2E2F5F5F5E2F5F5F5F5F5F5F5F5F5E2E2F5F5E2E2F5F5F5F5F5F5E2F5F5F5F5F5F5F5F5F5F5F5F5F5F50FF5E20FF5F5E2F5E200E2F5E2F50FF5E20FF5F5F5F5F5F5F5F5F5F5F5F5F5F5F5F5F5F5F5F5
310
F5F5F5F5F5F5F5F5F5F5F5F5F5F5F5F5E2E2F5F5F5F5F5F5F5E2F5F5F5F5F5F5F5F5F5E2F5F5F5E2E2F5F5F5F5F5F5E2F5F5F5F5F5F5F5F5F5F5F5F5F5F50FF5E20FF5F5E2F5E200E2F5E2F50FF5E20FF5F5F5F5F5F5F5F5F5F5F5F5F5F5F5F5F5F5F5F5F5F5F5F5F5F5F5F5F5F5F5F5F5F5F5F5E2E2F5F5F5F5F5F5F5E2F5
310
F5F5F5F5F5F5F5F5E2F5F5F5F5E2F5F5F5F5F5F5E2F5F5F5F5F5F5F5F5F5F5F5F5F5F50FF5E20FF5F5E2F5E200E2F5E2F50FF5E20FF5F5F5F5F5F5F5F5F5F5F5F5F5F5F5F5F5F5F5F5F5F5F5F5F5F5F5F5F5F5F5F5F5F5F5F5E2E2F5F5F5F5F5F5E2E2F5F5F5F5F5F5F5F5F5E2F5F5F5F5E2F5F5F5F5F5F5E2F5F5F5F5F5F5
310
F5F5F5F5F5F5F5F50FF5E20FF5F5E2F5E200E2F5E2F50FF5E20FF5F5F5F5F5F5F5F5F5F5F5F5F5F5F5F5F5F5F5F5F5F5F5F5F5F5F5F5F5F5F5F5F5E2E2E2E2E2E2F5E2E2E2E2E2E2E2E2E2F5F5F5F5F5E2E2F5F5F5F5E2F5F5F5F5F5F5E2F5F5F5F5F5F5F5F5F5F5F5F5F5F50FF5E20FF5F5E2F5E200E2F5E2F50FF50F0FF5
310
F5F5F5F5F5F5F5F5F5F5F5F5F5F5F5F5F5F5F5F5F5F5F5F5F5F5F5F5F5F5F5F5E2E2E2E2E2E2E2E2E2E2E2E2E2E2E2E2E2E2E2E2F5E2E2F5F5F5F5E2F5F5F5F5F5F5E2F5F5F5F5F5F5F5F5F5F5F5F5F5F50F0F0F0FF5F5E2F5E200E2F5E2F50FF5E20FF5F5F5F5F5F5F5F5F5F5F5F5F5F5F5F5F5F5F5F5F5F5F5F5F5F5F5F5
310
F5F5F5F5F5F5E2E2E2E2E2E2E2E2E2F5E2E2E2E2F5F5F5E2F5F5E2E2F5F5F5F5E2F5F5F5F5F5F5E2F5F5F5F5F5F5F5F5F5F5F5F5F5F50FF5E20FF5F5E2F5E200E2F5E2F50FF5E20FF5F5F5F5F5F5F5F5F5F5F5F5F5F5F5F5F5F5F5F5F5F5F5F5F5F5F5F5F5F5F5F5F5F5F5F5E2E2E2F5F5F5F5F5F5E2F5F5F5F5F5E2F5F5F5
310
E2F5F5F5F5E2F5F5F5F5F5F5E2F5F5F5F5F5F5F5F5F5F5F5F5F5F50FF5E20FF5F5E2F5E200E2F5F5F50FF5E20FF5F5F5F5F5F5F5F5F5F5F5F5F5F5F5F5F5F5F5F5F5F5F5F5F5F5F5F5F5F5F5F5F5F5F5E2E2E2F5F5F5F5F5F5F5E2F5F5F5F5E2E2F5F5F5E2F5F5F5F5E2F5F5F5F5F5F5E2F5F5F5F5F5F5F5F5F5F5F5F5F5F5
310
0FF5E20FF5F5F5F5E200E2F5F5F50FF5E20FF5F5F5F5F5F5F5F5F5F5F5F5F5F5F5F5F5F5F5F5F5F5F5F5F5F5F5F5F5F5F5F5F5F5E2F5E2E2F5F5F5F5F5F5F5E2F5F5F5F5E2E2F5F5F5E2F5F5F5F5E2F5F5F5F5F5F5E2F5F5F5F5F5F5F5F5F5F5F5F5F5F50FF5E20FF5F5F5F5E200E2F5F5F50FF5E20FF5F5F5F5F5F5F5F5F5
310
F5F5F5F5F5F5F5F5F5F5F5F5F5F5F5F5F5F5F5F5F5F5F5E2E2F5F5E2E2F5F5F5F5F5F5F5E2F5F5F5F5F5E2F5F5F5E2E2F5F5F5E2F5F5F5F5F5E2E2F5F5F5F5F5F5F5F5F5F5F5F5F5F50FF5E20FF5F5F5F5E200E2F5F5F50FF5E20FF5F5F5F5F5F5F5F5F5F5F5F5F5F5F5F5F5F5F5F5F5F5F5F5F5F5F5F5F5F5E2E2E2F5F5F5
310
E2E2F5F5F5F5F5F5F5E2F5F5F5F5F5E2F5F5F5E2E2F5F5F5E2F5F5F5F5F5F5E2F5F5F5F5F5F5F5F5F5F5F5F5F5F50FF5E20FF5F5F5F5E200E2F5F5F50FF50F0FF5F5F5F5F5F5F5F5F5F5F5F5F5F5F5F5F5F5F5F5F5F5F5F5F5F5F5F5F5E2E2E2E2F5F5F5E2E2E2E2E2E2E2E2E2E2E2E2E2E2E2E2E2E2E2E2E2E2E2E2E2E2E2
310
E2E2E2E2E2F5F5F5F5F5F5F5F5F5F5F5F5F5F50F0FE20FF5F5F5F5E200E2F5F5F50FF50F0FF5F5F5F5F5F5F5F5F5F5F5F5F5F5F5F5F5F5F5F5F5F5F5F5F5F5F5F5F5F5F5F5F5F5F5F5F5F5F5F5F5F5F5F5F5F5F5F5F5F5F5F5F5F5F5F5F5F5F5F5F5F5F5F5F5F5F5F5F5F5F5F5F5F5F5F5F5F5F5F5F5F50F0FE20FF5F5F5F5
310
E200E2F5F5F50FF5E20FF5F5F5F5F5F5F5F5F5F5F5F5F5F5F5F5F5F5F5F5F5F5F5F5F5F5F5F5F5F5F5F5F5F5F5F5F5F5F5F5F5F5F5F5F5F5F5F5F5F5F5F5F5F5F5F5F5F5F5F5F5F5F5F5F5F5F5F5F5F5F5F5F5F5F5F5F5F5F5F5F5F50FF5E20FF5F5F5F5E200E2F5F5F50FF5E20FF5F5F5F5F5F5F5F5F5F5F5F5F5F5F5F5F5
310
F5F5F5F5F5F5F5F5F5F5F5F5F5F5F5F5F5F5F5F5F5F5F5F5E2F5F5F5F5F5F5F5F5F5F5F5F5F5F5F5F5F5F5F5F5F5F5F5F5F5F5F5F5F5F5F5F5F5F5F5F5F5F5F5F50FF5E20FF5F5F5F5E200E2F5F5F50FF5E20FF5F5F5F5F5F5F5F5F5F5F5F5F5F5F5F5F5F5F5F5F5F5F5F5F5F5F5F5F5F5F5F5F5F5F5F5F5F5F5F5F5E2F5F5
310
F5F5F5F5F5F5F5F5F5F5F5F5F5F5F5F5F5F5F5F5F5F5F5F5F5F5F5F5F5F5F5F5F5F5F5F5F5F50FF5E20FF5F5F5F5E200E2F5F5F50FF5E20FF5F5F5F5F5F5F5F5F5F5F5F5F5F5F5F5F5F5F5F5F5F5F5F5F5F5F5F5F5F5F5F5F5F5F5F5F5F5F5F5F5E2F5F5F5F5F5F5F5F5F5F5F5F5F5F5F5F5F5F5F5F5F5F5F5F5F5F5F5F5F5
310
F5F5F5F5F5F5F5F5F5F5F50FF5E20FF5F5F5F5E200E2F5E2F50FF5E20F0F0F0F0F0F0F0F0F0F0F0F0F0F0F0F0F0F0F0F0F0F0F0F0F0F0F0F0F0F0F0F0F0F0F0F0F0F0F0F0F0F0F0F0F0F0F0F0F0F0F0F0F0F0F0F0F0F0F0F0F0F0F0F0F0F0F0F0F0F0F0F0F0F0F0F0F0F0F0F0F0F0F0FF5E20FF5F5E2F5E200E2F5E2F50FF5
310
E2F5F5F5F5F50FF5F5F5F5F5F50FF5F5F5F5F5F50FF5F5F5F5F5F5F50FF5F5F5F5F5F50FF5F5F5F5F5F5F50FF5F5F5F5F5F50F0FF5F5F5F5F5F50FF5F5F5F5F5F50F0FF5F5F5F5F5F50FF5F5F5F5F50F0FF5F5F5F5F5E20FF5F5E2F5E200E2F5E2F50FF5E2E2E2E2E2E20FE2E2E2E2E2E20FE2E2E2E2E2E20FE2E2E2E2E2E2
310
E20FE2E2E2E2E2E20FE2E2E2E2E2E2E20FE2E2E2E2E2E20FE2E2E2E2E2E2E20FE2E2E2E2E2E20FE2E2E2E2E2E2E20FE2E2E2E2E20FE2E2E2E2E2E2E20FF5F5E2F5E200E2F5E2F50FF5F5F5F5F5F5F5F5F5F5F5F5F5F5F5F5F5F5F5F5F5F5F5F5F5F5F5F5F5F5F5F5F5F5F5F5F5F5F5F5F5F5F5F5F5F5F5F5F5F5F5F5F5F5F5
310
F5F5F5F5F5F5F5F5F5F5F5F5F5F5F5F5F5F5F5F5F5F5F5F5F5F5F5F5F5F5F5F5F50FF5F5E2F5E200E2F5E2F50FF5F5F5F5F5F5F5F5F5F5F5F5F5F5F5F5F5F5F5F5F5F5F5F5F5F5F5F5F5F5F5F5F5F5F5F5F5F5F5F5F5F5F5F5F5F5F5F5F5F5F5F5F5F5F5F5F5F5F5F5F5F5F5F5F5F5F5F5F5F5F5F5F5F5F5F5F5F5F5F5F5F5
310
F5F5F5F5F5F50FF5F5E2F5E200E2F5E2F50FF5F5F5F5F5F5F5F5F5F5F5F5F5F5F5F5F5F5F5F5F5F5F5F5F5F5F5F5F5F5F5F5F5F5F5F5F5F5F5F5F5F5F5F5F5F5F5F5F5F5F5F5F5F5F5F5F5F5F5F5F5F5F5F5F5F5F5F5F5F5F5F5F5F5F5F5F5F5F5F5F5F5F5F5F5F5F5F50FF5F5E2F5E200E2F5E2F50F0F0F0F0F0F0F0F0F0F
310
0F0F0F0F0F0F0F0F0F0F0F0F0F0F0F0F0F0F0F0F0F0F0F0F0F0F0F0F0F0F0F0F0F0F0F0F0F0F0F0F0F0F0F0F0F0F0F0F0F0F0F0F0F0F0F0F0F0F0F0F0F0F0F0F0F0F0F0F0F0F0F0F0F0F0F0F0F0F0F0FF5F5E2F5E200E2F5E2F5F5F5F5F5F5F5F5F5F5F5F5F5F5F5F5F5F5F5F5F5F5F5F5F5F5F5F5F5F5F5F5F5F5F5F5F5F5
310
F5F5F5F5F5F5F5F5F5F5F5F5F5F5F5F5F5F5F5F5F5F5F5F5F5F5F5F5F5F5F5F5F5F5F5F5F5F5F5F5F5F5F5F5F5F5F5F5F5F5F5F5F5F5F5E2F5E200E2F5E2E2E2E2E2E2E2E2F5F5F5F5F5F5F5F5E2E2E2E2E2E2E2E2E2E2E2E2E2E2E2E2F5F5F5F5F5F5F5F5E2E2E2E2E2E2E2E2E2E2E2E2E2E2E2F5F5F5F5F5F5F5F5E2E2E2
310
E2E2E2E2E2E2E2E2E2E2E2E2E2F5F5F5F5F5F5F5F5E2E2E2E2E2E2E2E2F5E200E2F5F5F5F5F5F5F5F5F5F5F5F5F5F5F5F5F5F5F5F5F5F5F5F5F5F5F5F5F5F5F5F5F5F5F5F5F5F5F5F5F5F5F5F5F5F5F5F5F5F5F5F5F5F5F5F5F5F5F5F5F5F5F5F5F5F5F5F5F5F5F5F5F5F5F5F5F5F5F5F5F5F5F5F5F5F5F5F5F5F5F5F5F5F5
310
F5F5F5E200E2F5F5F5F5F5F5F5F5F5F5F5F5F5F5F5F5F5F5F5F5F5F5F5F5F5F5F5F5F5F5F5F5F5F5F5F5F5F5F5F5F5F5F5F5F5F5F5F5F5F5F5F5F5F5F5F5F5F5F5F5F5F5F5F5F5F5F5F5F5F5F5F5F5F5F5F5F5F5F5F5F5F5F5F5F5F5F5F5F5F5F5F5F5F5F5F5F5E200E2E2E2E2E2E2E2E2E2E2E2E2E2E2E2E2E2E2E2E2E2E2
310
E2E2E2E2E2E2E2E2E2E2E2E2E2E2E2E2E2E2E2E2E2E2E2E2E2E2E2E2E2E2E2E2E2E2E2E2E2E2E2E2E2E2E2E2E2E2E2E2E2E2E2E2E2E2E2E2E2E2E2E2E2E2E2E2E2E2E2E2E2E2E2E2E2E2E2E2E200
  0
ENDSEC
  0
EOF
