  0
SECTION
  2
HEADER
  9
$ACADVER
  1
AC1032
  9
$ACADMAINTVER
 90
        4
  9
$DWGCODEPAGE
  3
ANSI_1250
  9
$REQUIREDVERSIONS
160
                 0
  9
$INSBASE
 10
0.0
 20
0.0
 30
0.0
  9
$EXTMIN
 10
1.000000000000000E+20
 20
1.000000000000000E+20
 30
1.000000000000000E+20
  9
$EXTMAX
 10
-1.000000000000000E+20
 20
-1.000000000000000E+20
 30
-1.000000000000000E+20
  9
$LIMMIN
 10
0.0
 20
0.0
  9
$LIMMAX
 10
420.0
 20
297.0
  9
$ORTHOMODE
 70
     0
  9
$REGENMODE
 70
     1
  9
$FILLMODE
 70
     1
  9
$QTEXTMODE
 70
     0
  9
$MIRRTEXT
 70
     1
  9
$LTSCALE
 40
1.0
  9
$ATTMODE
 70
     1
  9
$TEXTSIZE
 40
2.5
  9
$TRACEWID
 40
1.0
  9
$TEXTSTYLE
  7
Standard
  9
$CLAYER
  8
0
  9
$CELTYPE
  6
ByLayer
  9
$CECOLOR
 62
   256
  9
$CELTSCALE
 40
1.0
  9
$DISPSILH
 70
     0
  9
$DIMSCALE
 40
1.0
  9
$DIMASZ
 40
3.0
  9
$DIMEXO
 40
0.625
  9
$DIMDLI
 40
3.75
  9
$DIMRND
 40
0.0
  9
$DIMDLE
 40
0.0
  9
$DIMEXE
 40
1.25
  9
$DIMTP
 40
0.0
  9
$DIMTM
 40
0.0
  9
$DIMTXT
 40
1.336918010447422
  9
$DIMCEN
 40
2.5
  9
$DIMTSZ
 40
0.0
  9
$DIMTOL
 70
     0
  9
$DIMLIM
 70
     0
  9
$DIMTIH
 70
     0
  9
$DIMTOH
 70
     0
  9
$DIMSE1
 70
     0
  9
$DIMSE2
 70
     0
  9
$DIMTAD
 70
     1
  9
$DIMZIN
 70
     8
  9
$DIMBLK
  1

  9
$DIMASO
 70
     1
  9
$DIMSHO
 70
     1
  9
$DIMPOST
  1

  9
$DIMAPOST
  1

  9
$DIMALT
 70
     0
  9
$DIMALTD
 70
     3
  9
$DIMALTF
 40
0.03937007874016
  9
$DIMLFAC
 40
1.0
  9
$DIMTOFL
 70
     1
  9
$DIMTVP
 40
0.0
  9
$DIMTIX
 70
     0
  9
$DIMSOXD
 70
     0
  9
$DIMSAH
 70
     0
  9
$DIMBLK1
  1

  9
$DIMBLK2
  1

  9
$DIMSTYLE
  2
ISO-25
  9
$DIMCLRD
 70
     0
  9
$DIMCLRE
 70
     0
  9
$DIMCLRT
 70
     0
  9
$DIMTFAC
 40
1.0
  9
$DIMGAP
 40
0.625
  9
$DIMJUST
 70
     0
  9
$DIMSD1
 70
     0
  9
$DIMSD2
 70
     0
  9
$DIMTOLJ
 70
     0
  9
$DIMTZIN
 70
     8
  9
$DIMALTZ
 70
     0
  9
$DIMALTTZ
 70
     0
  9
$DIMUPT
 70
     0
  9
$DIMDEC
 70
     2
  9
$DIMTDEC
 70
     2
  9
$DIMALTU
 70
     2
  9
$DIMALTTD
 70
     3
  9
$DIMTXSTY
  7
Standard
  9
$DIMAUNIT
 70
     0
  9
$DIMADEC
 70
     0
  9
$DIMALTRND
 40
0.0
  9
$DIMAZIN
 70
     0
  9
$DIMDSEP
 70
    44
  9
$DIMATFIT
 70
     3
  9
$DIMFRAC
 70
     0
  9
$DIMLDRBLK
  1

  9
$DIMLUNIT
 70
     2
  9
$DIMLWD
 70
    -2
  9
$DIMLWE
 70
    -2
  9
$DIMTMOVE
 70
     0
  9
$DIMFXL
 40
1.0
  9
$DIMFXLON
 70
     0
  9
$DIMJOGANG
 40
0.7853981633974483
  9
$DIMTFILL
 70
     0
  9
$DIMTFILLCLR
 70
     0
  9
$DIMARCSYM
 70
     0
  9
$DIMLTYPE
  6

  9
$DIMLTEX1
  6

  9
$DIMLTEX2
  6

  9
$DIMTXTDIRECTION
 70
     0
  9
$LUNITS
 70
     2
  9
$LUPREC
 70
     4
  9
$SKETCHINC
 40
1.0
  9
$FILLETRAD
 40
10.0
  9
$AUNITS
 70
     0
  9
$AUPREC
 70
     0
  9
$MENU
  1
.
  9
$ELEVATION
 40
0.0
  9
$PELEVATION
 40
0.0
  9
$THICKNESS
 40
0.0
  9
$LIMCHECK
 70
     0
  9
$CHAMFERA
 40
0.0
  9
$CHAMFERB
 40
0.0
  9
$CHAMFERC
 40
0.0
  9
$CHAMFERD
 40
0.0
  9
$SKPOLY
 70
     0
  9
$TDCREATE
 40
2459422.547102754
  9
$TDUCREATE
 40
2459422.463769421
  9
$TDUPDATE
 40
2459422.547104722
  9
$TDUUPDATE
 40
2459422.463771389
  9
$TDINDWG
 40
0.0000000116
  9
$TDUSRTIMER
 40
0.0000000116
  9
$USRTIMER
 70
     1
  9
$ANGBASE
 50
0.0
  9
$ANGDIR
 70
     0
  9
$PDMODE
 70
     0
  9
$PDSIZE
 40
0.0
  9
$PLINEWID
 40
0.0
  9
$SPLFRAME
 70
     0
  9
$SPLINETYPE
 70
     6
  9
$SPLINESEGS
 70
     8
  9
$HANDSEED
  5
300
  9
$SURFTAB1
 70
     6
  9
$SURFTAB2
 70
     6
  9
$SURFTYPE
 70
     6
  9
$SURFU
 70
     6
  9
$SURFV
 70
     6
  9
$UCSBASE
  2

  9
$UCSNAME
  2

  9
$UCSORG
 10
0.0
 20
0.0
 30
0.0
  9
$UCSXDIR
 10
1.0
 20
0.0
 30
0.0
  9
$UCSYDIR
 10
0.0
 20
1.0
 30
0.0
  9
$UCSORTHOREF
  2

  9
$UCSORTHOVIEW
 70
     0
  9
$UCSORGTOP
 10
0.0
 20
0.0
 30
0.0
  9
$UCSORGBOTTOM
 10
0.0
 20
0.0
 30
0.0
  9
$UCSORGLEFT
 10
0.0
 20
0.0
 30
0.0
  9
$UCSORGRIGHT
 10
0.0
 20
0.0
 30
0.0
  9
$UCSORGFRONT
 10
0.0
 20
0.0
 30
0.0
  9
$UCSORGBACK
 10
0.0
 20
0.0
 30
0.0
  9
$PUCSBASE
  2

  9
$PUCSNAME
  2

  9
$PUCSORG
 10
0.0
 20
0.0
 30
0.0
  9
$PUCSXDIR
 10
1.0
 20
0.0
 30
0.0
  9
$PUCSYDIR
 10
0.0
 20
1.0
 30
0.0
  9
$PUCSORTHOREF
  2

  9
$PUCSORTHOVIEW
 70
     0
  9
$PUCSORGTOP
 10
0.0
 20
0.0
 30
0.0
  9
$PUCSORGBOTTOM
 10
0.0
 20
0.0
 30
0.0
  9
$PUCSORGLEFT
 10
0.0
 20
0.0
 30
0.0
  9
$PUCSORGRIGHT
 10
0.0
 20
0.0
 30
0.0
  9
$PUCSORGFRONT
 10
0.0
 20
0.0
 30
0.0
  9
$PUCSORGBACK
 10
0.0
 20
0.0
 30
0.0
  9
$USERI1
 70
     0
  9
$USERI2
 70
     0
  9
$USERI3
 70
     0
  9
$USERI4
 70
     0
  9
$USERI5
 70
     0
  9
$USERR1
 40
0.0
  9
$USERR2
 40
0.0
  9
$USERR3
 40
0.0
  9
$USERR4
 40
0.0
  9
$USERR5
 40
0.0
  9
$WORLDVIEW
 70
     1
  9
$SHADEDGE
 70
     3
  9
$SHADEDIF
 70
    70
  9
$TILEMODE
 70
     1
  9
$MAXACTVP
 70
    64
  9
$PINSBASE
 10
0.0
 20
0.0
 30
0.0
  9
$PLIMCHECK
 70
     0
  9
$PEXTMIN
 10
1.000000000000000E+20
 20
1.000000000000000E+20
 30
1.000000000000000E+20
  9
$PEXTMAX
 10
-1.000000000000000E+20
 20
-1.000000000000000E+20
 30
-1.000000000000000E+20
  9
$PLIMMIN
 10
0.0
 20
0.0
  9
$PLIMMAX
 10
420.0
 20
297.0
  9
$UNITMODE
 70
     0
  9
$VISRETAIN
 70
     1
  9
$PLINEGEN
 70
     0
  9
$PSLTSCALE
 70
     1
  9
$TREEDEPTH
 70
  3020
  9
$CMLSTYLE
  2
Standard
  9
$CMLJUST
 70
     0
  9
$CMLSCALE
 40
20.0
  9
$PROXYGRAPHICS
 70
     1
  9
$MEASUREMENT
 70
     1
  9
$CELWEIGHT
370
    -1
  9
$ENDCAPS
280
     0
  9
$JOINSTYLE
280
     0
  9
$LWDISPLAY
290
     0
  9
$INSUNITS
 70
     4
  9
$HYPERLINKBASE
  1

  9
$STYLESHEET
  1

  9
$XEDIT
290
     1
  9
$CEPSNTYPE
380
     0
  9
$PSTYLEMODE
290
     1
  9
$FINGERPRINTGUID
  2
{6d19e802-6a96-4ad9-ac26-6b71249331aa}
  9
$VERSIONGUID
  2
{FAEB1C32-E019-11D5-929B-00C0DF256EC4}
  9
$EXTNAMES
290
     1
  9
$PSVPSCALE
 40
0.0
  9
$OLESTARTUP
290
     0
  9
$SORTENTS
280
   127
  9
$INDEXCTL
280
     0
  9
$HIDETEXT
280
     1
  9
$XCLIPFRAME
280
     2
  9
$HALOGAP
280
     0
  9
$OBSCOLOR
 70
   257
  9
$OBSLTYPE
280
     0
  9
$INTERSECTIONDISPLAY
280
     0
  9
$INTERSECTIONCOLOR
 70
   257
  9
$DIMASSOC
280
     2
  9
$PROJECTNAME
  1

  9
$CAMERADISPLAY
290
     0
  9
$LENSLENGTH
 40
50.0
  9
$CAMERAHEIGHT
 40
0.0
  9
$STEPSPERSEC
 40
2.0
  9
$STEPSIZE
 40
6.0
  9
$3DDWFPREC
 40
2.0
  9
$PSOLWIDTH
 40
5.0
  9
$PSOLHEIGHT
 40
80.0
  9
$LOFTANG1
 40
1.570796326794897
  9
$LOFTANG2
 40
1.570796326794897
  9
$LOFTMAG1
 40
0.0
  9
$LOFTMAG2
 40
0.0
  9
$LOFTPARAM
 70
     7
  9
$LOFTNORMALS
280
     1
  9
$LATITUDE
 40
37.795
  9
$LONGITUDE
 40
-122.394
  9
$NORTHDIRECTION
 40
0.0
  9
$TIMEZONE
 70
 -8000
  9
$LIGHTGLYPHDISPLAY
280
     1
  9
$TILEMODELIGHTSYNCH
280
     1
  9
$CMATERIAL
347
44
  9
$SOLIDHIST
280
     0
  9
$SHOWHIST
280
     1
  9
$DWFFRAME
280
     2
  9
$DGNFRAME
280
     2
  9
$REALWORLDSCALE
290
     1
  9
$INTERFERECOLOR
 62
   256
  9
$CSHADOW
280
     0
  9
$SHADOWPLANELOCATION
 40
0.0
  0
ENDSEC
  0
SECTION
  2
CLASSES
  0
CLASS
  1
ACDBDICTIONARYWDFLT
  2
AcDbDictionaryWithDefault
  3
ObjectDBX Classes
 90
        0
 91
        3
280
     0
281
     0
  0
CLASS
  1
VISUALSTYLE
  2
AcDbVisualStyle
  3
ObjectDBX Classes
 90
     4095
 91
        3
280
     0
281
     0
  0
CLASS
  1
MATERIAL
  2
AcDbMaterial
  3
ObjectDBX Classes
 90
     1153
 91
        3
280
     0
281
     0
  0
CLASS
  1
SCALE
  2
AcDbScale
  3
ObjectDBX Classes
 90
     1153
 91
        3
280
     0
281
     0
  0
CLASS
  1
TABLESTYLE
  2
AcDbTableStyle
  3
ObjectDBX Classes
 90
     4095
 91
        3
280
     0
281
     0
  0
CLASS
  1
MLEADERSTYLE
  2
AcDbMLeaderStyle
  3
ACDB_MLEADERSTYLE_CLASS
 90
     4095
 91
        3
280
     0
281
     0
  0
CLASS
  1
SUN
  2
AcDbSun
  3
SCENEOE
 90
     1153
 91
        3
280
     0
281
     0
  0
CLASS
  1
DICTIONARYVAR
  2
AcDbDictionaryVar
  3
ObjectDBX Classes
 90
        0
 91
        3
280
     0
281
     0
  0
CLASS
  1
CELLSTYLEMAP
  2
AcDbCellStyleMap
  3
ObjectDBX Classes
 90
     1152
 91
        3
280
     0
281
     0
  0
ENDSEC
  0
SECTION
  2
TABLES
  0
TABLE
  2
VPORT
  5
8
330
0
100
AcDbSymbolTable
 70
     1
  0
VPORT
  5
29
330
8
100
AcDbSymbolTableRecord
100
AcDbViewportTableRecord
  2
*Active
 70
     0
 10
0.0
 20
0.0
 11
1.0
 21
1.0
 12
344.1869158878504
 22
148.5
 13
0.0
 23
0.0
 14
10.0
 24
10.0
 15
10.0
 25
10.0
 16
0.0
 26
0.0
 36
1.0
 17
0.0
 27
0.0
 37
0.0
 40
297.0
 41
1.972972972850329
 42
50.0
 43
0.0
 44
0.0
 50
0.0
 51
0.0
 71
     0
 72
   100
 73
     1
 74
     3
 75
     0
 76
     0
 77
     0
 78
     0
281
     0
 65
     1
110
0.0
120
0.0
130
0.0
111
1.0
121
0.0
131
0.0
112
0.0
122
1.0
132
0.0
 79
     0
146
0.0
348
2F
 60
     3
 61
     5
292
     1
282
     1
141
0.0
142
0.0
 63
   250
361
6D
  0
ENDTAB
  0
TABLE
  2
LTYPE
  5
5
330
0
100
AcDbSymbolTable
 70
     2
  0
LTYPE
  5
14
330
5
100
AcDbSymbolTableRecord
100
AcDbLinetypeTableRecord
  2
ByBlock
 70
     0
  3

 72
    65
 73
     0
 40
0.0
  0
LTYPE
  5
15
330
5
100
AcDbSymbolTableRecord
100
AcDbLinetypeTableRecord
  2
ByLayer
 70
     0
  3

 72
    65
 73
     0
 40
0.0
  0
LTYPE
  5
16
330
5
100
AcDbSymbolTableRecord
100
AcDbLinetypeTableRecord
  2
Continuous
 70
     0
  3
Solid line
 72
    65
 73
     0
 40
0.0
  0
LTYPE
  5
111
330
5
100
AcDbSymbolTableRecord
100
AcDbLinetypeTableRecord
  2
HIDDEN
 70
     0
  3
Hidden __ __ __ __ __ __ __ __ __ __ __ __ __ __
 72
    65
 73
     2
 40
9.524999999999999
 49
6.35
 74
     0
 49
-3.175
 74
     0
  0
ENDTAB
  0
TABLE
  2
LAYER
  5
2
330
0
100
AcDbSymbolTable
 70
     7
  0
LAYER
  5
10
330
2
100
AcDbSymbolTableRecord
100
AcDbLayerTableRecord
  2
0
 70
     0
 62
     7
  6
Continuous
370
    -3
390
F
347
46
348
0
  0
LAYER
  5
6E
330
2
100
AcDbSymbolTableRecord
100
AcDbLayerTableRecord
  2
VISIBLE
 70
     0
 62
     7
  6
Continuous
370
     0
390
F
347
46
348
0
  0
LAYER
  5
8F
330
2
100
AcDbSymbolTableRecord
100
AcDbLayerTableRecord
  2
CENTER
 70
     0
 62
   204
  6
Continuous
370
     0
390
F
347
46
348
0
  0
LAYER
  5
BA
330
2
100
AcDbSymbolTableRecord
100
AcDbLayerTableRecord
  2
DIMENSIONS
 70
     0
 62
     7
  6
Continuous
370
     0
390
F
347
46
348
0
  0
LAYER
  5
100
330
2
100
AcDbSymbolTableRecord
100
AcDbLayerTableRecord
  2
CONTINUOUS
 70
     0
 62
     7
  6
Continuous
370
     0
390
F
347
46
348
0
  0
LAYER
  5
112
330
2
100
AcDbSymbolTableRecord
100
AcDbLayerTableRecord
  2
HIDDEN
 70
     0
 62
   253
  6
HIDDEN
370
     0
390
F
347
46
348
0
  0
LAYER
  5
263
330
2
100
AcDbSymbolTableRecord
100
AcDbLayerTableRecord
  2
TANGENT EDGES
 70
     0
 62
     7
  6
Continuous
370
     0
390
F
347
46
348
0
  0
ENDTAB
  0
TABLE
  2
STYLE
  5
3
330
0
100
AcDbSymbolTable
 70
     1
  0
STYLE
  5
11
330
3
100
AcDbSymbolTableRecord
100
AcDbTextStyleTableRecord
  2
Standard
 70
     0
 40
0.0
 41
1.0
 50
0.0
 71
     0
 42
2.5
  3
txt
  4

  0
ENDTAB
  0
TABLE
  2
VIEW
  5
6
330
0
100
AcDbSymbolTable
 70
     0
  0
ENDTAB
  0
TABLE
  2
UCS
  5
7
330
0
100
AcDbSymbolTable
 70
     0
  0
ENDTAB
  0
TABLE
  2
APPID
  5
9
330
0
100
AcDbSymbolTable
 70
     1
  0
APPID
  5
12
330
9
100
AcDbSymbolTableRecord
100
AcDbRegAppTableRecord
  2
ACAD
 70
     0
  0
ENDTAB
  0
TABLE
  2
DIMSTYLE
  5
A
330
0
100
AcDbSymbolTable
 70
     1
100
AcDbDimStyleTable
  0
DIMSTYLE
105
27
102
{ACAD_REACTORS
330
BB
330
CD
330
DE
330
EF
330
190
102
}
330
A
100
AcDbSymbolTableRecord
100
AcDbDimStyleTableRecord
  2
ISO-25
 70
     0
 41
2.5
 42
0.625
 43
3.75
 44
1.25
 73
     0
 74
     0
 77
     1
 78
     8
140
2.5
141
2.5
143
0.03937007874016
147
0.625
171
     3
172
     1
178
     0
271
     2
272
     2
274
     3
278
    44
283
     0
284
     8
340
11
  0
ENDTAB
  0
TABLE
  2
BLOCK_RECORD
  5
1
330
0
100
AcDbSymbolTable
 70
     7
  0
BLOCK_RECORD
  5
1F
330
1
100
AcDbSymbolTableRecord
100
AcDbBlockTableRecord
  2
*Model_Space
340
22
 70
     0
280
     1
281
     0
  0
BLOCK_RECORD
  5
1B
330
1
100
AcDbSymbolTableRecord
100
AcDbBlockTableRecord
  2
*Paper_Space
340
1E
 70
     0
280
     1
281
     0
  0
BLOCK_RECORD
  5
23
330
1
100
AcDbSymbolTableRecord
100
AcDbBlockTableRecord
  2
*Paper_Space0
340
26
 70
     0
280
     1
281
     0
  0
BLOCK_RECORD
  5
BC
330
1
100
AcDbSymbolTableRecord
100
AcDbBlockTableRecord
  2
D1
340
0
 70
     0
280
     1
281
     0
  0
BLOCK_RECORD
  5
CE
330
1
100
AcDbSymbolTableRecord
100
AcDbBlockTableRecord
  2
D2
340
0
 70
     0
280
     1
281
     0
  0
BLOCK_RECORD
  5
DF
330
1
100
AcDbSymbolTableRecord
100
AcDbBlockTableRecord
  2
D3
340
0
 70
     0
280
     1
281
     0
  0
BLOCK_RECORD
  5
F0
330
1
100
AcDbSymbolTableRecord
100
AcDbBlockTableRecord
  2
D4
340
0
 70
     0
280
     1
281
     0
  0
BLOCK_RECORD
  5
191
330
1
100
AcDbSymbolTableRecord
100
AcDbBlockTableRecord
  2
D5
340
0
 70
     0
280
     1
281
     0
  0
BLOCK_RECORD
  5
2A4
330
1
100
AcDbSymbolTableRecord
100
AcDbBlockTableRecord
  2
BLOCK0
340
0
102
{BLKREFS
331
2A3
102
}
 70
     0
280
     1
281
     0
  0
ENDTAB
  0
ENDSEC
  0
SECTION
  2
BLOCKS
  0
BLOCK
  5
20
330
1F
100
AcDbEntity
  8
0
100
AcDbBlockBegin
  2
*Model_Space
 70
     0
 10
0.0
 20
0.0
 30
0.0
  3
*Model_Space
  1

  0
ENDBLK
  5
21
330
1F
100
AcDbEntity
  8
0
100
AcDbBlockEnd
  0
BLOCK
  5
1C
330
1B
100
AcDbEntity
 67
     1
  8
0
100
AcDbBlockBegin
  2
*Paper_Space
 70
     0
 10
0.0
 20
0.0
 30
0.0
  3
*Paper_Space
  1

  0
ENDBLK
  5
1D
330
1B
100
AcDbEntity
 67
     1
  8
0
100
AcDbBlockEnd
  0
BLOCK
  5
24
330
23
100
AcDbEntity
  8
0
100
AcDbBlockBegin
  2
*Paper_Space0
 70
     0
 10
0.0
 20
0.0
 30
0.0
  3
*Paper_Space0
  1

  0
ENDBLK
  5
25
330
23
100
AcDbEntity
  8
0
100
AcDbBlockEnd
  0
BLOCK
  5
BD
330
BC
100
AcDbEntity
  8
0
100
AcDbBlockBegin
  2
D1
 70
     0
 10
0.0
 20
0.0
 30
0.0
  3
D1
  1

  0
MTEXT
  5
BF
330
BC
100
AcDbEntity
  8
DIMENSIONS
100
AcDbMText
 10
102.8539352416987
 20
92.3385467529292
 30
0.0
 40
2.134018756842158
 41
0.0
 46
0.0
 71
     5
 72
     1
  1
{\fAlibre Symbols|b0|i0|c0|p0;n}{\fCE|b0|i0|c0|p0;\H0.95x;50}{\fCE|b0|i0|c0|p0;}
 73
     1
 44
1.0
  0
MTEXT
  5
C0
330
BC
100
AcDbEntity
  8
DIMENSIONS
100
AcDbMText
 10
102.8539352416987
 20
92.3385467529292
 30
0.0
 40
2.134018756842158
 41
0.0
 46
0.0
 71
     5
 72
     1
  1
{\fCE|b0|i0|c0|p0;}
 73
     1
 44
1.0
  0
MTEXT
  5
C1
330
BC
100
AcDbEntity
  8
DIMENSIONS
100
AcDbMText
 10
102.8539352416987
 20
92.3385467529292
 30
0.0
 40
2.134018756842158
 41
0.0
 46
0.0
 71
     5
 72
     1
  1
{\fCE|b0|i0|c0|p0;}
 73
     1
 44
1.0
  0
MTEXT
  5
C2
330
BC
100
AcDbEntity
  8
DIMENSIONS
100
AcDbMText
 10
99.14976857503207
 20
92.3385467529292
 30
0.0
 40
2.134018756842158
 41
0.0
 46
0.0
 71
     5
 72
     1
  1
{\fCE|b0|i0|c0|p0;}
 73
     1
 44
1.0
  0
MTEXT
  5
C3
330
BC
100
AcDbEntity
  8
DIMENSIONS
100
AcDbMText
 10
106.5581019083654
 20
92.3385467529292
 30
0.0
 40
2.134018756842158
 41
0.0
 46
0.0
 71
     5
 72
     1
  1
{\fCE|b0|i0|c0|p0;}
 73
     1
 44
1.0
  0
LINE
  5
C4
330
BC
100
AcDbEntity
  8
DIMENSIONS
100
AcDbLine
 10
126.325618743896
 20
139.12865447998
 30
0.0
 11
126.325618743896
 21
87.86910230848474
 31
0.0
  0
LINE
  5
C5
330
BC
100
AcDbEntity
  8
DIMENSIONS
100
AcDbLine
 10
76.325618743896
 20
139.12865447998
 30
0.0
 11
76.325618743896
 21
87.86910230848474
 31
0.0
  0
LWPOLYLINE
  5
C6
330
BC
100
AcDbEntity
  8
DIMENSIONS
100
AcDbPolyline
 90
        4
 70
     0
 43
0.0
 10
126.325618743896
 20
89.86910230848474
 10
123.325618743896
 20
89.36910230848474
 10
123.325618743896
 20
90.36910230848474
 10
126.325618743896
 20
89.86910230848474
  0
LINE
  5
C7
330
BC
100
AcDbEntity
  8
DIMENSIONS
100
AcDbLine
 10
123.325618743896
 20
89.86910230848474
 30
0.0
 11
102.8539352416987
 21
89.86910230848474
 31
0.0
  0
LWPOLYLINE
  5
C8
330
BC
100
AcDbEntity
  8
DIMENSIONS
100
AcDbPolyline
 90
        4
 70
     0
 43
0.0
 10
76.325618743896
 20
89.86910230848474
 10
79.325618743896
 20
90.36910230848474
 10
79.325618743896
 20
89.36910230848476
 10
76.325618743896
 20
89.86910230848474
  0
LINE
  5
C9
330
BC
100
AcDbEntity
  8
DIMENSIONS
100
AcDbLine
 10
79.325618743896
 20
89.86910230848474
 30
0.0
 11
102.8539352416987
 21
89.86910230848474
 31
0.0
  0
LINE
  5
CA
330
BC
100
AcDbEntity
  8
DIMENSIONS
100
AcDbLine
 10
108.5581018924708
 20
89.86910230848474
 30
0.0
 11
96.44421309232663
 21
89.86910230848474
 31
0.0
  0
LWPOLYLINE
  5
CB
330
BC
100
AcDbEntity
  8
DIMENSIONS
100
AcDbPolyline
 90
        5
 70
     0
 43
0.0
 10
101.325618743896
 20
126.12865447998
 10
101.325618743896
 20
126.12865447998
 10
101.325618743896
 20
126.12865447998
 10
101.325618743896
 20
126.12865447998
 10
101.325618743896
 20
126.12865447998
  0
HATCH
  5
CC
330
BC
100
AcDbEntity
  8
0
 62
     7
100
AcDbHatch
 10
0.0
 20
0.0
 30
0.0
210
0.0
220
0.0
230
1.0
  2
PLNÁ, Plné vyplnění
 70
     0
 71
     0
 91
        2
 92
        0
 93
        3
 72
     1
 10
123.325618743896
 20
90.36910230848474
 11
126.325618743896
 21
89.86910230848474
 72
     1
 10
126.325618743896
 20
89.86910230848474
 11
123.325618743896
 21
89.36910230848474
 72
     1
 10
123.325618743896
 20
89.36910230848474
 11
123.325618743896
 21
90.36910230848474
 97
        0
 92
        0
 93
        3
 72
     1
 10
79.325618743896
 20
89.36910230848476
 11
76.325618743896
 21
89.86910230848474
 72
     1
 10
76.325618743896
 20
89.86910230848474
 11
79.325618743896
 21
90.36910230848474
 72
     1
 10
79.325618743896
 20
90.36910230848474
 11
79.325618743896
 21
89.36910230848476
 97
        0
 75
     0
 76
     0
 52
0.0
 41
1.0
 77
     0
 78
     1
 53
45.0
 43
0.0
 44
0.0
 45
0.0
 46
0.0
 79
     0
 98
        0
  0
ENDBLK
  5
BE
330
BC
100
AcDbEntity
  8
0
100
AcDbBlockEnd
  0
BLOCK
  5
CF
330
CE
100
AcDbEntity
  8
0
100
AcDbBlockBegin
  2
D2
 70
     0
 10
0.0
 20
0.0
 30
0.0
  3
D2
  1

  0
MTEXT
  5
D1
330
CE
100
AcDbEntity
  8
DIMENSIONS
100
AcDbMText
 10
101.812492370605
 20
109.522323608398
 30
0.0
 40
2.134018756842158
 41
0.0
 46
0.0
 71
     5
 72
     1
  1
{\fCE|b0|i0|c0|p0;25}{\fCE|b0|i0|c0|p0;}
 73
     1
 44
1.0
  0
MTEXT
  5
D2
330
CE
100
AcDbEntity
  8
DIMENSIONS
100
AcDbMText
 10
101.812492370605
 20
109.522323608398
 30
0.0
 40
2.134018756842158
 41
0.0
 46
0.0
 71
     5
 72
     1
  1
{\fCE|b0|i0|c0|p0;}
 73
     1
 44
1.0
  0
MTEXT
  5
D3
330
CE
100
AcDbEntity
  8
DIMENSIONS
100
AcDbMText
 10
101.812492370605
 20
109.522323608398
 30
0.0
 40
2.134018756842158
 41
0.0
 46
0.0
 71
     5
 72
     1
  1
{\fCE|b0|i0|c0|p0;}
 73
     1
 44
1.0
  0
MTEXT
  5
D4
330
CE
100
AcDbEntity
  8
DIMENSIONS
100
AcDbMText
 10
99.34304792616052
 20
109.522323608398
 30
0.0
 40
2.134018756842158
 41
0.0
 46
0.0
 71
     5
 72
     1
  1
{\fCE|b0|i0|c0|p0;}
 73
     1
 44
1.0
  0
MTEXT
  5
D5
330
CE
100
AcDbEntity
  8
DIMENSIONS
100
AcDbMText
 10
104.2819368150494
 20
109.522323608398
 30
0.0
 40
2.134018756842158
 41
0.0
 46
0.0
 71
     5
 72
     1
  1
{\fCE|b0|i0|c0|p0;}
 73
     1
 44
1.0
  0
LINE
  5
D6
330
CE
100
AcDbEntity
  8
DIMENSIONS
100
AcDbLine
 10
113.8256184458728
 20
126.6286546289916
 30
0.0
 11
113.8256184458728
 21
105.7584347195091
 31
0.0
  0
LINE
  5
D7
330
CE
100
AcDbEntity
  8
DIMENSIONS
100
AcDbLine
 10
88.825618743896
 20
121.54115447998
 30
0.0
 11
88.825618743896
 21
105.7584347195091
 31
0.0
  0
LWPOLYLINE
  5
D8
330
CE
100
AcDbEntity
  8
DIMENSIONS
100
AcDbPolyline
 90
        4
 70
     0
 43
0.0
 10
113.8256184458728
 20
107.7584347195091
 10
110.8256184458728
 20
107.2584347195091
 10
110.8256184458728
 20
108.2584347195091
 10
113.8256184458728
 20
107.7584347195091
  0
LINE
  5
D9
330
CE
100
AcDbEntity
  8
DIMENSIONS
100
AcDbLine
 10
110.8256184458728
 20
107.7584347195091
 30
0.0
 11
101.812492370605
 21
107.7584347195091
 31
0.0
  0
LWPOLYLINE
  5
DA
330
CE
100
AcDbEntity
  8
DIMENSIONS
100
AcDbPolyline
 90
        4
 70
     0
 43
0.0
 10
88.825618743896
 20
107.7584347195091
 10
91.825618743896
 20
108.2584347195091
 10
91.825618743896
 20
107.2584347195091
 10
88.825618743896
 20
107.7584347195091
  0
LINE
  5
DB
330
CE
100
AcDbEntity
  8
DIMENSIONS
100
AcDbLine
 10
91.825618743896
 20
107.7584347195091
 30
0.0
 11
101.812492370605
 21
107.7584347195091
 31
0.0
  0
LINE
  5
DC
330
CE
100
AcDbEntity
  8
DIMENSIONS
100
AcDbLine
 10
96.63749247789335
 20
107.7584347195091
 30
0.0
 11
106.281936705112
 21
107.7584347195091
 31
0.0
  0
HATCH
  5
DD
330
CE
100
AcDbEntity
  8
0
 62
     7
100
AcDbHatch
 10
0.0
 20
0.0
 30
0.0
210
0.0
220
0.0
230
1.0
  2
PLNÁ, Plné vyplnění
 70
     0
 71
     0
 91
        2
 92
        0
 93
        3
 72
     1
 10
110.8256184458728
 20
108.2584347195091
 11
113.8256184458728
 21
107.7584347195091
 72
     1
 10
113.8256184458728
 20
107.7584347195091
 11
110.8256184458728
 21
107.2584347195091
 72
     1
 10
110.8256184458728
 20
107.2584347195091
 11
110.8256184458728
 21
108.2584347195091
 97
        0
 92
        0
 93
        3
 72
     1
 10
91.825618743896
 20
107.2584347195091
 11
88.825618743896
 21
107.7584347195091
 72
     1
 10
88.825618743896
 20
107.7584347195091
 11
91.825618743896
 21
108.2584347195091
 72
     1
 10
91.825618743896
 20
108.2584347195091
 11
91.825618743896
 21
107.2584347195091
 97
        0
 75
     0
 76
     0
 52
0.0
 41
1.0
 77
     0
 78
     1
 53
45.0
 43
0.0
 44
0.0
 45
0.0
 46
0.0
 79
     0
 98
        0
  0
ENDBLK
  5
D0
330
CE
100
AcDbEntity
  8
0
100
AcDbBlockEnd
  0
BLOCK
  5
E0
330
DF
100
AcDbEntity
  8
0
100
AcDbBlockBegin
  2
D3
 70
     0
 10
0.0
 20
0.0
 30
0.0
  3
D3
  1

  0
MTEXT
  5
E2
330
DF
100
AcDbEntity
  8
DIMENSIONS
100
AcDbMText
 10
139.0439758300776
 20
141.9371643066402
 30
0.0
 40
2.134018756842158
 41
0.0
 46
0.0
 71
     5
 72
     1
  1
{\fCE|b0|i0|c0|p0;25}{\fCE|b0|i0|c0|p0;}
 11
6.123031769111886E-17
 21
1.0
 31
0.0
 73
     1
 44
1.0
  0
MTEXT
  5
E3
330
DF
100
AcDbEntity
  8
DIMENSIONS
100
AcDbMText
 10
139.0439758300776
 20
141.9371643066402
 30
0.0
 40
2.134018756842158
 41
0.0
 46
0.0
 71
     5
 72
     1
  1
{\fCE|b0|i0|c0|p0;}
 11
6.123031769111886E-17
 21
1.0
 31
0.0
 73
     1
 44
1.0
  0
MTEXT
  5
E4
330
DF
100
AcDbEntity
  8
DIMENSIONS
100
AcDbMText
 10
139.0439758300776
 20
141.9371643066402
 30
0.0
 40
2.134018756842158
 41
0.0
 46
0.0
 71
     5
 72
     1
  1
{\fCE|b0|i0|c0|p0;}
 11
6.123031769111886E-17
 21
1.0
 31
0.0
 73
     1
 44
1.0
  0
MTEXT
  5
E5
330
DF
100
AcDbEntity
  8
DIMENSIONS
100
AcDbMText
 10
139.0439758300776
 20
139.4677198621958
 30
0.0
 40
2.134018756842158
 41
0.0
 46
0.0
 71
     5
 72
     1
  1
{\fCE|b0|i0|c0|p0;}
 11
6.123031769111886E-17
 21
1.0
 31
0.0
 73
     1
 44
1.0
  0
MTEXT
  5
E6
330
DF
100
AcDbEntity
  8
DIMENSIONS
100
AcDbMText
 10
139.0439758300776
 20
144.4066087510846
 30
0.0
 40
2.134018756842158
 41
0.0
 46
0.0
 71
     5
 72
     1
  1
{\fCE|b0|i0|c0|p0;}
 11
6.123031769111886E-17
 21
1.0
 31
0.0
 73
     1
 44
1.0
  0
LINE
  5
E7
330
DF
100
AcDbEntity
  8
DIMENSIONS
100
AcDbLine
 10
120.913118743896
 20
128.62865447998
 30
0.0
 11
142.8078647189665
 21
128.62865447998
 31
0.0
  0
LINE
  5
E8
330
DF
100
AcDbEntity
  8
DIMENSIONS
100
AcDbLine
 10
120.913118743896
 20
153.62865447998
 30
0.0
 11
142.8078647189665
 21
153.62865447998
 31
0.0
  0
LWPOLYLINE
  5
E9
330
DF
100
AcDbEntity
  8
DIMENSIONS
100
AcDbPolyline
 90
        4
 70
     0
 43
0.0
 10
140.8078647189665
 20
128.62865447998
 10
140.3078647189665
 20
131.62865447998
 10
141.3078647189665
 20
131.62865447998
 10
140.8078647189665
 20
128.62865447998
  0
LINE
  5
EA
330
DF
100
AcDbEntity
  8
DIMENSIONS
100
AcDbLine
 10
140.8078647189665
 20
131.62865447998
 30
0.0
 11
140.8078647189665
 21
141.9371643066402
 31
0.0
  0
LWPOLYLINE
  5
EB
330
DF
100
AcDbEntity
  8
DIMENSIONS
100
AcDbPolyline
 90
        4
 70
     0
 43
0.0
 10
140.8078647189665
 20
153.62865447998
 10
141.3078647189665
 20
150.62865447998
 10
140.3078647189665
 20
150.62865447998
 10
140.8078647189665
 20
153.62865447998
  0
LINE
  5
EC
330
DF
100
AcDbEntity
  8
DIMENSIONS
100
AcDbLine
 10
140.8078647189665
 20
150.62865447998
 30
0.0
 11
140.8078647189665
 21
141.9371643066402
 31
0.0
  0
LINE
  5
ED
330
DF
100
AcDbEntity
  8
DIMENSIONS
100
AcDbLine
 10
140.8078647189665
 20
146.7593867778774
 30
0.0
 11
140.8078647189665
 21
137.1149413585658
 31
0.0
  0
HATCH
  5
EE
330
DF
100
AcDbEntity
  8
0
 62
     7
100
AcDbHatch
 10
0.0
 20
0.0
 30
0.0
210
0.0
220
0.0
230
1.0
  2
PLNÁ, Plné vyplnění
 70
     0
 71
     0
 91
        2
 92
        0
 93
        3
 72
     1
 10
141.3078647189665
 20
131.62865447998
 11
140.8078647189665
 21
128.62865447998
 72
     1
 10
140.8078647189665
 20
128.62865447998
 11
140.3078647189665
 21
131.62865447998
 72
     1
 10
140.3078647189665
 20
131.62865447998
 11
141.3078647189665
 21
131.62865447998
 97
        0
 92
        0
 93
        3
 72
     1
 10
140.3078647189665
 20
150.62865447998
 11
140.8078647189665
 21
153.62865447998
 72
     1
 10
140.8078647189665
 20
153.62865447998
 11
141.3078647189665
 21
150.62865447998
 72
     1
 10
141.3078647189665
 20
150.62865447998
 11
140.3078647189665
 21
150.62865447998
 97
        0
 75
     0
 76
     0
 52
0.0
 41
1.0
 77
     0
 78
     1
 53
45.0
 43
0.0
 44
0.0
 45
0.0
 46
0.0
 79
     0
 98
        0
  0
ENDBLK
  5
E1
330
DF
100
AcDbEntity
  8
0
100
AcDbBlockEnd
  0
BLOCK
  5
F1
330
F0
100
AcDbEntity
  8
0
100
AcDbBlockBegin
  2
D4
 70
     0
 10
0.0
 20
0.0
 30
0.0
  3
D4
  1

  0
MTEXT
  5
F3
330
F0
100
AcDbEntity
  8
DIMENSIONS
100
AcDbMText
 10
94.75055694580072
 20
99.2252960205078
 30
0.0
 40
2.134018756842158
 41
0.0
 46
0.0
 71
     5
 72
     1
  1
{\fCE|b0|i0|c0|p0;35}{\fCE|b0|i0|c0|p0;}
 73
     1
 44
1.0
  0
MTEXT
  5
F4
330
F0
100
AcDbEntity
  8
DIMENSIONS
100
AcDbMText
 10
94.75055694580072
 20
99.2252960205078
 30
0.0
 40
2.134018756842158
 41
0.0
 46
0.0
 71
     5
 72
     1
  1
{\fCE|b0|i0|c0|p0;}
 73
     1
 44
1.0
  0
MTEXT
  5
F5
330
F0
100
AcDbEntity
  8
DIMENSIONS
100
AcDbMText
 10
94.75055694580072
 20
99.2252960205078
 30
0.0
 40
2.134018756842158
 41
0.0
 46
0.0
 71
     5
 72
     1
  1
{\fCE|b0|i0|c0|p0;}
 73
     1
 44
1.0
  0
MTEXT
  5
F6
330
F0
100
AcDbEntity
  8
DIMENSIONS
100
AcDbMText
 10
92.28111250135628
 20
99.2252960205078
 30
0.0
 40
2.134018756842158
 41
0.0
 46
0.0
 71
     5
 72
     1
  1
{\fCE|b0|i0|c0|p0;}
 73
     1
 44
1.0
  0
MTEXT
  5
F7
330
F0
100
AcDbEntity
  8
DIMENSIONS
100
AcDbMText
 10
97.22000139024517
 20
99.2252960205078
 30
0.0
 40
2.134018756842158
 41
0.0
 46
0.0
 71
     5
 72
     1
  1
{\fCE|b0|i0|c0|p0; +/- 0,02}{\fCE|b0|i0|c0|p0;}
 73
     1
 44
1.0
  0
LINE
  5
F8
330
F0
100
AcDbEntity
  8
DIMENSIONS
100
AcDbLine
 10
118.825618743896
 20
139.12865447998
 30
0.0
 11
118.825618743896
 21
95.46140713161891
 31
0.0
  0
LINE
  5
F9
330
F0
100
AcDbEntity
  8
DIMENSIONS
100
AcDbLine
 10
83.825618743896
 20
139.12865447998
 30
0.0
 11
83.825618743896
 21
95.46140713161891
 31
0.0
  0
LWPOLYLINE
  5
FA
330
F0
100
AcDbEntity
  8
DIMENSIONS
100
AcDbPolyline
 90
        4
 70
     0
 43
0.0
 10
118.825618743896
 20
97.46140713161891
 10
115.825618743896
 20
96.96140713161891
 10
115.825618743896
 20
97.96140713161891
 10
118.825618743896
 20
97.46140713161891
  0
LINE
  5
FB
330
F0
100
AcDbEntity
  8
DIMENSIONS
100
AcDbLine
 10
115.825618743896
 20
97.46140713161891
 30
0.0
 11
94.75055694580072
 21
97.46140713161891
 31
0.0
  0
LWPOLYLINE
  5
FC
330
F0
100
AcDbEntity
  8
DIMENSIONS
100
AcDbPolyline
 90
        4
 70
     0
 43
0.0
 10
83.825618743896
 20
97.46140713161891
 10
86.825618743896
 20
97.96140713161891
 10
86.825618743896
 20
96.96140713161891
 10
83.825618743896
 20
97.46140713161891
  0
LINE
  5
FD
330
F0
100
AcDbEntity
  8
DIMENSIONS
100
AcDbLine
 10
86.825618743896
 20
97.46140713161891
 30
0.0
 11
94.75055694580072
 21
97.46140713161891
 31
0.0
  0
LINE
  5
FE
330
F0
100
AcDbEntity
  8
DIMENSIONS
100
AcDbLine
 10
89.5755571126933
 20
97.46140713161891
 30
0.0
 11
110.8616682291026
 21
97.46140713161891
 31
0.0
  0
HATCH
  5
FF
330
F0
100
AcDbEntity
  8
0
 62
     7
100
AcDbHatch
 10
0.0
 20
0.0
 30
0.0
210
0.0
220
0.0
230
1.0
  2
PLNÁ, Plné vyplnění
 70
     0
 71
     0
 91
        2
 92
        0
 93
        3
 72
     1
 10
115.825618743896
 20
97.96140713161891
 11
118.825618743896
 21
97.46140713161891
 72
     1
 10
118.825618743896
 20
97.46140713161891
 11
115.825618743896
 21
96.96140713161891
 72
     1
 10
115.825618743896
 20
96.96140713161891
 11
115.825618743896
 21
97.96140713161891
 97
        0
 92
        0
 93
        3
 72
     1
 10
86.825618743896
 20
96.96140713161891
 11
83.825618743896
 21
97.46140713161891
 72
     1
 10
83.825618743896
 20
97.46140713161891
 11
86.825618743896
 21
97.96140713161891
 72
     1
 10
86.825618743896
 20
97.96140713161891
 11
86.825618743896
 21
96.96140713161891
 97
        0
 75
     0
 76
     0
 52
0.0
 41
1.0
 77
     0
 78
     1
 53
45.0
 43
0.0
 44
0.0
 45
0.0
 46
0.0
 79
     0
 98
        0
  0
ENDBLK
  5
F2
330
F0
100
AcDbEntity
  8
0
100
AcDbBlockEnd
  0
BLOCK
  5
192
330
191
100
AcDbEntity
  8
0
100
AcDbBlockBegin
  2
D5
 70
     0
 10
0.0
 20
0.0
 30
0.0
  3
D5
  1

  0
MTEXT
  5
194
330
191
100
AcDbEntity
  8
DIMENSIONS
100
AcDbMText
 10
180.336791932583
 20
101.0035998874236
 30
0.0
 40
2.134018756842158
 41
0.0
 46
0.0
 71
     5
 72
     1
  1
{\fCE|b0|i0|c0|p0;8}{\fCE|b0|i0|c0|p0;}
 73
     1
 44
1.0
  0
MTEXT
  5
195
330
191
100
AcDbEntity
  8
DIMENSIONS
100
AcDbMText
 10
180.336791932583
 20
101.0035998874236
 30
0.0
 40
2.134018756842158
 41
0.0
 46
0.0
 71
     5
 72
     1
  1
{\fCE|b0|i0|c0|p0;}
 73
     1
 44
1.0
  0
MTEXT
  5
196
330
191
100
AcDbEntity
  8
DIMENSIONS
100
AcDbMText
 10
180.336791932583
 20
101.0035998874236
 30
0.0
 40
2.134018756842158
 41
0.0
 46
0.0
 71
     5
 72
     1
  1
{\fCE|b0|i0|c0|p0;}
 73
     1
 44
1.0
  0
MTEXT
  5
197
330
191
100
AcDbEntity
  8
DIMENSIONS
100
AcDbMText
 10
178.749291932583
 20
101.0035998874236
 30
0.0
 40
2.134018756842158
 41
0.0
 46
0.0
 71
     5
 72
     1
  1
{\fCE|b0|i0|c0|p0;}
 73
     1
 44
1.0
  0
MTEXT
  5
198
330
191
100
AcDbEntity
  8
DIMENSIONS
100
AcDbMText
 10
181.924291932583
 20
101.0035998874236
 30
0.0
 40
2.134018756842158
 41
0.0
 46
0.0
 71
     5
 72
     1
  1
{\fCE|b0|i0|c0|p0;}
 73
     1
 44
1.0
  0
LINE
  5
199
330
191
100
AcDbEntity
  8
DIMENSIONS
100
AcDbLine
 10
176.336791932583
 20
114.12865447998
 30
0.0
 11
176.336791932583
 21
97.2397109985347
 31
0.0
  0
LINE
  5
19A
330
191
100
AcDbEntity
  8
DIMENSIONS
100
AcDbLine
 10
184.336791932583
 20
114.12865447998
 30
0.0
 11
184.336791932583
 21
97.2397109985347
 31
0.0
  0
LWPOLYLINE
  5
19B
330
191
100
AcDbEntity
  8
DIMENSIONS
100
AcDbPolyline
 90
        4
 70
     0
 43
0.0
 10
176.336791932583
 20
99.2397109985347
 10
179.336791932583
 20
99.73971099853472
 10
179.336791932583
 20
98.73971099853472
 10
176.336791932583
 20
99.2397109985347
  0
LINE
  5
19C
330
191
100
AcDbEntity
  8
DIMENSIONS
100
AcDbLine
 10
179.336791932583
 20
99.2397109985347
 30
0.0
 11
180.336791932583
 21
99.2397109985347
 31
0.0
  0
LWPOLYLINE
  5
19D
330
191
100
AcDbEntity
  8
DIMENSIONS
100
AcDbPolyline
 90
        4
 70
     0
 43
0.0
 10
184.336791932583
 20
99.2397109985347
 10
181.336791932583
 20
98.7397109985347
 10
181.336791932583
 20
99.7397109985347
 10
184.336791932583
 20
99.2397109985347
  0
LINE
  5
19E
330
191
100
AcDbEntity
  8
DIMENSIONS
100
AcDbLine
 10
181.336791932583
 20
99.2397109985347
 30
0.0
 11
180.336791932583
 21
99.2397109985347
 31
0.0
  0
LINE
  5
19F
330
191
100
AcDbEntity
  8
DIMENSIONS
100
AcDbLine
 10
183.924292266369
 20
99.2397109985347
 30
0.0
 11
176.0437363386156
 21
99.2397109985347
 31
0.0
  0
HATCH
  5
1A0
330
191
100
AcDbEntity
  8
0
 62
     7
100
AcDbHatch
 10
0.0
 20
0.0
 30
0.0
210
0.0
220
0.0
230
1.0
  2
PLNÁ, Plné vyplnění
 70
     0
 71
     0
 91
        2
 92
        0
 93
        3
 72
     1
 10
179.336791932583
 20
98.73971099853472
 11
176.336791932583
 21
99.2397109985347
 72
     1
 10
176.336791932583
 20
99.2397109985347
 11
179.336791932583
 21
99.73971099853472
 72
     1
 10
179.336791932583
 20
99.73971099853472
 11
179.336791932583
 21
98.73971099853472
 97
        0
 92
        0
 93
        3
 72
     1
 10
181.336791932583
 20
99.7397109985347
 11
184.336791932583
 21
99.2397109985347
 72
     1
 10
184.336791932583
 20
99.2397109985347
 11
181.336791932583
 21
98.7397109985347
 72
     1
 10
181.336791932583
 20
98.7397109985347
 11
181.336791932583
 21
99.7397109985347
 97
        0
 75
     0
 76
     0
 52
0.0
 41
1.0
 77
     0
 78
     1
 53
45.0
 43
0.0
 44
0.0
 45
0.0
 46
0.0
 79
     0
 98
        0
  0
ENDBLK
  5
193
330
191
100
AcDbEntity
  8
0
100
AcDbBlockEnd
  0
BLOCK
  5
2A5
330
2A4
100
AcDbEntity
  8
0
100
AcDbBlockBegin
  2
BLOCK0
 70
     0
 10
0.0
 20
0.0
 30
0.0
  3
BLOCK0
  1

  0
LINE
  5
2A7
330
2A4
100
AcDbEntity
  8
CONTINUOUS
100
AcDbLine
 10
9.99999999999998
 20
9.99999999999995
 30
0.0
 11
287.0
 21
10.0
 31
0.0
  0
LINE
  5
2A8
330
2A4
100
AcDbEntity
  8
CONTINUOUS
100
AcDbLine
 10
141.942321777344
 20
5.0
 30
0.0
 11
241.942321777344
 21
5.0
 31
0.0
  0
LINE
  5
2A9
330
2A4
100
AcDbEntity
  8
CONTINUOUS
100
AcDbLine
 10
0.0
 20
0.0
 30
0.0
 11
-0.0000000000000012
 21
10.0
 31
0.0
  0
LINE
  5
2AA
330
2A4
100
AcDbEntity
  8
CONTINUOUS
100
AcDbLine
 10
0.0
 20
0.0
 30
0.0
 11
10.0
 21
0.0000000000000018
 31
0.0
  0
LINE
  5
2AB
330
2A4
100
AcDbEntity
  8
CONTINUOUS
100
AcDbLine
 10
141.942321777344
 20
5.0
 30
0.0
 11
141.942321777344
 21
10.0
 31
0.0
  0
LINE
  5
2AC
330
2A4
100
AcDbEntity
  8
CONTINUOUS
100
AcDbLine
 10
151.942321777344
 20
5.0
 30
0.0
 11
151.942321777344
 21
10.0
 31
0.0
  0
LINE
  5
2AD
330
2A4
100
AcDbEntity
  8
CONTINUOUS
100
AcDbLine
 10
161.942321777344
 20
5.0
 30
0.0
 11
161.942321777344
 21
10.0
 31
0.0
  0
LINE
  5
2AE
330
2A4
100
AcDbEntity
  8
CONTINUOUS
100
AcDbLine
 10
10.0
 20
57.5
 30
0.0
 11
5.0
 21
57.5
 31
0.0
  0
LINE
  5
2AF
330
2A4
100
AcDbEntity
  8
CONTINUOUS
100
AcDbLine
 10
10.0
 20
105.0
 30
0.0
 11
5.0
 21
105.0
 31
0.0
  0
LINE
  5
2B0
330
2A4
100
AcDbEntity
  8
CONTINUOUS
100
AcDbLine
 10
191.942321777344
 20
10.0
 30
0.0
 11
191.942321777344
 21
5.0
 31
0.0
  0
LINE
  5
2B1
330
2A4
100
AcDbEntity
  8
CONTINUOUS
100
AcDbLine
 10
171.942321777344
 20
5.0
 30
0.0
 11
171.942321777344
 21
10.0
 31
0.0
  0
LINE
  5
2B2
330
2A4
100
AcDbEntity
  8
CONTINUOUS
100
AcDbLine
 10
181.942321777344
 20
5.0
 30
0.0
 11
181.942321777344
 21
10.0
 31
0.0
  0
LINE
  5
2B3
330
2A4
100
AcDbEntity
  8
CONTINUOUS
100
AcDbLine
 10
201.942321777344
 20
5.0
 30
0.0
 11
201.942321777344
 21
10.0
 31
0.0
  0
LINE
  5
2B4
330
2A4
100
AcDbEntity
  8
CONTINUOUS
100
AcDbLine
 10
211.942321777344
 20
5.0
 30
0.0
 11
211.942321777344
 21
10.0
 31
0.0
  0
LINE
  5
2B5
330
2A4
100
AcDbEntity
  8
CONTINUOUS
100
AcDbLine
 10
221.942321777344
 20
5.0
 30
0.0
 11
221.942321777344
 21
10.0
 31
0.0
  0
LINE
  5
2B6
330
2A4
100
AcDbEntity
  8
CONTINUOUS
100
AcDbLine
 10
297.0
 20
0.0
 30
0.0
 11
297.0
 21
10.0
 31
0.0
  0
LINE
  5
2B7
330
2A4
100
AcDbEntity
  8
CONTINUOUS
100
AcDbLine
 10
241.942321777344
 20
5.0
 30
0.0
 11
241.942321777344
 21
10.0
 31
0.0
  0
LINE
  5
2B8
330
2A4
100
AcDbEntity
  8
CONTINUOUS
100
AcDbLine
 10
231.942321777344
 20
5.0
 30
0.0
 11
231.942321777344
 21
10.0
 31
0.0
  0
LINE
  5
2B9
330
2A4
100
AcDbEntity
  8
CONTINUOUS
100
AcDbLine
 10
296.942321777344
 20
0.0
 30
0.0
 11
286.942321777344
 21
0.0
 31
0.0
  0
LINE
  5
2BA
330
2A4
100
AcDbEntity
  8
CONTINUOUS
100
AcDbLine
 10
291.942321777344
 20
57.5
 30
0.0
 11
286.942321777344
 21
57.5
 31
0.0
  0
LINE
  5
2BB
330
2A4
100
AcDbEntity
  8
CONTINUOUS
100
AcDbLine
 10
291.942321777344
 20
105.0
 30
0.0
 11
286.942321777344
 21
105.0
 31
0.0
  0
LINE
  5
2BC
330
2A4
100
AcDbEntity
  8
CONTINUOUS
100
AcDbLine
 10
-0.0000000000000249
 20
209.989334106445
 30
0.0
 11
-0.0000000000000249
 21
199.989334106445
 31
0.0
  0
LINE
  5
2BD
330
2A4
100
AcDbEntity
  8
CONTINUOUS
100
AcDbLine
 10
10.0165710449219
 20
209.989334106445
 30
0.0
 11
0.016571044921875
 21
209.989334106445
 31
0.0
  0
LINE
  5
2BE
330
2A4
100
AcDbEntity
  8
CONTINUOUS
100
AcDbLine
 10
194.666666666667
 20
199.989334106445
 30
0.0
 11
194.666666666667
 21
204.989334106445
 31
0.0
  0
LINE
  5
2BF
330
2A4
100
AcDbEntity
  8
CONTINUOUS
100
AcDbLine
 10
297.0
 20
199.989334106445
 30
0.0
 11
297.0
 21
209.989334106445
 31
0.0
  0
LINE
  5
2C0
330
2A4
100
AcDbEntity
  8
CONTINUOUS
100
AcDbLine
 10
240.833333333333
 20
199.989334106445
 30
0.0
 11
240.833333333333
 21
204.989334106445
 31
0.0
  0
LINE
  5
2C1
330
2A4
100
AcDbEntity
  8
CONTINUOUS
100
AcDbLine
 10
296.958892822266
 20
209.989334106445
 30
0.0
 11
286.958892822266
 21
209.989334106445
 31
0.0
  0
LINE
  5
2C2
330
2A4
100
AcDbEntity
  8
CONTINUOUS
100
AcDbLine
 10
286.942321777344
 20
152.5
 30
0.0
 11
291.942321777344
 21
152.5
 31
0.0
  0
LINE
  5
2C3
330
2A4
100
AcDbEntity
  8
CONTINUOUS
100
AcDbLine
 10
5.0
 20
152.5
 30
0.0
 11
10.0
 21
152.5
 31
0.0
  0
LINE
  5
2C4
330
2A4
100
AcDbEntity
  8
CONTINUOUS
100
AcDbLine
 10
287.0
 20
200.0
 30
0.0
 11
9.99999999999998
 21
200.0
 31
0.0
  0
LINE
  5
2C5
330
2A4
100
AcDbEntity
  8
CONTINUOUS
100
AcDbLine
 10
287.0
 20
10.0
 30
0.0
 11
287.0
 21
200.0
 31
0.0
  0
LINE
  5
2C6
330
2A4
100
AcDbEntity
  8
CONTINUOUS
100
AcDbLine
 10
9.99999999999998
 20
200.0
 30
0.0
 11
9.99999999999998
 21
9.99999999999995
 31
0.0
  0
LINE
  5
2C7
330
2A4
100
AcDbEntity
  8
CONTINUOUS
100
AcDbLine
 10
56.1666666666666
 20
200.0
 30
0.0
 11
56.1666666666666
 21
205.0
 31
0.0
  0
LINE
  5
2C8
330
2A4
100
AcDbEntity
  8
CONTINUOUS
100
AcDbLine
 10
102.333333333333
 20
200.0
 30
0.0
 11
102.333333333333
 21
205.0
 31
0.0
  0
LINE
  5
2C9
330
2A4
100
AcDbEntity
  8
CONTINUOUS
100
AcDbLine
 10
148.5
 20
200.0
 30
0.0
 11
148.5
 21
205.0
 31
0.0
  0
LINE
  5
2CA
330
2A4
100
AcDbEntity
  8
CONTINUOUS
100
AcDbLine
 10
56.1666679382324
 20
10.0
 30
0.0
 11
56.1666679382324
 21
5.0
 31
0.0
  0
LINE
  5
2CB
330
2A4
100
AcDbEntity
  8
CONTINUOUS
100
AcDbLine
 10
102.333335876465
 20
10.0
 30
0.0
 11
102.333335876465
 21
5.0
 31
0.0
  0
LINE
  5
2CC
330
2A4
100
AcDbEntity
  8
CONTINUOUS
100
AcDbLine
 10
194.0
 20
10.0
 30
0.0
 11
194.0
 21
48.0
 31
0.0
  0
LINE
  5
2CD
330
2A4
100
AcDbEntity
  8
CONTINUOUS
100
AcDbLine
 10
251.0
 20
10.0
 30
0.0
 11
251.0
 21
20.0
 31
0.0
  0
LINE
  5
2CE
330
2A4
100
AcDbEntity
  8
CONTINUOUS
100
AcDbLine
 10
269.0
 20
10.0
 30
0.0
 11
269.0
 21
20.0
 31
0.0
  0
LINE
  5
2CF
330
2A4
100
AcDbEntity
  8
CONTINUOUS
100
AcDbLine
 10
229.0
 20
9.99999999999999
 30
0.0
 11
229.0
 21
20.0
 31
0.0
  0
LINE
  5
2D0
330
2A4
100
AcDbEntity
  8
CONTINUOUS
100
AcDbLine
 10
241.559921264648
 20
30.0
 30
0.0
 11
241.559921264648
 21
20.0
 31
0.0
  0
LINE
  5
2D1
330
2A4
100
AcDbEntity
  8
CONTINUOUS
100
AcDbLine
 10
269.0
 20
10.0
 30
0.0
 11
287.0
 21
10.0
 31
0.0
  0
LINE
  5
2D2
330
2A4
100
AcDbEntity
  8
CONTINUOUS
100
AcDbLine
 10
194.0
 20
48.0
 30
0.0
 11
287.0
 21
48.0
 31
0.0
  0
LINE
  5
2D3
330
2A4
100
AcDbEntity
  8
CONTINUOUS
100
AcDbLine
 10
194.059921264648
 20
30.0
 30
0.0
 11
287.059921264648
 21
30.0
 31
0.0
  0
LINE
  5
2D4
330
2A4
100
AcDbEntity
  8
CONTINUOUS
100
AcDbLine
 10
194.059921264648
 20
20.0
 30
0.0
 11
287.059921264648
 21
20.0
 31
0.0
  0
LINE
  5
2D5
330
2A4
100
AcDbEntity
  8
CONTINUOUS
100
AcDbLine
 10
216.0
 20
30.0
 30
0.0
 11
216.0
 21
48.0
 31
0.0
  0
MTEXT
  5
2D6
330
2A4
100
AcDbEntity
  8
CONTINUOUS
100
AcDbMText
 10
289.025805015464
 20
125.886
 30
0.0
 40
3.720853217058121
 41
0.0
 46
0.0
 71
     4
 72
     1
  1
{\fArial|b0|i0|c0|p0;\C7;B}{\fArial|b0|i0|c0|p0;\C7;}
 73
     1
 44
1.0
  0
MTEXT
  5
2D7
330
2A4
100
AcDbEntity
  8
CONTINUOUS
100
AcDbMText
 10
242.754122362484
 20
27.7861882781982
 30
0.0
 40
2.251496730059653
 41
0.0
 46
0.0
 71
     4
 72
     1
  1
{\fMonotype Corsiva|b0|i1|c0|p0;\C7;Material }{\fArial|b0|i0|c0|p0;\C7;\H0.7692308x;}
 73
     1
 44
1.0
  0
MTEXT
  5
2D8
330
2A4
100
AcDbEntity
  8
CONTINUOUS
100
AcDbMText
 10
171.459843139648
 20
204.242353759765
 30
0.0
 40
3.720853217058121
 41
0.0
 46
0.0
 71
     4
 72
     1
  1
{\fArial|b0|i0|c0|p0;\C7;4}{\fArial|b0|i0|c0|p0;\C7;}
 73
     1
 44
1.0
  0
MTEXT
  5
2D9
330
2A4
100
AcDbEntity
  8
CONTINUOUS
100
AcDbMText
 10
265.171810609717
 20
204.240896547217
 30
0.0
 40
3.720853217058121
 41
0.0
 46
0.0
 71
     4
 72
     1
  1
{\fArial|b0|i0|c0|p0;\C7;6}{\fArial|b0|i0|c0|p0;\C7;}
 73
     1
 44
1.0
  0
MTEXT
  5
2DA
330
2A4
100
AcDbEntity
  8
CONTINUOUS
100
AcDbMText
 10
77.9621860149715
 20
204.250404272846
 30
0.0
 40
3.720853217058121
 41
0.0
 46
0.0
 71
     4
 72
     1
  1
{\fArial|b0|i0|c0|p0;\C7;2}{\fArial|b0|i0|c0|p0;\C7;}
 73
     1
 44
1.0
  0
MTEXT
  5
2DB
330
2A4
100
AcDbEntity
  8
CONTINUOUS
100
AcDbMText
 10
5.33690040588379
 20
33.886
 30
0.0
 40
3.720853217058121
 41
0.0
 46
0.0
 71
     4
 72
     1
  1
{\fArial|b0|i0|c0|p0;\C7;D}{\fArial|b0|i0|c0|p0;\C7;}
 73
     1
 44
1.0
  0
MTEXT
  5
2DC
330
2A4
100
AcDbEntity
  8
CONTINUOUS
100
AcDbMText
 10
269.737866210938
 20
18.1238347625733
 30
0.0
 40
2.251496730059653
 41
0.0
 46
0.0
 71
     4
 72
     1
  1
{\fMonotype Corsiva|b0|i1|c0|p0;\C7;Scale }{\fArial|b0|i0|c0|p0;\C7;\H0.7692308x;}
 73
     1
 44
1.0
  0
MTEXT
  5
2DD
330
2A4
100
AcDbEntity
  8
CONTINUOUS
100
AcDbMText
 10
32.2742214965821
 20
204.252439819336
 30
0.0
 40
3.720853217058121
 41
0.0
 46
0.0
 71
     4
 72
     1
  1
{\fArial|b0|i0|c0|p0;\C7;1}{\fArial|b0|i0|c0|p0;\C7;}
 73
     1
 44
1.0
  0
MTEXT
  5
2DE
330
2A4
100
AcDbEntity
  8
CONTINUOUS
100
AcDbMText
 10
5.18862550735474
 20
80.0342772827149
 30
0.0
 40
3.720853217058121
 41
0.0
 46
0.0
 71
     4
 72
     1
  1
{\fArial|b0|i0|c0|p0;\C7;C}{\fArial|b0|i0|c0|p0;\C7;}
 73
     1
 44
1.0
  0
MTEXT
  5
2DF
330
2A4
100
AcDbEntity
  8
CONTINUOUS
100
AcDbMText
 10
27.3887158203126
 20
6.7864282951355
 30
0.0
 40
3.720853217058121
 41
0.0
 46
0.0
 71
     4
 72
     1
  1
{\fArial|b0|i0|c0|p0;\C7;1}{\fArial|b0|i0|c0|p0;\C7;}
 73
     1
 44
1.0
  0
MTEXT
  5
2E0
330
2A4
100
AcDbEntity
  8
CONTINUOUS
100
AcDbMText
 10
288.710822753907
 20
79.4667495117188
 30
0.0
 40
3.720853217058121
 41
0.0
 46
0.0
 71
     4
 72
     1
  1
{\fArial|b0|i0|c0|p0;\C7;C}{\fArial|b0|i0|c0|p0;\C7;}
 73
     1
 44
1.0
  0
MTEXT
  5
2E1
330
2A4
100
AcDbEntity
  8
CONTINUOUS
100
AcDbMText
 10
244.748741149902
 20
7.15205116271974
 30
0.0
 40
1.969863467854299
 41
0.0
 46
0.0
 71
     4
 72
     1
  1
{\fArial|b0|i0|c0|p0;\C7;}
 73
     1
 44
1.0
  0
MTEXT
  5
2E2
330
2A4
100
AcDbEntity
  8
CONTINUOUS
100
AcDbMText
 10
195.142121124268
 20
28.0459958648682
 30
0.0
 40
2.251496730059653
 41
0.0
 46
0.0
 71
     4
 72
     1
  1
{\fMonotype Corsiva|b0|i1|c0|p0;\C7;Name }{\fArial|b0|i0|c0|p0;\C7;\H0.7692308x;}
 73
     1
 44
1.0
  0
MTEXT
  5
2E3
330
2A4
100
AcDbEntity
  8
CONTINUOUS
100
AcDbMText
 10
251.201002341357
 20
20.0034076309204
 30
0.0
 40
2.251496730059653
 41
0.0
 46
0.0
 71
     1
 72
     1
  1
{\fMonotype Corsiva|b0|i1|c0|p0;\C7;Quantity}{\fArial|b0|i0|c0|p0;\C7;\H0.7692308x;}
 73
     1
 44
1.0
  0
MTEXT
  5
2E4
330
2A4
100
AcDbEntity
  8
CONTINUOUS
100
AcDbMText
 10
81.36409489129
 20
6.84505931157936
 30
0.0
 40
3.720853217058121
 41
0.0
 46
0.0
 71
     4
 72
     1
  1
{\fArial|b0|i0|c0|p0;\C7;2}{\fArial|b0|i0|c0|p0;\C7;}
 73
     1
 44
1.0
  0
MTEXT
  5
2E5
330
2A4
100
AcDbEntity
  8
CONTINUOUS
100
AcDbMText
 10
262.082233886719
 20
6.73998626327514
 30
0.0
 40
3.720853217058121
 41
0.0
 46
0.0
 71
     4
 72
     1
  1
{\fArial|b0|i0|c0|p0;\C7;6}{\fArial|b0|i0|c0|p0;\C7;}
 73
     1
 44
1.0
  0
MTEXT
  5
2E6
330
2A4
100
AcDbEntity
  8
CONTINUOUS
100
AcDbMText
 10
216.858890991211
 20
204.29698022461
 30
0.0
 40
3.720853217058121
 41
0.0
 46
0.0
 71
     4
 72
     1
  1
{\fArial|b0|i0|c0|p0;\C7;5}{\fArial|b0|i0|c0|p0;\C7;}
 73
     1
 44
1.0
  0
MTEXT
  5
2E7
330
2A4
100
AcDbEntity
  8
CONTINUOUS
100
AcDbMText
 10
121.245655822681
 20
204.355103698803
 30
0.0
 40
3.720853217058121
 41
0.0
 46
0.0
 71
     4
 72
     1
  1
{\fArial|b0|i0|c0|p0;\C7;3}{\fArial|b0|i0|c0|p0;\C7;}
 73
     1
 44
1.0
  0
MTEXT
  5
2E8
330
2A4
100
AcDbEntity
  8
CONTINUOUS
100
AcDbMText
 10
5.6160912703474
 20
125.886
 30
0.0
 40
3.720853217058121
 41
0.0
 46
0.0
 71
     4
 72
     1
  1
{\fArial|b0|i0|c0|p0;\C7;B}{\fArial|b0|i0|c0|p0;\C7;}
 73
     1
 44
1.0
  0
MTEXT
  5
2E9
330
2A4
100
AcDbEntity
  8
CONTINUOUS
100
AcDbMText
 10
195.902451324463
 20
18.2433377838135
 30
0.0
 40
2.251496730059653
 41
0.0
 46
0.0
 71
     4
 72
     1
  1
{\fMonotype Corsiva|b0|i1|c0|p0;\C7;Treatment  }{\fArial|b0|i0|c0|p0;\C7;\H0.7692308x;}
 73
     1
 44
1.0
  0
MTEXT
  5
2EA
330
2A4
100
AcDbEntity
  8
CONTINUOUS
100
AcDbMText
 10
4.984780712209
 20
172.034376464844
 30
0.0
 40
3.720853217058121
 41
0.0
 46
0.0
 71
     4
 72
     1
  1
{\fArial|b0|i0|c0|p0;\C7;A}{\fArial|b0|i0|c0|p0;\C7;}
 73
     1
 44
1.0
  0
MTEXT
  5
2EB
330
2A4
100
AcDbEntity
  8
CONTINUOUS
100
AcDbMText
 10
229.826260375977
 20
18.2757760620116
 30
0.0
 40
2.251496730059653
 41
0.0
 46
0.0
 71
     4
 72
     1
  1
{\fMonotype Corsiva|b0|i1|c0|p0;\C7;Date}{\fArial|b0|i0|c0|p0;\C7;\H0.7692308x;}
 73
     1
 44
1.0
  0
MTEXT
  5
2EC
330
2A4
100
AcDbEntity
  8
CONTINUOUS
100
AcDbMText
 10
126.092175294703
 20
6.61010619923708
 30
0.0
 40
3.720853217058121
 41
0.0
 46
0.0
 71
     4
 72
     1
  1
{\fArial|b0|i0|c0|p0;\C7;3}{\fArial|b0|i0|c0|p0;\C7;}
 73
     1
 44
1.0
  0
MTEXT
  5
2ED
330
2A4
100
AcDbEntity
  8
CONTINUOUS
100
AcDbMText
 10
288.920463256836
 20
33.4667418823242
 30
0.0
 40
3.720853217058121
 41
0.0
 46
0.0
 71
     4
 72
     1
  1
{\fArial|b0|i0|c0|p0;\C7;D}{\fArial|b0|i0|c0|p0;\C7;}
 73
     1
 44
1.0
  0
MTEXT
  5
2EE
330
2A4
100
AcDbEntity
  8
CONTINUOUS
100
AcDbMText
 10
288.594410820089
 20
171.67635949707
 30
0.0
 40
3.720853217058121
 41
0.0
 46
0.0
 71
     4
 72
     1
  1
{\fArial|b0|i0|c0|p0;\C7;A}{\fArial|b0|i0|c0|p0;\C7;}
 73
     1
 44
1.0
  0
ENDBLK
  5
2A6
330
2A4
100
AcDbEntity
  8
0
100
AcDbBlockEnd
  0
ENDSEC
  0
SECTION
  2
ENTITIES
  0
LINE
  5
6F
330
1F
100
AcDbEntity
  8
VISIBLE
100
AcDbLine
 10
101.8718598348087
 20
159.6341127782386
 30
0.0
 11
101.825618743896
 21
153.49865447998
 31
0.0
  0
LINE
  5
70
330
1F
100
AcDbEntity
  8
VISIBLE
100
AcDbLine
 10
101.8718598348087
 20
159.6341127782386
 30
0.0
 11
100.7573146047727
 21
159.6368838114376
 31
0.0
  0
LINE
  5
71
330
1F
100
AcDbEntity
  8
VISIBLE
100
AcDbLine
 10
101.825618743896
 20
153.49865447998
 30
0.0
 11
103.275618743896
 21
153.49865447998
 31
0.0
  0
LINE
  5
72
330
1F
100
AcDbEntity
  8
VISIBLE
100
AcDbLine
 10
101.6256187438961
 20
162.9998124317668
 30
0.0
 11
101.6256187438961
 21
164.1658760956524
 31
0.0
  0
CIRCLE
  5
73
330
1F
100
AcDbEntity
  8
VISIBLE
100
AcDbCircle
 10
88.825618743896
 20
128.62865447998
 30
0.0
 40
3.25
  0
CIRCLE
  5
74
330
1F
100
AcDbEntity
  8
VISIBLE
100
AcDbCircle
 10
118.825618743896
 20
141.12865447998
 30
0.0
 40
3.0
  0
LINE
  5
75
330
1F
100
AcDbEntity
  8
VISIBLE
100
AcDbLine
 10
101.8856187438956
 20
130.5966916794205
 30
0.0
 11
101.8644211704963
 21
126.12865447998
 31
0.0
  0
CIRCLE
  5
76
330
1F
100
AcDbEntity
  8
VISIBLE
100
AcDbCircle
 10
113.825618743896
 20
128.62865447998
 30
0.0
 40
3.25
  0
CIRCLE
  5
77
330
1F
100
AcDbEntity
  8
VISIBLE
100
AcDbCircle
 10
83.825618743896
 20
141.12865447998
 30
0.0
 40
3.0
  0
CIRCLE
  5
78
330
1F
100
AcDbEntity
  8
VISIBLE
100
AcDbCircle
 10
113.825618743896
 20
128.62865447998
 30
0.0
 40
3.5
  0
LINE
  5
79
330
1F
100
AcDbEntity
  8
VISIBLE
100
AcDbLine
 10
101.874805440524
 20
152.27865447998
 30
0.0
 11
101.8956187438947
 21
137.9240126128648
 31
0.0
  0
LINE
  5
7A
330
1F
100
AcDbEntity
  8
VISIBLE
100
AcDbLine
 10
101.8644211704963
 20
126.12865447998
 30
0.0
 11
101.925618743896
 21
119.132860309856
 31
0.0
  0
LINE
  5
7B
330
1F
100
AcDbEntity
  8
VISIBLE
100
AcDbLine
 10
101.8956187438947
 20
137.9240126128648
 30
0.0
 11
101.8856187438956
 21
130.5966916794205
 31
0.0
  0
CIRCLE
  5
7C
330
1F
100
AcDbEntity
  8
VISIBLE
100
AcDbCircle
 10
113.825618743896
 20
153.62865447998
 30
0.0
 40
3.5
  0
LINE
  5
7D
330
1F
100
AcDbEntity
  8
VISIBLE
100
AcDbLine
 10
101.0256187438965
 20
164.16632627067
 30
0.0
 11
101.0256187438965
 21
163.007112632803
 31
0.0
  0
LINE
  5
7E
330
1F
100
AcDbEntity
  8
VISIBLE
100
AcDbLine
 10
101.925618743896
 20
119.132860309856
 30
0.0
 11
100.725618743896
 21
119.132860309856
 31
0.0
  0
LINE
  5
7F
330
1F
100
AcDbEntity
  8
VISIBLE
100
AcDbLine
 10
100.7656181136352
 20
130.5969965256286
 30
0.0
 11
100.7556174833766
 21
137.9740074842779
 31
0.0
  0
LINE
  5
80
330
1F
100
AcDbEntity
  8
VISIBLE
100
AcDbLine
 10
100.7785207027678
 20
152.3286599576525
 30
0.0
 11
100.7573146047727
 21
159.6368838114377
 31
0.0
  0
ELLIPSE
  5
81
330
1F
100
AcDbEntity
  8
VISIBLE
100
AcDbEllipse
 10
101.3256180050171
 20
162.12865447998
 30
0.0
 11
2.299984098765435
 21
-0.008552509931007535
 31
0.0
210
0.0
220
0.0
230
1.0
 40
0.8934782608695749
 41
-1.326003053619232
 42
1.443310717338098
  0
LINE
  5
82
330
1F
100
AcDbEntity
  8
VISIBLE
100
AcDbLine
 10
100.7556174833766
 20
137.9740074842779
 30
0.0
 11
100.7785207027678
 21
152.3286599576525
 31
0.0
  0
CIRCLE
  5
83
330
1F
100
AcDbEntity
  8
VISIBLE
100
AcDbCircle
 10
88.825618743896
 20
153.62865447998
 30
0.0
 40
3.25
  0
CIRCLE
  5
84
330
1F
100
AcDbEntity
  8
VISIBLE
100
AcDbCircle
 10
113.825618743896
 20
153.62865447998
 30
0.0
 40
3.25
  0
LINE
  5
85
330
1F
100
AcDbEntity
  8
VISIBLE
100
AcDbLine
 10
100.725618743896
 20
119.132860309856
 30
0.0
 11
100.7868163172956
 21
126.12865447998
 31
0.0
  0
ELLIPSE
  5
86
330
1F
100
AcDbEntity
  8
VISIBLE
100
AcDbEllipse
 10
101.3256187438959
 20
162.1286544799804
 30
0.0
 11
2.300308363586467
 21
-0.008553718462025017
 31
0.0
210
0.0
220
0.0
230
1.0
 40
0.8933443805797714
 41
-1.817766101872487
 42
-1.326038597154723
  0
LINE
  5
87
330
1F
100
AcDbEntity
  8
VISIBLE
100
AcDbLine
 10
103.275618743896
 20
153.49865447998
 30
0.0
 11
103.275618743896
 21
152.27865447998
 31
0.0
  0
LINE
  5
88
330
1F
100
AcDbEntity
  8
VISIBLE
100
AcDbLine
 10
100.7868163172956
 20
126.12865447998
 30
0.0
 11
100.7656181136352
 21
130.5969965256286
 31
0.0
  0
ARC
  5
89
330
1F
100
AcDbEntity
  8
VISIBLE
100
AcDbCircle
 10
101.3156187438973
 20
162.1815673584543
 30
0.0
 40
0.8749999999996402
100
AcDbArc
 50
109.3555069125736
 51
69.25032618382485
  0
CIRCLE
  5
8A
330
1F
100
AcDbEntity
  8
VISIBLE
100
AcDbCircle
 10
101.325618743896
 20
141.12865447998
 30
0.0
 40
25.0
  0
LINE
  5
8B
330
1F
100
AcDbEntity
  8
VISIBLE
100
AcDbLine
 10
103.275618743896
 20
152.27865447998
 30
0.0
 11
101.874805440524
 21
152.27865447998
 31
0.0
  0
CIRCLE
  5
8C
330
1F
100
AcDbEntity
  8
VISIBLE
100
AcDbCircle
 10
88.825618743896
 20
128.62865447998
 30
0.0
 40
3.5
  0
ELLIPSE
  5
8D
330
1F
100
AcDbEntity
  8
VISIBLE
100
AcDbEllipse
 10
101.3256180050171
 20
162.12865447998
 30
0.0
 11
-2.299984098765435
 21
0.008552509930979113
 31
0.0
210
0.0
220
0.0
230
1.0
 40
0.8934782608695502
 41
-1.436666577193868
 42
1.323791336961833
  0
CIRCLE
  5
8E
330
1F
100
AcDbEntity
  8
VISIBLE
100
AcDbCircle
 10
88.825618743896
 20
153.62865447998
 30
0.0
 40
3.5
  0
LINE
  5
90
330
1F
100
AcDbEntity
  8
CENTER
100
AcDbLine
 10
89.325618743896
 20
153.62865447998
 30
0.0
 11
88.325618743896
 21
153.62865447998
 31
0.0
  0
LINE
  5
91
330
1F
100
AcDbEntity
  8
CENTER
100
AcDbLine
 10
88.825618743896
 20
154.12865447998
 30
0.0
 11
88.825618743896
 21
153.12865447998
 31
0.0
  0
LINE
  5
92
330
1F
100
AcDbEntity
  8
CENTER
100
AcDbLine
 10
89.825618743896
 20
153.62865447998
 30
0.0
 11
93.913118743896
 21
153.62865447998
 31
0.0
  0
LINE
  5
93
330
1F
100
AcDbEntity
  8
CENTER
100
AcDbLine
 10
87.825618743896
 20
153.62865447998
 30
0.0
 11
83.738118743896
 21
153.62865447998
 31
0.0
  0
LINE
  5
94
330
1F
100
AcDbEntity
  8
CENTER
100
AcDbLine
 10
88.825618743896
 20
154.62865447998
 30
0.0
 11
88.825618743896
 21
158.71615447998
 31
0.0
  0
LINE
  5
95
330
1F
100
AcDbEntity
  8
CENTER
100
AcDbLine
 10
88.825618743896
 20
152.62865447998
 30
0.0
 11
88.825618743896
 21
148.54115447998
 31
0.0
  0
LINE
  5
96
330
1F
100
AcDbEntity
  8
CENTER
100
AcDbLine
 10
89.325618743896
 20
128.62865447998
 30
0.0
 11
88.325618743896
 21
128.62865447998
 31
0.0
  0
LINE
  5
97
330
1F
100
AcDbEntity
  8
CENTER
100
AcDbLine
 10
88.825618743896
 20
129.12865447998
 30
0.0
 11
88.825618743896
 21
128.12865447998
 31
0.0
  0
LINE
  5
98
330
1F
100
AcDbEntity
  8
CENTER
100
AcDbLine
 10
89.825618743896
 20
128.62865447998
 30
0.0
 11
93.913118743896
 21
128.62865447998
 31
0.0
  0
LINE
  5
99
330
1F
100
AcDbEntity
  8
CENTER
100
AcDbLine
 10
87.825618743896
 20
128.62865447998
 30
0.0
 11
83.738118743896
 21
128.62865447998
 31
0.0
  0
LINE
  5
9A
330
1F
100
AcDbEntity
  8
CENTER
100
AcDbLine
 10
88.825618743896
 20
129.62865447998
 30
0.0
 11
88.825618743896
 21
133.71615447998
 31
0.0
  0
LINE
  5
9B
330
1F
100
AcDbEntity
  8
CENTER
100
AcDbLine
 10
88.825618743896
 20
127.62865447998
 30
0.0
 11
88.825618743896
 21
123.54115447998
 31
0.0
  0
LINE
  5
9C
330
1F
100
AcDbEntity
  8
CENTER
100
AcDbLine
 10
114.325618743896
 20
153.62865447998
 30
0.0
 11
113.325618743896
 21
153.62865447998
 31
0.0
  0
LINE
  5
9D
330
1F
100
AcDbEntity
  8
CENTER
100
AcDbLine
 10
113.825618743896
 20
154.12865447998
 30
0.0
 11
113.825618743896
 21
153.12865447998
 31
0.0
  0
LINE
  5
9E
330
1F
100
AcDbEntity
  8
CENTER
100
AcDbLine
 10
114.825618743896
 20
153.62865447998
 30
0.0
 11
118.913118743896
 21
153.62865447998
 31
0.0
  0
LINE
  5
9F
330
1F
100
AcDbEntity
  8
CENTER
100
AcDbLine
 10
112.825618743896
 20
153.62865447998
 30
0.0
 11
108.738118743896
 21
153.62865447998
 31
0.0
  0
LINE
  5
A0
330
1F
100
AcDbEntity
  8
CENTER
100
AcDbLine
 10
113.825618743896
 20
154.62865447998
 30
0.0
 11
113.825618743896
 21
158.71615447998
 31
0.0
  0
LINE
  5
A1
330
1F
100
AcDbEntity
  8
CENTER
100
AcDbLine
 10
113.825618743896
 20
152.62865447998
 30
0.0
 11
113.825618743896
 21
148.54115447998
 31
0.0
  0
LINE
  5
A2
330
1F
100
AcDbEntity
  8
CENTER
100
AcDbLine
 10
114.325618743896
 20
128.62865447998
 30
0.0
 11
113.325618743896
 21
128.62865447998
 31
0.0
  0
LINE
  5
A3
330
1F
100
AcDbEntity
  8
CENTER
100
AcDbLine
 10
113.825618743896
 20
129.12865447998
 30
0.0
 11
113.825618743896
 21
128.12865447998
 31
0.0
  0
LINE
  5
A4
330
1F
100
AcDbEntity
  8
CENTER
100
AcDbLine
 10
114.825618743896
 20
128.62865447998
 30
0.0
 11
118.913118743896
 21
128.62865447998
 31
0.0
  0
LINE
  5
A5
330
1F
100
AcDbEntity
  8
CENTER
100
AcDbLine
 10
112.825618743896
 20
128.62865447998
 30
0.0
 11
108.738118743896
 21
128.62865447998
 31
0.0
  0
LINE
  5
A6
330
1F
100
AcDbEntity
  8
CENTER
100
AcDbLine
 10
113.825618743896
 20
129.62865447998
 30
0.0
 11
113.825618743896
 21
133.71615447998
 31
0.0
  0
LINE
  5
A7
330
1F
100
AcDbEntity
  8
CENTER
100
AcDbLine
 10
113.825618743896
 20
127.62865447998
 30
0.0
 11
113.825618743896
 21
123.54115447998
 31
0.0
  0
LINE
  5
A8
330
1F
100
AcDbEntity
  8
CENTER
100
AcDbLine
 10
101.825618743896
 20
141.12865447998
 30
0.0
 11
100.825618743896
 21
141.12865447998
 31
0.0
  0
LINE
  5
A9
330
1F
100
AcDbEntity
  8
CENTER
100
AcDbLine
 10
101.325618743896
 20
141.62865447998
 30
0.0
 11
101.325618743896
 21
140.62865447998
 31
0.0
  0
LINE
  5
AA
330
1F
100
AcDbEntity
  8
CENTER
100
AcDbLine
 10
102.325618743896
 20
141.12865447998
 30
0.0
 11
127.913118743896
 21
141.12865447998
 31
0.0
  0
LINE
  5
AB
330
1F
100
AcDbEntity
  8
CENTER
100
AcDbLine
 10
100.325618743896
 20
141.12865447998
 30
0.0
 11
74.738118743896
 21
141.12865447998
 31
0.0
  0
LINE
  5
AC
330
1F
100
AcDbEntity
  8
CENTER
100
AcDbLine
 10
101.325618743896
 20
142.12865447998
 30
0.0
 11
101.325618743896
 21
167.71615447998
 31
0.0
  0
LINE
  5
AD
330
1F
100
AcDbEntity
  8
CENTER
100
AcDbLine
 10
101.325618743896
 20
140.12865447998
 30
0.0
 11
101.325618743896
 21
114.54115447998
 31
0.0
  0
LINE
  5
AE
330
1F
100
AcDbEntity
  8
CENTER
100
AcDbLine
 10
89.325618743896
 20
153.62865447998
 30
0.0
 11
88.325618743896
 21
153.62865447998
 31
0.0
  0
LINE
  5
AF
330
1F
100
AcDbEntity
  8
CENTER
100
AcDbLine
 10
88.825618743896
 20
154.12865447998
 30
0.0
 11
88.825618743896
 21
153.12865447998
 31
0.0
  0
LINE
  5
B0
330
1F
100
AcDbEntity
  8
CENTER
100
AcDbLine
 10
89.825618743896
 20
153.62865447998
 30
0.0
 11
93.913118743896
 21
153.62865447998
 31
0.0
  0
LINE
  5
B1
330
1F
100
AcDbEntity
  8
CENTER
100
AcDbLine
 10
87.825618743896
 20
153.62865447998
 30
0.0
 11
83.738118743896
 21
153.62865447998
 31
0.0
  0
LINE
  5
B2
330
1F
100
AcDbEntity
  8
CENTER
100
AcDbLine
 10
88.825618743896
 20
154.62865447998
 30
0.0
 11
88.825618743896
 21
158.71615447998
 31
0.0
  0
LINE
  5
B3
330
1F
100
AcDbEntity
  8
CENTER
100
AcDbLine
 10
88.825618743896
 20
152.62865447998
 30
0.0
 11
88.825618743896
 21
148.54115447998
 31
0.0
  0
LINE
  5
B4
330
1F
100
AcDbEntity
  8
CENTER
100
AcDbLine
 10
114.325618743896
 20
153.62865447998
 30
0.0
 11
113.325618743896
 21
153.62865447998
 31
0.0
  0
LINE
  5
B5
330
1F
100
AcDbEntity
  8
CENTER
100
AcDbLine
 10
113.825618743896
 20
154.12865447998
 30
0.0
 11
113.825618743896
 21
153.12865447998
 31
0.0
  0
LINE
  5
B6
330
1F
100
AcDbEntity
  8
CENTER
100
AcDbLine
 10
114.825618743896
 20
153.62865447998
 30
0.0
 11
118.913118743896
 21
153.62865447998
 31
0.0
  0
LINE
  5
B7
330
1F
100
AcDbEntity
  8
CENTER
100
AcDbLine
 10
112.825618743896
 20
153.62865447998
 30
0.0
 11
108.738118743896
 21
153.62865447998
 31
0.0
  0
LINE
  5
B8
330
1F
100
AcDbEntity
  8
CENTER
100
AcDbLine
 10
113.825618743896
 20
154.62865447998
 30
0.0
 11
113.825618743896
 21
158.71615447998
 31
0.0
  0
LINE
  5
B9
330
1F
100
AcDbEntity
  8
CENTER
100
AcDbLine
 10
113.825618743896
 20
152.62865447998
 30
0.0
 11
113.825618743896
 21
148.54115447998
 31
0.0
  0
DIMENSION
  5
BB
330
1F
100
AcDbEntity
  8
DIMENSIONS
100
AcDbDimension
280
     0
  2
D1
 10
0.0
 20
0.0
 30
0.0
 11
204.1795539855947
 21
218.4672012329092
 31
0.0
 70
    32
  1
<>
 71
     5
 42
-1.0
 73
     0
 74
     0
 75
     0
  3
ISO-25
100
AcDbAlignedDimension
 13
126.325618743896
 23
141.12865447998
 33
0.0
 14
76.325618743896
 24
141.12865447998
 34
0.0
100
AcDbRotatedDimension
1001
ACAD
1000
DSTYLE
1002
{
1070
    76
1070
     0
1070
    75
1070
     0
1070
   282
1070
     0
1070
   281
1070
     0
1070
    77
1070
     1
1070
    79
1070
     0
1070
    78
1070
     0
1070
   272
1070
     2
1070
   271
1070
     2
1070
   179
1070
     2
1070
   140
1040
2.707850318471337
1070
    71
1070
     0
1070
    72
1070
     0
1070
    48
1040
0.002
1070
    47
1040
0.005
1002
}
  0
DIMENSION
  5
CD
330
1F
100
AcDbEntity
  8
DIMENSIONS
100
AcDbDimension
280
     0
  2
D2
 10
0.0
 20
0.0
 30
0.0
 11
203.138111114501
 21
235.650978088378
 31
0.0
 70
    32
  1
<>
 71
     5
 42
-1.0
 73
     0
 74
     0
 75
     0
 53
180.0
  3
ISO-25
100
AcDbAlignedDimension
 13
113.8256184458728
 23
128.6286546289916
 33
0.0
 14
88.825618743896
 24
123.54115447998
 34
0.0
 50
180.0
100
AcDbRotatedDimension
1001
ACAD
1000
DSTYLE
1002
{
1070
    76
1070
     0
1070
    75
1070
     0
1070
   282
1070
     0
1070
   281
1070
     0
1070
    77
1070
     1
1070
    79
1070
     0
1070
    78
1070
     0
1070
   272
1070
     2
1070
   271
1070
     2
1070
   179
1070
     2
1070
   140
1040
2.707850318471337
1070
    71
1070
     0
1070
    72
1070
     0
1070
    48
1040
0.002
1070
    47
1040
0.005
1002
}
  0
DIMENSION
  5
DE
330
1F
100
AcDbEntity
  8
DIMENSIONS
100
AcDbDimension
280
     0
  2
D3
 10
0.0
 20
0.0
 30
0.0
 11
240.3695945739736
 21
268.0658187866202
 31
0.0
 70
    32
  1
<>
 71
     5
 42
-1.0
 73
     0
 74
     0
 75
     0
 53
90.0
  3
ISO-25
100
AcDbAlignedDimension
 13
118.913118743896
 23
128.62865447998
 33
0.0
 14
118.913118743896
 24
153.62865447998
 34
0.0
 50
90.0
100
AcDbRotatedDimension
1001
ACAD
1000
DSTYLE
1002
{
1070
    76
1070
     0
1070
    75
1070
     0
1070
   282
1070
     0
1070
   281
1070
     0
1070
    77
1070
     1
1070
    79
1070
     0
1070
    78
1070
     0
1070
   272
1070
     2
1070
   271
1070
     2
1070
   179
1070
     2
1070
   140
1040
2.707850318471337
1070
    71
1070
     0
1070
    72
1070
     0
1070
    48
1040
0.002
1070
    47
1040
0.005
1002
}
  0
DIMENSION
  5
EF
330
1F
100
AcDbEntity
  8
DIMENSIONS
100
AcDbDimension
280
     0
  2
D4
 10
0.0
 20
0.0
 30
0.0
 11
196.0761756896967
 21
225.3539505004878
 31
0.0
 70
    32
  1
<> +/- 0,02
 71
     5
 42
-1.0
 73
     0
 74
     0
 75
     0
 53
180.0
  3
ISO-25
100
AcDbAlignedDimension
 13
118.825618743896
 23
141.12865447998
 33
0.0
 14
83.825618743896
 24
141.12865447998
 34
0.0
 50
180.0
100
AcDbRotatedDimension
1001
ACAD
1000
DSTYLE
1002
{
1070
    76
1070
     0
1070
    75
1070
     0
1070
   282
1070
     0
1070
   281
1070
     0
1070
    77
1070
     1
1070
    79
1070
     0
1070
    78
1070
     0
1070
   272
1070
     2
1070
   271
1070
     2
1070
   179
1070
     2
1070
   140
1040
2.707850318471337
1070
    71
1070
     0
1070
    72
1070
     0
1070
    48
1040
0.002
1070
    47
1040
0.005
1002
}
  0
MTEXT
  5
101
330
1F
100
AcDbEntity
  8
CONTINUOUS
100
AcDbMText
 10
61.1716613769531
 20
169.9631178308524
 30
0.0
 40
2.188737186504777
 41
0.0
 46
0.0
 71
     1
 72
     1
  1
{\fCE|b0|i0|c0|p0;\C7;(4x) }{\fAlibre Symbols|b0|i0|c0|p0;\C7;n}{\fCE|b0|i0|c0|p0;\C7;6,2    }{\fCE|b0|i0|c0|p0;\C7;}
 73
     1
 44
1.0
  0
LINE
  5
102
330
1F
100
AcDbEntity
  8
CONTINUOUS
100
AcDbLine
 10
84.5143697102864
 20
167.856101820204
 30
0.0
 11
79.3549947102864
 21
167.856101820204
 31
0.0
  0
LINE
  5
103
330
1F
100
AcDbEntity
  8
CONTINUOUS
100
AcDbLine
 10
88.46975852400739
 20
156.7605825370898
 30
0.0
 11
88.46975852400739
 21
156.7605825370898
 31
0.0
  0
LINE
  5
104
330
1F
100
AcDbEntity
  8
CONTINUOUS
100
AcDbLine
 10
88.46975852400739
 20
156.7605825370898
 30
0.0
 11
84.5143697102864
 21
167.856101820204
 31
0.0
  0
LWPOLYLINE
  5
105
330
1F
100
AcDbEntity
  8
CONTINUOUS
100
AcDbPolyline
 90
        4
 70
     0
 43
0.0
 10
89.47711944580078
 20
153.934768676758
 10
87.99878954728536
 20
156.5926890501242
 10
88.94072750072934
 20
156.9284760240554
 10
89.47711944580078
 20
153.934768676758
  0
HATCH
  5
106
330
1F
100
AcDbEntity
  8
0
 62
     7
100
AcDbHatch
 10
0.0
 20
0.0
 30
0.0
210
0.0
220
0.0
230
1.0
  2
PLNÁ, Plné vyplnění
 70
     0
 71
     0
 91
        1
 92
        0
 93
        3
 72
     1
 10
88.94072750072934
 20
156.9284760240554
 11
89.47711944580078
 21
153.934768676758
 72
     1
 10
89.47711944580078
 20
153.934768676758
 11
87.99878954728536
 21
156.5926890501242
 72
     1
 10
87.99878954728536
 20
156.5926890501242
 11
88.94072750072934
 21
156.9284760240554
 97
        0
 75
     0
 76
     0
 52
0.0
 41
1.0
 77
     0
 78
     1
 53
45.0
 43
0.0
 44
0.0
 45
0.0
 46
0.0
 79
     0
 98
        0
  0
MTEXT
  5
107
330
1F
100
AcDbEntity
  8
CONTINUOUS
100
AcDbMText
 10
54.2459526062012
 20
153.2755812935582
 30
0.0
 40
2.079300327179538
 41
0.0
 46
0.0
 71
     1
 72
     1
  1
{\fCE|b0|i0|c0|p0;\C7;(2x) }{\fAlibre Symbols|b0|i0|c0|p0;\C7;n}{\fCE|b0|i0|c0|p0;\C7;6H7}{\fCE|b0|i0|c0|p0;\C7;}
 73
     1
 44
1.0
  0
LINE
  5
108
330
1F
100
AcDbEntity
  8
CONTINUOUS
100
AcDbLine
 10
74.7664387173123
 20
151.326832750109
 30
0.0
 11
69.6070637173123
 21
151.326832750109
 31
0.0
  0
LINE
  5
109
330
1F
100
AcDbEntity
  8
CONTINUOUS
100
AcDbLine
 10
81.90492083189966
 20
142.4017120635123
 30
0.0
 11
81.90492083189966
 21
142.4017120635123
 31
0.0
  0
LINE
  5
10A
330
1F
100
AcDbEntity
  8
CONTINUOUS
100
AcDbLine
 10
81.90492083189966
 20
142.4017120635123
 30
0.0
 11
74.7664387173123
 21
151.326832750109
 31
0.0
  0
LWPOLYLINE
  5
10B
330
1F
100
AcDbEntity
  8
CONTINUOUS
100
AcDbPolyline
 90
        4
 70
     0
 43
0.0
 10
83.7787475585938
 20
140.058898925781
 10
81.51445197561111
 20
142.0894076090634
 10
82.29538968818821
 20
142.7140165179614
 10
83.7787475585938
 20
140.058898925781
  0
HATCH
  5
10C
330
1F
100
AcDbEntity
  8
0
 62
     7
100
AcDbHatch
 10
0.0
 20
0.0
 30
0.0
210
0.0
220
0.0
230
1.0
  2
PLNÁ, Plné vyplnění
 70
     0
 71
     0
 91
        1
 92
        0
 93
        3
 72
     1
 10
82.29538968818821
 20
142.7140165179614
 11
83.7787475585938
 21
140.058898925781
 72
     1
 10
83.7787475585938
 20
140.058898925781
 11
81.51445197561111
 21
142.0894076090634
 72
     1
 10
81.51445197561111
 20
142.0894076090634
 11
82.29538968818821
 21
142.7140165179614
 97
        0
 75
     0
 76
     0
 52
0.0
 41
1.0
 77
     0
 78
     1
 53
45.0
 43
0.0
 44
0.0
 45
0.0
 46
0.0
 79
     0
 98
        0
  0
LINE
  5
10D
330
1F
100
AcDbEntity
  8
VISIBLE
100
AcDbLine
 10
126.325618743896
 20
66.1174831986427
 30
0.0
 11
76.325618743896
 21
66.1174831986427
 31
0.0
  0
LINE
  5
10E
330
1F
100
AcDbEntity
  8
VISIBLE
100
AcDbLine
 10
76.325618743896
 20
58.1174831986427
 30
0.0
 11
126.325618743896
 21
58.1174831986427
 31
0.0
  0
LINE
  5
10F
330
1F
100
AcDbEntity
  8
VISIBLE
100
AcDbLine
 10
126.325618743896
 20
66.1174831986427
 30
0.0
 11
126.325618743896
 21
58.1174831986427
 31
0.0
  0
LINE
  5
110
330
1F
100
AcDbEntity
  8
VISIBLE
100
AcDbLine
 10
76.325618743896
 20
66.1174831986427
 30
0.0
 11
76.325618743896
 21
58.1174831986427
 31
0.0
  0
LINE
  5
113
330
1F
100
AcDbEntity
  8
HIDDEN
100
AcDbLine
 10
100.7656181136352
 20
58.1174831986427
 30
0.0
 11
100.7656181136352
 21
66.1174831986427
 31
0.0
  0
LINE
  5
114
330
1F
100
AcDbEntity
  8
HIDDEN
100
AcDbLine
 10
101.6256187438965
 20
58.1174831986427
 30
0.0
 11
101.6256187438965
 21
66.1174831986427
 31
0.0
  0
LINE
  5
115
330
1F
100
AcDbEntity
  8
HIDDEN
100
AcDbLine
 10
100.7556174833766
 20
58.1174831986427
 30
0.0
 11
100.7556174833766
 21
66.1174831986427
 31
0.0
  0
LINE
  5
116
330
1F
100
AcDbEntity
  8
HIDDEN
100
AcDbLine
 10
100.7785207027678
 20
58.1174831986427
 30
0.0
 11
100.7785207027678
 21
66.1174831986427
 31
0.0
  0
LINE
  5
117
330
1F
100
AcDbEntity
  8
HIDDEN
100
AcDbLine
 10
101.8644211704963
 20
58.1174831986427
 30
0.0
 11
101.8644211704963
 21
66.1174831986427
 31
0.0
  0
LINE
  5
118
330
1F
100
AcDbEntity
  8
HIDDEN
100
AcDbLine
 10
100.7868163172956
 20
58.1174831986427
 30
0.0
 11
100.7868163172956
 21
66.1174831986427
 31
0.0
  0
LINE
  5
119
330
1F
100
AcDbEntity
  8
HIDDEN
100
AcDbLine
 10
100.7573146047727
 20
66.1174831986427
 30
0.0
 11
100.7573146047727
 21
58.1174831986427
 31
0.0
  0
LINE
  5
11A
330
1F
100
AcDbEntity
  8
HIDDEN
100
AcDbLine
 10
101.8718598348087
 20
58.1174831986427
 30
0.0
 11
101.8718598348087
 21
66.1174831986427
 31
0.0
  0
LINE
  5
11B
330
1F
100
AcDbEntity
  8
HIDDEN
100
AcDbLine
 10
101.8956187438947
 20
58.1174831986427
 30
0.0
 11
101.8956187438947
 21
66.1174831986427
 31
0.0
  0
LINE
  5
11C
330
1F
100
AcDbEntity
  8
HIDDEN
100
AcDbLine
 10
100.725618743896
 20
58.1174831986427
 30
0.0
 11
100.725618743896
 21
66.1174831986427
 31
0.0
  0
LINE
  5
11D
330
1F
100
AcDbEntity
  8
HIDDEN
100
AcDbLine
 10
101.8856187438956
 20
58.1174831986427
 30
0.0
 11
101.8856187438956
 21
66.1174831986427
 31
0.0
  0
LINE
  5
11E
330
1F
100
AcDbEntity
  8
HIDDEN
100
AcDbLine
 10
101.825618743896
 20
58.1174831986427
 30
0.0
 11
101.825618743896
 21
66.1174831986427
 31
0.0
  0
LINE
  5
11F
330
1F
100
AcDbEntity
  8
HIDDEN
100
AcDbLine
 10
85.575618743896
 20
58.3674831986427
 30
0.0
 11
92.075618743896
 21
58.3674831986427
 31
0.0
  0
LINE
  5
120
330
1F
100
AcDbEntity
  8
HIDDEN
100
AcDbLine
 10
110.575618743896
 20
58.3674831986427
 30
0.0
 11
117.075618743896
 21
58.3674831986427
 31
0.0
  0
LINE
  5
121
330
1F
100
AcDbEntity
  8
HIDDEN
100
AcDbLine
 10
101.874805440524
 20
58.1174831986427
 30
0.0
 11
101.874805440524
 21
66.1174831986427
 31
0.0
  0
LINE
  5
122
330
1F
100
AcDbEntity
  8
HIDDEN
100
AcDbLine
 10
101.925618743896
 20
58.1174831986427
 30
0.0
 11
101.925618743896
 21
66.1174831986427
 31
0.0
  0
LINE
  5
123
330
1F
100
AcDbEntity
  8
HIDDEN
100
AcDbLine
 10
117.075618743896
 20
65.8674831986427
 30
0.0
 11
110.575618743896
 21
65.8674831986427
 31
0.0
  0
LINE
  5
124
330
1F
100
AcDbEntity
  8
HIDDEN
100
AcDbLine
 10
92.075618743896
 20
65.8674831986427
 30
0.0
 11
85.575618743896
 21
65.8674831986427
 31
0.0
  0
LINE
  5
125
330
1F
100
AcDbEntity
  8
HIDDEN
100
AcDbLine
 10
101.0256187438965
 20
66.1174831986427
 30
0.0
 11
101.0256187438965
 21
58.1174831986427
 31
0.0
  0
LINE
  5
126
330
1F
100
AcDbEntity
  8
HIDDEN
100
AcDbLine
 10
103.275618743896
 20
58.1174831986427
 30
0.0
 11
103.275618743896
 21
66.1174831986427
 31
0.0
  0
LINE
  5
127
330
1F
100
AcDbEntity
  8
HIDDEN
100
AcDbLine
 10
121.825618743896
 20
66.1174831986427
 30
0.0
 11
121.825618743896
 21
58.1174831986427
 31
0.0
  0
LINE
  5
128
330
1F
100
AcDbEntity
  8
HIDDEN
100
AcDbLine
 10
103.625614797801
 20
58.1174831986427
 30
0.0
 11
103.625614797801
 21
66.1174831986427
 31
0.0
  0
LINE
  5
129
330
1F
100
AcDbEntity
  8
HIDDEN
100
AcDbLine
 10
80.825618743896
 20
66.1174831986427
 30
0.0
 11
80.825618743896
 21
58.1174831986427
 31
0.0
  0
LINE
  5
12A
330
1F
100
AcDbEntity
  8
HIDDEN
100
AcDbLine
 10
117.075618743896
 20
58.3674831986427
 30
0.0
 11
117.325618743896
 21
58.1174831986427
 31
0.0
  0
LINE
  5
12B
330
1F
100
AcDbEntity
  8
HIDDEN
100
AcDbLine
 10
85.575618743896
 20
58.3674831986427
 30
0.0
 11
85.325618743896
 21
58.1174831986427
 31
0.0
  0
LINE
  5
12C
330
1F
100
AcDbEntity
  8
HIDDEN
100
AcDbLine
 10
92.075618743896
 20
65.8674831986427
 30
0.0
 11
92.325618743896
 21
66.1174831986427
 31
0.0
  0
LINE
  5
12D
330
1F
100
AcDbEntity
  8
HIDDEN
100
AcDbLine
 10
102.1906187438968
 20
58.1174831986427
 30
0.0
 11
102.1906187438968
 21
66.1174831986427
 31
0.0
  0
LINE
  5
12E
330
1F
100
AcDbEntity
  8
HIDDEN
100
AcDbLine
 10
99.02562121223313
 20
58.1174831986427
 30
0.0
 11
99.02562121223313
 21
66.1174831986427
 31
0.0
  0
LINE
  5
12F
330
1F
100
AcDbEntity
  8
HIDDEN
100
AcDbLine
 10
110.575618743896
 20
65.8674831986427
 30
0.0
 11
110.575618743896
 21
58.3674831986427
 31
0.0
  0
LINE
  5
130
330
1F
100
AcDbEntity
  8
HIDDEN
100
AcDbLine
 10
110.575618743896
 20
65.8674831986427
 30
0.0
 11
110.325618743896
 21
66.1174831986427
 31
0.0
  0
LINE
  5
131
330
1F
100
AcDbEntity
  8
HIDDEN
100
AcDbLine
 10
117.075618743896
 20
65.8674831986427
 30
0.0
 11
117.075618743896
 21
58.3674831986427
 31
0.0
  0
LINE
  5
132
330
1F
100
AcDbEntity
  8
HIDDEN
100
AcDbLine
 10
100.4406187438976
 20
58.1174831986427
 30
0.0
 11
100.4406187438976
 21
66.1174831986427
 31
0.0
  0
LINE
  5
133
330
1F
100
AcDbEntity
  8
HIDDEN
100
AcDbLine
 10
92.075618743896
 20
58.3674831986427
 30
0.0
 11
92.325618743896
 21
58.1174831986427
 31
0.0
  0
LINE
  5
134
330
1F
100
AcDbEntity
  8
HIDDEN
100
AcDbLine
 10
117.075618743896
 20
65.8674831986427
 30
0.0
 11
117.325618743896
 21
66.1174831986427
 31
0.0
  0
LINE
  5
135
330
1F
100
AcDbEntity
  8
HIDDEN
100
AcDbLine
 10
110.575618743896
 20
58.3674831986427
 30
0.0
 11
110.325618743896
 21
58.1174831986427
 31
0.0
  0
LINE
  5
136
330
1F
100
AcDbEntity
  8
HIDDEN
100
AcDbLine
 10
86.825618743896
 20
66.1174831986427
 30
0.0
 11
86.825618743896
 21
58.1174831986427
 31
0.0
  0
LINE
  5
137
330
1F
100
AcDbEntity
  8
HIDDEN
100
AcDbLine
 10
85.575618743896
 20
65.8674831986427
 30
0.0
 11
85.325618743896
 21
66.1174831986427
 31
0.0
  0
LINE
  5
138
330
1F
100
AcDbEntity
  8
HIDDEN
100
AcDbLine
 10
92.075618743896
 20
65.8674831986427
 30
0.0
 11
92.075618743896
 21
58.36748319864271
 31
0.0
  0
LINE
  5
139
330
1F
100
AcDbEntity
  8
HIDDEN
100
AcDbLine
 10
115.825618743896
 20
66.1174831986427
 30
0.0
 11
115.825618743896
 21
58.1174831986427
 31
0.0
  0
LINE
  5
13A
330
1F
100
AcDbEntity
  8
HIDDEN
100
AcDbLine
 10
85.575618743896
 20
65.8674831986427
 30
0.0
 11
85.575618743896
 21
58.36748319864271
 31
0.0
  0
LINE
  5
13B
330
1F
100
AcDbEntity
  8
HIDDEN
100
AcDbLine
 10
100.7558601491241
 20
58.1174831986427
 30
0.0
 11
100.7558601491241
 21
66.1174831986427
 31
0.0
  0
LINE
  5
13C
330
1F
100
AcDbEntity
  8
HIDDEN
100
AcDbLine
 10
101.875618743896
 20
58.1174831986427
 30
0.0
 11
101.875618743896
 21
66.1174831986427
 31
0.0
  0
LINE
  5
13D
330
1F
100
AcDbEntity
  8
CENTER
100
AcDbLine
 10
88.825618743896
 20
57.7424831986427
 30
0.0
 11
88.825618743896
 21
58.7424831986427
 31
0.0
  0
LINE
  5
13E
330
1F
100
AcDbEntity
  8
CENTER
100
AcDbLine
 10
88.825618743896
 20
57.2424831986427
 30
0.0
 11
88.825618743896
 21
54.94248319864271
 31
0.0
  0
LINE
  5
13F
330
1F
100
AcDbEntity
  8
CENTER
100
AcDbLine
 10
88.825618743896
 20
59.2424831986427
 30
0.0
 11
88.825618743896
 21
61.5424831986427
 31
0.0
  0
LINE
  5
140
330
1F
100
AcDbEntity
  8
CENTER
100
AcDbLine
 10
88.825618743896
 20
65.4924831986427
 30
0.0
 11
88.825618743896
 21
66.4924831986427
 31
0.0
  0
LINE
  5
141
330
1F
100
AcDbEntity
  8
CENTER
100
AcDbLine
 10
88.825618743896
 20
64.9924831986427
 30
0.0
 11
88.825618743896
 21
62.69248319864271
 31
0.0
  0
LINE
  5
142
330
1F
100
AcDbEntity
  8
CENTER
100
AcDbLine
 10
88.825618743896
 20
66.9924831986427
 30
0.0
 11
88.825618743896
 21
69.2924831986427
 31
0.0
  0
LINE
  5
143
330
1F
100
AcDbEntity
  8
CENTER
100
AcDbLine
 10
113.825618743896
 20
57.7424831986427
 30
0.0
 11
113.825618743896
 21
58.7424831986427
 31
0.0
  0
LINE
  5
144
330
1F
100
AcDbEntity
  8
CENTER
100
AcDbLine
 10
113.825618743896
 20
57.2424831986427
 30
0.0
 11
113.825618743896
 21
54.94248319864271
 31
0.0
  0
LINE
  5
145
330
1F
100
AcDbEntity
  8
CENTER
100
AcDbLine
 10
113.825618743896
 20
59.2424831986427
 30
0.0
 11
113.825618743896
 21
61.5424831986427
 31
0.0
  0
LINE
  5
146
330
1F
100
AcDbEntity
  8
CENTER
100
AcDbLine
 10
101.325618743896
 20
61.6174831986427
 30
0.0
 11
101.325618743896
 21
62.6174831986427
 31
0.0
  0
LINE
  5
147
330
1F
100
AcDbEntity
  8
CENTER
100
AcDbLine
 10
101.325618743896
 20
61.1174831986427
 30
0.0
 11
101.325618743896
 21
54.94248319864271
 31
0.0
  0
LINE
  5
148
330
1F
100
AcDbEntity
  8
CENTER
100
AcDbLine
 10
101.325618743896
 20
63.1174831986427
 30
0.0
 11
101.325618743896
 21
69.2924831986427
 31
0.0
  0
LINE
  5
149
330
1F
100
AcDbEntity
  8
CENTER
100
AcDbLine
 10
88.825618743896
 20
61.6174831986427
 30
0.0
 11
88.825618743896
 21
62.6174831986427
 31
0.0
  0
LINE
  5
14A
330
1F
100
AcDbEntity
  8
CENTER
100
AcDbLine
 10
88.825618743896
 20
61.1174831986427
 30
0.0
 11
88.825618743896
 21
55.19248319864271
 31
0.0
  0
LINE
  5
14B
330
1F
100
AcDbEntity
  8
CENTER
100
AcDbLine
 10
88.825618743896
 20
63.1174831986427
 30
0.0
 11
88.825618743896
 21
69.0424831986427
 31
0.0
  0
LINE
  5
14C
330
1F
100
AcDbEntity
  8
CENTER
100
AcDbLine
 10
113.825618743896
 20
61.6174831986427
 30
0.0
 11
113.825618743896
 21
62.6174831986427
 31
0.0
  0
LINE
  5
14D
330
1F
100
AcDbEntity
  8
CENTER
100
AcDbLine
 10
113.825618743896
 20
61.1174831986427
 30
0.0
 11
113.825618743896
 21
55.19248319864271
 31
0.0
  0
LINE
  5
14E
330
1F
100
AcDbEntity
  8
CENTER
100
AcDbLine
 10
113.825618743896
 20
63.1174831986427
 30
0.0
 11
113.825618743896
 21
69.0424831986427
 31
0.0
  0
LINE
  5
14F
330
1F
100
AcDbEntity
  8
CENTER
100
AcDbLine
 10
113.825618743896
 20
65.4924831986427
 30
0.0
 11
113.825618743896
 21
66.4924831986427
 31
0.0
  0
LINE
  5
150
330
1F
100
AcDbEntity
  8
CENTER
100
AcDbLine
 10
113.825618743896
 20
64.9924831986427
 30
0.0
 11
113.825618743896
 21
62.69248319864271
 31
0.0
  0
LINE
  5
151
330
1F
100
AcDbEntity
  8
CENTER
100
AcDbLine
 10
113.825618743896
 20
66.9924831986427
 30
0.0
 11
113.825618743896
 21
69.2924831986427
 31
0.0
  0
LINE
  5
152
330
1F
100
AcDbEntity
  8
VISIBLE
100
AcDbLine
 10
176.336791932583
 20
166.12865447998
 30
0.0
 11
176.336791932583
 21
116.12865447998
 31
0.0
  0
LINE
  5
153
330
1F
100
AcDbEntity
  8
VISIBLE
100
AcDbLine
 10
184.336791932583
 20
116.12865447998
 30
0.0
 11
184.336791932583
 21
166.12865447998
 31
0.0
  0
LINE
  5
154
330
1F
100
AcDbEntity
  8
VISIBLE
100
AcDbLine
 10
176.336791932583
 20
166.12865447998
 30
0.0
 11
184.336791932583
 21
166.12865447998
 31
0.0
  0
LINE
  5
155
330
1F
100
AcDbEntity
  8
VISIBLE
100
AcDbLine
 10
176.336791932583
 20
116.12865447998
 30
0.0
 11
184.336791932583
 21
116.12865447998
 31
0.0
  0
LINE
  5
156
330
1F
100
AcDbEntity
  8
HIDDEN
100
AcDbLine
 10
184.336791932583
 20
130.5969965256286
 30
0.0
 11
176.336791932583
 21
130.5969965256286
 31
0.0
  0
LINE
  5
157
330
1F
100
AcDbEntity
  8
HIDDEN
100
AcDbLine
 10
184.336791932583
 20
164.1658760956524
 30
0.0
 11
176.336791932583
 21
164.1658760956524
 31
0.0
  0
LINE
  5
158
330
1F
100
AcDbEntity
  8
HIDDEN
100
AcDbLine
 10
184.336791932583
 20
137.9740074842779
 30
0.0
 11
176.336791932583
 21
137.9740074842779
 31
0.0
  0
LINE
  5
159
330
1F
100
AcDbEntity
  8
HIDDEN
100
AcDbLine
 10
184.086791932583
 20
125.37865447998
 30
0.0
 11
184.086791932583
 21
131.87865447998
 31
0.0
  0
LINE
  5
15A
330
1F
100
AcDbEntity
  8
HIDDEN
100
AcDbLine
 10
184.336791932583
 20
152.3286599576525
 30
0.0
 11
176.336791932583
 21
152.3286599576525
 31
0.0
  0
LINE
  5
15B
330
1F
100
AcDbEntity
  8
HIDDEN
100
AcDbLine
 10
184.336791932583
 20
126.12865447998
 30
0.0
 11
176.336791932583
 21
126.12865447998
 31
0.0
  0
LINE
  5
15C
330
1F
100
AcDbEntity
  8
HIDDEN
100
AcDbLine
 10
176.336791932583
 20
159.6368838114376
 30
0.0
 11
184.336791932583
 21
159.6368838114376
 31
0.0
  0
LINE
  5
15D
330
1F
100
AcDbEntity
  8
HIDDEN
100
AcDbLine
 10
184.336791932583
 20
159.6341127782386
 30
0.0
 11
176.336791932583
 21
159.6341127782386
 31
0.0
  0
LINE
  5
15E
330
1F
100
AcDbEntity
  8
HIDDEN
100
AcDbLine
 10
184.336791932583
 20
137.9240126128648
 30
0.0
 11
176.336791932583
 21
137.9240126128648
 31
0.0
  0
LINE
  5
15F
330
1F
100
AcDbEntity
  8
HIDDEN
100
AcDbLine
 10
176.586791932583
 20
131.87865447998
 30
0.0
 11
176.586791932583
 21
125.37865447998
 31
0.0
  0
LINE
  5
160
330
1F
100
AcDbEntity
  8
HIDDEN
100
AcDbLine
 10
184.336791932583
 20
119.132860309856
 30
0.0
 11
176.336791932583
 21
119.132860309856
 31
0.0
  0
LINE
  5
161
330
1F
100
AcDbEntity
  8
HIDDEN
100
AcDbLine
 10
184.336791932583
 20
130.5966916794205
 30
0.0
 11
176.336791932583
 21
130.5966916794205
 31
0.0
  0
LINE
  5
162
330
1F
100
AcDbEntity
  8
HIDDEN
100
AcDbLine
 10
184.336791932583
 20
153.49865447998
 30
0.0
 11
176.336791932583
 21
153.49865447998
 31
0.0
  0
LINE
  5
163
330
1F
100
AcDbEntity
  8
HIDDEN
100
AcDbLine
 10
184.086791932583
 20
150.37865447998
 30
0.0
 11
184.086791932583
 21
156.87865447998
 31
0.0
  0
LINE
  5
164
330
1F
100
AcDbEntity
  8
HIDDEN
100
AcDbLine
 10
184.336791932583
 20
152.27865447998
 30
0.0
 11
176.336791932583
 21
152.27865447998
 31
0.0
  0
LINE
  5
165
330
1F
100
AcDbEntity
  8
HIDDEN
100
AcDbLine
 10
184.336791932583
 20
162.9998124317668
 30
0.0
 11
176.336791932583
 21
162.9998124317668
 31
0.0
  0
LINE
  5
166
330
1F
100
AcDbEntity
  8
HIDDEN
100
AcDbLine
 10
176.586791932583
 20
156.87865447998
 30
0.0
 11
176.586791932583
 21
150.37865447998
 31
0.0
  0
LINE
  5
167
330
1F
100
AcDbEntity
  8
HIDDEN
100
AcDbLine
 10
176.336791932583
 20
164.16632627067
 30
0.0
 11
184.336791932583
 21
164.16632627067
 31
0.0
  0
LINE
  5
168
330
1F
100
AcDbEntity
  8
HIDDEN
100
AcDbLine
 10
184.336791932583
 20
163.007112632803
 30
0.0
 11
176.336791932583
 21
163.007112632803
 31
0.0
  0
LINE
  5
169
330
1F
100
AcDbEntity
  8
HIDDEN
100
AcDbLine
 10
184.086791932583
 20
150.37865447998
 30
0.0
 11
184.336791932583
 21
150.12865447998
 31
0.0
  0
LINE
  5
16A
330
1F
100
AcDbEntity
  8
HIDDEN
100
AcDbLine
 10
176.586791932583
 20
150.37865447998
 30
0.0
 11
176.336791932583
 21
150.12865447998
 31
0.0
  0
LINE
  5
16B
330
1F
100
AcDbEntity
  8
HIDDEN
100
AcDbLine
 10
184.086791932583
 20
125.37865447998
 30
0.0
 11
184.336791932583
 21
125.12865447998
 31
0.0
  0
LINE
  5
16C
330
1F
100
AcDbEntity
  8
HIDDEN
100
AcDbLine
 10
184.086791932583
 20
131.87865447998
 30
0.0
 11
184.336791932583
 21
132.12865447998
 31
0.0
  0
LINE
  5
16D
330
1F
100
AcDbEntity
  8
HIDDEN
100
AcDbLine
 10
176.586791932583
 20
156.87865447998
 30
0.0
 11
184.086791932583
 21
156.87865447998
 31
0.0
  0
LINE
  5
16E
330
1F
100
AcDbEntity
  8
HIDDEN
100
AcDbLine
 10
176.336791932583
 20
138.12865447998
 30
0.0
 11
184.336791932583
 21
138.12865447998
 31
0.0
  0
LINE
  5
16F
330
1F
100
AcDbEntity
  8
HIDDEN
100
AcDbLine
 10
176.586791932583
 20
125.37865447998
 30
0.0
 11
176.336791932583
 21
125.12865447998
 31
0.0
  0
LINE
  5
170
330
1F
100
AcDbEntity
  8
HIDDEN
100
AcDbLine
 10
176.336791932583
 20
144.12865447998
 30
0.0
 11
184.336791932583
 21
144.12865447998
 31
0.0
  0
LINE
  5
171
330
1F
100
AcDbEntity
  8
HIDDEN
100
AcDbLine
 10
184.336791932583
 20
161.3065673584548
 30
0.0
 11
176.336791932583
 21
161.3065673584548
 31
0.0
  0
LINE
  5
172
330
1F
100
AcDbEntity
  8
HIDDEN
100
AcDbLine
 10
176.586791932583
 20
125.37865447998
 30
0.0
 11
184.086791932583
 21
125.37865447998
 31
0.0
  0
LINE
  5
173
330
1F
100
AcDbEntity
  8
HIDDEN
100
AcDbLine
 10
184.336791932583
 20
160.0736691275951
 30
0.0
 11
176.336791932583
 21
160.0736691275951
 31
0.0
  0
LINE
  5
174
330
1F
100
AcDbEntity
  8
HIDDEN
100
AcDbLine
 10
176.586791932583
 20
156.87865447998
 30
0.0
 11
176.336791932583
 21
157.12865447998
 31
0.0
  0
LINE
  5
175
330
1F
100
AcDbEntity
  8
HIDDEN
100
AcDbLine
 10
176.586791932583
 20
131.87865447998
 30
0.0
 11
176.336791932583
 21
132.12865447998
 31
0.0
  0
LINE
  5
176
330
1F
100
AcDbEntity
  8
HIDDEN
100
AcDbLine
 10
184.086791932583
 20
156.87865447998
 30
0.0
 11
184.336791932583
 21
157.12865447998
 31
0.0
  0
LINE
  5
177
330
1F
100
AcDbEntity
  8
HIDDEN
100
AcDbLine
 10
176.586791932583
 20
150.37865447998
 30
0.0
 11
184.086791932583
 21
150.37865447998
 31
0.0
  0
LINE
  5
178
330
1F
100
AcDbEntity
  8
HIDDEN
100
AcDbLine
 10
176.586791932583
 20
131.87865447998
 30
0.0
 11
184.086791932583
 21
131.87865447998
 31
0.0
  0
LINE
  5
179
330
1F
100
AcDbEntity
  8
HIDDEN
100
AcDbLine
 10
184.336791932583
 20
160.138130550383
 30
0.0
 11
176.336791932583
 21
160.138130550383
 31
0.0
  0
LINE
  5
17A
330
1F
100
AcDbEntity
  8
HIDDEN
100
AcDbLine
 10
184.336791932583
 20
160.1328603098562
 30
0.0
 11
176.336791932583
 21
160.1328603098562
 31
0.0
  0
LINE
  5
17B
330
1F
100
AcDbEntity
  8
CENTER
100
AcDbLine
 10
175.961791932583
 20
153.62865447998
 30
0.0
 11
176.961791932583
 21
153.62865447998
 31
0.0
  0
LINE
  5
17C
330
1F
100
AcDbEntity
  8
CENTER
100
AcDbLine
 10
175.461791932583
 20
153.62865447998
 30
0.0
 11
173.161791932583
 21
153.62865447998
 31
0.0
  0
LINE
  5
17D
330
1F
100
AcDbEntity
  8
CENTER
100
AcDbLine
 10
177.461791932583
 20
153.62865447998
 30
0.0
 11
179.761791932583
 21
153.62865447998
 31
0.0
  0
LINE
  5
17E
330
1F
100
AcDbEntity
  8
CENTER
100
AcDbLine
 10
183.711791932583
 20
128.62865447998
 30
0.0
 11
184.711791932583
 21
128.62865447998
 31
0.0
  0
LINE
  5
17F
330
1F
100
AcDbEntity
  8
CENTER
100
AcDbLine
 10
183.211791932583
 20
128.62865447998
 30
0.0
 11
180.911791932583
 21
128.62865447998
 31
0.0
  0
LINE
  5
180
330
1F
100
AcDbEntity
  8
CENTER
100
AcDbLine
 10
185.211791932583
 20
128.62865447998
 30
0.0
 11
187.511791932583
 21
128.62865447998
 31
0.0
  0
LINE
  5
181
330
1F
100
AcDbEntity
  8
CENTER
100
AcDbLine
 10
179.836791932583
 20
141.12865447998
 30
0.0
 11
180.836791932583
 21
141.12865447998
 31
0.0
  0
LINE
  5
182
330
1F
100
AcDbEntity
  8
CENTER
100
AcDbLine
 10
179.336791932583
 20
141.12865447998
 30
0.0
 11
173.161791932583
 21
141.12865447998
 31
0.0
  0
LINE
  5
183
330
1F
100
AcDbEntity
  8
CENTER
100
AcDbLine
 10
181.336791932583
 20
141.12865447998
 30
0.0
 11
187.511791932583
 21
141.12865447998
 31
0.0
  0
LINE
  5
184
330
1F
100
AcDbEntity
  8
CENTER
100
AcDbLine
 10
179.836791932583
 20
128.62865447998
 30
0.0
 11
180.836791932583
 21
128.62865447998
 31
0.0
  0
LINE
  5
185
330
1F
100
AcDbEntity
  8
CENTER
100
AcDbLine
 10
179.336791932583
 20
128.62865447998
 30
0.0
 11
173.411791932583
 21
128.62865447998
 31
0.0
  0
LINE
  5
186
330
1F
100
AcDbEntity
  8
CENTER
100
AcDbLine
 10
181.336791932583
 20
128.62865447998
 30
0.0
 11
187.261791932583
 21
128.62865447998
 31
0.0
  0
LINE
  5
187
330
1F
100
AcDbEntity
  8
CENTER
100
AcDbLine
 10
179.836791932583
 20
153.62865447998
 30
0.0
 11
180.836791932583
 21
153.62865447998
 31
0.0
  0
LINE
  5
188
330
1F
100
AcDbEntity
  8
CENTER
100
AcDbLine
 10
179.336791932583
 20
153.62865447998
 30
0.0
 11
173.411791932583
 21
153.62865447998
 31
0.0
  0
LINE
  5
189
330
1F
100
AcDbEntity
  8
CENTER
100
AcDbLine
 10
181.336791932583
 20
153.62865447998
 30
0.0
 11
187.261791932583
 21
153.62865447998
 31
0.0
  0
LINE
  5
18A
330
1F
100
AcDbEntity
  8
CENTER
100
AcDbLine
 10
183.711791932583
 20
153.62865447998
 30
0.0
 11
184.711791932583
 21
153.62865447998
 31
0.0
  0
LINE
  5
18B
330
1F
100
AcDbEntity
  8
CENTER
100
AcDbLine
 10
183.211791932583
 20
153.62865447998
 30
0.0
 11
180.911791932583
 21
153.62865447998
 31
0.0
  0
LINE
  5
18C
330
1F
100
AcDbEntity
  8
CENTER
100
AcDbLine
 10
185.211791932583
 20
153.62865447998
 30
0.0
 11
187.511791932583
 21
153.62865447998
 31
0.0
  0
LINE
  5
18D
330
1F
100
AcDbEntity
  8
CENTER
100
AcDbLine
 10
175.961791932583
 20
128.62865447998
 30
0.0
 11
176.961791932583
 21
128.62865447998
 31
0.0
  0
LINE
  5
18E
330
1F
100
AcDbEntity
  8
CENTER
100
AcDbLine
 10
175.461791932583
 20
128.62865447998
 30
0.0
 11
173.161791932583
 21
128.62865447998
 31
0.0
  0
LINE
  5
18F
330
1F
100
AcDbEntity
  8
CENTER
100
AcDbLine
 10
177.461791932583
 20
128.62865447998
 30
0.0
 11
179.761791932583
 21
128.62865447998
 31
0.0
  0
DIMENSION
  5
190
330
1F
100
AcDbEntity
  8
DIMENSIONS
100
AcDbDimension
280
     0
  2
D5
 10
0.0
 20
0.0
 30
0.0
 11
356.6735838651659
 21
227.1322543674036
 31
0.0
 70
    32
  1
<>
 71
     5
 42
-1.0
 73
     0
 74
     0
 75
     0
  3
ISO-25
100
AcDbAlignedDimension
 13
176.336791932583
 23
116.12865447998
 33
0.0
 14
184.336791932583
 24
116.12865447998
 34
0.0
100
AcDbRotatedDimension
1001
ACAD
1000
DSTYLE
1002
{
1070
    76
1070
     0
1070
    75
1070
     0
1070
   282
1070
     0
1070
   281
1070
     0
1070
    77
1070
     1
1070
    79
1070
     0
1070
    78
1070
     0
1070
   272
1070
     2
1070
   271
1070
     2
1070
   179
1070
     2
1070
   140
1040
2.707850318471337
1070
    71
1070
     0
1070
    72
1070
     0
1070
    48
1040
0.002
1070
    47
1040
0.005
1002
}
  0
LINE
  5
1A1
330
1F
100
AcDbEntity
  8
VISIBLE
100
AcDbLine
 10
214.7944084587745
 20
68.11277163631726
 30
0.0
 11
215.5874511026927
 21
68.57063502026229
 31
0.0
  0
LINE
  5
1A2
330
1F
100
AcDbEntity
  8
VISIBLE
100
AcDbLine
 10
215.5766394814478
 20
91.36985648506531
 30
0.0
 11
215.5439420924939
 21
86.3791536084268
 31
0.0
  0
LINE
  5
1A3
330
1F
100
AcDbEntity
  8
VISIBLE
100
AcDbLine
 10
215.5766394814478
 20
91.36985648506531
 30
0.0
 11
214.7885369913502
 21
91.8271302090048
 31
0.0
  0
LINE
  5
1A4
330
1F
100
AcDbEntity
  8
VISIBLE
100
AcDbLine
 10
215.5439420924939
 20
86.3791536084268
 30
0.0
 11
216.5692469252144
 21
85.78719358725422
 31
0.0
  0
LINE
  5
1A5
330
1F
100
AcDbEntity
  8
VISIBLE
100
AcDbLine
 10
215.4025207362566
 20
94.2184662490078
 30
0.0
 11
215.4025207362566
 21
95.17055324371427
 31
0.0
  0
LINE
  5
1A6
330
1F
100
AcDbEntity
  8
VISIBLE
100
AcDbLine
 10
214.7873369453025
 20
74.1401586017274
 30
0.0
 11
215.5922212791894
 21
74.60485878856356
 31
0.0
  0
ELLIPSE
  5
1A7
330
1F
100
AcDbEntity
  8
VISIBLE
100
AcDbEllipse
 10
206.528330632366
 20
71.48217348939971
 30
0.0
 11
-1.624999999999488
 21
2.81458256229861
 31
0.0
210
0.0
220
0.0
230
1.0
 40
0.5773502691897117
 41
3.141592653589751
 42
3.889233047505589
  0
ELLIPSE
  5
1A8
330
1F
100
AcDbEntity
  8
VISIBLE
100
AcDbEllipse
 10
206.5283306323654
 20
71.48217348940048
 30
0.0
 11
1.625
 21
-2.814582562299435
 31
0.0
210
0.0
220
0.0
230
1.0
 40
0.5773502691896241
 41
-3.141592653589789
 42
0.0
  0
ELLIPSE
  5
1A9
330
1F
100
AcDbEntity
  8
VISIBLE
100
AcDbEllipse
 10
206.5283306323652
 20
71.48217348940068
 30
0.0
 11
-1.624999999999829
 21
2.814582562299222
 31
0.0
210
0.0
220
0.0
230
1.0
 40
0.5773502691896676
 41
-0.7476403939157336
 42
0.0
  0
ELLIPSE
  5
1AA
330
1F
100
AcDbEntity
  8
VISIBLE
100
AcDbEllipse
 10
227.5647573726654
 20
69.33886996446506
 30
0.0
 11
1.500000000000085
 21
-2.598076211353487
 31
0.0
210
0.0
220
0.0
230
1.0
 40
0.5773502691896094
 41
-3.141592653589751
 42
-2.356194490192349
  0
ELLIPSE
  5
1AB
330
1F
100
AcDbEntity
  8
VISIBLE
100
AcDbEllipse
 10
227.5647573726652
 20
69.33886996446519
 30
0.0
 11
-1.5
 21
2.598076211353316
 31
0.0
210
0.0
220
0.0
230
1.0
 40
0.577350269189625
 41
3.141592653589792
 42
6.283185307179586
  0
ELLIPSE
  5
1AC
330
1F
100
AcDbEntity
  8
VISIBLE
100
AcDbEllipse
 10
227.5647573726652
 20
69.33886996446519
 30
0.0
 11
1.5
 21
-2.598076211353316
 31
0.0
210
0.0
220
0.0
230
1.0
 40
0.577350269189625
 41
-2.356194490192348
 42
0.0
  0
LINE
  5
1AD
330
1F
100
AcDbEntity
  8
VISIBLE
100
AcDbLine
 10
215.5863684993649
 20
67.65528438780838
 30
0.0
 11
215.5713795514694
 21
64.01580116410958
 31
0.0
  0
LINE
  5
1AE
330
1F
100
AcDbEntity
  8
VISIBLE
100
AcDbLine
 10
214.803531967045
 20
85.8513330664809
 30
0.0
 11
215.6308430277339
 21
86.32898133007319
 31
0.0
  0
ELLIPSE
  5
1AF
330
1F
100
AcDbEntity
  8
VISIBLE
100
AcDbEllipse
 10
224.2060001620293
 20
61.27596622780374
 30
0.0
 11
-1.624999999999887
 21
2.814582562299223
 31
0.0
210
0.0
220
0.0
230
1.0
 40
0.5773502691896475
 41
3.141592653589754
 42
3.889233047505492
  0
ELLIPSE
  5
1B0
330
1F
100
AcDbEntity
  8
VISIBLE
100
AcDbEllipse
 10
224.2060001620291
 20
61.27596622780389
 30
0.0
 11
1.625
 21
-2.814582562299428
 31
0.0
210
0.0
220
0.0
230
1.0
 40
0.5773502691896251
 41
-3.141592653589791
 42
0.0
  0
ELLIPSE
  5
1B1
330
1F
100
AcDbEntity
  8
VISIBLE
100
AcDbEllipse
 10
224.2060001620291
 20
61.27596622780409
 30
0.0
 11
-1.624999999999971
 21
2.814582562299208
 31
0.0
210
0.0
220
0.0
230
1.0
 40
0.5773502691896399
 41
-0.7476403939157426
 42
0.0
  0
ELLIPSE
  5
1B2
330
1F
100
AcDbEntity
  8
VISIBLE
100
AcDbEllipse
 10
202.8160200311352
 20
83.62756013070093
 30
0.0
 11
1.499999999999488
 21
-2.59807621135262
 31
0.0
210
0.0
220
0.0
230
1.0
 40
0.577350269189628
 41
-3.141592653589981
 42
-2.3561944901923
  0
ELLIPSE
  5
1B3
330
1F
100
AcDbEntity
  8
VISIBLE
100
AcDbEllipse
 10
202.816020031136
 20
83.6275601307004
 30
0.0
 11
-1.499999999999943
 21
2.598076211353344
 31
0.0
210
0.0
220
0.0
230
1.0
 40
0.5773502691896185
 41
3.141592653589838
 42
6.283185307179586
  0
ELLIPSE
  5
1B4
330
1F
100
AcDbEntity
  8
VISIBLE
100
AcDbEllipse
 10
202.816020031136
 20
83.6275601307004
 30
0.0
 11
1.5
 21
-2.598076211353302
 31
0.0
210
0.0
220
0.0
230
1.0
 40
0.5773502691896274
 41
-2.356194490192365
 42
0.0
  0
LINE
  5
1B5
330
1F
100
AcDbEntity
  8
VISIBLE
100
AcDbLine
 10
214.8093978523317
 20
64.45573150322431
 30
0.0
 11
215.5750118306508
 21
64.89775893970217
 31
0.0
  0
ELLIPSE
  5
1B6
330
1F
100
AcDbEntity
  8
VISIBLE
100
AcDbEllipse
 10
224.0292234667325
 20
61.17390415518793
 30
0.0
 11
-1.75
 21
3.03108891324554
 31
0.0
210
0.0
220
0.0
230
1.0
 40
0.5773502691896244
 41
3.926990816987241
 42
5.497787143782137
  0
ELLIPSE
  5
1B7
330
1F
100
AcDbEntity
  8
VISIBLE
100
AcDbEllipse
 10
224.0292234667325
 20
61.17390415518793
 30
0.0
 11
-1.75
 21
3.031088913245533
 31
0.0
210
0.0
220
0.0
230
1.0
 40
0.5773502691896264
 41
-0.7853981633974481
 42
3.926990816987234
  0
LINE
  5
1B8
330
1F
100
AcDbEntity
  8
VISIBLE
100
AcDbLine
 10
215.5787223392237
 20
85.36294739488311
 30
0.0
 11
215.593439567176
 21
73.63393439442162
 31
0.0
  0
LINE
  5
1B9
330
1F
100
AcDbEntity
  8
VISIBLE
100
AcDbLine
 10
215.5713795514694
 20
64.01580116410956
 30
0.0
 11
215.6146527706126
 21
58.27877533860824
 31
0.0
  0
LINE
  5
1BA
330
1F
100
AcDbEntity
  8
VISIBLE
100
AcDbLine
 10
215.593439567176
 20
73.63393439442153
 30
0.0
 11
215.5863684993649
 21
67.65528438780838
 31
0.0
  0
ELLIPSE
  5
1BB
330
1F
100
AcDbEntity
  8
VISIBLE
100
AcDbEllipse
 10
224.0292234667325
 20
81.5863186783811
 30
0.0
 11
-1.750000000000029
 21
3.031088913245483
 31
0.0
210
0.0
220
0.0
230
1.0
 40
0.5773502691896261
 41
3.926990816987232
 42
5.497787143782121
  0
ELLIPSE
  5
1BC
330
1F
100
AcDbEntity
  8
VISIBLE
100
AcDbEllipse
 10
224.0292234667325
 20
81.58631867838106
 30
0.0
 11
-1.749999999999972
 21
3.03108891324554
 31
0.0
210
0.0
220
0.0
230
1.0
 40
0.5773502691896257
 41
-0.7853981633974394
 42
3.926990816987272
  0
LINE
  5
1BD
330
1F
100
AcDbEntity
  8
VISIBLE
100
AcDbLine
 10
214.978256667545
 20
95.41586978435521
 30
0.0
 11
214.978256667545
 21
94.46937581247218
 31
0.0
  0
LINE
  5
1BE
330
1F
100
AcDbEntity
  8
VISIBLE
100
AcDbLine
 10
215.6146527706126
 20
58.27877533860825
 30
0.0
 11
214.7661246331887
 21
58.76867328716489
 31
0.0
  0
LINE
  5
1BF
330
1F
100
AcDbEntity
  8
VISIBLE
100
AcDbLine
 10
214.7661246331887
 20
58.76867328716489
 30
0.0
 11
215.6072944138426
 21
59.25432288645958
 31
0.0
  0
LINE
  5
1C0
330
1F
100
AcDbEntity
  8
VISIBLE
100
AcDbLine
 10
214.7944084587745
 20
68.11277163631726
 30
0.0
 11
214.7873369453025
 21
74.1401586017274
 31
0.0
  0
LINE
  5
1C1
330
1F
100
AcDbEntity
  8
VISIBLE
100
AcDbLine
 10
214.803531967045
 20
85.8513330664809
 30
0.0
 11
214.7885369913502
 21
91.82713020900484
 31
0.0
  0
ELLIPSE
  5
1C2
330
1F
100
AcDbEntity
  8
VISIBLE
100
AcDbEllipse
 10
215.1903881794343
 20
93.62964354871107
 30
0.0
 11
-1.270559089524682
 21
1.78206348554545
 31
0.0
210
0.0
220
0.0
230
1.0
 40
0.5696880562568709
 41
3.086915342197726
 42
5.255732795581812
  0
ELLIPSE
  5
1C3
330
1F
100
AcDbEntity
  8
VISIBLE
100
AcDbEllipse
 10
215.1903881794341
 20
93.62964354871224
 30
0.0
 11
1.270559089524767
 21
-1.782063485546786
 31
0.0
210
0.0
220
0.0
230
1.0
 40
0.5696880562567131
 41
-0.6551736289649719
 42
-0.0546773113918453
  0
LINE
  5
1C4
330
1F
100
AcDbEntity
  8
VISIBLE
100
AcDbLine
 10
214.7873369453025
 20
74.1401586017274
 30
0.0
 11
214.803531967045
 21
85.85133306648088
 31
0.0
  0
ELLIPSE
  5
1C5
330
1F
100
AcDbEntity
  8
VISIBLE
100
AcDbEllipse
 10
206.5283306323648
 20
91.89458801259393
 30
0.0
 11
-1.625000000000313
 21
2.81458256229989
 31
0.0
210
0.0
220
0.0
230
1.0
 40
0.5773502691896326
 41
3.141592653589982
 42
3.889233047505502
  0
ELLIPSE
  5
1C6
330
1F
100
AcDbEntity
  8
VISIBLE
100
AcDbEllipse
 10
206.5283306323654
 20
91.8945880125936
 30
0.0
 11
1.624999999999943
 21
-2.814582562299435
 31
0.0
210
0.0
220
0.0
230
1.0
 40
0.5773502691896247
 41
-3.141592653589759
 42
0.0
  0
ELLIPSE
  5
1C7
330
1F
100
AcDbEntity
  8
VISIBLE
100
AcDbEllipse
 10
206.5283306323653
 20
91.89458801259356
 30
0.0
 11
-1.624999999999829
 21
2.814582562299492
 31
0.0
210
0.0
220
0.0
230
1.0
 40
0.5773502691896618
 41
-0.7476403939156547
 42
0.0
  0
ELLIPSE
  5
1C8
330
1F
100
AcDbEntity
  8
VISIBLE
100
AcDbEllipse
 10
224.2060001620298
 20
81.68838075099607
 30
0.0
 11
-1.624999999999517
 21
2.814582562298355
 31
0.0
210
0.0
220
0.0
230
1.0
 40
0.5773502691897442
 41
3.141592653589671
 42
3.889233047505542
  0
ELLIPSE
  5
1C9
330
1F
100
AcDbEntity
  8
VISIBLE
100
AcDbEllipse
 10
224.2060001620291
 20
81.6883807509971
 30
0.0
 11
1.625000000000057
 21
-2.814582562299364
 31
0.0
210
0.0
220
0.0
230
1.0
 40
0.5773502691896386
 41
-3.141592653589817
 42
0.0
  0
ELLIPSE
  5
1CA
330
1F
100
AcDbEntity
  8
VISIBLE
100
AcDbEllipse
 10
224.2060001620291
 20
81.68838075099737
 30
0.0
 11
-1.625000000000171
 21
2.814582562299038
 31
0.0
210
0.0
220
0.0
230
1.0
 40
0.5773502691896345
 41
-0.7476403939158146
 42
0.0
  0
LINE
  5
1CB
330
1F
100
AcDbEntity
  8
VISIBLE
100
AcDbLine
 10
214.7661246331887
 20
58.76867328716489
 30
0.0
 11
214.8093978523317
 21
64.45573150322431
 31
0.0
  0
LINE
  5
1CC
330
1F
100
AcDbEntity
  8
VISIBLE
100
AcDbLine
 10
215.5787223392237
 20
85.36294739488311
 30
0.0
 11
216.4413926122713
 21
85.86101030924902
 31
0.0
  0
ELLIPSE
  5
1CD
330
1F
100
AcDbEntity
  8
VISIBLE
100
AcDbEllipse
 10
220.847242951393
 20
79.74920137129368
 30
0.0
 11
-12.5
 21
21.65063509461092
 31
0.0
210
0.0
220
0.0
230
1.0
 40
0.5773502691896271
 41
3.926990816987241
 42
6.283185307179586
  0
ELLIPSE
  5
1CE
330
1F
100
AcDbEntity
  8
VISIBLE
100
AcDbEllipse
 10
220.8472429513923
 20
79.74920137129445
 30
0.0
 11
-12.50000000000051
 21
21.65063509461186
 31
0.0
210
0.0
220
0.0
230
1.0
 40
0.5773502691896176
 41
3.14159265358981
 42
3.926990816987233
  0
ELLIPSE
  5
1CF
330
1F
100
AcDbEntity
  8
VISIBLE
100
AcDbEllipse
 10
215.1903887019004
 20
93.62964324707653
 30
0.0
 11
1.270883988232924
 21
-1.782055140752434
 31
0.0
210
0.0
220
0.0
230
1.0
 40
0.5696686539357081
 41
-1.147079757879441
 42
-0.6553522531633653
  0
LINE
  5
1D0
330
1F
100
AcDbEntity
  8
VISIBLE
100
AcDbLine
 10
216.5692469252144
 20
85.78719358725421
 30
0.0
 11
216.5692469252144
 21
84.79106775852237
 31
0.0
  0
LINE
  5
1D1
330
1F
100
AcDbEntity
  8
VISIBLE
100
AcDbLine
 10
214.8093978523317
 20
64.45573150322431
 30
0.0
 11
214.7944084587745
 21
68.11277163631726
 31
0.0
  0
ELLIPSE
  5
1D2
330
1F
100
AcDbEntity
  8
VISIBLE
100
AcDbEllipse
 10
215.1833176340905
 20
93.676928914328
 30
0.0
 11
0.4375000000003979
 21
-0.7577722283137405
 31
0.0
210
0.0
220
0.0
230
1.0
 40
0.5773502691885465
 41
-3.589173492969312
 42
-3.141592653589277
  0
ELLIPSE
  5
1D3
330
1F
100
AcDbEntity
  8
VISIBLE
100
AcDbEllipse
 10
215.1833176340896
 20
93.6769289143306
 30
0.0
 11
0.4374999999998578
 21
-0.7577722283109551
 31
0.0
210
0.0
220
0.0
230
1.0
 40
0.5773502691897267
 41
-3.141592653589995
 42
0.0
  0
ELLIPSE
  5
1D4
330
1F
100
AcDbEntity
  8
VISIBLE
100
AcDbEllipse
 10
215.1833176340896
 20
93.67692891433052
 30
0.0
 11
-0.4374999999997727
 21
0.7577722283110404
 31
0.0
210
0.0
220
0.0
230
1.0
 40
0.5773502691896212
 41
3.141592653589869
 42
5.135637016974962
  0
LINE
  5
1D5
330
1F
100
AcDbEntity
  8
VISIBLE
100
AcDbLine
 10
215.4025207362565
 20
94.2184662490078
 30
0.0
 11
216.0302457531996
 21
94.58088345651691
 31
0.0
  0
ELLIPSE
  5
1D6
330
1F
100
AcDbEntity
  8
VISIBLE
100
AcDbEllipse
 10
215.190388701902
 20
76.48321504758141
 30
0.0
 11
-12.49999999999915
 21
21.65063509460933
 31
0.0
210
0.0
220
0.0
230
1.0
 40
0.5773502691896444
 41
3.141592653589756
 42
3.926990816987252
  0
ELLIPSE
  5
1D7
330
1F
100
AcDbEntity
  8
VISIBLE
100
AcDbEllipse
 10
215.1903887019006
 20
76.48321504758286
 30
0.0
 11
12.50000000000011
 21
-21.65063509461092
 31
0.0
210
0.0
220
0.0
230
1.0
 40
0.5773502691896282
 41
-3.141592653589799
 42
0.0
  0
ELLIPSE
  5
1D8
330
1F
100
AcDbEntity
  8
VISIBLE
100
AcDbEllipse
 10
215.1903887019006
 20
76.48321504758277
 30
0.0
 11
-12.5
 21
21.65063509461093
 31
0.0
210
0.0
220
0.0
230
1.0
 40
0.5773502691896265
 41
3.926990816987242
 42
6.283185307179586
  0
LINE
  5
1D9
330
1F
100
AcDbEntity
  8
VISIBLE
100
AcDbLine
 10
216.5692469252144
 20
84.7910677585224
 30
0.0
 11
215.5787223392237
 21
85.36294739488307
 31
0.0
  0
ELLIPSE
  5
1DA
330
1F
100
AcDbEntity
  8
VISIBLE
100
AcDbEllipse
 10
206.3515539370688
 20
71.38011141678452
 30
0.0
 11
-1.749999999999972
 21
3.03108891324554
 31
0.0
210
0.0
220
0.0
230
1.0
 40
0.5773502691896165
 41
3.926990816987256
 42
5.497787143782139
  0
ELLIPSE
  5
1DB
330
1F
100
AcDbEntity
  8
VISIBLE
100
AcDbEllipse
 10
206.3515539370688
 20
71.3801114167845
 30
0.0
 11
-1.75
 21
3.031088913245554
 31
0.0
210
0.0
220
0.0
230
1.0
 40
0.5773502691896213
 41
-0.785398163397449
 42
3.926990816987251
  0
ELLIPSE
  5
1DC
330
1F
100
AcDbEntity
  8
VISIBLE
100
AcDbEllipse
 10
215.1903881794343
 20
93.62964354871113
 30
0.0
 11
1.27055908952471
 21
-1.782063485545478
 31
0.0
210
0.0
220
0.0
230
1.0
 40
0.5696880562568464
 41
-3.196269964981891
 42
-1.146971891974025
  0
ELLIPSE
  5
1DD
330
1F
100
AcDbEntity
  8
VISIBLE
100
AcDbEllipse
 10
215.1903881794335
 20
93.62964354871329
 30
0.0
 11
-1.270559089524028
 21
1.782063485543162
 31
0.0
210
0.0
220
0.0
230
1.0
 40
0.5696880562570755
 41
-0.7658371525405737
 42
-0.0546773113923364
  0
ELLIPSE
  5
1DE
330
1F
100
AcDbEntity
  8
VISIBLE
100
AcDbEllipse
 10
206.3515539370688
 20
91.79252593997761
 30
0.0
 11
-1.749999999999915
 21
3.031088913245597
 31
0.0
210
0.0
220
0.0
230
1.0
 40
0.5773502691896232
 41
3.926990816987286
 42
5.49778714378217
  0
ELLIPSE
  5
1DF
330
1F
100
AcDbEntity
  8
VISIBLE
100
AcDbEllipse
 10
206.3515539370688
 20
91.79252593997766
 30
0.0
 11
-1.75
 21
3.03108891324554
 31
0.0
210
0.0
220
0.0
230
1.0
 40
0.5773502691896254
 41
-0.785398163397448
 42
3.926990816987229
  0
LINE
  5
1E0
330
1F
100
AcDbEntity
  8
VISIBLE
100
AcDbLine
 10
214.7458176340898
 20
94.43470114264161
 30
0.0
 11
214.9782566675447
 21
94.56889988117697
 31
0.0
  0
LINE
  5
1E1
330
1F
100
AcDbEntity
  8
VISIBLE
100
AcDbLine
 10
208.347242951393
 20
101.3998364659047
 30
0.0
 11
202.6903887019006
 21
98.13385014219381
 31
0.0
  0
LINE
  5
1E2
330
1F
100
AcDbEntity
  8
VISIBLE
100
AcDbLine
 10
215.6208176340894
 20
92.9191566860195
 30
0.0
 11
216.6537814939311
 21
93.51553864856223
 31
0.0
  0
LINE
  5
1E3
330
1F
100
AcDbEntity
  8
VISIBLE
100
AcDbLine
 10
233.347242951393
 20
58.09856627668272
 30
0.0
 11
227.6903887019006
 21
54.83257995297183
 31
0.0
  0
LINE
  5
1E4
330
1F
100
AcDbEntity
  8
HIDDEN
100
AcDbLine
 10
220.4453912408426
 20
95.09311653271571
 30
0.0
 11
220.4603862165374
 21
89.11731939019178
 31
0.0
  0
LINE
  5
1E5
330
1F
100
AcDbEntity
  8
HIDDEN
100
AcDbLine
 10
215.5874511026927
 20
68.57063502026229
 30
0.0
 11
220.4512627082669
 21
71.37875796002817
 31
0.0
  0
LINE
  5
1E6
330
1F
100
AcDbEntity
  8
HIDDEN
100
AcDbLine
 10
220.4662521018241
 20
67.72171782693522
 30
0.0
 11
220.4229788826811
 21
62.03465961087579
 31
0.0
  0
ELLIPSE
  5
1E7
330
1F
100
AcDbEntity
  8
HIDDEN
100
AcDbEllipse
 10
220.8472424289271
 20
96.89562987242175
 30
0.0
 11
1.27055908952417
 21
-1.782063485545337
 31
0.0
210
0.0
220
0.0
230
1.0
 40
0.5696880562568902
 41
-0.6551736289652808
 42
-0.0546773113919559
  0
ELLIPSE
  5
1E8
330
1F
100
AcDbEntity
  8
HIDDEN
100
AcDbEllipse
 10
220.8472424289267
 20
96.895629872422
 30
0.0
 11
-1.270559089524739
 21
1.782063485545464
 31
0.0
210
0.0
220
0.0
230
1.0
 40
0.5696880562568488
 41
3.086915342197675
 42
5.255732795581777
  0
LINE
  5
1E9
330
1F
100
AcDbEntity
  8
HIDDEN
100
AcDbLine
 10
215.4025207362569
 20
95.17055324371421
 30
0.0
 11
221.0593749857493
 21
98.43653956742511
 31
0.0
  0
ELLIPSE
  5
1EA
330
1F
100
AcDbEntity
  8
HIDDEN
100
AcDbEllipse
 10
208.4728742806284
 20
86.89354645441131
 30
0.0
 11
1.499999999999972
 21
-2.598076211353302
 31
0.0
210
0.0
220
0.0
230
1.0
 40
0.5773502691896195
 41
-2.356194490192343
 42
0.0
  0
ELLIPSE
  5
1EB
330
1F
100
AcDbEntity
  8
HIDDEN
100
AcDbEllipse
 10
208.4728742806284
 20
86.89354645441131
 30
0.0
 11
-1.499999999999943
 21
2.598076211353373
 31
0.0
210
0.0
220
0.0
230
1.0
 40
0.5773502691896326
 41
3.141592653589855
 42
6.283185307179586
  0
ELLIPSE
  5
1EC
330
1F
100
AcDbEntity
  8
HIDDEN
100
AcDbEllipse
 10
208.4728742806279
 20
86.8935464544115
 30
0.0
 11
1.499999999999716
 21
-2.598076211352974
 31
0.0
210
0.0
220
0.0
230
1.0
 40
0.5773502691896022
 41
-3.141592653589944
 42
-2.356194490192351
  0
ELLIPSE
  5
1ED
330
1F
100
AcDbEntity
  8
HIDDEN
100
AcDbEllipse
 10
233.2216116221576
 20
72.6048562881761
 30
0.0
 11
1.500000000000057
 21
-2.598076211353302
 31
0.0
210
0.0
220
0.0
230
1.0
 40
0.5773502691896291
 41
-2.356194490192361
 42
0.0
  0
ELLIPSE
  5
1EE
330
1F
100
AcDbEntity
  8
HIDDEN
100
AcDbEllipse
 10
233.2216116221576
 20
72.6048562881761
 30
0.0
 11
-1.5
 21
2.598076211353302
 31
0.0
210
0.0
220
0.0
230
1.0
 40
0.5773502691896297
 41
3.141592653589788
 42
6.283185307179586
  0
ELLIPSE
  5
1EF
330
1F
100
AcDbEntity
  8
HIDDEN
100
AcDbEllipse
 10
233.2216116221577
 20
72.60485628817618
 30
0.0
 11
1.499999999999858
 21
-2.59807621135333
 31
0.0
210
0.0
220
0.0
230
1.0
 40
0.5773502691896562
 41
-3.141592653589665
 42
-2.356194490192258
  0
ELLIPSE
  5
1F0
330
1F
100
AcDbEntity
  8
HIDDEN
100
AcDbEllipse
 10
229.5093010209282
 20
64.33782840628287
 30
0.0
 11
-1.625000000000029
 21
2.814582562299421
 31
0.0
210
0.0
220
0.0
230
1.0
 40
0.5773502691896258
 41
3.926990816987231
 42
6.283185307179586
  0
ELLIPSE
  5
1F1
330
1F
100
AcDbEntity
  8
HIDDEN
100
AcDbEllipse
 10
229.5093010209283
 20
64.33782840628275
 30
0.0
 11
1.625000000000057
 21
-2.814582562299563
 31
0.0
210
0.0
220
0.0
230
1.0
 40
0.5773502691896166
 41
-3.141592653589773
 42
-2.356194490192346
  0
ELLIPSE
  5
1F2
330
1F
100
AcDbEntity
  8
HIDDEN
100
AcDbEllipse
 10
229.5093010209282
 20
64.33782840628287
 30
0.0
 11
1.625
 21
-2.814582562299428
 31
0.0
210
0.0
220
0.0
230
1.0
 40
0.5773502691896251
 41
-2.356194490192335
 42
-0.7853981633974483
  0
ELLIPSE
  5
1F3
330
1F
100
AcDbEntity
  8
HIDDEN
100
AcDbEllipse
 10
229.5093010209282
 20
64.33782840628295
 30
0.0
 11
1.625000000000028
 21
-2.814582562299513
 31
0.0
210
0.0
220
0.0
230
1.0
 40
0.5773502691896073
 41
-0.7853981633974574
 42
0.0
  0
ELLIPSE
  5
1F4
330
1F
100
AcDbEntity
  8
HIDDEN
100
AcDbEllipse
 10
229.5093010209283
 20
64.33782840628264
 30
0.0
 11
-1.62499999999983
 21
2.814582562299208
 31
0.0
210
0.0
220
0.0
230
1.0
 40
0.5773502691896514
 41
3.141592653589808
 42
3.926990816987293
  0
LINE
  5
1F5
330
1F
100
AcDbEntity
  8
HIDDEN
100
AcDbLine
 10
222.2261011747068
 20
88.05705408223331
 30
0.0
 11
222.2261011747068
 21
89.05317991096514
 31
0.0
  0
LINE
  5
1F6
330
1F
100
AcDbEntity
  8
HIDDEN
100
AcDbLine
 10
221.2715070201049
 20
61.54476166231915
 30
0.0
 11
221.2282338009618
 21
67.28178748782047
 31
0.0
  0
LINE
  5
1F7
330
1F
100
AcDbEntity
  8
HIDDEN
100
AcDbLine
 10
215.5922212791894
 20
74.60485878856356
 30
0.0
 11
220.4441911947949
 21
77.40614492543831
 31
0.0
  0
ELLIPSE
  5
1F8
330
1F
100
AcDbEntity
  8
HIDDEN
100
AcDbEllipse
 10
206.5283307448384
 20
71.48217342198465
 30
0.0
 11
-1.624999879961535
 21
2.814582492081811
 31
0.0
210
0.0
220
0.0
230
1.0
 40
0.5773502697290916
 41
3.889233071509596
 42
3.926990841915459
  0
ELLIPSE
  5
1F9
330
1F
100
AcDbEntity
  8
HIDDEN
100
AcDbEllipse
 10
206.5283306326957
 20
71.48217347784568
 30
0.0
 11
-1.625000000151402
 21
2.814582574554649
 31
0.0
210
0.0
220
0.0
230
1.0
 40
0.5773502691067814
 41
-0.7853981613386846
 42
-0.7476403917943925
  0
ELLIPSE
  5
1FA
330
1F
100
AcDbEntity
  8
HIDDEN
100
AcDbEllipse
 10
206.5283306323654
 20
71.48217348940048
 30
0.0
 11
-1.625
 21
2.814582562299421
 31
0.0
210
0.0
220
0.0
230
1.0
 40
0.5773502691896262
 41
3.926990816987243
 42
5.497787143782137
  0
ELLIPSE
  5
1FB
330
1F
100
AcDbEntity
  8
HIDDEN
100
AcDbEllipse
 10
212.0084081865612
 20
95.05851226368847
 30
0.0
 11
1.749999999999971
 21
-3.031088913245441
 31
0.0
210
0.0
220
0.0
230
1.0
 40
0.577350269189635
 41
-0.785398163397448
 42
0.7853981633974448
  0
ELLIPSE
  5
1FC
330
1F
100
AcDbEntity
  8
HIDDEN
100
AcDbEllipse
 10
212.0084081865612
 20
95.05851226368858
 30
0.0
 11
1.75
 21
-3.03108891324554
 31
0.0
210
0.0
220
0.0
230
1.0
 40
0.5773502691896344
 41
-2.356194490192365
 42
-0.7853981633974401
  0
ELLIPSE
  5
1FD
330
1F
100
AcDbEntity
  8
HIDDEN
100
AcDbEllipse
 10
212.0084081865612
 20
95.0585122636885
 30
0.0
 11
-1.749999999999943
 21
3.031088913245598
 31
0.0
210
0.0
220
0.0
230
1.0
 40
0.577350269189632
 41
3.92699081698727
 42
7.068583470577018
  0
LINE
  5
1FE
330
1F
100
AcDbEntity
  8
HIDDEN
100
AcDbLine
 10
216.5692469252144
 20
84.7910677585224
 30
0.0
 11
222.2261011747068
 21
88.05705408223331
 31
0.0
  0
LINE
  5
1FF
330
1F
100
AcDbEntity
  8
HIDDEN
100
AcDbLine
 10
220.4441911947949
 20
77.40614492543831
 30
0.0
 11
220.4512627082669
 21
71.37875796002817
 31
0.0
  0
LINE
  5
200
330
1F
100
AcDbEntity
  8
HIDDEN
100
AcDbLine
 10
215.6308430277339
 20
86.3289813300732
 30
0.0
 11
220.4603862165374
 21
89.11731939019182
 31
0.0
  0
ELLIPSE
  5
201
330
1F
100
AcDbEntity
  8
HIDDEN
100
AcDbEllipse
 10
224.2060002694211
 20
61.27596616336151
 30
0.0
 11
-1.624999885361945
 21
2.814582495214417
 31
0.0
210
0.0
220
0.0
230
1.0
 40
0.5773502697204095
 41
3.889233070438662
 42
3.926990840802759
  0
ELLIPSE
  5
202
330
1F
100
AcDbEntity
  8
HIDDEN
100
AcDbEllipse
 10
224.2060001592772
 20
61.27596639624666
 30
0.0
 11
-1.624999998993531
 21
2.814582383639191
 31
0.0
210
0.0
220
0.0
230
1.0
 40
0.5773502698810229
 41
-0.7853981954247753
 42
-0.7476404247558595
  0
ELLIPSE
  5
203
330
1F
100
AcDbEntity
  8
HIDDEN
100
AcDbEllipse
 10
224.2060001620291
 20
61.27596622780391
 30
0.0
 11
-1.625
 21
2.814582562299421
 31
0.0
210
0.0
220
0.0
230
1.0
 40
0.5773502691896176
 41
3.926990816987244
 42
5.49778714378213
  0
LINE
  5
204
330
1F
100
AcDbEntity
  8
HIDDEN
100
AcDbLine
 10
221.2007963419863
 20
89.64513993213771
 30
0.0
 11
221.2334937309402
 21
94.6358428087762
 31
0.0
  0
LINE
  5
205
330
1F
100
AcDbEntity
  8
HIDDEN
100
AcDbLine
 10
215.5713795514694
 20
64.01580116410956
 30
0.0
 11
221.2282338009618
 21
67.28178748782047
 31
0.0
  0
ELLIPSE
  5
206
330
1F
100
AcDbEntity
  8
HIDDEN
100
AcDbEllipse
 10
220.847242951393
 20
96.89562957077527
 30
0.0
 11
1.270883988231987
 21
-1.782055140739659
 31
0.0
210
0.0
220
0.0
230
1.0
 40
0.5696686539353291
 41
-1.147079757883956
 42
-0.6553522531661057
  0
LINE
  5
207
330
1F
100
AcDbEntity
  8
HIDDEN
100
AcDbLine
 10
215.5750118306508
 20
64.89775893970217
 30
0.0
 11
220.4662521018241
 21
67.7217178269352
 31
0.0
  0
LINE
  5
208
330
1F
100
AcDbEntity
  8
HIDDEN
100
AcDbLine
 10
220.4453912408426
 20
95.09311653271571
 30
0.0
 11
214.7885369913502
 21
91.8271302090048
 31
0.0
  0
LINE
  5
209
330
1F
100
AcDbEntity
  8
HIDDEN
100
AcDbLine
 10
215.5766394814478
 20
91.36985648506531
 30
0.0
 11
221.2334937309401
 21
94.6358428087762
 31
0.0
  0
LINE
  5
20A
330
1F
100
AcDbEntity
  8
HIDDEN
100
AcDbLine
 10
215.593439567176
 20
73.63393439442153
 30
0.0
 11
221.2502938166684
 21
76.89992071813244
 31
0.0
  0
ELLIPSE
  5
20B
330
1F
100
AcDbEntity
  8
HIDDEN
100
AcDbEllipse
 10
211.8316314912645
 20
74.54403566787944
 30
0.0
 11
-1.625
 21
2.814582562299435
 31
0.0
210
0.0
220
0.0
230
1.0
 40
0.5773502691896241
 41
3.926990816987252
 42
6.283185307179586
  0
ELLIPSE
  5
20C
330
1F
100
AcDbEntity
  8
HIDDEN
100
AcDbEllipse
 10
211.8316314912648
 20
74.54403566787919
 30
0.0
 11
1.625000000000142
 21
-2.81458256229979
 31
0.0
210
0.0
220
0.0
230
1.0
 40
0.577350269189611
 41
-3.141592653589684
 42
-2.356194490192342
  0
ELLIPSE
  5
20D
330
1F
100
AcDbEntity
  8
HIDDEN
100
AcDbEllipse
 10
211.8316314912645
 20
74.54403566787946
 30
0.0
 11
1.625000000000057
 21
-2.814582562299421
 31
0.0
210
0.0
220
0.0
230
1.0
 40
0.5773502691896353
 41
-2.356194490192362
 42
-0.7853981633974578
  0
ELLIPSE
  5
20E
330
1F
100
AcDbEntity
  8
HIDDEN
100
AcDbEllipse
 10
211.8316314912645
 20
74.54403566787957
 30
0.0
 11
1.625
 21
-2.814582562299563
 31
0.0
210
0.0
220
0.0
230
1.0
 40
0.5773502691896173
 41
-0.7853981633974314
 42
0.0
  0
ELLIPSE
  5
20F
330
1F
100
AcDbEntity
  8
HIDDEN
100
AcDbEllipse
 10
211.8316314912639
 20
74.54403566788018
 30
0.0
 11
-1.625000000000483
 21
2.814582562300274
 31
0.0
210
0.0
220
0.0
230
1.0
 40
0.5773502691895519
 41
3.141592653589914
 42
3.926990816987178
  0
LINE
  5
210
330
1F
100
AcDbEntity
  8
HIDDEN
100
AcDbLine
 10
215.6072944138426
 20
59.25432288645957
 30
0.0
 11
220.4229788826811
 21
62.03465961087578
 31
0.0
  0
LINE
  5
211
330
1F
100
AcDbEntity
  8
HIDDEN
100
AcDbLine
 10
215.5863684993649
 20
67.65528438780838
 30
0.0
 11
221.2432227488572
 21
70.92127071151928
 31
0.0
  0
LINE
  5
212
330
1F
100
AcDbEntity
  8
HIDDEN
100
AcDbLine
 10
221.2502938166684
 20
76.89992071813242
 30
0.0
 11
221.2355765887161
 21
88.62893371859393
 31
0.0
  0
LINE
  5
213
330
1F
100
AcDbEntity
  8
HIDDEN
100
AcDbLine
 10
221.2355765887161
 20
88.628933718594
 30
0.0
 11
222.2261011747068
 21
88.05705408223335
 31
0.0
  0
LINE
  5
214
330
1F
100
AcDbEntity
  8
HIDDEN
100
AcDbLine
 10
221.2282338009618
 20
67.28178748782047
 30
0.0
 11
221.2432227488572
 21
70.92127071151928
 31
0.0
  0
LINE
  5
215
330
1F
100
AcDbEntity
  8
HIDDEN
100
AcDbLine
 10
215.5439420924939
 20
86.3791536084268
 30
0.0
 11
221.2007963419863
 21
89.64513993213771
 31
0.0
  0
ELLIPSE
  5
216
330
1F
100
AcDbEntity
  8
HIDDEN
100
AcDbEllipse
 10
206.5283307339166
 20
91.89458795158382
 30
0.0
 11
-1.624999891575357
 21
2.814582498824521
 31
0.0
210
0.0
220
0.0
230
1.0
 40
0.5773502697072662
 41
3.889233069204782
 42
3.9269908395209
  0
ELLIPSE
  5
217
330
1F
100
AcDbEntity
  8
HIDDEN
100
AcDbEllipse
 10
206.5283306326839
 20
91.89458800161694
 30
0.0
 11
-1.62500000005312
 21
2.814582573942985
 31
0.0
210
0.0
220
0.0
230
1.0
 40
0.577350269108953
 41
-0.7853981614152229
 42
-0.747640391870934
  0
ELLIPSE
  5
218
330
1F
100
AcDbEntity
  8
HIDDEN
100
AcDbEllipse
 10
206.5283306323654
 20
91.8945880125936
 30
0.0
 11
-1.625000000000028
 21
2.814582562299393
 31
0.0
210
0.0
220
0.0
230
1.0
 40
0.5773502691896423
 41
3.926990816987243
 42
5.497787143782138
  0
ELLIPSE
  5
219
330
1F
100
AcDbEntity
  8
HIDDEN
100
AcDbEllipse
 10
224.2060002395447
 20
81.68838070438821
 30
0.0
 11
-1.624999917226432
 21
2.814582513826423
 31
0.0
210
0.0
220
0.0
230
1.0
 40
0.5773502695932669
 41
3.889233064075899
 42
3.926990834194548
  0
ELLIPSE
  5
21A
330
1F
100
AcDbEntity
  8
HIDDEN
100
AcDbEllipse
 10
224.206000160141
 20
81.68838086099854
 30
0.0
 11
-1.62499999932507
 21
2.81458244562387
 31
0.0
210
0.0
220
0.0
230
1.0
 40
0.5773502696639597
 41
-0.7853981843275638
 42
-0.7476404140711171
  0
ELLIPSE
  5
21B
330
1F
100
AcDbEntity
  8
HIDDEN
100
AcDbEllipse
 10
224.2060001620291
 20
81.68838075099701
 30
0.0
 11
-1.625
 21
2.814582562299378
 31
0.0
210
0.0
220
0.0
230
1.0
 40
0.577350269189635
 41
3.926990816987243
 42
5.497787143782137
  0
LINE
  5
21C
330
1F
100
AcDbEntity
  8
HIDDEN
100
AcDbLine
 10
220.4229788826811
 20
62.03465961087579
 30
0.0
 11
221.2715070201049
 21
61.54476166231915
 31
0.0
  0
ELLIPSE
  5
21D
330
1F
100
AcDbEntity
  8
HIDDEN
100
AcDbEllipse
 10
220.840171883589
 20
96.9429152380242
 30
0.0
 11
0.4375000000056843
 21
-0.7577722283289745
 31
0.0
210
0.0
220
0.0
230
1.0
 40
0.5773502691835798
 41
-3.589173492963221
 42
-3.141592653587281
  0
ELLIPSE
  5
21E
330
1F
100
AcDbEntity
  8
HIDDEN
100
AcDbEllipse
 10
220.840171883582
 20
96.94291523804151
 30
0.0
 11
0.4374999999998578
 21
-0.7577722283109551
 31
0.0
210
0.0
220
0.0
230
1.0
 40
0.5773502691896543
 41
-3.141592653589933
 42
0.0
  0
ELLIPSE
  5
21F
330
1F
100
AcDbEntity
  8
HIDDEN
100
AcDbEllipse
 10
220.840171883582
 20
96.94291523804142
 30
0.0
 11
-0.4374999999997726
 21
0.757772228311012
 31
0.0
210
0.0
220
0.0
230
1.0
 40
0.5773502691896456
 41
3.141592653589841
 42
5.135637016975
  0
LINE
  5
220
330
1F
100
AcDbEntity
  8
HIDDEN
100
AcDbLine
 10
216.4413926122713
 20
85.86101030924901
 30
0.0
 11
221.2355765887161
 21
88.628933718594
 31
0.0
  0
ELLIPSE
  5
221
330
1F
100
AcDbEntity
  8
HIDDEN
100
AcDbEllipse
 10
220.847242951393
 20
79.74920137129365
 30
0.0
 11
12.49999999999997
 21
-21.65063509461098
 31
0.0
210
0.0
220
0.0
230
1.0
 40
0.5773502691896266
 41
-3.141592653589788
 42
0.0
  0
LINE
  5
222
330
1F
100
AcDbEntity
  8
HIDDEN
100
AcDbLine
 10
215.6146527706126
 20
58.27877533860825
 30
0.0
 11
221.2715070201049
 21
61.54476166231915
 31
0.0
  0
ELLIPSE
  5
223
330
1F
100
AcDbEntity
  8
HIDDEN
100
AcDbEllipse
 10
212.0084081865612
 20
74.64609774049538
 30
0.0
 11
1.749999999999972
 21
-3.031088913245497
 31
0.0
210
0.0
220
0.0
230
1.0
 40
0.5773502691896318
 41
-0.7853981633974413
 42
0.7853981633974526
  0
ELLIPSE
  5
224
330
1F
100
AcDbEntity
  8
HIDDEN
100
AcDbEllipse
 10
212.0084081865612
 20
74.64609774049539
 30
0.0
 11
1.750000000000057
 21
-3.031088913245512
 31
0.0
210
0.0
220
0.0
230
1.0
 40
0.5773502691896308
 41
-2.356194490192375
 42
-0.7853981633974638
  0
ELLIPSE
  5
225
330
1F
100
AcDbEntity
  8
HIDDEN
100
AcDbEllipse
 10
212.0084081865612
 20
74.64609774049536
 30
0.0
 11
-1.749999999999972
 21
3.031088913245512
 31
0.0
210
0.0
220
0.0
230
1.0
 40
0.5773502691896297
 41
3.926990816987265
 42
7.068583470577019
  0
LINE
  5
226
330
1F
100
AcDbEntity
  8
HIDDEN
100
AcDbLine
 10
221.059374985749
 20
97.48445257271871
 30
0.0
 11
221.059374985749
 21
98.43653956742517
 31
0.0
  0
LINE
  5
227
330
1F
100
AcDbEntity
  8
HIDDEN
100
AcDbLine
 10
222.2261011747068
 20
89.0531799109651
 30
0.0
 11
221.2007963419863
 21
89.6451399321377
 31
0.0
  0
LINE
  5
228
330
1F
100
AcDbEntity
  8
HIDDEN
100
AcDbLine
 10
216.0302457531996
 20
94.58088345651691
 30
0.0
 11
221.0593749857489
 21
97.48445257271871
 31
0.0
  0
ELLIPSE
  5
229
330
1F
100
AcDbEntity
  8
HIDDEN
100
AcDbEllipse
 10
229.6860777162249
 20
84.85230500209198
 30
0.0
 11
1.75
 21
-3.031088913245554
 31
0.0
210
0.0
220
0.0
230
1.0
 40
0.5773502691896415
 41
-0.785398163397432
 42
0.7853981633974555
  0
ELLIPSE
  5
22A
330
1F
100
AcDbEntity
  8
HIDDEN
100
AcDbEllipse
 10
229.6860777162249
 20
84.85230500209191
 30
0.0
 11
1.750000000000028
 21
-3.031088913245539
 31
0.0
210
0.0
220
0.0
230
1.0
 40
0.577350269189607
 41
-2.356194490192363
 42
-0.7853981633974723
  0
ELLIPSE
  5
22B
330
1F
100
AcDbEntity
  8
HIDDEN
100
AcDbEllipse
 10
229.6860777162249
 20
84.85230500209201
 30
0.0
 11
-1.750000000000085
 21
3.031088913245469
 31
0.0
210
0.0
220
0.0
230
1.0
 40
0.5773502691896386
 41
3.926990816987203
 42
7.068583470576995
  0
ELLIPSE
  5
22C
330
1F
100
AcDbEntity
  8
HIDDEN
100
AcDbEllipse
 10
229.5093010209282
 20
84.75024292947603
 30
0.0
 11
-1.625
 21
2.814582562299378
 31
0.0
210
0.0
220
0.0
230
1.0
 40
0.5773502691896253
 41
3.92699081698724
 42
6.283185307179586
  0
ELLIPSE
  5
22D
330
1F
100
AcDbEntity
  8
HIDDEN
100
AcDbEllipse
 10
229.5093010209283
 20
84.75024292947612
 30
0.0
 11
1.624999999999915
 21
-2.81458256229935
 31
0.0
210
0.0
220
0.0
230
1.0
 40
0.5773502691896502
 41
-3.141592653589725
 42
-2.356194490192324
  0
ELLIPSE
  5
22E
330
1F
100
AcDbEntity
  8
HIDDEN
100
AcDbEllipse
 10
229.5093010209282
 20
84.75024292947599
 30
0.0
 11
1.625
 21
-2.814582562299421
 31
0.0
210
0.0
220
0.0
230
1.0
 40
0.5773502691896067
 41
-2.356194490192361
 42
-0.785398163397466
  0
ELLIPSE
  5
22F
330
1F
100
AcDbEntity
  8
HIDDEN
100
AcDbEllipse
 10
229.5093010209286
 20
84.75024292947461
 30
0.0
 11
1.62499999999983
 21
-2.814582562297901
 31
0.0
210
0.0
220
0.0
230
1.0
 40
0.5773502691897272
 41
-0.7853981633975792
 42
0.0
  0
ELLIPSE
  5
230
330
1F
100
AcDbEntity
  8
HIDDEN
100
AcDbEllipse
 10
229.5093010209284
 20
84.75024292947592
 30
0.0
 11
-1.624999999999801
 21
2.814582562299279
 31
0.0
210
0.0
220
0.0
230
1.0
 40
0.5773502691896255
 41
3.141592653589773
 42
3.926990816987284
  0
LINE
  5
231
330
1F
100
AcDbEntity
  8
HIDDEN
100
AcDbLine
 10
220.4512627082669
 20
71.37875796002817
 30
0.0
 11
220.4662521018241
 21
67.72171782693522
 31
0.0
  0
LINE
  5
232
330
1F
100
AcDbEntity
  8
HIDDEN
100
AcDbLine
 10
221.2432227488572
 20
70.92127071151927
 30
0.0
 11
221.2502938166684
 21
76.89992071813242
 31
0.0
  0
ELLIPSE
  5
233
330
1F
100
AcDbEntity
  8
HIDDEN
100
AcDbEllipse
 10
211.8316314912645
 20
94.95645019107256
 30
0.0
 11
-1.625
 21
2.814582562299435
 31
0.0
210
0.0
220
0.0
230
1.0
 40
0.5773502691896241
 41
3.926990816987247
 42
6.283185307179586
  0
ELLIPSE
  5
234
330
1F
100
AcDbEntity
  8
HIDDEN
100
AcDbEllipse
 10
211.8316314912639
 20
94.95645019107283
 30
0.0
 11
1.624999999999858
 21
-2.814582562298909
 31
0.0
210
0.0
220
0.0
230
1.0
 40
0.5773502691896092
 41
-3.141592653590076
 42
-2.356194490192399
  0
ELLIPSE
  5
235
330
1F
100
AcDbEntity
  8
HIDDEN
100
AcDbEllipse
 10
211.8316314912645
 20
94.9564501910726
 30
0.0
 11
1.625000000000057
 21
-2.814582562299364
 31
0.0
210
0.0
220
0.0
230
1.0
 40
0.5773502691896386
 41
-2.356194490192354
 42
-0.7853981633974652
  0
ELLIPSE
  5
236
330
1F
100
AcDbEntity
  8
HIDDEN
100
AcDbEllipse
 10
211.8316314912645
 20
94.95645019107334
 30
0.0
 11
1.62499999999983
 21
-2.814582562300289
 31
0.0
210
0.0
220
0.0
230
1.0
 40
0.5773502691895706
 41
-0.7853981633972903
 42
0.0
  0
ELLIPSE
  5
237
330
1F
100
AcDbEntity
  8
HIDDEN
100
AcDbEllipse
 10
211.8316314912647
 20
94.95645019107228
 30
0.0
 11
-1.624999999999773
 21
2.814582562299094
 31
0.0
210
0.0
220
0.0
230
1.0
 40
0.5773502691896728
 41
3.141592653589826
 42
3.926990816987278
  0
LINE
  5
238
330
1F
100
AcDbEntity
  8
HIDDEN
100
AcDbLine
 10
220.6351109170374
 20
98.68185610806611
 30
0.0
 11
220.6351109170374
 21
97.73536213618308
 31
0.0
  0
LINE
  5
239
330
1F
100
AcDbEntity
  8
HIDDEN
100
AcDbLine
 10
220.4603862165374
 20
89.11731939019181
 30
0.0
 11
220.4441911947949
 21
77.40614492543834
 31
0.0
  0
LINE
  5
23A
330
1F
100
AcDbEntity
  8
HIDDEN
100
AcDbLine
 10
220.6351109170374
 20
98.68185610806611
 30
0.0
 11
214.978256667545
 21
95.41586978435521
 31
0.0
  0
ELLIPSE
  5
23B
330
1F
100
AcDbEntity
  8
HIDDEN
100
AcDbEllipse
 10
220.847242428928
 20
96.89562987241877
 30
0.0
 11
-1.270559089525619
 21
1.78206348554896
 31
0.0
210
0.0
220
0.0
230
1.0
 40
0.5696880562564831
 41
-0.7658371525390171
 42
-0.0546773113917475
  0
ELLIPSE
  5
23C
330
1F
100
AcDbEntity
  8
HIDDEN
100
AcDbEllipse
 10
220.8472424289267
 20
96.89562987242202
 30
0.0
 11
1.27055908952471
 21
-1.782063485545478
 31
0.0
210
0.0
220
0.0
230
1.0
 40
0.5696880562568607
 41
-3.196269964981896
 42
-1.146971891974032
  0
LINE
  5
23D
330
1F
100
AcDbEntity
  8
HIDDEN
100
AcDbLine
 10
214.9782566675447
 20
94.46937581247221
 30
0.0
 11
220.6351109170371
 21
97.73536213618311
 31
0.0
  0
LINE
  5
23E
330
1F
100
AcDbEntity
  8
HIDDEN
100
AcDbLine
 10
216.5692469252144
 20
85.78719358725421
 30
0.0
 11
222.2261011747068
 21
89.05317991096511
 31
0.0
  0
ELLIPSE
  5
23F
330
1F
100
AcDbEntity
  8
HIDDEN
100
AcDbEllipse
 10
229.6860777162248
 20
64.43989047889882
 30
0.0
 11
1.750000000000085
 21
-3.031088913245497
 31
0.0
210
0.0
220
0.0
230
1.0
 40
0.5773502691896324
 41
-0.7853981633974726
 42
0.7853981633974266
  0
ELLIPSE
  5
240
330
1F
100
AcDbEntity
  8
HIDDEN
100
AcDbEllipse
 10
229.6860777162249
 20
64.43989047889885
 30
0.0
 11
1.75
 21
-3.03108891324554
 31
0.0
210
0.0
220
0.0
230
1.0
 40
0.5773502691896254
 41
-2.356194490192331
 42
-0.7853981633974478
  0
ELLIPSE
  5
241
330
1F
100
AcDbEntity
  8
HIDDEN
100
AcDbEllipse
 10
229.6860777162248
 20
64.43989047889883
 30
0.0
 11
-1.750000000000057
 21
3.031088913245526
 31
0.0
210
0.0
220
0.0
230
1.0
 40
0.5773502691896277
 41
3.926990816987233
 42
7.068583470577018
  0
LINE
  5
242
330
1F
100
AcDbEntity
  8
HIDDEN
100
AcDbLine
 10
220.4453912408426
 20
95.09311653271571
 30
0.0
 11
221.2334937309401
 21
94.6358428087762
 31
0.0
  0
LINE
  5
243
330
1F
100
AcDbEntity
  8
HIDDEN
100
AcDbLine
 10
213.9772097149153
 20
95.44860080441
 30
0.0
 11
219.6340639644077
 21
98.71458712812091
 31
0.0
  0
LINE
  5
244
330
1F
100
AcDbEntity
  8
HIDDEN
100
AcDbLine
 10
211.8316314912645
 20
71.89042177986434
 30
0.0
 11
212.0084081865612
 21
71.78835970724838
 31
0.0
  0
LINE
  5
245
330
1F
100
AcDbEntity
  8
HIDDEN
100
AcDbLine
 10
227.8843010209282
 20
67.15241096858229
 30
0.0
 11
222.5810001620291
 21
64.09054879010331
 31
0.0
  0
LINE
  5
246
330
1F
100
AcDbEntity
  8
HIDDEN
100
AcDbLine
 10
213.4566314912645
 20
71.72945310558002
 30
0.0
 11
208.1533306323654
 21
68.66759092710105
 31
0.0
  0
LINE
  5
247
330
1F
100
AcDbEntity
  8
HIDDEN
100
AcDbLine
 10
227.8843010209282
 20
87.56482549177541
 30
0.0
 11
222.5810001620291
 21
84.50296331329645
 31
0.0
  0
LINE
  5
248
330
1F
100
AcDbEntity
  8
HIDDEN
100
AcDbLine
 10
209.9728742806284
 20
84.295470243058
 30
0.0
 11
204.316020031136
 21
81.02948391934711
 31
0.0
  0
LINE
  5
249
330
1F
100
AcDbEntity
  8
HIDDEN
100
AcDbLine
 10
231.1343010209282
 20
81.93566036717661
 30
0.0
 11
225.8310001620291
 21
78.87379818869763
 31
0.0
  0
LINE
  5
24A
330
1F
100
AcDbEntity
  8
HIDDEN
100
AcDbLine
 10
226.5040972008854
 20
80.36157380698951
 30
0.0
 11
226.5040972008854
 21
80.15744966175758
 31
0.0
  0
LINE
  5
24B
330
1F
100
AcDbEntity
  8
HIDDEN
100
AcDbLine
 10
214.9782566675447
 20
94.5688998811769
 30
0.0
 11
220.4026718835822
 21
97.70068746635243
 31
0.0
  0
LINE
  5
24C
330
1F
100
AcDbEntity
  8
HIDDEN
100
AcDbLine
 10
206.9728742806284
 20
89.49162266576461
 30
0.0
 11
201.316020031136
 21
86.2256363420537
 31
0.0
  0
LINE
  5
24D
330
1F
100
AcDbEntity
  8
HIDDEN
100
AcDbLine
 10
229.5093010209282
 20
61.68421451826776
 30
0.0
 11
229.6860777162249
 21
61.58215244565179
 31
0.0
  0
LINE
  5
24E
330
1F
100
AcDbEntity
  8
HIDDEN
100
AcDbLine
 10
209.5335344524082
 20
75.87084261188701
 30
0.0
 11
209.5335344524082
 21
76.07496675711894
 31
0.0
  0
LINE
  5
24F
330
1F
100
AcDbEntity
  8
HIDDEN
100
AcDbLine
 10
209.5335344524083
 20
96.2832571350801
 30
0.0
 11
209.5335344524083
 21
96.48738128031204
 31
0.0
  0
LINE
  5
250
330
1F
100
AcDbEntity
  8
HIDDEN
100
AcDbLine
 10
213.4566314912645
 20
92.14186762877321
 30
0.0
 11
208.1533306323655
 21
89.08000545029424
 31
0.0
  0
LINE
  5
251
330
1F
100
AcDbEntity
  8
HIDDEN
100
AcDbLine
 10
216.6537814939311
 20
93.51553864856221
 30
0.0
 11
221.2776718835818
 21
96.1851430097304
 31
0.0
  0
LINE
  5
252
330
1F
100
AcDbEntity
  8
HIDDEN
100
AcDbLine
 10
227.2112039820719
 20
65.66463535029041
 30
0.0
 11
227.2112039820719
 21
65.86875949552234
 31
0.0
  0
LINE
  5
253
330
1F
100
AcDbEntity
  8
HIDDEN
100
AcDbLine
 10
211.8316314912645
 20
92.3028363030575
 30
0.0
 11
212.0084081865612
 21
92.20077423044154
 31
0.0
  0
LINE
  5
254
330
1F
100
AcDbEntity
  8
HIDDEN
100
AcDbLine
 10
231.1343010209282
 20
61.52324584398344
 30
0.0
 11
225.8310001620291
 21
58.46138366550447
 31
0.0
  0
LINE
  5
255
330
1F
100
AcDbEntity
  8
HIDDEN
100
AcDbLine
 10
231.7216116221576
 20
75.20293249952941
 30
0.0
 11
226.0647573726652
 21
71.9369461758185
 31
0.0
  0
LINE
  5
256
330
1F
100
AcDbEntity
  8
HIDDEN
100
AcDbLine
 10
216.4035666439534
 20
91.81068629301221
 30
0.0
 11
222.0604208934458
 21
95.0766726167231
 31
0.0
  0
LINE
  5
257
330
1F
100
AcDbEntity
  8
HIDDEN
100
AcDbLine
 10
206.5283306323654
 20
94.54820190060872
 30
0.0
 11
206.3515539370688
 21
94.65026397322467
 31
0.0
  0
LINE
  5
258
330
1F
100
AcDbEntity
  8
HIDDEN
100
AcDbLine
 10
206.5283306323654
 20
74.13578737741558
 30
0.0
 11
206.3515539370688
 21
74.23784945003155
 31
0.0
  0
LINE
  5
259
330
1F
100
AcDbEntity
  8
HIDDEN
100
AcDbLine
 10
210.2066314912645
 20
97.77103275337201
 30
0.0
 11
204.9033306323654
 21
94.70917057489305
 31
0.0
  0
LINE
  5
25A
330
1F
100
AcDbEntity
  8
HIDDEN
100
AcDbLine
 10
234.7216116221576
 20
70.00678007682278
 30
0.0
 11
229.0647573726652
 21
66.74079375311187
 31
0.0
  0
LINE
  5
25B
330
1F
100
AcDbEntity
  8
HIDDEN
100
AcDbLine
 10
210.2066314912645
 20
77.35861823017886
 30
0.0
 11
204.9033306323654
 21
74.2967560516999
 31
0.0
  0
LINE
  5
25C
330
1F
100
AcDbEntity
  8
HIDDEN
100
AcDbLine
 10
224.2060001620291
 20
84.34199463901211
 30
0.0
 11
224.0292234667325
 21
84.44405671162808
 31
0.0
  0
LINE
  5
25D
330
1F
100
AcDbEntity
  8
HIDDEN
100
AcDbLine
 10
229.5093010209282
 20
82.09662904146091
 30
0.0
 11
229.6860777162249
 21
81.99456696884494
 31
0.0
  0
LINE
  5
25E
330
1F
100
AcDbEntity
  8
HIDDEN
100
AcDbLine
 10
226.5040972008854
 20
59.94915928379633
 30
0.0
 11
226.5040972008854
 21
59.7450351385644
 31
0.0
  0
LINE
  5
25F
330
1F
100
AcDbEntity
  8
HIDDEN
100
AcDbLine
 10
208.8264276712217
 20
90.5677810685861
 30
0.0
 11
208.8264276712217
 21
90.36365692335417
 31
0.0
  0
LINE
  5
260
330
1F
100
AcDbEntity
  8
HIDDEN
100
AcDbLine
 10
227.211203982072
 20
86.0770498734836
 30
0.0
 11
227.211203982072
 21
86.28117401871553
 31
0.0
  0
LINE
  5
261
330
1F
100
AcDbEntity
  8
HIDDEN
100
AcDbLine
 10
208.8264276712217
 20
70.15536654539292
 30
0.0
 11
208.8264276712217
 21
69.95124240016098
 31
0.0
  0
LINE
  5
262
330
1F
100
AcDbEntity
  8
HIDDEN
100
AcDbLine
 10
224.2060001620291
 20
63.92958011581901
 30
0.0
 11
224.0292234667325
 21
64.03164218843497
 31
0.0
  0
LINE
  5
264
330
1F
100
AcDbEntity
  8
TANGENT EDGES
100
AcDbLine
 10
214.7875085358981
 20
92.236990236587
 30
0.0
 11
216.7104831775999
 21
93.34722016361835
 31
0.0
  0
LINE
  5
265
330
1F
100
AcDbEntity
  8
TANGENT EDGES
100
AcDbLine
 10
215.5792974315532
 20
91.7755475711683
 30
0.0
 11
216.8033575016399
 21
92.48225898213711
 31
0.0
  0
LINE
  5
266
330
1F
100
AcDbEntity
  8
HIDDEN
100
AcDbLine
 10
216.7104831775999
 20
93.3472201636183
 30
0.0
 11
220.4443627853905
 21
95.50297656029787
 31
0.0
  0
LINE
  5
267
330
1F
100
AcDbEntity
  8
HIDDEN
100
AcDbLine
 10
216.8033575016399
 20
92.48225898213711
 30
0.0
 11
221.2361516810456
 21
95.0415338948792
 31
0.0
  0
LINE
  5
268
330
1F
100
AcDbEntity
  8
CENTER
100
AcDbLine
 10
211.4870071370206
 20
94.75748122738061
 30
0.0
 11
212.3530325408051
 21
95.25748122738061
 31
0.0
  0
LINE
  5
269
330
1F
100
AcDbEntity
  8
CENTER
100
AcDbLine
 10
211.0539944351284
 20
94.50748122738061
 30
0.0
 11
206.607127100096
 21
91.94008117444912
 31
0.0
  0
LINE
  5
26A
330
1F
100
AcDbEntity
  8
CENTER
100
AcDbLine
 10
212.7860452426973
 20
95.50748122738061
 30
0.0
 11
217.2329125777297
 21
98.0748812803121
 31
0.0
  0
LINE
  5
26B
330
1F
100
AcDbEntity
  8
CENTER
100
AcDbLine
 10
206.0069295828249
 20
71.1811424530925
 30
0.0
 11
206.8729549866094
 21
71.6811424530925
 31
0.0
  0
LINE
  5
26C
330
1F
100
AcDbEntity
  8
CENTER
100
AcDbLine
 10
205.5739168809327
 20
70.9311424530925
 30
0.0
 11
201.1270495459003
 21
68.363742400161
 31
0.0
  0
LINE
  5
26D
330
1F
100
AcDbEntity
  8
CENTER
100
AcDbLine
 10
207.3059676885016
 20
71.9311424530925
 30
0.0
 11
211.752835023534
 21
74.498542506024
 31
0.0
  0
LINE
  5
26E
330
1F
100
AcDbEntity
  8
CENTER
100
AcDbLine
 10
211.4870071370206
 20
74.34506670418743
 30
0.0
 11
212.3530325408051
 21
74.84506670418743
 31
0.0
  0
LINE
  5
26F
330
1F
100
AcDbEntity
  8
CENTER
100
AcDbLine
 10
211.0539944351284
 20
74.09506670418743
 30
0.0
 11
206.607127100096
 21
71.52766665125593
 31
0.0
  0
LINE
  5
270
330
1F
100
AcDbEntity
  8
CENTER
100
AcDbLine
 10
212.7860452426973
 20
75.09506670418743
 30
0.0
 11
217.2329125777297
 21
77.66246675711893
 31
0.0
  0
LINE
  5
271
330
1F
100
AcDbEntity
  8
CENTER
100
AcDbLine
 10
229.1646766666843
 20
84.551273965784
 30
0.0
 11
230.0307020704688
 21
85.051273965784
 31
0.0
  0
LINE
  5
272
330
1F
100
AcDbEntity
  8
CENTER
100
AcDbLine
 10
228.7316639647921
 20
84.301273965784
 30
0.0
 11
224.2847966297597
 21
81.73387391285252
 31
0.0
  0
LINE
  5
273
330
1F
100
AcDbEntity
  8
CENTER
100
AcDbLine
 10
230.463714772361
 20
85.301273965784
 30
0.0
 11
234.9105821073934
 21
87.8686740187155
 31
0.0
  0
LINE
  5
274
330
1F
100
AcDbEntity
  8
CENTER
100
AcDbLine
 10
223.6845991124886
 20
60.97493519149592
 30
0.0
 11
224.550624516273
 21
61.47493519149592
 31
0.0
  0
LINE
  5
275
330
1F
100
AcDbEntity
  8
CENTER
100
AcDbLine
 10
223.2515864105964
 20
60.72493519149592
 30
0.0
 11
218.804719075564
 21
58.15753513856442
 31
0.0
  0
LINE
  5
276
330
1F
100
AcDbEntity
  8
CENTER
100
AcDbLine
 10
224.9836372181652
 20
61.72493519149592
 30
0.0
 11
229.4305045531976
 21
64.29233524442742
 31
0.0
  0
LINE
  5
277
330
1F
100
AcDbEntity
  8
CENTER
100
AcDbLine
 10
217.5858031247546
 20
77.86620820943826
 30
0.0
 11
218.451828528539
 21
78.36620820943826
 31
0.0
  0
LINE
  5
278
330
1F
100
AcDbEntity
  8
CENTER
100
AcDbLine
 10
217.1527904228624
 20
77.61620820943826
 30
0.0
 11
212.8226634039402
 21
75.11620820943826
 31
0.0
  0
LINE
  5
279
330
1F
100
AcDbEntity
  8
CENTER
100
AcDbLine
 10
218.8848412304312
 20
78.61620820943826
 30
0.0
 11
223.2149682493534
 21
81.11620820943826
 31
0.0
  0
LINE
  5
27A
330
1F
100
AcDbEntity
  8
CENTER
100
AcDbLine
 10
212.3896507020479
 20
74.86620820943826
 30
0.0
 11
211.5236252982635
 21
74.36620820943826
 31
0.0
  0
LINE
  5
27B
330
1F
100
AcDbEntity
  8
CENTER
100
AcDbLine
 10
223.6479809512456
 20
81.36620820943824
 30
0.0
 11
224.5140063550301
 21
81.86620820943824
 31
0.0
  0
LINE
  5
27C
330
1F
100
AcDbEntity
  8
CENTER
100
AcDbLine
 10
211.0906125963713
 20
74.11620820943826
 30
0.0
 11
206.7604855774491
 21
71.61620820943826
 31
0.0
  0
LINE
  5
27D
330
1F
100
AcDbEntity
  8
CENTER
100
AcDbLine
 10
224.9470190569223
 20
82.11620820943824
 30
0.0
 11
229.2771460758445
 21
84.61620820943824
 31
0.0
  0
LINE
  5
27E
330
1F
100
AcDbEntity
  8
CENTER
100
AcDbLine
 10
206.3274728755569
 20
71.36620820943826
 30
0.0
 11
205.4614474717724
 21
70.86620820943826
 31
0.0
  0
LINE
  5
27F
330
1F
100
AcDbEntity
  8
CENTER
100
AcDbLine
 10
229.7101587777367
 20
84.86620820943824
 30
0.0
 11
230.5761841815211
 21
85.36620820943824
 31
0.0
  0
LINE
  5
280
330
1F
100
AcDbEntity
  8
CENTER
100
AcDbLine
 10
205.0284347698802
 20
70.61620820943826
 30
0.0
 11
200.698307750958
 21
68.11620820943826
 31
0.0
  0
LINE
  5
281
330
1F
100
AcDbEntity
  8
CENTER
100
AcDbLine
 10
231.0091968834134
 20
85.61620820943824
 30
0.0
 11
235.3393239023356
 21
88.11620820943824
 31
0.0
  0
LINE
  5
282
330
1F
100
AcDbEntity
  8
CENTER
100
AcDbLine
 10
200.2652950490658
 20
67.86620820943826
 30
0.0
 11
199.3992696452814
 21
67.36620820943826
 31
0.0
  0
LINE
  5
283
330
1F
100
AcDbEntity
  8
CENTER
100
AcDbLine
 10
235.7723366042278
 20
88.36620820943824
 30
0.0
 11
236.6383620080122
 21
88.86620820943824
 31
0.0
  0
LINE
  5
284
330
1F
100
AcDbEntity
  8
CENTER
100
AcDbLine
 10
198.9662569433891
 20
67.11620820943826
 30
0.0
 11
194.7630885152213
 21
64.68950778598622
 31
0.0
  0
LINE
  5
285
330
1F
100
AcDbEntity
  8
CENTER
100
AcDbLine
 10
237.0713747099044
 20
89.11620820943824
 30
0.0
 11
241.2745431380723
 21
91.54290863289027
 31
0.0
  0
LINE
  5
286
330
1F
100
AcDbEntity
  8
CENTER
100
AcDbLine
 10
226.4246378895865
 20
82.96931184023656
 30
0.0
 11
227.2906632933709
 21
83.46931184023656
 31
0.0
  0
LINE
  5
287
330
1F
100
AcDbEntity
  8
CENTER
100
AcDbLine
 10
225.9916251876943
 20
82.71931184023656
 30
0.0
 11
221.6614981687721
 21
80.21931184023656
 31
0.0
  0
LINE
  5
288
330
1F
100
AcDbEntity
  8
CENTER
100
AcDbLine
 10
227.7236759952631
 20
83.71931184023656
 30
0.0
 11
232.0538030141853
 21
86.21931184023656
 31
0.0
  0
LINE
  5
289
330
1F
100
AcDbEntity
  8
CENTER
100
AcDbLine
 10
221.2284854668798
 20
79.96931184023656
 30
0.0
 11
219.1582724661573
 21
78.7740738069895
 31
0.0
  0
LINE
  5
28A
330
1F
100
AcDbEntity
  8
CENTER
100
AcDbLine
 10
232.4868157160776
 20
86.46931184023656
 30
0.0
 11
234.5570287168001
 21
87.66454987348361
 31
0.0
  0
LINE
  5
28B
330
1F
100
AcDbEntity
  8
CENTER
100
AcDbLine
 10
208.7469683599227
 20
72.76310457863998
 30
0.0
 11
209.6129937637072
 21
73.26310457863998
 31
0.0
  0
LINE
  5
28C
330
1F
100
AcDbEntity
  8
CENTER
100
AcDbLine
 10
208.3139556580305
 20
72.51310457863998
 30
0.0
 11
203.9838286391083
 21
70.01310457863998
 31
0.0
  0
LINE
  5
28D
330
1F
100
AcDbEntity
  8
CENTER
100
AcDbLine
 10
210.0460064655994
 20
73.51310457863998
 30
0.0
 11
214.3761334845216
 21
76.01310457863997
 31
0.0
  0
LINE
  5
28E
330
1F
100
AcDbEntity
  8
CENTER
100
AcDbLine
 10
203.5508159372161
 20
69.76310457863998
 30
0.0
 11
201.4806029364935
 21
68.56786654539293
 31
0.0
  0
LINE
  5
28F
330
1F
100
AcDbEntity
  8
CENTER
100
AcDbLine
 10
214.8091461864138
 20
76.26310457863998
 30
0.0
 11
216.8793591871364
 21
77.45834261188702
 31
0.0
  0
LINE
  5
290
330
1F
100
AcDbEntity
  8
CENTER
100
AcDbLine
 10
226.4246378895865
 20
62.55689731704339
 30
0.0
 11
227.2906632933709
 21
63.05689731704339
 31
0.0
  0
LINE
  5
291
330
1F
100
AcDbEntity
  8
CENTER
100
AcDbLine
 10
225.9916251876942
 20
62.30689731704339
 30
0.0
 11
221.6614981687721
 21
59.8068973170434
 31
0.0
  0
LINE
  5
292
330
1F
100
AcDbEntity
  8
CENTER
100
AcDbLine
 10
227.7236759952631
 20
63.30689731704339
 30
0.0
 11
232.0538030141853
 21
65.8068973170434
 31
0.0
  0
LINE
  5
293
330
1F
100
AcDbEntity
  8
CENTER
100
AcDbLine
 10
221.2284854668798
 20
59.5568973170434
 30
0.0
 11
219.1582724661572
 21
58.36165928379635
 31
0.0
  0
LINE
  5
294
330
1F
100
AcDbEntity
  8
CENTER
100
AcDbLine
 10
232.4868157160775
 20
66.0568973170434
 30
0.0
 11
234.5570287168001
 21
67.25213535029044
 31
0.0
  0
LINE
  5
295
330
1F
100
AcDbEntity
  8
CENTER
100
AcDbLine
 10
208.7469683599227
 20
93.17551910183316
 30
0.0
 11
209.6129937637072
 21
93.67551910183316
 31
0.0
  0
LINE
  5
296
330
1F
100
AcDbEntity
  8
CENTER
100
AcDbLine
 10
208.3139556580305
 20
92.92551910183316
 30
0.0
 11
203.9838286391083
 21
90.42551910183316
 31
0.0
  0
LINE
  5
297
330
1F
100
AcDbEntity
  8
CENTER
100
AcDbLine
 10
210.0460064655994
 20
93.92551910183315
 30
0.0
 11
214.3761334845216
 21
96.42551910183315
 31
0.0
  0
LINE
  5
298
330
1F
100
AcDbEntity
  8
CENTER
100
AcDbLine
 10
203.5508159372161
 20
90.17551910183316
 30
0.0
 11
201.4806029364935
 21
88.98028106858611
 31
0.0
  0
LINE
  5
299
330
1F
100
AcDbEntity
  8
CENTER
100
AcDbLine
 10
214.8091461864138
 20
96.67551910183315
 30
0.0
 11
216.8793591871364
 21
97.87075713508021
 31
0.0
  0
LINE
  5
29A
330
1F
100
AcDbEntity
  8
CENTER
100
AcDbLine
 10
206.0069295828249
 20
91.59355697628561
 30
0.0
 11
206.8729549866094
 21
92.09355697628561
 31
0.0
  0
LINE
  5
29B
330
1F
100
AcDbEntity
  8
CENTER
100
AcDbLine
 10
205.5739168809327
 20
91.34355697628561
 30
0.0
 11
201.1270495459003
 21
88.77615692335411
 31
0.0
  0
LINE
  5
29C
330
1F
100
AcDbEntity
  8
CENTER
100
AcDbLine
 10
207.3059676885016
 20
92.34355697628561
 30
0.0
 11
211.752835023534
 21
94.91095702921712
 31
0.0
  0
LINE
  5
29D
330
1F
100
AcDbEntity
  8
CENTER
100
AcDbLine
 10
223.6845991124886
 20
81.38734971468911
 30
0.0
 11
224.550624516273
 21
81.88734971468911
 31
0.0
  0
LINE
  5
29E
330
1F
100
AcDbEntity
  8
CENTER
100
AcDbLine
 10
223.2515864105964
 20
81.13734971468911
 30
0.0
 11
218.804719075564
 21
78.5699496617576
 31
0.0
  0
LINE
  5
29F
330
1F
100
AcDbEntity
  8
CENTER
100
AcDbLine
 10
224.9836372181653
 20
82.13734971468911
 30
0.0
 11
229.4305045531976
 21
84.70474976762061
 31
0.0
  0
LINE
  5
2A0
330
1F
100
AcDbEntity
  8
CENTER
100
AcDbLine
 10
229.1646766666843
 20
64.13885944259086
 30
0.0
 11
230.0307020704687
 21
64.63885944259084
 31
0.0
  0
LINE
  5
2A1
330
1F
100
AcDbEntity
  8
CENTER
100
AcDbLine
 10
228.7316639647921
 20
63.88885944259085
 30
0.0
 11
224.2847966297597
 21
61.32145938965935
 31
0.0
  0
LINE
  5
2A2
330
1F
100
AcDbEntity
  8
CENTER
100
AcDbLine
 10
230.463714772361
 20
64.88885944259084
 30
0.0
 11
234.9105821073934
 21
67.45625949552235
 31
0.0
  0
INSERT
  5
2A3
330
1F
100
AcDbEntity
  8
CONTINUOUS
100
AcDbBlockReference
  2
BLOCK0
 10
0.0
 20
0.0
 30
0.0
  0
MTEXT
  5
2EF
330
1F
100
AcDbEntity
  8
CONTINUOUS
100
AcDbMText
 10
257.019836425781
 20
25.04028534183924
 30
0.0
 40
2.188737186504777
 41
0.0
 46
0.0
 71
     1
 72
     1
  1
{\fCE|b0|i0|c0|p0;\C7;1.4301   }{\fCE|b0|i0|c0|p0;\C7;}
 73
     1
 44
1.0
  0
MTEXT
  5
2F0
330
1F
100
AcDbEntity
  8
CONTINUOUS
100
AcDbMText
 10
202.465362548828
 20
14.43246292362634
 30
0.0
 40
2.188737186504777
 41
0.0
 46
0.0
 71
     1
 72
     1
  1
{\fCE|b0|i0|c0|p0;\C7;------------------    }{\fCE|b0|i0|c0|p0;\C7;}
 73
     1
 44
1.0
  0
MTEXT
  5
2F1
330
1F
100
AcDbEntity
  8
CONTINUOUS
100
AcDbMText
 10
258.145660400391
 20
15.15210079441484
 30
0.0
 40
2.188737186504777
 41
0.0
 46
0.0
 71
     1
 72
     1
  1
{\fCE|b0|i0|c0|p0;\C7;1x }{\fCE|b0|i0|c0|p0;\C7;}
 73
     1
 44
1.0
  0
MTEXT
  5
2F2
330
1F
100
AcDbEntity
  8
CONTINUOUS
100
AcDbMText
 10
274.467468261719
 20
14.57747959385334
 30
0.0
 40
2.188737186504777
 41
0.0
 46
0.0
 71
     1
 72
     1
  1
{\fCE|b0|i0|c0|p0;\C7;1:1  }{\fCE|b0|i0|c0|p0;\C7;}
 73
     1
 44
1.0
  0
MTEXT
  5
2F3
330
1F
100
AcDbEntity
  8
CONTINUOUS
100
AcDbMText
 10
211.656265258789
 20
25.19681381473964
 30
0.0
 40
2.188737186504777
 41
0.0
 46
0.0
 71
     1
 72
     1
  1
{\fCE|b0|i0|c0|p0;\C7;4 media brzdi^M}{\fCE|b0|i0|c0|p0;\C7;}
 73
     1
 44
1.0
  0
MTEXT
  5
2F4
330
1F
100
AcDbEntity
  8
CONTINUOUS
100
AcDbMText
 10
232.015716552734
 20
14.93759750614584
 30
0.0
 40
2.188737186504777
 41
0.0
 46
0.0
 71
     1
 72
     1
  1
{\fCE|b0|i0|c0|p0;\C7;26.7.2021}{\fCE|b0|i0|c0|p0;\C7;}
 73
     1
 44
1.0
  0
ENDSEC
  0
SECTION
  2
OBJECTS
  0
DICTIONARY
  5
C
330
0
100
AcDbDictionary
281
     1
  3
ACAD_DETAILVIEWSTYLE
350
2FC
  3
ACAD_GROUP
350
D
  3
ACAD_LAYOUT
350
1A
  3
ACAD_MATERIAL
350
43
  3
ACAD_MLEADERSTYLE
350
6B
  3
ACAD_MLINESTYLE
350
17
  3
ACAD_PLOTSETTINGS
350
19
  3
ACAD_PLOTSTYLENAME
350
E
  3
ACAD_SCALELIST
350
47
  3
ACAD_SECTIONVIEWSTYLE
350
2FD
  3
ACAD_TABLESTYLE
350
69
  3
ACAD_VISUALSTYLE
350
2A
  3
ACDB_RECOMPOSE_DATA
350
2F9
  3
AcDbVariableDictionary
350
2F5
  0
SUN
  5
6D
330
29
100
AcDbSun
 90
        1
290
     0
 63
     7
421
 16777215
 40
1.0
291
     1
 91
  2455826
 92
 54000000
292
     0
 70
     2
 71
   256
280
     1
  0
DICTIONARY
  5
2FC
102
{ACAD_REACTORS
330
C
102
}
330
C
100
AcDbDictionary
281
     1
  0
DICTIONARY
  5
D
102
{ACAD_REACTORS
330
C
102
}
330
C
100
AcDbDictionary
281
     1
  0
DICTIONARY
  5
1A
102
{ACAD_REACTORS
330
C
102
}
330
C
100
AcDbDictionary
281
     1
  3
Layout1
350
1E
  3
Layout2
350
26
  3
Model
350
22
  0
DICTIONARY
  5
43
102
{ACAD_REACTORS
330
C
102
}
330
C
100
AcDbDictionary
281
     1
  3
ByBlock
350
45
  3
ByLayer
350
44
  3
Global
350
46
  0
DICTIONARY
  5
6B
102
{ACAD_REACTORS
330
C
102
}
330
C
100
AcDbDictionary
281
     1
  3
Standard
350
6C
  0
DICTIONARY
  5
17
102
{ACAD_REACTORS
330
C
102
}
330
C
100
AcDbDictionary
281
     1
  3
Standard
350
18
  0
DICTIONARY
  5
19
102
{ACAD_REACTORS
330
C
102
}
330
C
100
AcDbDictionary
281
     1
  0
ACDBDICTIONARYWDFLT
  5
E
102
{ACAD_REACTORS
330
C
102
}
330
C
100
AcDbDictionary
281
     1
  3
Normal
350
F
100
AcDbDictionaryWithDefault
340
F
  0
DICTIONARY
  5
47
102
{ACAD_REACTORS
330
C
102
}
330
C
100
AcDbDictionary
281
     1
  3
A0
350
48
  3
A1
350
49
  3
A2
350
4A
  3
A3
350
4B
  3
A4
350
4C
  3
A5
350
4D
  3
A6
350
4E
  3
A7
350
4F
  3
A8
350
50
  3
A9
350
51
  3
B0
350
52
  3
B1
350
53
  3
B2
350
54
  3
B3
350
55
  3
B4
350
56
  3
B5
350
57
  3
B6
350
58
  3
B7
350
59
  3
B8
350
5A
  3
B9
350
5B
  3
C0
350
5C
  3
C1
350
5D
  3
C2
350
5E
  3
C3
350
5F
  3
C4
350
60
  3
C5
350
61
  3
C6
350
62
  3
C7
350
63
  3
C8
350
64
  3
C9
350
65
  3
D0
350
66
  3
D1
350
67
  3
D2
350
68
  0
DICTIONARY
  5
2FD
102
{ACAD_REACTORS
330
C
102
}
330
C
100
AcDbDictionary
281
     1
  0
DICTIONARY
  5
69
102
{ACAD_REACTORS
330
C
102
}
330
C
100
AcDbDictionary
281
     1
  3
Standard
350
6A
  0
DICTIONARY
  5
2A
102
{ACAD_REACTORS
330
C
102
}
330
C
100
AcDbDictionary
281
     1
  3
2dWireframe
350
2F
  3
Basic
350
32
  3
Brighten
350
36
  3
ColorChange
350
3A
  3
Conceptual
350
34
  3
Dim
350
35
  3
EdgeColorOff
350
3D
  3
Facepattern
350
39
  3
Flat
350
2B
  3
FlatWithEdges
350
2C
  3
Gouraud
350
2D
  3
GouraudWithEdges
350
2E
  3
Hidden
350
31
  3
JitterOff
350
3B
  3
Linepattern
350
38
  3
OverhangOff
350
3C
  3
Realistic
350
33
  3
Shaded
350
42
  3
Shaded with edges
350
41
  3
Shades of Gray
350
3E
  3
Sketchy
350
3F
  3
Thicken
350
37
  3
Wireframe
350
30
  3
X-Ray
350
40
  0
XRECORD
  5
2F9
102
{ACAD_REACTORS
330
C
102
}
330
C
100
AcDbXrecord
280
     1
 90
        1
330
6A
  0
DICTIONARY
  5
2F5
102
{ACAD_REACTORS
330
C
102
}
330
C
100
AcDbDictionary
281
     1
  3
CANNOSCALE
350
2F6
  3
CENTEREXE
350
2FE
  3
CENTERLTYPEFILE
350
2FF
  3
CMLEADERSTYLE
350
2FB
  3
CTABLESTYLE
350
2FA
  0
LAYOUT
  5
1E
102
{ACAD_REACTORS
330
1A
102
}
330
1A
100
AcDbPlotSettings
  1

  2
none_device
  4

  6

 40
0.0
 41
0.0
 42
0.0
 43
0.0
 44
0.0
 45
0.0
 46
0.0
 47
0.0
 48
0.0
 49
0.0
140
0.0
141
0.0
142
1.0
143
1.0
 70
   688
 72
     1
 73
     0
 74
     5
  7

 75
    16
 76
     0
 77
     2
 78
   300
147
1.0
148
0.0
149
0.0
100
AcDbLayout
  1
Layout1
 70
     1
 71
     1
 10
0.0
 20
0.0
 11
420.0
 21
297.0
 12
0.0
 22
0.0
 32
0.0
 14
1.000000000000000E+20
 24
1.000000000000000E+20
 34
1.000000000000000E+20
 15
-1.000000000000000E+20
 25
-1.000000000000000E+20
 35
-1.000000000000000E+20
146
0.0
 13
0.0
 23
0.0
 33
0.0
 16
1.0
 26
0.0
 36
0.0
 17
0.0
 27
1.0
 37
0.0
 76
     0
330
1B
  0
LAYOUT
  5
26
102
{ACAD_REACTORS
330
1A
102
}
330
1A
100
AcDbPlotSettings
  1

  2
none_device
  4

  6

 40
0.0
 41
0.0
 42
0.0
 43
0.0
 44
0.0
 45
0.0
 46
0.0
 47
0.0
 48
0.0
 49
0.0
140
0.0
141
0.0
142
1.0
143
1.0
 70
   688
 72
     1
 73
     0
 74
     5
  7

 75
    16
 76
     0
 77
     2
 78
   300
147
1.0
148
0.0
149
0.0
100
AcDbLayout
  1
Layout2
 70
     1
 71
     2
 10
0.0
 20
0.0
 11
0.0
 21
0.0
 12
0.0
 22
0.0
 32
0.0
 14
0.0
 24
0.0
 34
0.0
 15
0.0
 25
0.0
 35
0.0
146
0.0
 13
0.0
 23
0.0
 33
0.0
 16
1.0
 26
0.0
 36
0.0
 17
0.0
 27
1.0
 37
0.0
 76
     0
330
23
  0
LAYOUT
  5
22
102
{ACAD_REACTORS
330
1A
102
}
330
1A
100
AcDbPlotSettings
  1

  2
none_device
  4
Letter_(8.50_x_11.00_Inches)
  6

 40
6.35
 41
6.35
 42
6.35000508
 43
6.35000508
 44
215.9
 45
279.4
 46
0.0
 47
0.0
 48
0.0
 49
0.0
140
0.0
141
0.0
142
1.0
143
1.0
 70
  1712
 72
     1
 73
     0
 74
     0
  7

 75
     0
 76
     0
 77
     2
 78
   300
147
1.0
148
0.0
149
0.0
100
AcDbLayout
  1
Model
 70
     1
 71
     0
 10
0.0
 20
0.0
 11
420.0
 21
297.0
 12
0.0
 22
0.0
 32
0.0
 14
1.000000000000000E+20
 24
1.000000000000000E+20
 34
1.000000000000000E+20
 15
-1.000000000000000E+20
 25
-1.000000000000000E+20
 35
-1.000000000000000E+20
146
0.0
 13
0.0
 23
0.0
 33
0.0
 16
1.0
 26
0.0
 36
0.0
 17
0.0
 27
1.0
 37
0.0
 76
     0
330
1F
331
29
  0
MATERIAL
  5
45
102
{ACAD_REACTORS
330
43
102
}
330
43
100
AcDbMaterial
  1
ByBlock
 72
     1
 94
      127
  0
MATERIAL
  5
44
102
{ACAD_REACTORS
330
43
102
}
330
43
100
AcDbMaterial
  1
ByLayer
 72
     1
 94
      127
  0
MATERIAL
  5
46
102
{ACAD_REACTORS
330
43
102
}
330
43
100
AcDbMaterial
  1
Global
 72
     1
 94
      127
  0
MLEADERSTYLE
  5
6C
102
{ACAD_REACTORS
330
6B
102
}
330
6B
100
AcDbMLeaderStyle
179
     2
170
     2
171
     1
172
     0
 90
        2
 40
0.0
 41
0.0
173
     1
 91
-1056964608
340
14
 92
       -2
290
     1
 42
2.0
291
     1
 43
8.0
  3
Standard
341
0
 44
4.0
300

342
11
174
     1
178
     6
175
     1
176
     0
 93
-1056964608
 45
4.0
292
     0
297
     0
 46
4.0
343
0
 94
-1056964608
 47
1.0
 49
1.0
140
1.0
293
     1
141
0.0
294
     1
177
     0
142
1.0
295
     0
296
     0
143
3.75
271
     0
272
     9
273
     9
298
     0
  0
MLINESTYLE
  5
18
102
{ACAD_REACTORS
330
17
102
}
330
17
100
AcDbMlineStyle
  2
Standard
 70
     0
  3

 62
   256
 51
90.0
 52
90.0
 71
     2
 49
0.5
 62
   256
  6
BYLAYER
 49
-0.5
 62
   256
  6
BYLAYER
  0
ACDBPLACEHOLDER
  5
F
102
{ACAD_REACTORS
330
E
102
}
330
E
  0
SCALE
  5
48
102
{ACAD_REACTORS
330
47
102
}
330
47
100
AcDbScale
 70
     0
300
1:1
140
1.0
141
1.0
290
     1
  0
SCALE
  5
49
102
{ACAD_REACTORS
330
47
102
}
330
47
100
AcDbScale
 70
     0
300
1:2
140
1.0
141
2.0
290
     0
  0
SCALE
  5
4A
102
{ACAD_REACTORS
330
47
102
}
330
47
100
AcDbScale
 70
     0
300
1:4
140
1.0
141
4.0
290
     0
  0
SCALE
  5
4B
102
{ACAD_REACTORS
330
47
102
}
330
47
100
AcDbScale
 70
     0
300
1:5
140
1.0
141
5.0
290
     0
  0
SCALE
  5
4C
102
{ACAD_REACTORS
330
47
102
}
330
47
100
AcDbScale
 70
     0
300
1:8
140
1.0
141
8.0
290
     0
  0
SCALE
  5
4D
102
{ACAD_REACTORS
330
47
102
}
330
47
100
AcDbScale
 70
     0
300
1:10
140
1.0
141
10.0
290
     0
  0
SCALE
  5
4E
102
{ACAD_REACTORS
330
47
102
}
330
47
100
AcDbScale
 70
     0
300
1:16
140
1.0
141
16.0
290
     0
  0
SCALE
  5
4F
102
{ACAD_REACTORS
330
47
102
}
330
47
100
AcDbScale
 70
     0
300
1:20
140
1.0
141
20.0
290
     0
  0
SCALE
  5
50
102
{ACAD_REACTORS
330
47
102
}
330
47
100
AcDbScale
 70
     0
300
1:30
140
1.0
141
30.0
290
     0
  0
SCALE
  5
51
102
{ACAD_REACTORS
330
47
102
}
330
47
100
AcDbScale
 70
     0
300
1:40
140
1.0
141
40.0
290
     0
  0
SCALE
  5
52
102
{ACAD_REACTORS
330
47
102
}
330
47
100
AcDbScale
 70
     0
300
1:50
140
1.0
141
50.0
290
     0
  0
SCALE
  5
53
102
{ACAD_REACTORS
330
47
102
}
330
47
100
AcDbScale
 70
     0
300
1:100
140
1.0
141
100.0
290
     0
  0
SCALE
  5
54
102
{ACAD_REACTORS
330
47
102
}
330
47
100
AcDbScale
 70
     0
300
2:1
140
2.0
141
1.0
290
     0
  0
SCALE
  5
55
102
{ACAD_REACTORS
330
47
102
}
330
47
100
AcDbScale
 70
     0
300
4:1
140
4.0
141
1.0
290
     0
  0
SCALE
  5
56
102
{ACAD_REACTORS
330
47
102
}
330
47
100
AcDbScale
 70
     0
300
8:1
140
8.0
141
1.0
290
     0
  0
SCALE
  5
57
102
{ACAD_REACTORS
330
47
102
}
330
47
100
AcDbScale
 70
     0
300
10:1
140
10.0
141
1.0
290
     0
  0
SCALE
  5
58
102
{ACAD_REACTORS
330
47
102
}
330
47
100
AcDbScale
 70
     0
300
100:1
140
100.0
141
1.0
290
     0
  0
SCALE
  5
59
102
{ACAD_REACTORS
330
47
102
}
330
47
100
AcDbScale
 70
     0
300
1/128" = 1'-0"
140
0.0078125
141
12.0
290
     0
  0
SCALE
  5
5A
102
{ACAD_REACTORS
330
47
102
}
330
47
100
AcDbScale
 70
     0
300
1/64" = 1'-0"
140
0.015625
141
12.0
290
     0
  0
SCALE
  5
5B
102
{ACAD_REACTORS
330
47
102
}
330
47
100
AcDbScale
 70
     0
300
1/32" = 1'-0"
140
0.03125
141
12.0
290
     0
  0
SCALE
  5
5C
102
{ACAD_REACTORS
330
47
102
}
330
47
100
AcDbScale
 70
     0
300
1/16" = 1'-0"
140
0.0625
141
12.0
290
     0
  0
SCALE
  5
5D
102
{ACAD_REACTORS
330
47
102
}
330
47
100
AcDbScale
 70
     0
300
3/32" = 1'-0"
140
0.09375
141
12.0
290
     0
  0
SCALE
  5
5E
102
{ACAD_REACTORS
330
47
102
}
330
47
100
AcDbScale
 70
     0
300
1/8" = 1'-0"
140
0.125
141
12.0
290
     0
  0
SCALE
  5
5F
102
{ACAD_REACTORS
330
47
102
}
330
47
100
AcDbScale
 70
     0
300
3/16" = 1'-0"
140
0.1875
141
12.0
290
     0
  0
SCALE
  5
60
102
{ACAD_REACTORS
330
47
102
}
330
47
100
AcDbScale
 70
     0
300
1/4" = 1'-0"
140
0.25
141
12.0
290
     0
  0
SCALE
  5
61
102
{ACAD_REACTORS
330
47
102
}
330
47
100
AcDbScale
 70
     0
300
3/8" = 1'-0"
140
0.375
141
12.0
290
     0
  0
SCALE
  5
62
102
{ACAD_REACTORS
330
47
102
}
330
47
100
AcDbScale
 70
     0
300
1/2" = 1'-0"
140
0.5
141
12.0
290
     0
  0
SCALE
  5
63
102
{ACAD_REACTORS
330
47
102
}
330
47
100
AcDbScale
 70
     0
300
3/4" = 1'-0"
140
0.75
141
12.0
290
     0
  0
SCALE
  5
64
102
{ACAD_REACTORS
330
47
102
}
330
47
100
AcDbScale
 70
     0
300
1" = 1'-0"
140
1.0
141
12.0
290
     0
  0
SCALE
  5
65
102
{ACAD_REACTORS
330
47
102
}
330
47
100
AcDbScale
 70
     0
300
1-1/2" = 1'-0"
140
1.5
141
12.0
290
     0
  0
SCALE
  5
66
102
{ACAD_REACTORS
330
47
102
}
330
47
100
AcDbScale
 70
     0
300
3" = 1'-0"
140
3.0
141
12.0
290
     0
  0
SCALE
  5
67
102
{ACAD_REACTORS
330
47
102
}
330
47
100
AcDbScale
 70
     0
300
6" = 1'-0"
140
6.0
141
12.0
290
     0
  0
SCALE
  5
68
102
{ACAD_REACTORS
330
47
102
}
330
47
100
AcDbScale
 70
     0
300
1'-0" = 1'-0"
140
12.0
141
12.0
290
     0
  0
TABLESTYLE
  5
6A
102
{ACAD_REACTORS
330
69
102
}
102
{ACAD_XDICTIONARY
360
2F7
102
}
330
69
100
AcDbTableStyle
  3
Standard
 70
     0
 71
     0
 40
0.06
 41
0.06
280
     0
281
     0
  7
Standard
140
4.5
170
     2
 62
     0
 63
   257
283
     0
 90
        4
 91
        0
  1

274
    -2
284
     1
 64
     0
275
    -2
285
     1
 65
     0
276
    -2
286
     1
 66
     0
277
    -2
287
     1
 67
     0
278
    -2
288
     1
 68
     0
279
    -2
289
     1
 69
     0
  7
Standard
140
6.0
170
     5
 62
     0
 63
   257
283
     0
 90
        4
 91
        0
  1

274
    -2
284
     1
 64
     0
275
    -2
285
     1
 65
     0
276
    -2
286
     1
 66
     0
277
    -2
287
     1
 67
     0
278
    -2
288
     1
 68
     0
279
    -2
289
     1
 69
     0
  7
Standard
140
4.5
170
     5
 62
     0
 63
   257
283
     0
 90
        4
 91
        0
  1

274
    -2
284
     1
 64
     0
275
    -2
285
     1
 65
     0
276
    -2
286
     1
 66
     0
277
    -2
287
     1
 67
     0
278
    -2
288
     1
 68
     0
279
    -2
289
     1
 69
     0
  0
VISUALSTYLE
  5
2F
102
{ACAD_REACTORS
330
2A
102
}
330
2A
100
AcDbVisualStyle
  2
2dWireframe
 70
     4
177
     3
291
     0
 70
    58
 90
        0
176
     1
 90
        2
176
     1
 90
        0
176
     1
 90
        0
176
     1
 40
0.6
176
     1
 40
30.0
176
     1
 62
     7
420
 16777215
176
     1
 90
        1
176
     1
 90
        4
176
     1
 62
     7
176
     1
 62
   257
176
     1
 90
        1
176
     1
 90
        1
176
     1
 40
1.0
176
     1
 90
        0
176
     1
 62
   257
176
     1
 40
1.0
176
     1
 90
        1
176
     1
 90
        6
176
     1
 90
        2
176
     1
 62
     7
176
     1
 90
        5
176
     1
 90
        0
176
     1
 90
        0
176
     1
290
     0
176
     1
 90
        1
176
     1
 40
0.0
176
     1
 90
        0
176
     1
290
     1
176
     1
290
     1
176
     1
290
     0
176
     1
290
     0
176
     1
290
     0
176
     1
290
     0
176
     1
290
     0
176
     1
290
     0
176
     1
290
     0
176
     1
 90
       50
176
     1
 40
0.0
176
     1
 40
1.0
176
     1
 90
        0
176
     1
 62
    18
420
        0
176
     1
 90
       50
176
     1
 90
        3
176
     1
 62
     5
420
      255
176
     1
290
     0
176
     1
 90
       50
176
     1
 90
       50
176
     1
 90
       50
176
     1
290
     0
176
     1
 90
       50
176
     1
 62
   256
176
     0
 40
1.0
176
     0
 90
        2
176
     1
  1
strokes_ogs.tif
176
     1
290
     0
176
     1
 40
1.0
176
     1
 40
1.0
176
     1
  0
VISUALSTYLE
  5
32
102
{ACAD_REACTORS
330
2A
102
}
330
2A
100
AcDbVisualStyle
  2
Basic
 70
     7
177
     3
291
     1
 70
    58
 90
        1
176
     1
 90
        0
176
     1
 90
        1
176
     1
 90
        0
176
     1
 40
0.6
176
     1
 40
30.0
176
     1
 62
     7
420
 16777215
176
     1
 90
        0
176
     1
 90
        4
176
     1
 62
     7
176
     1
 62
   257
176
     1
 90
        1
176
     1
 90
        1
176
     1
 40
1.0
176
     1
 90
        8
176
     1
 62
     7
176
     1
 40
1.0
176
     1
 90
        1
176
     1
 90
        6
176
     1
 90
        2
176
     1
 62
     7
176
     1
 90
        5
176
     1
 90
        0
176
     1
 90
        0
176
     1
290
     0
176
     1
 90
        1
176
     1
 40
0.0
176
     1
 90
        0
176
     1
290
     0
176
     1
290
     1
176
     1
290
     1
176
     1
290
     0
176
     1
290
     0
176
     1
290
     0
176
     1
290
     0
176
     1
290
     0
176
     1
290
     0
176
     1
 90
       50
176
     1
 40
0.0
176
     1
 40
1.0
176
     1
 90
        0
176
     1
 62
    18
420
        0
176
     1
 90
       50
176
     1
 90
        3
176
     1
 62
     5
420
      255
176
     1
290
     0
176
     1
 90
       50
176
     1
 90
       50
176
     1
 90
       50
176
     1
290
     0
176
     1
 90
       50
176
     1
 62
   256
176
     0
 40
1.0
176
     0
 90
        2
176
     1
  1
strokes_ogs.tif
176
     1
290
     0
176
     1
 40
1.0
176
     1
 40
1.0
176
     1
  0
VISUALSTYLE
  5
36
102
{ACAD_REACTORS
330
2A
102
}
330
2A
100
AcDbVisualStyle
  2
Brighten
 70
    12
177
     3
291
     1
 70
    58
 90
        2
176
     1
 90
        2
176
     1
 90
        0
176
     1
 90
        0
176
     1
 40
0.6
176
     1
 40
30.0
176
     1
 62
     7
420
 16777215
176
     1
 90
        1
176
     1
 90
        4
176
     1
 62
     7
176
     1
 62
   257
176
     1
 90
        1
176
     1
 90
        1
176
     1
 40
1.0
176
     1
 90
        8
176
     1
 62
     7
176
     1
 40
1.0
176
     1
 90
        1
176
     1
 90
        6
176
     1
 90
        2
176
     1
 62
     7
176
     1
 90
        5
176
     1
 90
        0
176
     1
 90
        0
176
     1
290
     0
176
     1
 90
        1
176
     1
 40
50.0
176
     1
 90
        0
176
     1
290
     0
176
     1
290
     1
176
     1
290
     1
176
     1
290
     0
176
     1
290
     0
176
     1
290
     0
176
     1
290
     0
176
     1
290
     0
176
     1
290
     0
176
     1
 90
       50
176
     1
 40
0.0
176
     1
 40
1.0
176
     1
 90
        0
176
     1
 62
    18
420
        0
176
     1
 90
       50
176
     1
 90
        3
176
     1
 62
     5
420
      255
176
     1
290
     0
176
     1
 90
       50
176
     1
 90
       50
176
     1
 90
       50
176
     1
290
     0
176
     1
 90
       50
176
     1
 62
   256
176
     0
 40
1.0
176
     0
 90
        2
176
     1
  1
strokes_ogs.tif
176
     1
290
     0
176
     1
 40
1.0
176
     1
 40
1.0
176
     1
  0
VISUALSTYLE
  5
3A
102
{ACAD_REACTORS
330
2A
102
}
330
2A
100
AcDbVisualStyle
  2
ColorChange
 70
    16
177
     3
291
     1
 70
    58
 90
        2
176
     1
 90
        2
176
     1
 90
        3
176
     1
 90
        0
176
     1
 40
0.6
176
     1
 40
30.0
176
     1
 62
     8
420
  8421504
176
     1
 90
        1
176
     1
 90
        4
176
     1
 62
     7
176
     1
 62
   257
176
     1
 90
        1
176
     1
 90
        1
176
     1
 40
1.0
176
     1
 90
        8
176
     1
 62
     8
420
  8421504
176
     1
 40
1.0
176
     1
 90
        1
176
     1
 90
        6
176
     1
 90
        2
176
     1
 62
     7
176
     1
 90
        5
176
     1
 90
        0
176
     1
 90
        0
176
     1
290
     0
176
     1
 90
        1
176
     1
 40
0.0
176
     1
 90
        0
176
     1
290
     0
176
     1
290
     1
176
     1
290
     1
176
     1
290
     0
176
     1
290
     0
176
     1
290
     0
176
     1
290
     0
176
     1
290
     0
176
     1
290
     0
176
     1
 90
       50
176
     1
 40
0.0
176
     1
 40
1.0
176
     1
 90
        0
176
     1
 62
    18
420
        0
176
     1
 90
       50
176
     1
 90
        3
176
     1
 62
     5
420
      255
176
     1
290
     0
176
     1
 90
       50
176
     1
 90
       50
176
     1
 90
       50
176
     1
290
     0
176
     1
 90
       50
176
     1
 62
   256
176
     0
 40
1.0
176
     0
 90
        2
176
     1
  1
strokes_ogs.tif
176
     1
290
     0
176
     1
 40
1.0
176
     1
 40
1.0
176
     1
  0
VISUALSTYLE
  5
34
102
{ACAD_REACTORS
330
2A
102
}
330
2A
100
AcDbVisualStyle
  2
Conceptual
 70
     9
177
     3
291
     0
 70
    58
 90
        3
176
     1
 90
        2
176
     1
 90
        0
176
     1
 90
        0
176
     1
 40
0.6
176
     1
 40
30.0
176
     1
 62
     7
420
 16777215
176
     1
 90
        2
176
     1
 90
        2
176
     1
 62
     7
176
     1
 62
   257
176
     1
 90
        1
176
     1
 90
        1
176
     1
 40
179.0
176
     1
 90
        8
176
     1
 62
     7
176
     1
 40
1.0
176
     1
 90
        1
176
     1
 90
        6
176
     1
 90
        2
176
     1
 62
     7
176
     1
 90
        3
176
     1
 90
        0
176
     1
 90
        0
176
     1
290
     0
176
     1
 90
        1
176
     1
 40
0.0
176
     1
 90
        0
176
     1
290
     0
176
     1
290
     1
176
     1
290
     1
176
     1
290
     0
176
     1
290
     0
176
     1
290
     0
176
     1
290
     0
176
     1
290
     0
176
     1
290
     0
176
     1
 90
       50
176
     1
 40
0.0
176
     1
 40
1.0
176
     1
 90
        0
176
     1
 62
    18
420
        0
176
     1
 90
       50
176
     1
 90
        3
176
     1
 62
     5
420
      255
176
     1
290
     0
176
     1
 90
       50
176
     1
 90
       50
176
     1
 90
       50
176
     1
290
     0
176
     1
 90
       50
176
     1
 62
   256
176
     0
 40
1.0
176
     0
 90
        2
176
     1
  1
strokes_ogs.tif
176
     1
290
     0
176
     1
 40
1.0
176
     1
 40
1.0
176
     1
  0
VISUALSTYLE
  5
35
102
{ACAD_REACTORS
330
2A
102
}
330
2A
100
AcDbVisualStyle
  2
Dim
 70
    11
177
     3
291
     1
 70
    58
 90
        2
176
     1
 90
        2
176
     1
 90
        0
176
     1
 90
        0
176
     1
 40
0.6
176
     1
 40
30.0
176
     1
 62
     7
420
 16777215
176
     1
 90
        1
176
     1
 90
        4
176
     1
 62
     7
176
     1
 62
   257
176
     1
 90
        1
176
     1
 90
        1
176
     1
 40
1.0
176
     1
 90
        8
176
     1
 62
     7
176
     1
 40
1.0
176
     1
 90
        1
176
     1
 90
        6
176
     1
 90
        2
176
     1
 62
     7
176
     1
 90
        5
176
     1
 90
        0
176
     1
 90
        0
176
     1
290
     0
176
     1
 90
        1
176
     1
 40
-50.0
176
     1
 90
        0
176
     1
290
     0
176
     1
290
     1
176
     1
290
     1
176
     1
290
     0
176
     1
290
     0
176
     1
290
     0
176
     1
290
     0
176
     1
290
     0
176
     1
290
     0
176
     1
 90
       50
176
     1
 40
0.0
176
     1
 40
1.0
176
     1
 90
        0
176
     1
 62
    18
420
        0
176
     1
 90
       50
176
     1
 90
        3
176
     1
 62
     5
420
      255
176
     1
290
     0
176
     1
 90
       50
176
     1
 90
       50
176
     1
 90
       50
176
     1
290
     0
176
     1
 90
       50
176
     1
 62
   256
176
     0
 40
1.0
176
     0
 90
        2
176
     1
  1
strokes_ogs.tif
176
     1
290
     0
176
     1
 40
1.0
176
     1
 40
1.0
176
     1
  0
VISUALSTYLE
  5
3D
102
{ACAD_REACTORS
330
2A
102
}
330
2A
100
AcDbVisualStyle
  2
EdgeColorOff
 70
    22
177
     3
291
     1
 70
    58
 90
        2
176
     0
 90
        2
176
     0
 90
        0
176
     0
 90
        0
176
     0
 40
0.6
176
     0
 40
30.0
176
     0
 62
     7
420
 16777215
176
     0
 90
        1
176
     0
 90
        4
176
     0
 62
     7
176
     0
 62
   257
176
     0
 90
        1
176
     0
 90
        1
176
     0
 40
1.0
176
     0
 90
        8
176
     2
 62
     7
176
     0
 40
1.0
176
     0
 90
        1
176
     0
 90
        6
176
     0
 90
        2
176
     0
 62
     7
176
     0
 90
        5
176
     0
 90
        0
176
     0
 90
        0
176
     0
290
     0
176
     0
 90
        1
176
     0
 40
0.0
176
     0
 90
        0
176
     0
290
     0
176
     0
290
     1
176
     0
290
     1
176
     0
290
     0
176
     0
290
     0
176
     0
290
     0
176
     0
290
     0
176
     0
290
     0
176
     0
290
     0
176
     0
 90
       50
176
     0
 40
0.0
176
     0
 40
1.0
176
     0
 90
        0
176
     0
 62
    18
420
        0
176
     0
 90
       50
176
     0
 90
        3
176
     0
 62
     5
420
      255
176
     0
290
     0
176
     0
 90
       50
176
     0
 90
       50
176
     0
 90
       50
176
     0
290
     0
176
     0
 90
       50
176
     0
 62
   256
176
     0
 40
1.0
176
     0
 90
        2
176
     0
  1
strokes_ogs.tif
176
     0
290
     0
176
     0
 40
1.0
176
     0
 40
1.0
176
     0
  0
VISUALSTYLE
  5
39
102
{ACAD_REACTORS
330
2A
102
}
330
2A
100
AcDbVisualStyle
  2
Facepattern
 70
    15
177
     3
291
     1
 70
    58
 90
        2
176
     1
 90
        2
176
     1
 90
        0
176
     1
 90
        0
176
     1
 40
0.6
176
     1
 40
30.0
176
     1
 62
     7
420
 16777215
176
     1
 90
        1
176
     1
 90
        4
176
     1
 62
     7
176
     1
 62
   257
176
     1
 90
        1
176
     1
 90
        1
176
     1
 40
1.0
176
     1
 90
        8
176
     1
 62
     7
176
     1
 40
1.0
176
     1
 90
        1
176
     1
 90
        6
176
     1
 90
        2
176
     1
 62
     7
176
     1
 90
        5
176
     1
 90
        0
176
     1
 90
        0
176
     1
290
     0
176
     1
 90
        1
176
     1
 40
0.0
176
     1
 90
        0
176
     1
290
     0
176
     1
290
     1
176
     1
290
     1
176
     1
290
     0
176
     1
290
     0
176
     1
290
     0
176
     1
290
     0
176
     1
290
     0
176
     1
290
     0
176
     1
 90
       50
176
     1
 40
0.0
176
     1
 40
1.0
176
     1
 90
        0
176
     1
 62
    18
420
        0
176
     1
 90
       50
176
     1
 90
        3
176
     1
 62
     5
420
      255
176
     1
290
     0
176
     1
 90
       50
176
     1
 90
       50
176
     1
 90
       50
176
     1
290
     0
176
     1
 90
       50
176
     1
 62
   256
176
     0
 40
1.0
176
     0
 90
        2
176
     1
  1
strokes_ogs.tif
176
     1
290
     0
176
     1
 40
1.0
176
     1
 40
1.0
176
     1
  0
VISUALSTYLE
  5
2B
102
{ACAD_REACTORS
330
2A
102
}
330
2A
100
AcDbVisualStyle
  2
Flat
 70
     0
177
     3
291
     1
 70
    58
 90
        2
176
     1
 90
        1
176
     1
 90
        1
176
     1
 90
        2
176
     1
 40
0.6
176
     1
 40
30.0
176
     1
 62
     7
420
 16777215
176
     1
 90
        0
176
     1
 90
        0
176
     1
 62
     7
176
     1
 62
   257
176
     1
 90
        1
176
     1
 90
        1
176
     1
 40
1.0
176
     1
 90
        8
176
     1
 62
     7
176
     1
 40
1.0
176
     1
 90
        1
176
     1
 90
        6
176
     1
 90
        2
176
     1
 62
     7
176
     1
 90
        5
176
     1
 90
        0
176
     1
 90
        0
176
     1
290
     0
176
     1
 90
       13
176
     1
 40
0.0
176
     1
 90
        0
176
     1
290
     0
176
     1
290
     1
176
     1
290
     1
176
     1
290
     0
176
     1
290
     0
176
     1
290
     0
176
     1
290
     0
176
     1
290
     0
176
     1
290
     0
176
     1
 90
       50
176
     1
 40
0.0
176
     1
 40
1.0
176
     1
 90
        0
176
     1
 62
    18
420
        0
176
     1
 90
       50
176
     1
 90
        3
176
     1
 62
     5
420
      255
176
     1
290
     0
176
     1
 90
       50
176
     1
 90
       50
176
     1
 90
       50
176
     1
290
     0
176
     1
 90
       50
176
     1
 62
   256
176
     0
 40
1.0
176
     0
 90
        2
176
     1
  1
strokes_ogs.tif
176
     1
290
     0
176
     1
 40
1.0
176
     1
 40
1.0
176
     1
  0
VISUALSTYLE
  5
2C
102
{ACAD_REACTORS
330
2A
102
}
330
2A
100
AcDbVisualStyle
  2
FlatWithEdges
 70
     1
177
     3
291
     1
 70
    58
 90
        2
176
     1
 90
        1
176
     1
 90
        1
176
     1
 90
        2
176
     1
 40
0.6
176
     1
 40
30.0
176
     1
 62
     7
420
 16777215
176
     1
 90
        1
176
     1
 90
        0
176
     1
 62
     7
176
     1
 62
   257
176
     1
 90
        1
176
     1
 90
        1
176
     1
 40
1.0
176
     1
 90
        0
176
     1
 62
   257
176
     1
 40
1.0
176
     1
 90
        1
176
     1
 90
        6
176
     1
 90
        2
176
     1
 62
     7
176
     1
 90
        5
176
     1
 90
        0
176
     1
 90
        0
176
     1
290
     0
176
     1
 90
       13
176
     1
 40
0.0
176
     1
 90
        0
176
     1
290
     0
176
     1
290
     1
176
     1
290
     1
176
     1
290
     0
176
     1
290
     0
176
     1
290
     0
176
     1
290
     0
176
     1
290
     0
176
     1
290
     0
176
     1
 90
       50
176
     1
 40
0.0
176
     1
 40
1.0
176
     1
 90
        0
176
     1
 62
    18
420
        0
176
     1
 90
       50
176
     1
 90
        3
176
     1
 62
     5
420
      255
176
     1
290
     0
176
     1
 90
       50
176
     1
 90
       50
176
     1
 90
       50
176
     1
290
     0
176
     1
 90
       50
176
     1
 62
   256
176
     0
 40
1.0
176
     0
 90
        2
176
     1
  1
strokes_ogs.tif
176
     1
290
     0
176
     1
 40
1.0
176
     1
 40
1.0
176
     1
  0
VISUALSTYLE
  5
2D
102
{ACAD_REACTORS
330
2A
102
}
330
2A
100
AcDbVisualStyle
  2
Gouraud
 70
     2
177
     3
291
     1
 70
    58
 90
        2
176
     1
 90
        2
176
     1
 90
        1
176
     1
 90
        2
176
     1
 40
0.6
176
     1
 40
30.0
176
     1
 62
     7
420
 16777215
176
     1
 90
        0
176
     1
 90
        0
176
     1
 62
     7
176
     1
 62
   257
176
     1
 90
        1
176
     1
 90
        1
176
     1
 40
1.0
176
     1
 90
        0
176
     1
 62
     7
176
     1
 40
1.0
176
     1
 90
        1
176
     1
 90
        6
176
     1
 90
        2
176
     1
 62
     7
176
     1
 90
        5
176
     1
 90
        0
176
     1
 90
        0
176
     1
290
     0
176
     1
 90
       13
176
     1
 40
0.0
176
     1
 90
        0
176
     1
290
     0
176
     1
290
     1
176
     1
290
     1
176
     1
290
     0
176
     1
290
     0
176
     1
290
     0
176
     1
290
     0
176
     1
290
     0
176
     1
290
     0
176
     1
 90
       50
176
     1
 40
0.0
176
     1
 40
1.0
176
     1
 90
        0
176
     1
 62
    18
420
        0
176
     1
 90
       50
176
     1
 90
        3
176
     1
 62
     5
420
      255
176
     1
290
     0
176
     1
 90
       50
176
     1
 90
       50
176
     1
 90
       50
176
     1
290
     0
176
     1
 90
       50
176
     1
 62
   256
176
     0
 40
1.0
176
     0
 90
        2
176
     1
  1
strokes_ogs.tif
176
     1
290
     0
176
     1
 40
1.0
176
     1
 40
1.0
176
     1
  0
VISUALSTYLE
  5
2E
102
{ACAD_REACTORS
330
2A
102
}
330
2A
100
AcDbVisualStyle
  2
GouraudWithEdges
 70
     3
177
     3
291
     1
 70
    58
 90
        2
176
     1
 90
        2
176
     1
 90
        1
176
     1
 90
        2
176
     1
 40
0.6
176
     1
 40
30.0
176
     1
 62
     7
420
 16777215
176
     1
 90
        1
176
     1
 90
        0
176
     1
 62
     7
176
     1
 62
   257
176
     1
 90
        1
176
     1
 90
        1
176
     1
 40
1.0
176
     1
 90
        0
176
     1
 62
   257
176
     1
 40
1.0
176
     1
 90
        1
176
     1
 90
        6
176
     1
 90
        2
176
     1
 62
     7
176
     1
 90
        5
176
     1
 90
        0
176
     1
 90
        0
176
     1
290
     0
176
     1
 90
       13
176
     1
 40
0.0
176
     1
 90
        0
176
     1
290
     0
176
     1
290
     1
176
     1
290
     1
176
     1
290
     0
176
     1
290
     0
176
     1
290
     0
176
     1
290
     0
176
     1
290
     0
176
     1
290
     0
176
     1
 90
       50
176
     1
 40
0.0
176
     1
 40
1.0
176
     1
 90
        0
176
     1
 62
    18
420
        0
176
     1
 90
       50
176
     1
 90
        3
176
     1
 62
     5
420
      255
176
     1
290
     0
176
     1
 90
       50
176
     1
 90
       50
176
     1
 90
       50
176
     1
290
     0
176
     1
 90
       50
176
     1
 62
   256
176
     0
 40
1.0
176
     0
 90
        2
176
     1
  1
strokes_ogs.tif
176
     1
290
     0
176
     1
 40
1.0
176
     1
 40
1.0
176
     1
  0
VISUALSTYLE
  5
31
102
{ACAD_REACTORS
330
2A
102
}
330
2A
100
AcDbVisualStyle
  2
Hidden
 70
     6
177
     3
291
     0
 70
    58
 90
        1
176
     1
 90
        2
176
     1
 90
        2
176
     1
 90
        0
176
     1
 40
0.6
176
     1
 40
30.0
176
     1
 62
     7
420
 16777215
176
     1
 90
        2
176
     1
 90
        2
176
     1
 62
     7
176
     1
 62
   257
176
     1
 90
        2
176
     1
 90
        1
176
     1
 40
40.0
176
     1
 90
        0
176
     1
 62
   257
176
     1
 40
1.0
176
     1
 90
        1
176
     1
 90
        6
176
     1
 90
        2
176
     1
 62
     7
176
     1
 90
        3
176
     1
 90
        0
176
     1
 90
        0
176
     1
290
     0
176
     1
 90
        1
176
     1
 40
0.0
176
     1
 90
        0
176
     1
290
     0
176
     1
290
     1
176
     1
290
     1
176
     1
290
     0
176
     1
290
     0
176
     1
290
     0
176
     1
290
     0
176
     1
290
     0
176
     1
290
     0
176
     1
 90
       50
176
     1
 40
0.0
176
     1
 40
1.0
176
     1
 90
        0
176
     1
 62
    18
420
        0
176
     1
 90
       50
176
     1
 90
        3
176
     1
 62
     5
420
      255
176
     1
290
     0
176
     1
 90
       50
176
     1
 90
       50
176
     1
 90
       50
176
     1
290
     0
176
     1
 90
       50
176
     1
 62
   256
176
     0
 40
1.0
176
     0
 90
        2
176
     1
  1
strokes_ogs.tif
176
     1
290
     0
176
     1
 40
1.0
176
     1
 40
1.0
176
     1
  0
VISUALSTYLE
  5
3B
102
{ACAD_REACTORS
330
2A
102
}
330
2A
100
AcDbVisualStyle
  2
JitterOff
 70
    20
177
     3
291
     1
 70
    58
 90
        2
176
     0
 90
        2
176
     0
 90
        0
176
     0
 90
        0
176
     0
 40
0.6
176
     0
 40
30.0
176
     0
 62
     7
420
 16777215
176
     0
 90
        1
176
     0
 90
        4
176
     0
 62
     7
176
     0
 62
   257
176
     0
 90
        1
176
     0
 90
        1
176
     0
 40
1.0
176
     0
 90
       10
176
     2
 62
     7
176
     0
 40
1.0
176
     0
 90
        1
176
     0
 90
        6
176
     0
 90
        2
176
     0
 62
     7
176
     0
 90
        5
176
     0
 90
        0
176
     0
 90
        0
176
     0
290
     0
176
     0
 90
        1
176
     0
 40
0.0
176
     0
 90
        0
176
     0
290
     0
176
     0
290
     1
176
     0
290
     1
176
     0
290
     0
176
     0
290
     0
176
     0
290
     0
176
     0
290
     0
176
     0
290
     0
176
     0
290
     0
176
     0
 90
       50
176
     0
 40
0.0
176
     0
 40
1.0
176
     0
 90
        0
176
     0
 62
    18
420
        0
176
     0
 90
       50
176
     0
 90
        3
176
     0
 62
     5
420
      255
176
     0
290
     0
176
     0
 90
       50
176
     0
 90
       50
176
     0
 90
       50
176
     0
290
     0
176
     0
 90
       50
176
     0
 62
   256
176
     0
 40
1.0
176
     0
 90
        2
176
     0
  1
strokes_ogs.tif
176
     0
290
     0
176
     0
 40
1.0
176
     0
 40
1.0
176
     0
  0
VISUALSTYLE
  5
38
102
{ACAD_REACTORS
330
2A
102
}
330
2A
100
AcDbVisualStyle
  2
Linepattern
 70
    14
177
     3
291
     1
 70
    58
 90
        2
176
     1
 90
        2
176
     1
 90
        0
176
     1
 90
        0
176
     1
 40
0.6
176
     1
 40
30.0
176
     1
 62
     7
420
 16777215
176
     1
 90
        1
176
     1
 90
        4
176
     1
 62
     7
176
     1
 62
   257
176
     1
 90
        7
176
     1
 90
        7
176
     1
 40
1.0
176
     1
 90
        8
176
     1
 62
     7
176
     1
 40
1.0
176
     1
 90
        1
176
     1
 90
        6
176
     1
 90
        2
176
     1
 62
     7
176
     1
 90
        5
176
     1
 90
        0
176
     1
 90
        0
176
     1
290
     0
176
     1
 90
        1
176
     1
 40
0.0
176
     1
 90
        0
176
     1
290
     0
176
     1
290
     1
176
     1
290
     1
176
     1
290
     0
176
     1
290
     0
176
     1
290
     0
176
     1
290
     0
176
     1
290
     0
176
     1
290
     0
176
     1
 90
       50
176
     1
 40
0.0
176
     1
 40
1.0
176
     1
 90
        0
176
     1
 62
    18
420
        0
176
     1
 90
       50
176
     1
 90
        3
176
     1
 62
     5
420
      255
176
     1
290
     0
176
     1
 90
       50
176
     1
 90
       50
176
     1
 90
       50
176
     1
290
     0
176
     1
 90
       50
176
     1
 62
   256
176
     0
 40
1.0
176
     0
 90
        2
176
     1
  1
strokes_ogs.tif
176
     1
290
     0
176
     1
 40
1.0
176
     1
 40
1.0
176
     1
  0
VISUALSTYLE
  5
3C
102
{ACAD_REACTORS
330
2A
102
}
330
2A
100
AcDbVisualStyle
  2
OverhangOff
 70
    21
177
     3
291
     1
 70
    58
 90
        2
176
     0
 90
        2
176
     0
 90
        0
176
     0
 90
        0
176
     0
 40
0.6
176
     0
 40
30.0
176
     0
 62
     7
420
 16777215
176
     0
 90
        1
176
     0
 90
        4
176
     0
 62
     7
176
     0
 62
   257
176
     0
 90
        1
176
     0
 90
        1
176
     0
 40
1.0
176
     0
 90
        9
176
     2
 62
     7
176
     0
 40
1.0
176
     0
 90
        1
176
     0
 90
        6
176
     0
 90
        2
176
     0
 62
     7
176
     0
 90
        5
176
     0
 90
        0
176
     0
 90
        0
176
     0
290
     0
176
     0
 90
        1
176
     0
 40
0.0
176
     0
 90
        0
176
     0
290
     0
176
     0
290
     1
176
     0
290
     1
176
     0
290
     0
176
     0
290
     0
176
     0
290
     0
176
     0
290
     0
176
     0
290
     0
176
     0
290
     0
176
     0
 90
       50
176
     0
 40
0.0
176
     0
 40
1.0
176
     0
 90
        0
176
     0
 62
    18
420
        0
176
     0
 90
       50
176
     0
 90
        3
176
     0
 62
     5
420
      255
176
     0
290
     0
176
     0
 90
       50
176
     0
 90
       50
176
     0
 90
       50
176
     0
290
     0
176
     0
 90
       50
176
     0
 62
   256
176
     0
 40
1.0
176
     0
 90
        2
176
     0
  1
strokes_ogs.tif
176
     0
290
     0
176
     0
 40
1.0
176
     0
 40
1.0
176
     0
  0
VISUALSTYLE
  5
33
102
{ACAD_REACTORS
330
2A
102
}
330
2A
100
AcDbVisualStyle
  2
Realistic
 70
     8
177
     3
291
     0
 70
    58
 90
        2
176
     1
 90
        3
176
     1
 90
        0
176
     1
 90
        2
176
     1
 40
0.6
176
     1
 40
30.0
176
     1
 62
     7
420
 16777215
176
     1
 90
        0
176
     1
 90
        0
176
     1
 62
     7
176
     1
 62
   257
176
     1
 90
        1
176
     1
 90
        1
176
     1
 40
1.0
176
     1
 90
        8
176
     1
 62
   257
176
     1
 40
1.0
176
     1
 90
        1
176
     1
 90
        6
176
     1
 90
        2
176
     1
 62
     7
176
     1
 90
        3
176
     1
 90
        0
176
     1
 90
        0
176
     1
290
     0
176
     1
 90
       13
176
     1
 40
0.0
176
     1
 90
        0
176
     1
290
     0
176
     1
290
     1
176
     1
290
     1
176
     1
290
     0
176
     1
290
     0
176
     1
290
     0
176
     1
290
     0
176
     1
290
     0
176
     1
290
     0
176
     1
 90
       50
176
     1
 40
0.0
176
     1
 40
1.0
176
     1
 90
        0
176
     1
 62
    18
420
        0
176
     1
 90
       50
176
     1
 90
        3
176
     1
 62
     5
420
      255
176
     1
290
     0
176
     1
 90
       50
176
     1
 90
       50
176
     1
 90
       50
176
     1
290
     0
176
     1
 90
       50
176
     1
 62
   256
176
     0
 40
1.0
176
     0
 90
        2
176
     1
  1
strokes_ogs.tif
176
     1
290
     0
176
     1
 40
1.0
176
     1
 40
1.0
176
     1
  0
VISUALSTYLE
  5
42
102
{ACAD_REACTORS
330
2A
102
}
330
2A
100
AcDbVisualStyle
  2
Shaded
 70
    27
177
     3
291
     0
 70
    58
 90
        2
176
     1
 90
        2
176
     1
 90
        1
176
     1
 90
        2
176
     1
 40
0.6
176
     1
 40
30.0
176
     1
 62
     7
420
 16777215
176
     1
 90
        0
176
     1
 90
        4
176
     1
 62
     7
176
     1
 62
   257
176
     1
 90
        1
176
     1
 90
        1
176
     1
 40
1.0
176
     1
 90
        8
176
     1
 62
   257
176
     1
 40
1.0
176
     1
 90
        1
176
     1
 90
        6
176
     1
 90
        2
176
     1
 62
     8
420
  7895160
176
     1
 90
        3
176
     1
 90
        0
176
     1
 90
        0
176
     1
290
     0
176
     1
 90
        5
176
     1
 40
0.0
176
     1
 90
        0
176
     1
290
     0
176
     1
290
     1
176
     1
290
     1
176
     1
290
     0
176
     1
290
     0
176
     1
290
     0
176
     1
290
     0
176
     1
290
     0
176
     1
290
     0
176
     1
 90
       50
176
     1
 40
0.0
176
     1
 40
1.0
176
     1
 90
        0
176
     1
 62
    18
420
        0
176
     1
 90
       50
176
     1
 90
        3
176
     1
 62
     5
420
      255
176
     1
290
     0
176
     1
 90
       50
176
     1
 90
       50
176
     1
 90
       50
176
     1
290
     0
176
     1
 90
       50
176
     1
 62
   256
176
     0
 40
1.0
176
     0
 90
        2
176
     1
  1
strokes_ogs.tif
176
     1
290
     0
176
     1
 40
1.0
176
     1
 40
1.0
176
     1
  0
VISUALSTYLE
  5
41
102
{ACAD_REACTORS
330
2A
102
}
330
2A
100
AcDbVisualStyle
  2
Shaded with edges
 70
    26
177
     3
291
     0
 70
    58
 90
        2
176
     1
 90
        2
176
     1
 90
        1
176
     1
 90
        2
176
     1
 40
0.6
176
     1
 40
30.0
176
     1
 62
     7
420
 16777215
176
     1
 90
        1
176
     1
 90
       10
176
     1
 62
     7
176
     1
 62
   257
176
     1
 90
        2
176
     1
 90
        1
176
     1
 40
1.0
176
     1
 90
        8
176
     1
 62
   257
176
     1
 40
1.0
176
     1
 90
        1
176
     1
 90
        6
176
     1
 90
        2
176
     1
 62
     7
176
     1
 90
        3
176
     1
 90
        0
176
     1
 90
        0
176
     1
290
     0
176
     1
 90
        5
176
     1
 40
0.0
176
     1
 90
        0
176
     1
290
     0
176
     1
290
     1
176
     1
290
     1
176
     1
290
     0
176
     1
290
     0
176
     1
290
     0
176
     1
290
     0
176
     1
290
     0
176
     1
290
     0
176
     1
 90
       50
176
     1
 40
0.0
176
     1
 40
1.0
176
     1
 90
        0
176
     1
 62
    18
420
        0
176
     1
 90
       50
176
     1
 90
        3
176
     1
 62
     5
420
      255
176
     1
290
     0
176
     1
 90
       50
176
     1
 90
       50
176
     1
 90
       50
176
     1
290
     0
176
     1
 90
       50
176
     1
 62
   256
176
     0
 40
1.0
176
     0
 90
        2
176
     1
  1
strokes_ogs.tif
176
     1
290
     0
176
     1
 40
1.0
176
     1
 40
1.0
176
     1
  0
VISUALSTYLE
  5
3E
102
{ACAD_REACTORS
330
2A
102
}
330
2A
100
AcDbVisualStyle
  2
Shades of Gray
 70
    23
177
     3
291
     0
 70
    58
 90
        2
176
     1
 90
        2
176
     1
 90
        3
176
     1
 90
        0
176
     1
 40
0.6
176
     1
 40
30.0
176
     1
 62
     7
420
 16777215
176
     1
 90
        2
176
     1
 90
        2
176
     1
 62
     7
176
     1
 62
     7
176
     1
 90
        1
176
     1
 90
        1
176
     1
 40
40.0
176
     1
 90
        8
176
     1
 62
     7
176
     1
 40
1.0
176
     1
 90
        1
176
     1
 90
        6
176
     1
 90
        2
176
     1
 62
     7
176
     1
 90
        3
176
     1
 90
        0
176
     1
 90
        0
176
     1
290
     0
176
     1
 90
        1
176
     1
 40
0.0
176
     1
 90
        0
176
     1
290
     0
176
     1
290
     1
176
     1
290
     1
176
     1
290
     0
176
     1
290
     0
176
     1
290
     0
176
     1
290
     0
176
     1
290
     0
176
     1
290
     0
176
     1
 90
       50
176
     1
 40
0.0
176
     1
 40
1.0
176
     1
 90
        0
176
     1
 62
    18
420
        0
176
     1
 90
       50
176
     1
 90
        3
176
     1
 62
     5
420
      255
176
     1
290
     0
176
     1
 90
       50
176
     1
 90
       50
176
     1
 90
       50
176
     1
290
     0
176
     1
 90
       50
176
     1
 62
   256
176
     0
 40
1.0
176
     0
 90
        2
176
     1
  1
strokes_ogs.tif
176
     1
290
     0
176
     1
 40
1.0
176
     1
 40
1.0
176
     1
  0
VISUALSTYLE
  5
3F
102
{ACAD_REACTORS
330
2A
102
}
330
2A
100
AcDbVisualStyle
  2
Sketchy
 70
    24
177
     3
291
     0
 70
    58
 90
        1
176
     1
 90
        2
176
     1
 90
        2
176
     1
 90
        0
176
     1
 40
0.6
176
     1
 40
30.0
176
     1
 62
     7
420
 16777215
176
     1
 90
        2
176
     1
 90
        2
176
     1
 62
     7
176
     1
 62
     7
176
     1
 90
        1
176
     1
 90
        1
176
     1
 40
40.0
176
     1
 90
       11
176
     1
 62
     7
176
     1
 40
1.0
176
     1
 90
        1
176
     1
 90
        6
176
     1
 90
        2
176
     1
 62
     7
176
     1
 90
        6
176
     1
 90
        0
176
     1
 90
        0
176
     1
290
     0
176
     1
 90
        1
176
     1
 40
0.0
176
     1
 90
        0
176
     1
290
     0
176
     1
290
     1
176
     1
290
     1
176
     1
290
     0
176
     1
290
     0
176
     1
290
     0
176
     1
290
     0
176
     1
290
     0
176
     1
290
     0
176
     1
 90
       50
176
     1
 40
0.0
176
     1
 40
1.0
176
     1
 90
        0
176
     1
 62
    18
420
        0
176
     1
 90
       50
176
     1
 90
        3
176
     1
 62
     5
420
      255
176
     1
290
     0
176
     1
 90
       50
176
     1
 90
       50
176
     1
 90
       50
176
     1
290
     0
176
     1
 90
       50
176
     1
 62
   256
176
     0
 40
1.0
176
     0
 90
        2
176
     1
  1
strokes_ogs.tif
176
     1
290
     0
176
     1
 40
1.0
176
     1
 40
1.0
176
     1
  0
VISUALSTYLE
  5
37
102
{ACAD_REACTORS
330
2A
102
}
330
2A
100
AcDbVisualStyle
  2
Thicken
 70
    13
177
     3
291
     1
 70
    58
 90
        2
176
     1
 90
        2
176
     1
 90
        0
176
     1
 90
        0
176
     1
 40
0.6
176
     1
 40
30.0
176
     1
 62
     7
420
 16777215
176
     1
 90
        1
176
     1
 90
        4
176
     1
 62
     7
176
     1
 62
   257
176
     1
 90
        1
176
     1
 90
        1
176
     1
 40
1.0
176
     1
 90
       12
176
     1
 62
     7
176
     1
 40
1.0
176
     1
 90
        1
176
     1
 90
        6
176
     1
 90
        2
176
     1
 62
     7
176
     1
 90
        5
176
     1
 90
        0
176
     1
 90
        0
176
     1
290
     0
176
     1
 90
        1
176
     1
 40
0.0
176
     1
 90
        0
176
     1
290
     0
176
     1
290
     1
176
     1
290
     1
176
     1
290
     0
176
     1
290
     0
176
     1
290
     0
176
     1
290
     0
176
     1
290
     0
176
     1
290
     0
176
     1
 90
       50
176
     1
 40
0.0
176
     1
 40
1.0
176
     1
 90
        0
176
     1
 62
    18
420
        0
176
     1
 90
       50
176
     1
 90
        3
176
     1
 62
     5
420
      255
176
     1
290
     0
176
     1
 90
       50
176
     1
 90
       50
176
     1
 90
       50
176
     1
290
     0
176
     1
 90
       50
176
     1
 62
   256
176
     0
 40
1.0
176
     0
 90
        2
176
     1
  1
strokes_ogs.tif
176
     1
290
     0
176
     1
 40
1.0
176
     1
 40
1.0
176
     1
  0
VISUALSTYLE
  5
30
102
{ACAD_REACTORS
330
2A
102
}
330
2A
100
AcDbVisualStyle
  2
Wireframe
 70
     5
177
     3
291
     0
 70
    58
 90
        0
176
     1
 90
        2
176
     1
 90
        0
176
     1
 90
        0
176
     1
 40
0.6
176
     1
 40
30.0
176
     1
 62
     7
420
 16777215
176
     1
 90
        1
176
     1
 90
        4
176
     1
 62
     7
176
     1
 62
   257
176
     1
 90
        1
176
     1
 90
        1
176
     1
 40
1.0
176
     1
 90
        0
176
     1
 62
   257
176
     1
 40
1.0
176
     1
 90
        1
176
     1
 90
        6
176
     1
 90
        2
176
     1
 62
     7
176
     1
 90
        3
176
     1
 90
        0
176
     1
 90
        0
176
     1
290
     0
176
     1
 90
        1
176
     1
 40
0.0
176
     1
 90
        0
176
     1
290
     0
176
     1
290
     1
176
     1
290
     1
176
     1
290
     0
176
     1
290
     0
176
     1
290
     0
176
     1
290
     0
176
     1
290
     0
176
     1
290
     0
176
     1
 90
       50
176
     1
 40
0.0
176
     1
 40
1.0
176
     1
 90
        0
176
     1
 62
    18
420
        0
176
     1
 90
       50
176
     1
 90
        3
176
     1
 62
     5
420
      255
176
     1
290
     0
176
     1
 90
       50
176
     1
 90
       50
176
     1
 90
       50
176
     1
290
     0
176
     1
 90
       50
176
     1
 62
   256
176
     0
 40
1.0
176
     0
 90
        2
176
     1
  1
strokes_ogs.tif
176
     1
290
     0
176
     1
 40
1.0
176
     1
 40
1.0
176
     1
  0
VISUALSTYLE
  5
40
102
{ACAD_REACTORS
330
2A
102
}
330
2A
100
AcDbVisualStyle
  2
X-Ray
 70
    25
177
     3
291
     0
 70
    58
 90
        2
176
     1
 90
        2
176
     1
 90
        1
176
     1
 90
        1
176
     1
 40
0.5
176
     1
 40
30.0
176
     1
 62
     7
420
 16777215
176
     1
 90
        1
176
     1
 90
        0
176
     1
 62
     7
176
     1
 62
   257
176
     1
 90
        1
176
     1
 90
        1
176
     1
 40
1.0
176
     1
 90
        8
176
     1
 62
     7
176
     1
 40
1.0
176
     1
 90
        1
176
     1
 90
        6
176
     1
 90
        2
176
     1
 62
     7
176
     1
 90
        3
176
     1
 90
        0
176
     1
 90
        0
176
     1
290
     0
176
     1
 90
       13
176
     1
 40
0.0
176
     1
 90
        0
176
     1
290
     0
176
     1
290
     1
176
     1
290
     1
176
     1
290
     0
176
     1
290
     0
176
     1
290
     0
176
     1
290
     0
176
     1
290
     0
176
     1
290
     0
176
     1
 90
       50
176
     1
 40
0.0
176
     1
 40
1.0
176
     1
 90
        0
176
     1
 62
    18
420
        0
176
     1
 90
       50
176
     1
 90
        3
176
     1
 62
     5
420
      255
176
     1
290
     0
176
     1
 90
       50
176
     1
 90
       50
176
     1
 90
       50
176
     1
290
     0
176
     1
 90
       50
176
     1
 62
   256
176
     0
 40
1.0
176
     0
 90
        2
176
     1
  1
strokes_ogs.tif
176
     1
290
     0
176
     1
 40
1.0
176
     1
 40
1.0
176
     1
  0
DICTIONARYVAR
  5
2F6
102
{ACAD_REACTORS
330
2F5
102
}
330
2F5
100
DictionaryVariables
280
     0
  1
1:1
  0
DICTIONARYVAR
  5
2FE
102
{ACAD_REACTORS
330
2F5
102
}
330
2F5
100
DictionaryVariables
280
     0
  1
3.500000
  0
DICTIONARYVAR
  5
2FF
102
{ACAD_REACTORS
330
2F5
102
}
330
2F5
100
DictionaryVariables
280
     0
  1
acadiso.lin
  0
DICTIONARYVAR
  5
2FB
102
{ACAD_REACTORS
330
2F5
102
}
330
2F5
100
DictionaryVariables
280
     0
  1
Standard
  0
DICTIONARYVAR
  5
2FA
102
{ACAD_REACTORS
330
2F5
102
}
330
2F5
100
DictionaryVariables
280
     0
  1
Standard
  0
DICTIONARY
  5
2F7
330
6A
100
AcDbDictionary
280
     1
281
     1
  3
ACAD_ROUNDTRIP_2008_TABLESTYLE_CELLSTYLEMAP
360
2F8
  0
CELLSTYLEMAP
  5
2F8
102
{ACAD_REACTORS
330
2F7
102
}
330
2F7
100
AcDbCellStyleMap
 90
        3
300
CELLSTYLE
  1
TABLEFORMAT_BEGIN
 90
        5
170
     1
 91
        0
 92
    32768
 62
   257
 93
        1
300
CONTENTFORMAT
  1
CONTENTFORMAT_BEGIN
 90
        0
 91
        0
 92
        4
 93
        0
300

 40
0.0
140
1.0
 94
        5
 62
     0
340
11
144
6.0
309
CONTENTFORMAT_END
171
     1
301
MARGIN
  1
CELLMARGIN_BEGIN
 40
1.5
 40
1.5
 40
1.5
 40
1.5
 40
1.5
 40
1.5
309
CELLMARGIN_END
 94
        6
 95
        1
302
GRIDFORMAT
  1
GRIDFORMAT_BEGIN
 90
        0
 91
        1
 62
     0
 92
       -2
340
14
 93
        0
 40
0.045
309
GRIDFORMAT_END
 95
        2
302
GRIDFORMAT
  1
GRIDFORMAT_BEGIN
 90
        0
 91
        1
 62
     0
 92
       -2
340
14
 93
        0
 40
0.045
309
GRIDFORMAT_END
 95
        4
302
GRIDFORMAT
  1
GRIDFORMAT_BEGIN
 90
        0
 91
        1
 62
     0
 92
       -2
340
14
 93
        0
 40
0.045
309
GRIDFORMAT_END
 95
        8
302
GRIDFORMAT
  1
GRIDFORMAT_BEGIN
 90
        0
 91
        1
 62
     0
 92
       -2
340
14
 93
        0
 40
0.045
309
GRIDFORMAT_END
 95
       16
302
GRIDFORMAT
  1
GRIDFORMAT_BEGIN
 90
        0
 91
        1
 62
     0
 92
       -2
340
14
 93
        0
 40
0.045
309
GRIDFORMAT_END
 95
       32
302
GRIDFORMAT
  1
GRIDFORMAT_BEGIN
 90
        0
 91
        1
 62
     0
 92
       -2
340
14
 93
        0
 40
0.045
309
GRIDFORMAT_END
309
TABLEFORMAT_END
  1
CELLSTYLE_BEGIN
 90
        1
 91
        1
300
_TITLE
309
CELLSTYLE_END
300
CELLSTYLE
  1
TABLEFORMAT_BEGIN
 90
        5
170
     1
 91
        0
 92
        0
 62
   257
 93
        1
300
CONTENTFORMAT
  1
CONTENTFORMAT_BEGIN
 90
        0
 91
        0
 92
        4
 93
        0
300

 40
0.0
140
1.0
 94
        5
 62
     0
340
11
144
4.5
309
CONTENTFORMAT_END
171
     1
301
MARGIN
  1
CELLMARGIN_BEGIN
 40
1.5
 40
1.5
 40
1.5
 40
1.5
 40
1.5
 40
1.5
309
CELLMARGIN_END
 94
        6
 95
        1
302
GRIDFORMAT
  1
GRIDFORMAT_BEGIN
 90
        0
 91
        1
 62
     0
 92
       -2
340
14
 93
        0
 40
0.045
309
GRIDFORMAT_END
 95
        2
302
GRIDFORMAT
  1
GRIDFORMAT_BEGIN
 90
        0
 91
        1
 62
     0
 92
       -2
340
14
 93
        0
 40
0.045
309
GRIDFORMAT_END
 95
        4
302
GRIDFORMAT
  1
GRIDFORMAT_BEGIN
 90
        0
 91
        1
 62
     0
 92
       -2
340
14
 93
        0
 40
0.045
309
GRIDFORMAT_END
 95
        8
302
GRIDFORMAT
  1
GRIDFORMAT_BEGIN
 90
        0
 91
        1
 62
     0
 92
       -2
340
14
 93
        0
 40
0.045
309
GRIDFORMAT_END
 95
       16
302
GRIDFORMAT
  1
GRIDFORMAT_BEGIN
 90
        0
 91
        1
 62
     0
 92
       -2
340
14
 93
        0
 40
0.045
309
GRIDFORMAT_END
 95
       32
302
GRIDFORMAT
  1
GRIDFORMAT_BEGIN
 90
        0
 91
        1
 62
     0
 92
       -2
340
14
 93
        0
 40
0.045
309
GRIDFORMAT_END
309
TABLEFORMAT_END
  1
CELLSTYLE_BEGIN
 90
        2
 91
        1
300
_HEADER
309
CELLSTYLE_END
300
CELLSTYLE
  1
TABLEFORMAT_BEGIN
 90
        5
170
     1
 91
        0
 92
        0
 62
   257
 93
        1
300
CONTENTFORMAT
  1
CONTENTFORMAT_BEGIN
 90
        0
 91
        0
 92
        4
 93
        0
300

 40
0.0
140
1.0
 94
        2
 62
     0
340
11
144
4.5
309
CONTENTFORMAT_END
171
     1
301
MARGIN
  1
CELLMARGIN_BEGIN
 40
1.5
 40
1.5
 40
1.5
 40
1.5
 40
1.5
 40
1.5
309
CELLMARGIN_END
 94
        6
 95
        1
302
GRIDFORMAT
  1
GRIDFORMAT_BEGIN
 90
        0
 91
        1
 62
     0
 92
       -2
340
14
 93
        0
 40
0.045
309
GRIDFORMAT_END
 95
        2
302
GRIDFORMAT
  1
GRIDFORMAT_BEGIN
 90
        0
 91
        1
 62
     0
 92
       -2
340
14
 93
        0
 40
0.045
309
GRIDFORMAT_END
 95
        4
302
GRIDFORMAT
  1
GRIDFORMAT_BEGIN
 90
        0
 91
        1
 62
     0
 92
       -2
340
14
 93
        0
 40
0.045
309
GRIDFORMAT_END
 95
        8
302
GRIDFORMAT
  1
GRIDFORMAT_BEGIN
 90
        0
 91
        1
 62
     0
 92
       -2
340
14
 93
        0
 40
0.045
309
GRIDFORMAT_END
 95
       16
302
GRIDFORMAT
  1
GRIDFORMAT_BEGIN
 90
        0
 91
        1
 62
     0
 92
       -2
340
14
 93
        0
 40
0.045
309
GRIDFORMAT_END
 95
       32
302
GRIDFORMAT
  1
GRIDFORMAT_BEGIN
 90
        0
 91
        1
 62
     0
 92
       -2
340
14
 93
        0
 40
0.045
309
GRIDFORMAT_END
309
TABLEFORMAT_END
  1
CELLSTYLE_BEGIN
 90
        3
 91
        2
300
_DATA
309
CELLSTYLE_END
  0
ENDSEC
  0
EOF
