999
Created by Soft Gold Ltd. www.cadsofttools.com
999
ABViewer 11; 
  0
SECTION
  2
HEADER
  9
$ACADVER
  1
AC1018
  9
$DWGCODEPAGE
  3
ANSI_1252
  9
$CLAYER
  8
0
  9
$CELTYPE
  6
BYLAYER
  9
$CELTSCALE
 40
1
  9
$CELWEIGHT
370
-1
  9
$DIMALT
 70
0
  9
$DIMALTF
 40
1
  9
$DIMAPOST
  1

  9
$DIMSCALE
 40
50
  9
$DIMASZ
 40
100
  9
$DIMCLRD
 70
124
  9
$DIMCLRE
 70
124
  9
$DIMCLRT
 70
124
  9
$DIMEXE
 40
25
  9
$DIMEXO
 40
20
  9
$DIMGAP
 40
10
  9
$DIMLFAC
 40
1
  9
$DIMDEC
 70
0
  9
$DIMTAD
 70
1
  9
$DIMCEN
 40
100
  9
$DIMTIH
 70
0
  9
$DIMTIX
 70
0
  9
$DIMTOH
 70
0
  9
$DIMSE1
 70
0
  9
$DIMSE2
 70
0
  9
$DIMSD1
 70
0
  9
$DIMSD2
 70
0
  9
$DIMLWD
 70
-2
  9
$DIMLWE
 70
-2
  9
$DIMPOST
  1

  9
$DIMSAH
 70
0
  9
$DIMBLK
  1
_ARCHTICK
  9
$DIMBLK1
  1

  9
$DIMBLK2
  1

  9
$DIMLDRBLK
  1

  9
$DIMSTYLE
  2
STAV
  9
$DIMTXT
 40
250
  9
$DIMTXSTY
  7
ISOCP
  9
$TEXTSIZE
 40
2.5
  9
$TEXTSTYLE
  7
GENISO
  9
$HANDSEED
  5
000000000000134D
  9
$FILLETRAD
 40
0.5
  9
$INSUNITS
 70
6
  9
$LIMMIN
 10
-17.0785818356981
 20
-10115.6795482414
  9
$LIMMAX
 10
23748.2222716792
 20
-1.00971345313246
  9
$LTSCALE
 40
1
  9
$MEASUREMENT
 70
1
  9
$ATTMODE
 70
1
  9
$PDMODE
 70
0
  9
$PDSIZE
 40
0
  9
$TILEMODE
 70
1
  9
$UCSORG
 10
0
 20
0
 30
0
  9
$UCSXDIR
 10
1
 20
0
 30
0
  9
$UCSYDIR
 10
0
 20
1
 30
0
  9
$INSBASE
 10
0
 20
0
 30
0
  9
$XCLIPFRAME
290
1
  0
ENDSEC
  0
SECTION
  2
CLASSES
  0
CLASS
  1
IMAGE
  2
AcDbRasterImage
  3
ISM
 90
2175
 91
1
280
0
281
1
  0
CLASS
  1
IMAGEDEF
  2
AcDbRasterImageDef
  3
ISM
 90
0
 91
1
280
0
281
0
  0
CLASS
  1
WIPEOUT
  2
AcDbWipeout
  3
"WipeOut"
 90
2175
 91
1
280
0
281
1
  0
CLASS
  1
WIPEOUTVARIABLES
  2
AcDbWipeoutVariables
  3
"WipeOut"
 90
0
 91
1
280
0
281
0
  0
CLASS
  1
MPOLYGON
  2
AcDbMPolygon
  3
"AcMPolygonObj15"
 90
3071
 91
1
280
0
281
1
  0
ENDSEC
  0
SECTION
  2
TABLES
  0
TABLE
  2
APPID
  5
131F
100
AcDbSymbolTable
  0
APPID
  5
1320
100
AcDbSymbolTableRecord
100
AcDbRegAppTableRecord
  2
ACAD
 70
0
  0
APPID
  5
12
100
AcDbSymbolTableRecord
100
AcDbRegAppTableRecord
  2
CSTINVENTORY
 70
0
  0
APPID
  5
1321
100
AcDbSymbolTableRecord
100
AcDbRegAppTableRecord
  2
AcDbAttr
 70
0
  0
APPID
  5
1322
100
AcDbSymbolTableRecord
100
AcDbRegAppTableRecord
  2
PE_URL
 70
0
  0
ENDTAB
  0
TABLE
  2
BLOCK_RECORD
  5
1323
100
AcDbSymbolTable
  0
BLOCK_RECORD
  5
22
100
AcDbSymbolTableRecord
100
AcDbBlockTableRecord
  2
*MODEL_SPACE
  0
BLOCK_RECORD
  5
1324
100
AcDbSymbolTableRecord
100
AcDbBlockTableRecord
  2
*PAPER_SPACE
  0
BLOCK_RECORD
  5
10
100
AcDbSymbolTableRecord
100
AcDbBlockTableRecord
  2
_CLOSEDFILLED
  0
BLOCK_RECORD
  5
17
100
AcDbSymbolTableRecord
100
AcDbBlockTableRecord
  2
ABViewer_RedLine
  0
BLOCK_RECORD
  5
D2
100
AcDbSymbolTableRecord
100
AcDbBlockTableRecord
  2
*sgDim0
  0
BLOCK_RECORD
  5
C4
100
AcDbSymbolTableRecord
100
AcDbBlockTableRecord
  2
sgCLOSEDFILEDLINE
  0
BLOCK_RECORD
  5
199
100
AcDbSymbolTableRecord
100
AcDbBlockTableRecord
  2
_ArchTick
  0
BLOCK_RECORD
  5
1A9
100
AcDbSymbolTableRecord
100
AcDbBlockTableRecord
  2
*sgDim1
  0
BLOCK_RECORD
  5
1C3
100
AcDbSymbolTableRecord
100
AcDbBlockTableRecord
  2
*sgDim2
  0
BLOCK_RECORD
  5
1DD
100
AcDbSymbolTableRecord
100
AcDbBlockTableRecord
  2
*sgDim3
  0
BLOCK_RECORD
  5
1F9
100
AcDbSymbolTableRecord
100
AcDbBlockTableRecord
  2
*sgDim4
  0
BLOCK_RECORD
  5
215
100
AcDbSymbolTableRecord
100
AcDbBlockTableRecord
  2
*sgDim5
  0
BLOCK_RECORD
  5
22F
100
AcDbSymbolTableRecord
100
AcDbBlockTableRecord
  2
*sgDim6
  0
BLOCK_RECORD
  5
2D1
100
AcDbSymbolTableRecord
100
AcDbBlockTableRecord
  2
*sgDim7
  0
BLOCK_RECORD
  5
31C
100
AcDbSymbolTableRecord
100
AcDbBlockTableRecord
  2
*sgDim8
  0
BLOCK_RECORD
  5
F29
100
AcDbSymbolTableRecord
100
AcDbBlockTableRecord
  2
*sgDim19
  0
BLOCK_RECORD
  5
103E
100
AcDbSymbolTableRecord
100
AcDbBlockTableRecord
  2
*sgDim22
  0
BLOCK_RECORD
  5
1185
100
AcDbSymbolTableRecord
100
AcDbBlockTableRecord
  2
*sgDim27
  0
BLOCK_RECORD
  5
11AC
100
AcDbSymbolTableRecord
100
AcDbBlockTableRecord
  2
*sgDim29
  0
BLOCK_RECORD
  5
11D5
100
AcDbSymbolTableRecord
100
AcDbBlockTableRecord
  2
*sgDim31
  0
BLOCK_RECORD
  5
1200
100
AcDbSymbolTableRecord
100
AcDbBlockTableRecord
  2
*sgDim33
  0
BLOCK_RECORD
  5
1256
100
AcDbSymbolTableRecord
100
AcDbBlockTableRecord
  2
*sgDim36
  0
BLOCK_RECORD
  5
127D
100
AcDbSymbolTableRecord
100
AcDbBlockTableRecord
  2
*sgDim38
  0
BLOCK_RECORD
  5
12A6
100
AcDbSymbolTableRecord
100
AcDbBlockTableRecord
  2
*sgDim40
  0
BLOCK_RECORD
  5
12D3
100
AcDbSymbolTableRecord
100
AcDbBlockTableRecord
  2
*sgDim42
  0
BLOCK_RECORD
  5
1300
100
AcDbSymbolTableRecord
100
AcDbBlockTableRecord
  2
*sgDim44
  0
ENDTAB
  0
TABLE
  2
STYLE
  5
3
100
AcDbSymbolTable
  0
STYLE
  5
A
100
AcDbSymbolTableRecord
100
AcDbTextStyleTableRecord
  2
STANDARD
 70
0
 40
0
 41
1
 50
0
 71
0
 42
2.5
  3
Arial.ttf
  4

1001
ACAD
1000
Arial
1071
0
  0
STYLE
  5
14
100
AcDbSymbolTableRecord
100
AcDbTextStyleTableRecord
  2
GENISO
 70
0
 40
0
 41
1
 50
0
 71
0
 42
2.5
  3
Geniso.shx
  4

  0
STYLE
  5
196
100
AcDbSymbolTableRecord
100
AcDbTextStyleTableRecord
  2
ISOCP
 70
0
 40
0
 41
0.899999976158142
 50
0
 71
0
 42
927.198120117187
  3
isocp.shx
  4

  0
STYLE
  5
244
100
AcDbSymbolTableRecord
100
AcDbTextStyleTableRecord
  2
ARIAL
 70
0
 40
0
 41
0.800000011920929
 50
0
 71
0
 42
132.201309204102
  3
arial.ttf
  4

1001
ACAD
1000
Arial CE
1071
0
  0
ENDTAB
  0
TABLE
  2
LTYPE
  5
1
100
AcDbSymbolTable
  0
LTYPE
  5
9
100
AcDbSymbolTableRecord
100
AcDbLinetypeTableRecord
  2
CONTINUOUS
 70
0
  3

 72
65
 73
0
 40
0
  0
LTYPE
  5
7
100
AcDbSymbolTableRecord
100
AcDbLinetypeTableRecord
  2
BYLAYER
 70
0
  3

 72
65
 73
0
 40
0
  0
LTYPE
  5
8
100
AcDbSymbolTableRecord
100
AcDbLinetypeTableRecord
  2
BYBLOCK
 70
0
  3

 72
65
 73
0
 40
0
  0
LTYPE
  5
18
100
AcDbSymbolTableRecord
100
AcDbLinetypeTableRecord
  2
CENTER
 70
0
  3
_ _ 
 72
65
 73
4
 40
2
 49
1.25
 74
0
 49
-0.25
 74
0
 49
0.25
 74
0
 49
-0.25
 74
0
  0
LTYPE
  5
19
100
AcDbSymbolTableRecord
100
AcDbLinetypeTableRecord
  2
ISO dash
 70
0
  3
_ 
 72
65
 73
2
 40
1.5
 49
1.2
 74
0
 49
-0.3
 74
0
  0
LTYPE
  5
1A
100
AcDbSymbolTableRecord
100
AcDbLinetypeTableRecord
  2
ISO dot
 70
0
  3
. 
 72
65
 73
2
 40
0.3
 49
0
 74
0
 49
-0.3
 74
0
  0
LTYPE
  5
1B
100
AcDbSymbolTableRecord
100
AcDbLinetypeTableRecord
  2
ISO dash dot
 70
0
  3
_ . 
 72
65
 73
4
 40
1.8
 49
1.2
 74
0
 49
-0.3
 74
0
 49
0
 74
0
 49
-0.3
 74
0
  0
LTYPE
  5
1C
100
AcDbSymbolTableRecord
100
AcDbLinetypeTableRecord
  2
ISO dash double-dot
 70
0
  3
_ . . 
 72
65
 73
6
 40
2.1
 49
1.2
 74
0
 49
-0.3
 74
0
 49
0
 74
0
 49
-0.3
 74
0
 49
0
 74
0
 49
-0.3
 74
0
  0
LTYPE
  5
1D
100
AcDbSymbolTableRecord
100
AcDbLinetypeTableRecord
  2
ISO dash triple-dot
 70
0
  3
_ . . . 
 72
65
 73
8
 40
2.4
 49
1.2
 74
0
 49
-0.3
 74
0
 49
0
 74
0
 49
-0.3
 74
0
 49
0
 74
0
 49
-0.3
 74
0
 49
0
 74
0
 49
-0.3
 74
0
  0
LTYPE
  5
1E
100
AcDbSymbolTableRecord
100
AcDbLinetypeTableRecord
  2
ISO dash long gaps
 70
0
  3
_ 
 72
65
 73
2
 40
3
 49
1.2
 74
0
 49
-1.8
 74
0
  0
ENDTAB
  0
TABLE
  2
LAYER
  5
2
100
AcDbSymbolTable
  0
LAYER
  5
E
100
AcDbSymbolTableRecord
100
AcDbLayerTableRecord
  2
0
 70
0
 62
7
  6
CONTINUOUS
290
1
370
-3
390
0
  0
LAYER
  5
23
100
AcDbSymbolTableRecord
100
AcDbLayerTableRecord
  2
2
 70
0
 62
7
  6
CONTINUOUS
290
1
370
20
390
0
  0
LAYER
  5
C5
100
AcDbSymbolTableRecord
100
AcDbLayerTableRecord
  2
DEFPOINTS
 70
0
 62
7
290
0
370
-3
390
0
  0
LAYER
  5
23E
100
AcDbSymbolTableRecord
100
AcDbLayerTableRecord
  2
Rozpiska
 70
0
 62
7
  6
CONTINUOUS
290
1
370
-3
390
0
  0
ENDTAB
  0
TABLE
  2
VPORT
  5
1325
100
AcDbSymbolTable
  0
VPORT
  5
1327
100
AcDbSymbolTableRecord
100
AcDbViewportTableRecord
  2
*ACTIVE
 70
0
 10
0
 20
0
 11
1
 21
1
 12
15061.7859378486
 22
-1850.97811110557
 32
0
 13
0
 23
0
 14
1
 24
1
 15
1
 25
1
 16
0
 26
0
 36
1
 17
0
 27
0
 37
0
 40
8102.82601683668
 41
2.38957475994513
 42
50
 43
0
 44
0
 50
0
 51
0
 71
0
 72
100
 73
1
 74
1
 75
0
 76
0
 77
0
 78
0
  0
ENDTAB
  0
TABLE
  2
VIEW
  5
1328
100
AcDbSymbolTable
  0
ENDTAB
  0
TABLE
  2
UCS
  5
1329
100
AcDbSymbolTable
  0
ENDTAB
  0
TABLE
  2
DIMSTYLE
  5
4
100
AcDbSymbolTable
 70
3
100
AcDbDimStyleTable
 71
0
  0
DIMSTYLE
105
B
100
AcDbSymbolTableRecord
100
AcDbDimStyleTableRecord
  2
STANDARD
 70
0
 40
1
 41
0.18
 42
0.0625
 44
0.18
 73
1
 74
1
 75
0
 76
0
 77
0
140
0.18
141
0.09
144
1
147
0.0625
173
0
174
0
176
0
177
0
178
0
281
0
282
0
271
4
340
A
371
-1
372
-1
  0
DIMSTYLE
105
15
100
AcDbSymbolTableRecord
100
AcDbDimStyleTableRecord
  2
GENISO
 70
0
 40
1
 41
2.5
 42
0.868
 44
2.5
 73
0
 74
0
 75
0
 76
0
 77
0
140
2.5
141
0.09
144
1
147
0.1
173
0
174
0
176
0
177
0
178
0
281
0
282
0
271
2
340
14
371
-1
372
-1
  0
DIMSTYLE
105
19A
100
AcDbSymbolTableRecord
100
AcDbDimStyleTableRecord
  2
STAV
 70
0
 40
50
 41
100
 42
20
 44
25
 73
0
 74
0
 75
0
 76
0
 77
1
140
250
141
100
144
1
147
10
173
0
174
0
176
124
177
124
178
124
281
0
282
0
271
0
340
196
342
199
371
-2
372
-2
  0
ENDTAB
  0
ENDSEC
  0
SECTION
  2
BLOCKS
  0
BLOCK
  5
132A
100
AcDbEntity
  8
0
100
AcDbBlockBegin
  2
*MODEL_SPACE
 70
0
 10
0
 20
0
  0
ENDBLK
  5
132B
100
AcDbEntity
  8
0
100
AcDbBlockEnd
  0
BLOCK
  5
132C
100
AcDbEntity
  8
0
100
AcDbBlockBegin
  2
*PAPER_SPACE
 70
0
 10
0
 20
0
  0
ENDBLK
  5
132D
100
AcDbEntity
  8
0
100
AcDbBlockEnd
  0
BLOCK
  5
F
100
AcDbEntity
  8
0
100
AcDbBlockBegin
  2
_CLOSEDFILLED
 70
0
 10
0
 20
0
 30
0
  3
_CLOSEDFILLED
  1

  0
SOLID
  5
C
100
AcDbEntity
  8
0
100
AcDbTrace
370
-2
 62
0
 10
-1
 20
0.166666666666667
 30
0
 11
0
 21
0
 31
0
 12
-1
 22
0.166666666666667
 32
0
 13
-1
 23
-0.166666666666667
 33
0
  0
LINE
  5
D
100
AcDbEntity
  8
0
100
AcDbLine
370
-2
 62
0
 10
-1
 20
0
 30
0
 11
-2
 21
0
 31
0
  0
ENDBLK
  5
132E
100
AcDbEntity
  8
0
100
AcDbBlockEnd
  0
BLOCK
  5
16
100
AcDbEntity
  8
0
100
AcDbBlockBegin
  2
ABViewer_RedLine
 70
1
 10
0
 20
0
 30
0
  3
ABViewer_RedLine
  1

  0
ENDBLK
  5
132F
100
AcDbEntity
  8
0
100
AcDbBlockEnd
  0
BLOCK
  5
D1
100
AcDbEntity
  8
0
100
AcDbBlockBegin
  2
*sgDim0
 70
1
 10
0
 20
0
 30
0
  3
*sgDim0
  1

  0
POINT
  5
10A4
100
AcDbEntity
  8
DEFPOINTS
100
AcDbPoint
370
-1
 62
0
  6
BYLAYER
 10
15741.6779326972
 20
-2299.73137926304
 30
0
  0
POINT
  5
10A5
100
AcDbEntity
  8
DEFPOINTS
100
AcDbPoint
370
-1
 62
0
  6
BYLAYER
 10
15741.6779326972
 20
-2446.06617184941
 30
0
  0
LINE
  5
10A7
100
AcDbEntity
  8
0
100
AcDbLine
370
-1
 62
0
 10
15742.5459326972
 20
-2299.73137926304
 30
0
 11
15863.2064981702
 21
-2299.73137926304
 31
0
  0
LINE
  5
10A8
100
AcDbEntity
  8
0
100
AcDbLine
370
-1
 62
0
 10
15742.5459326972
 20
-2446.06617184941
 30
0
 11
15863.2064981702
 21
-2446.06617184941
 31
0
  0
LINE
  5
10A9
100
AcDbEntity
  8
0
100
AcDbLine
370
-1
 62
0
 10
15860.7064981702
 20
-2299.73137926304
 30
0
 11
15860.7064981702
 21
-2368.86127555623
 31
0
  0
LINE
  5
10AA
100
AcDbEntity
  8
0
100
AcDbLine
370
-1
 62
0
 10
15860.7064981702
 20
-2446.06617184941
 30
0
 11
15860.7064981702
 21
-2377.68627555623
 31
0
  0
TEXT
  5
10A6
100
AcDbEntity
  8
0
100
AcDbText
370
-1
 62
0
 10
15862.0814981702
 20
-2377.96127555623
 30
0
 40
2.5
  1
146,33
 50
90
 41
1
 51
0
  7
GENISO
 71
0
 72
0
 11
0
 21
0
 31
0
100
AcDbText
 73
0
  0
INSERT
  5
10AB
100
AcDbEntity
  8
0
100
AcDbBlockReference
370
-1
 62
0
  6
BYLAYER
  2
_CLOSEDFILLED
 10
15860.7064981702
 20
-2446.06617184941
 30
0
 41
2.5
 42
2.5
 43
2.5
 50
-90
  0
INSERT
  5
10AC
100
AcDbEntity
  8
0
100
AcDbBlockReference
370
-1
 62
0
  6
BYLAYER
  2
_CLOSEDFILLED
 10
15860.7064981702
 20
-2299.73137926304
 30
0
 41
2.5
 42
2.5
 43
2.5
 50
90
  0
INSERT
  5
10AD
100
AcDbEntity
  8
0
100
AcDbBlockReference
370
-1
 62
0
  6
BYLAYER
  2
SGCLOSEDFILEDLINE
 10
15860.7064981702
 20
-2446.06617184941
 30
0
 41
2.5
 42
2.5
 43
2.5
 50
90
  0
INSERT
  5
10AE
100
AcDbEntity
  8
0
100
AcDbBlockReference
370
-1
 62
0
  6
BYLAYER
  2
SGCLOSEDFILEDLINE
 10
15860.7064981702
 20
-2299.73137926304
 30
0
 41
2.5
 42
2.5
 43
2.5
 50
90
  0
ENDBLK
  5
1330
100
AcDbEntity
  8
0
100
AcDbBlockEnd
  0
BLOCK
  5
C3
100
AcDbEntity
  8
0
100
AcDbBlockBegin
  2
sgCLOSEDFILEDLINE
 70
0
 10
0
 20
0
 30
0
  3
sgCLOSEDFILEDLINE
  1

  0
LINE
  5
C2
100
AcDbEntity
  8
0
100
AcDbLine
370
-1
 62
0
 10
0
 20
-0.333333333333333
 30
0
 11
0
 21
-1
 31
0
  0
ENDBLK
  5
1331
100
AcDbEntity
  8
0
100
AcDbBlockEnd
  0
BLOCK
  5
198
100
AcDbEntity
  8
0
100
AcDbBlockBegin
  2
_ArchTick
 70
64
 10
0
 20
0
 30
0
  3
_ArchTick
  1

  0
LWPOLYLINE
  5
197
100
AcDbEntity
  8
0
100
AcDbPolyline
370
-1
 62
0
  6
BYBLOCK
 38
0
 90
2
 70
0
 43
0.150000005960464
 10
-0.5
 20
-0.5
 10
0.5
 20
0.5
  0
ENDBLK
  5
1332
100
AcDbEntity
  8
0
100
AcDbBlockEnd
  0
BLOCK
  5
1A8
100
AcDbEntity
  8
0
100
AcDbBlockBegin
  2
*sgDim1
 70
1
 10
0
 20
0
 30
0
  3
*sgDim1
  1

  0
POINT
  5
10BA
100
AcDbEntity
  8
DEFPOINTS
100
AcDbPoint
370
-1
 62
0
  6
BYLAYER
 10
23693.0539893712
 20
-2454.18425581938
 30
0
  0
POINT
  5
10BB
100
AcDbEntity
  8
DEFPOINTS
100
AcDbPoint
370
-1
 62
0
  6
BYLAYER
 10
22293.0586881542
 20
-2453.31626853753
 30
0
  0
LINE
  5
10BD
100
AcDbEntity
  8
0
100
AcDbLine
370
-2
 62
124
 10
23693.0415895136
 20
-2474.18425197547
 30
0
 11
23692.8691942622
 21
-2752.24424928225
 31
0
  0
LINE
  5
10BE
100
AcDbEntity
  8
0
100
AcDbLine
370
-2
 62
124
 10
22293.0462882966
 20
-2473.31626469362
 30
0
 11
22292.8738930452
 21
-2751.37626200169
 31
0
  0
LINE
  5
10BF
100
AcDbEntity
  8
0
100
AcDbLine
370
-2
 62
124
 10
23692.8846940841
 20
-2727.24425408714
 30
0
 11
22292.8893928671
 21
-2726.37626680658
 31
0
  0
LINE
  5
10C0
100
AcDbEntity
  8
0
100
AcDbLine
370
-2
 62
124
 10
22292.8893928671
 20
-2726.37626680658
 30
0
 11
22292.8893928671
 21
-2726.37626680658
 31
0
  0
TEXT
  5
10BC
100
AcDbEntity
  8
0
100
AcDbText
370
-1
 62
124
 10
22734.5172293234
 20
-2704.14642535624
 30
0
 40
250
  1
1600
 50
359.964477539063
 41
0.899999976158142
 51
0
  7
ISOCP
 71
0
 72
0
 11
0
 21
0
 31
0
100
AcDbText
 73
0
  0
INSERT
  5
10C1
100
AcDbEntity
  8
0
100
AcDbBlockReference
370
-2
 62
124
  6
BYLAYER
  2
_ARCHTICK
 10
22292.8893928671
 20
-2726.37626680658
 30
0
 41
100
 42
100
 43
100
 50
179.964477539062
  0
INSERT
  5
10C2
100
AcDbEntity
  8
0
100
AcDbBlockReference
370
-2
 62
124
  6
BYLAYER
  2
_ARCHTICK
 10
23692.8846940841
 20
-2727.24425408714
 30
0
 41
100
 42
100
 43
100
 50
359.964477539063
  0
INSERT
  5
10C3
100
AcDbEntity
  8
0
100
AcDbBlockReference
370
-2
 62
124
  6
BYLAYER
  2
SGCLOSEDFILEDLINE
 10
22292.8893928671
 20
-2726.37626680658
 30
0
 41
25
 42
25
 43
25
 50
359.964477539063
  0
INSERT
  5
10C4
100
AcDbEntity
  8
0
100
AcDbBlockReference
370
-2
 62
124
  6
BYLAYER
  2
SGCLOSEDFILEDLINE
 10
23692.8846940841
 20
-2727.24425408714
 30
0
 41
25
 42
25
 43
25
 50
359.964477539063
  0
ENDBLK
  5
1333
100
AcDbEntity
  8
0
100
AcDbBlockEnd
  0
BLOCK
  5
1C2
100
AcDbEntity
  8
0
100
AcDbBlockBegin
  2
*sgDim2
 70
1
 10
0
 20
0
 30
0
  3
*sgDim2
  1

  0
POINT
  5
10D0
100
AcDbEntity
  8
DEFPOINTS
100
AcDbPoint
370
-1
 62
0
  6
BYLAYER
 10
15742.5459326972
 20
-2446.06617184941
 30
0
  0
POINT
  5
10D1
100
AcDbEntity
  8
DEFPOINTS
100
AcDbPoint
370
-1
 62
0
  6
BYLAYER
 10
17341.6779326972
 20
-2446.06617184941
 30
0
  0
LINE
  5
10D3
100
AcDbEntity
  8
0
100
AcDbLine
370
-2
 62
124
 10
15742.5459326972
 20
-2466.06617184941
 30
0
 11
15742.5459326972
 21
-2893.19505580774
 31
0
  0
LINE
  5
10D4
100
AcDbEntity
  8
0
100
AcDbLine
370
-2
 62
124
 10
17341.6779326972
 20
-2466.06617184941
 30
0
 11
17341.6779326972
 21
-2893.19505580774
 31
0
  0
LINE
  5
10D5
100
AcDbEntity
  8
0
100
AcDbLine
370
-2
 62
124
 10
15742.5459326972
 20
-2868.19505580774
 30
0
 11
17341.6779326972
 21
-2868.19505580774
 31
0
  0
LINE
  5
10D6
100
AcDbEntity
  8
0
100
AcDbLine
370
-2
 62
124
 10
17341.6779326972
 20
-2868.19505580774
 30
0
 11
17341.6779326972
 21
-2868.19505580774
 31
0
  0
TEXT
  5
10D2
100
AcDbEntity
  8
0
100
AcDbText
370
-1
 62
124
 10
16283.735848372
 20
-2845.73325703101
 30
0
 40
250
  1
1600
 50
0
 41
0.899999976158142
 51
0
  7
ISOCP
 71
0
 72
0
 11
0
 21
0
 31
0
100
AcDbText
 73
0
  0
INSERT
  5
10D7
100
AcDbEntity
  8
0
100
AcDbBlockReference
370
-2
 62
124
  6
BYLAYER
  2
_ARCHTICK
 10
17341.6779326972
 20
-2868.19505580774
 30
0
 41
100
 42
100
 43
100
  0
INSERT
  5
10D8
100
AcDbEntity
  8
0
100
AcDbBlockReference
370
-2
 62
124
  6
BYLAYER
  2
_ARCHTICK
 10
15742.5459326972
 20
-2868.19505580774
 30
0
 41
100
 42
100
 43
100
 50
180
  0
INSERT
  5
10D9
100
AcDbEntity
  8
0
100
AcDbBlockReference
370
-2
 62
124
  6
BYLAYER
  2
SGCLOSEDFILEDLINE
 10
17341.6779326972
 20
-2868.19505580774
 30
0
 41
25
 42
25
 43
25
 50
180
  0
INSERT
  5
10DA
100
AcDbEntity
  8
0
100
AcDbBlockReference
370
-2
 62
124
  6
BYLAYER
  2
SGCLOSEDFILEDLINE
 10
15742.5459326972
 20
-2868.19505580774
 30
0
 41
25
 42
25
 43
25
 50
180
  0
ENDBLK
  5
1334
100
AcDbEntity
  8
0
100
AcDbBlockEnd
  0
BLOCK
  5
1DC
100
AcDbEntity
  8
0
100
AcDbBlockBegin
  2
*sgDim3
 70
1
 10
0
 20
0
 30
0
  3
*sgDim3
  1

  0
POINT
  5
10E6
100
AcDbEntity
  8
DEFPOINTS
100
AcDbPoint
370
-1
 62
0
  6
BYLAYER
 10
1058.00224137118
 20
-2440.59398802934
 30
0
  0
POINT
  5
10E7
100
AcDbEntity
  8
DEFPOINTS
100
AcDbPoint
370
-1
 62
0
  6
BYLAYER
 10
1058.00224137118
 20
-840.593988029353
 30
0
  0
LINE
  5
10E9
100
AcDbEntity
  8
0
100
AcDbLine
370
-2
 62
124
 10
1038.00224137118
 20
-2440.59398802934
 30
0
 11
761.241889837174
 21
-2440.59398802934
 31
0
  0
LINE
  5
10EA
100
AcDbEntity
  8
0
100
AcDbLine
370
-2
 62
124
 10
1038.00224137118
 20
-840.593988029353
 30
0
 11
761.241889837174
 21
-840.593988029353
 31
0
  0
LINE
  5
10EB
100
AcDbEntity
  8
0
100
AcDbLine
370
-2
 62
124
 10
786.241889837174
 20
-2440.59398802934
 30
0
 11
786.241889837174
 21
-840.593988029353
 31
0
  0
LINE
  5
10EC
100
AcDbEntity
  8
0
100
AcDbLine
370
-2
 62
124
 10
786.241889837174
 20
-840.593988029353
 30
0
 11
786.241889837174
 21
-840.593988029353
 31
0
  0
TEXT
  5
10E8
100
AcDbEntity
  8
0
100
AcDbText
370
-1
 62
124
 10
788.703688613909
 20
-1920.25827268368
 30
0
 40
250
  1
1600
 50
90
 41
0.899999976158142
 51
0
  7
ISOCP
 71
0
 72
0
 11
0
 21
0
 31
0
100
AcDbText
 73
0
  0
INSERT
  5
10ED
100
AcDbEntity
  8
0
100
AcDbBlockReference
370
-2
 62
124
  6
BYLAYER
  2
_ARCHTICK
 10
786.241889837174
 20
-840.593988029353
 30
0
 41
100
 42
100
 43
100
 50
90
  0
INSERT
  5
10EE
100
AcDbEntity
  8
0
100
AcDbBlockReference
370
-2
 62
124
  6
BYLAYER
  2
_ARCHTICK
 10
786.241889837174
 20
-2440.59398802934
 30
0
 41
100
 42
100
 43
100
 50
270
  0
INSERT
  5
10EF
100
AcDbEntity
  8
0
100
AcDbBlockReference
370
-2
 62
124
  6
BYLAYER
  2
SGCLOSEDFILEDLINE
 10
786.241889837174
 20
-840.593988029353
 30
0
 41
25
 42
25
 43
25
 50
270
  0
INSERT
  5
10F0
100
AcDbEntity
  8
0
100
AcDbBlockReference
370
-2
 62
124
  6
BYLAYER
  2
SGCLOSEDFILEDLINE
 10
786.241889837174
 20
-2440.59398802934
 30
0
 41
25
 42
25
 43
25
 50
270
  0
ENDBLK
  5
1335
100
AcDbEntity
  8
0
100
AcDbBlockEnd
  0
BLOCK
  5
1F8
100
AcDbEntity
  8
0
100
AcDbBlockBegin
  2
*sgDim4
 70
1
 10
0
 20
0
 30
0
  3
*sgDim4
  1

  0
POINT
  5
10FE
100
AcDbEntity
  8
DEFPOINTS
100
AcDbPoint
370
-1
 62
0
  6
BYLAYER
 10
1058.00224137118
 20
-788.097107182163
 30
0
  0
POINT
  5
10FF
100
AcDbEntity
  8
DEFPOINTS
100
AcDbPoint
370
-1
 62
0
  6
BYLAYER
 10
1058.00224137118
 20
-840.593988029353
 30
0
  0
LINE
  5
1101
100
AcDbEntity
  8
0
100
AcDbLine
370
-1
 62
0
 10
306.732606207171
 20
-588.097107182163
 30
0
 11
-17.0785818356974
 21
-588.097107182163
 31
0
  0
LINE
  5
1102
100
AcDbEntity
  8
0
100
AcDbLine
370
-1
 62
0
 10
306.732606207171
 20
-788.097107182163
 30
0
 11
306.732606207171
 21
-588.097107182163
 31
0
  0
LINE
  5
1103
100
AcDbEntity
  8
0
100
AcDbLine
370
-2
 62
124
 10
1038.00224137118
 20
-788.097107182163
 30
0
 11
281.732606207171
 21
-788.097107182163
 31
0
  0
LINE
  5
1104
100
AcDbEntity
  8
0
100
AcDbLine
370
-2
 62
124
 10
1038.00224137118
 20
-840.593988029353
 30
0
 11
281.732606207171
 21
-840.593988029353
 31
0
  0
LINE
  5
1105
100
AcDbEntity
  8
0
100
AcDbLine
370
-2
 62
124
 10
306.732606207171
 20
-840.593988029353
 30
0
 11
306.732606207171
 21
-840.593988029353
 31
0
  0
LINE
  5
1106
100
AcDbEntity
  8
0
100
AcDbLine
370
-2
 62
124
 10
306.732606207171
 20
-788.097107182163
 30
0
 11
306.732606207171
 21
-788.097107182163
 31
0
  0
TEXT
  5
1100
100
AcDbEntity
  8
0
100
AcDbText
370
-1
 62
124
 10
-50.8285809416278
 20
-555.597107182162
 30
0
 40
250
  1
52
 50
0
 41
0.899999976158142
 51
0
  7
ISOCP
 71
0
 72
0
 11
0
 21
0
 31
0
100
AcDbText
 73
0
  0
INSERT
  5
1107
100
AcDbEntity
  8
0
100
AcDbBlockReference
370
-2
 62
124
  6
BYLAYER
  2
_ARCHTICK
 10
306.732606207171
 20
-840.593988029353
 30
0
 41
100
 42
100
 43
100
 50
-90
  0
INSERT
  5
1108
100
AcDbEntity
  8
0
100
AcDbBlockReference
370
-2
 62
124
  6
BYLAYER
  2
_ARCHTICK
 10
306.732606207171
 20
-788.097107182163
 30
0
 41
100
 42
100
 43
100
 50
90
  0
INSERT
  5
1109
100
AcDbEntity
  8
0
100
AcDbBlockReference
370
-2
 62
124
  6
BYLAYER
  2
SGCLOSEDFILEDLINE
 10
306.732606207171
 20
-840.593988029353
 30
0
 41
25
 42
25
 43
25
 50
90
  0
INSERT
  5
110A
100
AcDbEntity
  8
0
100
AcDbBlockReference
370
-2
 62
124
  6
BYLAYER
  2
SGCLOSEDFILEDLINE
 10
306.732606207171
 20
-788.097107182163
 30
0
 41
25
 42
25
 43
25
 50
90
  0
ENDBLK
  5
1336
100
AcDbEntity
  8
0
100
AcDbBlockEnd
  0
BLOCK
  5
214
100
AcDbEntity
  8
0
100
AcDbBlockBegin
  2
*sgDim5
 70
1
 10
0
 20
0
 30
0
  3
*sgDim5
  1

  0
POINT
  5
1116
100
AcDbEntity
  8
DEFPOINTS
100
AcDbPoint
370
-1
 62
0
  6
BYLAYER
 10
15742.5459326972
 20
-2446.06617184941
 30
0
  0
POINT
  5
1117
100
AcDbEntity
  8
DEFPOINTS
100
AcDbPoint
370
-1
 62
0
  6
BYLAYER
 10
14373.8089757612
 20
-2440.59398802935
 30
0
  0
LINE
  5
1119
100
AcDbEntity
  8
0
100
AcDbLine
370
-2
 62
124
 10
15742.4659737239
 20
-2466.06601201284
 30
0
 11
15740.5974808422
 21
-2933.42517686054
 31
0
  0
LINE
  5
111A
100
AcDbEntity
  8
0
100
AcDbLine
370
-2
 62
124
 10
14373.7290167879
 20
-2460.59382819278
 30
0
 11
14371.8605239062
 21
-2927.95299303811
 31
0
  0
LINE
  5
111B
100
AcDbEntity
  8
0
100
AcDbLine
370
-2
 62
124
 10
15740.6974295588
 20
-2908.42537665626
 30
0
 11
14371.9604726228
 21
-2902.95319283383
 31
0
  0
LINE
  5
111C
100
AcDbEntity
  8
0
100
AcDbLine
370
-2
 62
124
 10
14371.9604726228
 20
-2902.95319283383
 30
0
 11
14371.9604726228
 21
-2902.95319283383
 31
0
  0
TEXT
  5
1118
100
AcDbEntity
  8
0
100
AcDbText
370
-1
 62
124
 10
14797.2287077939
 20
-2881.88356380981
 30
0
 40
250
  1
1369
 50
359.770935058594
 41
0.899999976158142
 51
0
  7
ISOCP
 71
0
 72
0
 11
0
 21
0
 31
0
100
AcDbText
 73
0
  0
INSERT
  5
111D
100
AcDbEntity
  8
0
100
AcDbBlockReference
370
-2
 62
124
  6
BYLAYER
  2
_ARCHTICK
 10
14371.9604726228
 20
-2902.95319283383
 30
0
 41
100
 42
100
 43
100
 50
179.770935058594
  0
INSERT
  5
111E
100
AcDbEntity
  8
0
100
AcDbBlockReference
370
-2
 62
124
  6
BYLAYER
  2
_ARCHTICK
 10
15740.6974295588
 20
-2908.42537665626
 30
0
 41
100
 42
100
 43
100
 50
359.770935058594
  0
INSERT
  5
111F
100
AcDbEntity
  8
0
100
AcDbBlockReference
370
-2
 62
124
  6
BYLAYER
  2
SGCLOSEDFILEDLINE
 10
14371.9604726228
 20
-2902.95319283383
 30
0
 41
25
 42
25
 43
25
 50
359.770935058594
  0
INSERT
  5
1120
100
AcDbEntity
  8
0
100
AcDbBlockReference
370
-2
 62
124
  6
BYLAYER
  2
SGCLOSEDFILEDLINE
 10
15740.6974295588
 20
-2908.42537665626
 30
0
 41
25
 42
25
 43
25
 50
359.770935058594
  0
ENDBLK
  5
1337
100
AcDbEntity
  8
0
100
AcDbBlockEnd
  0
BLOCK
  5
22E
100
AcDbEntity
  8
0
100
AcDbBlockBegin
  2
*sgDim6
 70
1
 10
0
 20
0
 30
0
  3
*sgDim6
  1

  0
POINT
  5
112C
100
AcDbEntity
  8
DEFPOINTS
100
AcDbPoint
370
-1
 62
0
  6
BYLAYER
 10
22293.0586881542
 20
-2453.31626853753
 30
0
  0
POINT
  5
112D
100
AcDbEntity
  8
DEFPOINTS
100
AcDbPoint
370
-1
 62
0
  6
BYLAYER
 10
17341.6779326972
 20
-2466.06617184941
 30
0
  0
LINE
  5
112F
100
AcDbEntity
  8
0
100
AcDbLine
370
-2
 62
124
 10
22293.1101883787
 20
-2473.31620223059
 30
0
 11
22294.1280780632
 21
-2868.61013290739
 31
0
  0
LINE
  5
1130
100
AcDbEntity
  8
0
100
AcDbLine
370
-2
 62
124
 10
17341.7294329217
 20
-2486.06610554247
 30
0
 11
17342.7473226062
 21
-2881.36003621574
 31
0
  0
LINE
  5
1131
100
AcDbEntity
  8
0
100
AcDbLine
370
-2
 62
124
 10
22294.0637027825
 20
-2843.61021579107
 30
0
 11
17342.6829473255
 21
-2856.36011909942
 31
0
  0
LINE
  5
1132
100
AcDbEntity
  8
0
100
AcDbLine
370
-2
 62
124
 10
17342.6829473255
 20
-2856.36011909942
 30
0
 11
17342.6829473255
 21
-2856.36011909942
 31
0
  0
TEXT
  5
112E
100
AcDbEntity
  8
0
100
AcDbText
370
-1
 62
124
 10
19547.9557021594
 20
-2828.35532028747
 30
0
 40
250
  1
4951
 50
0.147537440061569
 41
0.899999976158142
 51
0
  7
ISOCP
 71
0
 72
0
 11
0
 21
0
 31
0
100
AcDbText
 73
0
  0
INSERT
  5
1133
100
AcDbEntity
  8
0
100
AcDbBlockReference
370
-2
 62
124
  6
BYLAYER
  2
_ARCHTICK
 10
17342.6829473255
 20
-2856.36011909942
 30
0
 41
100
 42
100
 43
100
 50
180.147537231445
  0
INSERT
  5
1134
100
AcDbEntity
  8
0
100
AcDbBlockReference
370
-2
 62
124
  6
BYLAYER
  2
_ARCHTICK
 10
22294.0637027825
 20
-2843.61021579107
 30
0
 41
100
 42
100
 43
100
 50
0.147552490234375
  0
INSERT
  5
1135
100
AcDbEntity
  8
0
100
AcDbBlockReference
370
-2
 62
124
  6
BYLAYER
  2
SGCLOSEDFILEDLINE
 10
17342.6829473255
 20
-2856.36011909942
 30
0
 41
25
 42
25
 43
25
 50
0.147552490234375
  0
INSERT
  5
1136
100
AcDbEntity
  8
0
100
AcDbBlockReference
370
-2
 62
124
  6
BYLAYER
  2
SGCLOSEDFILEDLINE
 10
22294.0637027825
 20
-2843.61021579107
 30
0
 41
25
 42
25
 43
25
 50
0.147552490234375
  0
ENDBLK
  5
1338
100
AcDbEntity
  8
0
100
AcDbBlockEnd
  0
BLOCK
  5
2D0
100
AcDbEntity
  8
0
100
AcDbBlockBegin
  2
*sgDim7
 70
1
 10
0
 20
0
 30
0
  3
*sgDim7
  1

  0
POINT
  5
1142
100
AcDbEntity
  8
DEFPOINTS
100
AcDbPoint
370
-1
 62
0
  6
BYLAYER
 10
22212.6779326972
 20
-951.066171849413
 30
0
  0
POINT
  5
1143
100
AcDbEntity
  8
DEFPOINTS
100
AcDbPoint
370
-1
 62
0
  6
BYLAYER
 10
17421.6779326972
 20
-951.066171849413
 30
0
  0
LINE
  5
1145
100
AcDbEntity
  8
0
100
AcDbLine
370
-2
 62
124
 10
22212.6779326972
 20
-931.066171849413
 30
0
 11
22212.6779326972
 21
-236.009713453133
 31
0
  0
LINE
  5
1146
100
AcDbEntity
  8
0
100
AcDbLine
370
-2
 62
124
 10
17421.6779326972
 20
-931.066171849413
 30
0
 11
17421.6779326972
 21
-236.009713453133
 31
0
  0
LINE
  5
1147
100
AcDbEntity
  8
0
100
AcDbLine
370
-2
 62
124
 10
22212.6779326972
 20
-261.009713453133
 30
0
 11
17421.6779326972
 21
-261.009713453133
 31
0
  0
LINE
  5
1148
100
AcDbEntity
  8
0
100
AcDbLine
370
-2
 62
124
 10
17421.6779326972
 20
-261.009713453133
 30
0
 11
17421.6779326972
 21
-261.009713453133
 31
0
  0
TEXT
  5
1144
100
AcDbEntity
  8
0
100
AcDbText
370
-1
 62
124
 10
19546.7848276795
 20
-238.509713453133
 30
0
 40
250
  1
4791
 50
0
 41
0.899999976158142
 51
0
  7
ISOCP
 71
0
 72
0
 11
0
 21
0
 31
0
100
AcDbText
 73
0
  0
INSERT
  5
1149
100
AcDbEntity
  8
0
100
AcDbBlockReference
370
-2
 62
124
  6
BYLAYER
  2
_ARCHTICK
 10
17421.6779326972
 20
-261.009713453133
 30
0
 41
100
 42
100
 43
100
 50
180
  0
INSERT
  5
114A
100
AcDbEntity
  8
0
100
AcDbBlockReference
370
-2
 62
124
  6
BYLAYER
  2
_ARCHTICK
 10
22212.6779326972
 20
-261.009713453133
 30
0
 41
100
 42
100
 43
100
  0
INSERT
  5
114B
100
AcDbEntity
  8
0
100
AcDbBlockReference
370
-2
 62
124
  6
BYLAYER
  2
SGCLOSEDFILEDLINE
 10
17421.6779326972
 20
-261.009713453133
 30
0
 41
25
 42
25
 43
25
  0
INSERT
  5
114C
100
AcDbEntity
  8
0
100
AcDbBlockReference
370
-2
 62
124
  6
BYLAYER
  2
SGCLOSEDFILEDLINE
 10
22212.6779326972
 20
-261.009713453133
 30
0
 41
25
 42
25
 43
25
  0
ENDBLK
  5
1339
100
AcDbEntity
  8
0
100
AcDbBlockEnd
  0
BLOCK
  5
31B
100
AcDbEntity
  8
0
100
AcDbBlockBegin
  2
*sgDim8
 70
1
 10
0
 20
0
 30
0
  3
*sgDim8
  1

  0
POINT
  5
1158
100
AcDbEntity
  8
DEFPOINTS
100
AcDbPoint
370
-1
 62
0
  6
BYLAYER
 10
18978.6779326972
 20
-951.066171849413
 30
0
  0
POINT
  5
1159
100
AcDbEntity
  8
DEFPOINTS
100
AcDbPoint
370
-1
 62
0
  6
BYLAYER
 10
17421.6779326972
 20
-951.066171849413
 30
0
  0
LINE
  5
115B
100
AcDbEntity
  8
0
100
AcDbLine
370
-2
 62
124
 10
18978.6779326972
 20
-931.066171849413
 30
0
 11
18978.6779326972
 21
-602.701599963393
 31
0
  0
LINE
  5
115C
100
AcDbEntity
  8
0
100
AcDbLine
370
-2
 62
124
 10
17421.6779326972
 20
-931.066171849413
 30
0
 11
17421.6779326972
 21
-602.701599963393
 31
0
  0
LINE
  5
115D
100
AcDbEntity
  8
0
100
AcDbLine
370
-2
 62
124
 10
18978.6779326972
 20
-627.701599963393
 30
0
 11
17421.6779326972
 21
-627.701599963393
 31
0
  0
LINE
  5
115E
100
AcDbEntity
  8
0
100
AcDbLine
370
-2
 62
124
 10
17421.6779326972
 20
-627.701599963393
 30
0
 11
17421.6779326972
 21
-627.701599963393
 31
0
  0
TEXT
  5
115A
100
AcDbEntity
  8
0
100
AcDbText
370
-1
 62
124
 10
17941.4279395517
 20
-605.201599963393
 30
0
 40
250
  1
1557
 50
0
 41
0.899999976158142
 51
0
  7
ISOCP
 71
0
 72
0
 11
0
 21
0
 31
0
100
AcDbText
 73
0
  0
INSERT
  5
115F
100
AcDbEntity
  8
0
100
AcDbBlockReference
370
-2
 62
124
  6
BYLAYER
  2
_ARCHTICK
 10
17421.6779326972
 20
-627.701599963393
 30
0
 41
100
 42
100
 43
100
 50
180
  0
INSERT
  5
1160
100
AcDbEntity
  8
0
100
AcDbBlockReference
370
-2
 62
124
  6
BYLAYER
  2
_ARCHTICK
 10
18978.6779326972
 20
-627.701599963393
 30
0
 41
100
 42
100
 43
100
  0
INSERT
  5
1161
100
AcDbEntity
  8
0
100
AcDbBlockReference
370
-2
 62
124
  6
BYLAYER
  2
SGCLOSEDFILEDLINE
 10
17421.6779326972
 20
-627.701599963393
 30
0
 41
25
 42
25
 43
25
  0
INSERT
  5
1162
100
AcDbEntity
  8
0
100
AcDbBlockReference
370
-2
 62
124
  6
BYLAYER
  2
SGCLOSEDFILEDLINE
 10
18978.6779326972
 20
-627.701599963393
 30
0
 41
25
 42
25
 43
25
  0
ENDBLK
  5
133A
100
AcDbEntity
  8
0
100
AcDbBlockEnd
  0
BLOCK
  5
F28
100
AcDbEntity
  8
0
100
AcDbBlockBegin
  2
*sgDim19
 70
1
 10
0
 20
0
 30
0
  3
*sgDim19
  1

  0
POINT
  5
116E
100
AcDbEntity
  8
DEFPOINTS
100
AcDbPoint
370
-1
 62
0
  6
BYLAYER
 10
7207.15220979017
 20
-1754.41608277377
 30
0
  0
POINT
  5
116F
100
AcDbEntity
  8
DEFPOINTS
100
AcDbPoint
370
-1
 62
0
  6
BYLAYER
 10
7208.01227282818
 20
-852.130966706883
 30
0
  0
LINE
  5
1171
100
AcDbEntity
  8
0
100
AcDbLine
370
-1
 62
0
 10
7206.2842101845
 20
-1754.41525539187
 30
0
 11
7066.4528642586
 21
-1754.28196739899
 31
0
  0
LINE
  5
1172
100
AcDbEntity
  8
0
100
AcDbLine
370
-1
 62
0
 10
7207.14427322251
 20
-852.130139324979
 30
0
 11
7067.31292729616
 21
-851.996851332102
 31
0
  0
LINE
  5
1173
100
AcDbEntity
  8
0
100
AcDbLine
370
-1
 62
0
 10
7068.95286312285
 20
-1754.28435041139
 30
0
 11
7069.37820820755
 21
-1308.05829213119
 31
0
  0
LINE
  5
1174
100
AcDbEntity
  8
0
100
AcDbLine
370
-1
 62
0
 10
7069.81292616041
 20
-851.999234344499
 30
0
 11
7069.38686686959
 21
-1298.97456043169
 31
0
  0
TEXT
  5
1170
100
AcDbEntity
  8
0
100
AcDbText
370
-1
 62
0
 10
7070.76222151856
 20
-1308.34334725257
 30
0
 40
2.5
  1
902,29
 50
89.9453887939453
 41
1
 51
0
  7
GENISO
 71
0
 72
0
 11
0
 21
0
 31
0
100
AcDbText
 73
0
  0
INSERT
  5
1175
100
AcDbEntity
  8
0
100
AcDbBlockReference
370
-1
 62
0
  6
BYLAYER
  2
_CLOSEDFILLED
 10
7069.81292616041
 20
-851.999234344499
 30
0
 41
2.5
 42
2.5
 43
2.5
 50
89.9453887939453
  0
INSERT
  5
1176
100
AcDbEntity
  8
0
100
AcDbBlockReference
370
-1
 62
0
  6
BYLAYER
  2
_CLOSEDFILLED
 10
7068.95286312285
 20
-1754.28435041139
 30
0
 41
2.5
 42
2.5
 43
2.5
 50
269.945373535156
  0
INSERT
  5
1177
100
AcDbEntity
  8
0
100
AcDbBlockReference
370
-1
 62
0
  6
BYLAYER
  2
SGCLOSEDFILEDLINE
 10
7069.81292616041
 20
-851.999234344499
 30
0
 41
2.5
 42
2.5
 43
2.5
 50
269.945373535156
  0
INSERT
  5
1178
100
AcDbEntity
  8
0
100
AcDbBlockReference
370
-1
 62
0
  6
BYLAYER
  2
SGCLOSEDFILEDLINE
 10
7068.95286312285
 20
-1754.28435041139
 30
0
 41
2.5
 42
2.5
 43
2.5
 50
269.945373535156
  0
ENDBLK
  5
133B
100
AcDbEntity
  8
0
100
AcDbBlockEnd
  0
BLOCK
  5
103D
100
AcDbEntity
  8
0
100
AcDbBlockBegin
  2
*sgDim22
 70
1
 10
0
 20
0
 30
0
  3
*sgDim22
  1

  0
POINT
  5
1080
100
AcDbEntity
  8
DEFPOINTS
100
AcDbPoint
370
-1
 62
0
  6
BYLAYER
 10
8573.18424758615
 20
-851.919201926583
 30
0
  0
POINT
  5
1081
100
AcDbEntity
  8
DEFPOINTS
100
AcDbPoint
370
-1
 62
0
  6
BYLAYER
 10
7173.01227282818
 20
-852.130966706883
 30
0
  0
LINE
  5
1083
100
AcDbEntity
  8
0
100
AcDbLine
370
-1
 62
0
 10
8573.18411630812
 20
-851.051201936511
 30
0
 11
8573.09159523821
 21
-239.309207003069
 31
0
  0
LINE
  5
1084
100
AcDbEntity
  8
0
100
AcDbLine
370
-1
 62
0
 10
7173.01214155014
 20
-851.26296671681
 30
0
 11
7172.91962048023
 21
-239.520971782506
 31
0
  0
LINE
  5
1085
100
AcDbEntity
  8
0
100
AcDbLine
370
-1
 62
0
 10
8573.09197334315
 20
-241.809206974477
 30
0
 11
7878.41842918223
 21
-241.914270775575
 31
0
  0
LINE
  5
1086
100
AcDbEntity
  8
0
100
AcDbLine
370
-1
 62
0
 10
7172.91999858518
 20
-242.020971753913
 30
0
 11
7868.34342929746
 21
-241.915794538489
 31
0
  0
TEXT
  5
1082
100
AcDbEntity
  8
0
100
AcDbText
370
-1
 62
0
 10
7868.06863729579
 20
-243.291083831895
 30
0
 40
2.5
  1
1400,17
 50
0.00866552721709013
 41
1
 51
0
  7
GENISO
 71
0
 72
0
 11
0
 21
0
 31
0
100
AcDbText
 73
0
  0
INSERT
  5
1087
100
AcDbEntity
  8
0
100
AcDbBlockReference
370
-1
 62
0
  6
BYLAYER
  2
_CLOSEDFILLED
 10
7172.91999858518
 20
-242.020971753913
 30
0
 41
2.5
 42
2.5
 43
2.5
 50
180.008666992187
  0
INSERT
  5
1088
100
AcDbEntity
  8
0
100
AcDbBlockReference
370
-1
 62
0
  6
BYLAYER
  2
_CLOSEDFILLED
 10
8573.09197334315
 20
-241.809206974477
 30
0
 41
2.5
 42
2.5
 43
2.5
 50
0.0086669921875
  0
INSERT
  5
1089
100
AcDbEntity
  8
0
100
AcDbBlockReference
370
-1
 62
0
  6
BYLAYER
  2
SGCLOSEDFILEDLINE
 10
7172.91999858518
 20
-242.020971753913
 30
0
 41
2.5
 42
2.5
 43
2.5
 50
0.0086669921875
  0
INSERT
  5
108A
100
AcDbEntity
  8
0
100
AcDbBlockReference
370
-1
 62
0
  6
BYLAYER
  2
SGCLOSEDFILEDLINE
 10
8573.09197334315
 20
-241.809206974477
 30
0
 41
2.5
 42
2.5
 43
2.5
 50
0.0086669921875
  0
ENDBLK
  5
133C
100
AcDbEntity
  8
0
100
AcDbBlockEnd
  0
BLOCK
  5
1184
100
AcDbEntity
  8
0
100
AcDbBlockBegin
  2
*sgDim27
 70
1
 10
0
 20
0
 30
0
  3
*sgDim27
  1

  0
POINT
  5
1187
100
AcDbEntity
  8
DEFPOINTS
100
AcDbPoint
370
-1
 62
0
  6
BYLAYER
 10
8573.18424758615
 20
-851.919201926583
 30
0
  0
POINT
  5
1188
100
AcDbEntity
  8
DEFPOINTS
100
AcDbPoint
370
-1
 62
0
  6
BYLAYER
 10
7173.01227282818
 20
-852.130966706883
 30
0
  0
LINE
  5
118A
100
AcDbEntity
  8
0
100
AcDbLine
370
-2
 62
124
 10
8573.18122274661
 20
-831.919202155324
 30
0
 11
8573.13284705889
 21
-512.062981934086
 31
0
  0
LINE
  5
118B
100
AcDbEntity
  8
0
100
AcDbLine
370
-2
 62
124
 10
7173.00924798863
 20
-832.130966935624
 30
0
 11
7172.96087230092
 21
-512.274746723473
 31
0
  0
LINE
  5
118C
100
AcDbEntity
  8
0
100
AcDbLine
370
-2
 62
124
 10
8573.13662810832
 20
-537.062981648159
 30
0
 11
7172.96465335034
 21
-537.274746437546
 31
0
  0
LINE
  5
118D
100
AcDbEntity
  8
0
100
AcDbLine
370
-2
 62
124
 10
7172.96465335034
 20
-537.274746437546
 30
0
 11
7172.96465335034
 21
-537.274746437546
 31
0
  0
TEXT
  5
1189
100
AcDbEntity
  8
0
100
AcDbText
370
-1
 62
124
 10
7603.42304852466
 20
-514.758053138693
 30
0
 40
250
  1
1400
 50
0.00866552721709013
 41
0.899999976158142
 51
0
  7
ISOCP
 71
0
 72
0
 11
0
 21
0
 31
0
100
AcDbText
 73
0
  0
INSERT
  5
118E
100
AcDbEntity
  8
0
100
AcDbBlockReference
370
-2
 62
124
  6
BYLAYER
  2
_ARCHTICK
 10
7172.96465335034
 20
-537.274746437546
 30
0
 41
100
 42
100
 43
100
 50
180.008666992187
  0
INSERT
  5
118F
100
AcDbEntity
  8
0
100
AcDbBlockReference
370
-2
 62
124
  6
BYLAYER
  2
_ARCHTICK
 10
8573.13662810832
 20
-537.062981648159
 30
0
 41
100
 42
100
 43
100
 50
0.0086669921875
  0
INSERT
  5
1190
100
AcDbEntity
  8
0
100
AcDbBlockReference
370
-2
 62
124
  6
BYLAYER
  2
SGCLOSEDFILEDLINE
 10
7172.96465335034
 20
-537.274746437546
 30
0
 41
25
 42
25
 43
25
 50
0.0086669921875
  0
INSERT
  5
1191
100
AcDbEntity
  8
0
100
AcDbBlockReference
370
-2
 62
124
  6
BYLAYER
  2
SGCLOSEDFILEDLINE
 10
8573.13662810832
 20
-537.062981648159
 30
0
 41
25
 42
25
 43
25
 50
0.0086669921875
  0
ENDBLK
  5
133D
100
AcDbEntity
  8
0
100
AcDbBlockEnd
  0
BLOCK
  5
11AB
100
AcDbEntity
  8
0
100
AcDbBlockBegin
  2
*sgDim29
 70
1
 10
0
 20
0
 30
0
  3
*sgDim29
  1

  0
POINT
  5
11AE
100
AcDbEntity
  8
DEFPOINTS
100
AcDbPoint
370
-1
 62
0
  6
BYLAYER
 10
8973.21144856117
 20
-1757.36938267289
 30
0
  0
POINT
  5
11AF
100
AcDbEntity
  8
DEFPOINTS
100
AcDbPoint
370
-1
 62
0
  6
BYLAYER
 10
8973.21144856117
 20
-854.872501825703
 30
0
  0
LINE
  5
11B1
100
AcDbEntity
  8
0
100
AcDbLine
370
-2
 62
124
 10
8953.21144856117
 20
-1757.36938267289
 30
0
 11
8852.77855752461
 21
-1757.36938267289
 31
0
  0
LINE
  5
11B2
100
AcDbEntity
  8
0
100
AcDbLine
370
-2
 62
124
 10
8953.21144856117
 20
-854.872501825703
 30
0
 11
8852.77855752461
 21
-854.872501825703
 31
0
  0
LINE
  5
11B3
100
AcDbEntity
  8
0
100
AcDbLine
370
-2
 62
124
 10
8877.77855752461
 20
-1757.36938267289
 30
0
 11
8877.77855752461
 21
-854.872501825703
 31
0
  0
LINE
  5
11B4
100
AcDbEntity
  8
0
100
AcDbLine
370
-2
 62
124
 10
8877.77855752461
 20
-854.872501825703
 30
0
 11
8877.77855752461
 21
-854.872501825703
 31
0
  0
TEXT
  5
11B0
100
AcDbEntity
  8
0
100
AcDbText
370
-1
 62
124
 10
8880.24035630135
 20
-1530.72595840712
 30
0
 40
250
  1
902
 50
90
 41
0.899999976158142
 51
0
  7
ISOCP
 71
0
 72
0
 11
0
 21
0
 31
0
100
AcDbText
 73
0
  0
INSERT
  5
11B5
100
AcDbEntity
  8
0
100
AcDbBlockReference
370
-2
 62
124
  6
BYLAYER
  2
_ARCHTICK
 10
8877.77855752461
 20
-854.872501825703
 30
0
 41
100
 42
100
 43
100
 50
90
  0
INSERT
  5
11B6
100
AcDbEntity
  8
0
100
AcDbBlockReference
370
-2
 62
124
  6
BYLAYER
  2
_ARCHTICK
 10
8877.77855752461
 20
-1757.36938267289
 30
0
 41
100
 42
100
 43
100
 50
270
  0
INSERT
  5
11B7
100
AcDbEntity
  8
0
100
AcDbBlockReference
370
-2
 62
124
  6
BYLAYER
  2
SGCLOSEDFILEDLINE
 10
8877.77855752461
 20
-854.872501825703
 30
0
 41
25
 42
25
 43
25
 50
270
  0
INSERT
  5
11B8
100
AcDbEntity
  8
0
100
AcDbBlockReference
370
-2
 62
124
  6
BYLAYER
  2
SGCLOSEDFILEDLINE
 10
8877.77855752461
 20
-1757.36938267289
 30
0
 41
25
 42
25
 43
25
 50
270
  0
ENDBLK
  5
133E
100
AcDbEntity
  8
0
100
AcDbBlockEnd
  0
BLOCK
  5
11D4
100
AcDbEntity
  8
0
100
AcDbBlockBegin
  2
*sgDim31
 70
1
 10
0
 20
0
 30
0
  3
*sgDim31
  1

  0
POINT
  5
11D7
100
AcDbEntity
  8
DEFPOINTS
100
AcDbPoint
370
-1
 62
0
  6
BYLAYER
 10
10338.3834233202
 20
-854.660737045402
 30
0
  0
POINT
  5
11D8
100
AcDbEntity
  8
DEFPOINTS
100
AcDbPoint
370
-1
 62
0
  6
BYLAYER
 10
10339.2434863582
 20
-994.872501825703
 30
0
  0
LINE
  5
11DA
100
AcDbEntity
  8
0
100
AcDbLine
370
-1
 62
0
 10
10073.417545957
 20
-656.282282838376
 30
0
 11
9615.41537283636
 21
-656.282282838376
 31
0
  0
LINE
  5
11DB
100
AcDbEntity
  8
0
100
AcDbLine
370
-1
 62
0
 10
10074.6443286874
 20
-856.278520313316
 30
0
 11
10073.417545957
 21
-656.282282838376
 31
0
  0
LINE
  5
11DC
100
AcDbEntity
  8
0
100
AcDbLine
370
-2
 62
124
 10
10318.3837995727
 20
-854.783415318445
 30
0
 11
10049.644799003
 21
-856.431868154618
 31
0
  0
LINE
  5
11DD
100
AcDbEntity
  8
0
100
AcDbLine
370
-2
 62
124
 10
10319.2438626107
 20
-994.995180098745
 30
0
 11
10050.5048620412
 21
-996.643632934918
 31
0
  0
LINE
  5
11DE
100
AcDbEntity
  8
0
100
AcDbLine
370
-2
 62
124
 10
10075.5043917256
 20
-996.490285093615
 30
0
 11
10075.5043917256
 21
-996.490285093615
 31
0
  0
LINE
  5
11DF
100
AcDbEntity
  8
0
100
AcDbLine
370
-2
 62
124
 10
10074.6443286874
 20
-856.278520313316
 30
0
 11
10074.6443286874
 21
-856.278520313316
 31
0
  0
TEXT
  5
11D9
100
AcDbEntity
  8
0
100
AcDbText
370
-1
 62
124
 10
9581.66537373043
 20
-623.820484061641
 30
0
 40
250
  1
140
 50
0
 41
0.899999976158142
 51
0
  7
ISOCP
 71
0
 72
0
 11
0
 21
0
 31
0
100
AcDbText
 73
0
  0
INSERT
  5
11E0
100
AcDbEntity
  8
0
100
AcDbBlockReference
370
-2
 62
124
  6
BYLAYER
  2
_ARCHTICK
 10
10075.5043917256
 20
-996.490285093615
 30
0
 41
100
 42
100
 43
100
 50
-89.648551940918
  0
INSERT
  5
11E1
100
AcDbEntity
  8
0
100
AcDbBlockReference
370
-2
 62
124
  6
BYLAYER
  2
_ARCHTICK
 10
10074.6443286874
 20
-856.278520313316
 30
0
 41
100
 42
100
 43
100
 50
90.351448059082
  0
INSERT
  5
11E2
100
AcDbEntity
  8
0
100
AcDbBlockReference
370
-2
 62
124
  6
BYLAYER
  2
SGCLOSEDFILEDLINE
 10
10075.5043917256
 20
-996.490285093615
 30
0
 41
25
 42
25
 43
25
 50
90.351448059082
  0
INSERT
  5
11E3
100
AcDbEntity
  8
0
100
AcDbBlockReference
370
-2
 62
124
  6
BYLAYER
  2
SGCLOSEDFILEDLINE
 10
10074.6443286874
 20
-856.278520313316
 30
0
 41
25
 42
25
 43
25
 50
90.351448059082
  0
ENDBLK
  5
133F
100
AcDbEntity
  8
0
100
AcDbBlockEnd
  0
BLOCK
  5
11FF
100
AcDbEntity
  8
0
100
AcDbBlockBegin
  2
*sgDim33
 70
1
 10
0
 20
0
 30
0
  3
*sgDim33
  1

  0
POINT
  5
1231
100
AcDbEntity
  8
DEFPOINTS
100
AcDbPoint
370
-1
 62
0
  6
BYLAYER
 10
15741.8291588552
 20
-860.143807283053
 30
0
  0
POINT
  5
1232
100
AcDbEntity
  8
DEFPOINTS
100
AcDbPoint
370
-1
 62
0
  6
BYLAYER
 10
14373.6281692742
 20
-860.143807283053
 30
0
  0
LINE
  5
1234
100
AcDbEntity
  8
0
100
AcDbLine
370
-2
 62
124
 10
15741.8291588552
 20
-840.143807283053
 30
0
 11
15741.8291588552
 21
-528.919804113475
 31
0
  0
LINE
  5
1235
100
AcDbEntity
  8
0
100
AcDbLine
370
-2
 62
124
 10
14373.6281692742
 20
-840.143807283053
 30
0
 11
14373.6281692742
 21
-528.919804113475
 31
0
  0
LINE
  5
1236
100
AcDbEntity
  8
0
100
AcDbLine
370
-2
 62
124
 10
15741.8291588552
 20
-553.919804113475
 30
0
 11
14373.6281692742
 21
-553.919804113475
 31
0
  0
LINE
  5
1237
100
AcDbEntity
  8
0
100
AcDbLine
370
-2
 62
124
 10
14373.6281692742
 20
-553.919804113475
 30
0
 11
14373.6281692742
 21
-553.919804113475
 31
0
  0
TEXT
  5
1233
100
AcDbEntity
  8
0
100
AcDbText
370
-1
 62
124
 10
14799.3525797395
 20
-531.45800533674
 30
0
 40
250
  1
1080
 50
0
 41
0.899999976158142
 51
0
  7
ISOCP
 71
0
 72
0
 11
0
 21
0
 31
0
100
AcDbText
 73
0
  0
INSERT
  5
1238
100
AcDbEntity
  8
0
100
AcDbBlockReference
370
-2
 62
124
  6
BYLAYER
  2
_ARCHTICK
 10
14373.6281692742
 20
-553.919804113475
 30
0
 41
100
 42
100
 43
100
 50
180
  0
INSERT
  5
1239
100
AcDbEntity
  8
0
100
AcDbBlockReference
370
-2
 62
124
  6
BYLAYER
  2
_ARCHTICK
 10
15741.8291588552
 20
-553.919804113475
 30
0
 41
100
 42
100
 43
100
  0
INSERT
  5
123A
100
AcDbEntity
  8
0
100
AcDbBlockReference
370
-2
 62
124
  6
BYLAYER
  2
SGCLOSEDFILEDLINE
 10
14373.6281692742
 20
-553.919804113475
 30
0
 41
25
 42
25
 43
25
  0
INSERT
  5
123B
100
AcDbEntity
  8
0
100
AcDbBlockReference
370
-2
 62
124
  6
BYLAYER
  2
SGCLOSEDFILEDLINE
 10
15741.8291588552
 20
-553.919804113475
 30
0
 41
25
 42
25
 43
25
  0
ENDBLK
  5
1340
100
AcDbEntity
  8
0
100
AcDbBlockEnd
  0
BLOCK
  5
1255
100
AcDbEntity
  8
0
100
AcDbBlockBegin
  2
*sgDim36
 70
1
 10
0
 20
0
 30
0
  3
*sgDim36
  1

  0
POINT
  5
1258
100
AcDbEntity
  8
DEFPOINTS
100
AcDbPoint
370
-1
 62
0
  6
BYLAYER
 10
14373.6281692742
 20
-2388.1735854977
 30
0
  0
POINT
  5
1259
100
AcDbEntity
  8
DEFPOINTS
100
AcDbPoint
370
-1
 62
0
  6
BYLAYER
 10
14373.6281692742
 20
-860.143807283053
 30
0
  0
LINE
  5
125B
100
AcDbEntity
  8
0
100
AcDbLine
370
-2
 62
124
 10
14353.6281692742
 20
-2388.1735854977
 30
0
 11
14173.8089757612
 21
-2388.1735854977
 31
0
  0
LINE
  5
125C
100
AcDbEntity
  8
0
100
AcDbLine
370
-2
 62
124
 10
14353.6281692742
 20
-860.143807283053
 30
0
 11
14173.8089757612
 21
-860.143807283053
 31
0
  0
LINE
  5
125D
100
AcDbEntity
  8
0
100
AcDbLine
370
-2
 62
124
 10
14198.8089757612
 20
-2388.1735854977
 30
0
 11
14198.8089757612
 21
-860.143807283053
 31
0
  0
LINE
  5
125E
100
AcDbEntity
  8
0
100
AcDbLine
370
-2
 62
124
 10
14198.8089757612
 20
-860.143807283053
 30
0
 11
14198.8089757612
 21
-860.143807283053
 31
0
  0
TEXT
  5
125A
100
AcDbEntity
  8
0
100
AcDbText
370
-1
 62
124
 10
14201.3089757612
 20
-1904.15868864177
 30
0
 40
250
  1
1528
 50
90
 41
0.899999976158142
 51
0
  7
ISOCP
 71
0
 72
0
 11
0
 21
0
 31
0
100
AcDbText
 73
0
  0
INSERT
  5
125F
100
AcDbEntity
  8
0
100
AcDbBlockReference
370
-2
 62
124
  6
BYLAYER
  2
_ARCHTICK
 10
14198.8089757612
 20
-860.143807283053
 30
0
 41
100
 42
100
 43
100
 50
90
  0
INSERT
  5
1260
100
AcDbEntity
  8
0
100
AcDbBlockReference
370
-2
 62
124
  6
BYLAYER
  2
_ARCHTICK
 10
14198.8089757612
 20
-2388.1735854977
 30
0
 41
100
 42
100
 43
100
 50
270
  0
INSERT
  5
1261
100
AcDbEntity
  8
0
100
AcDbBlockReference
370
-2
 62
124
  6
BYLAYER
  2
SGCLOSEDFILEDLINE
 10
14198.8089757612
 20
-860.143807283053
 30
0
 41
25
 42
25
 43
25
 50
270
  0
INSERT
  5
1262
100
AcDbEntity
  8
0
100
AcDbBlockReference
370
-2
 62
124
  6
BYLAYER
  2
SGCLOSEDFILEDLINE
 10
14198.8089757612
 20
-2388.1735854977
 30
0
 41
25
 42
25
 43
25
 50
270
  0
ENDBLK
  5
1341
100
AcDbEntity
  8
0
100
AcDbBlockEnd
  0
BLOCK
  5
127C
100
AcDbEntity
  8
0
100
AcDbBlockBegin
  2
*sgDim38
 70
1
 10
0
 20
0
 30
0
  3
*sgDim38
  1

  0
POINT
  5
127F
100
AcDbEntity
  8
DEFPOINTS
100
AcDbPoint
370
-1
 62
0
  6
BYLAYER
 10
19502.1499860824
 20
-2388.1735854977
 30
0
  0
POINT
  5
1280
100
AcDbEntity
  8
DEFPOINTS
100
AcDbPoint
370
-1
 62
0
  6
BYLAYER
 10
19502.1499860824
 20
-871.066171849413
 30
0
  0
LINE
  5
1282
100
AcDbEntity
  8
0
100
AcDbLine
370
-2
 62
124
 10
19522.1499860824
 20
-2388.1735854977
 30
0
 11
19817.1779326972
 21
-2388.1735854977
 31
0
  0
LINE
  5
1283
100
AcDbEntity
  8
0
100
AcDbLine
370
-2
 62
124
 10
19522.1499860824
 20
-871.066171849413
 30
0
 11
19817.1779326972
 21
-871.066171849413
 31
0
  0
LINE
  5
1284
100
AcDbEntity
  8
0
100
AcDbLine
370
-2
 62
124
 10
19792.1779326972
 20
-2388.1735854977
 30
0
 11
19792.1779326972
 21
-871.066171849413
 31
0
  0
LINE
  5
1285
100
AcDbEntity
  8
0
100
AcDbLine
370
-2
 62
124
 10
19792.1779326972
 20
-871.066171849413
 30
0
 11
19792.1779326972
 21
-871.066171849413
 31
0
  0
TEXT
  5
1281
100
AcDbEntity
  8
0
100
AcDbText
370
-1
 62
124
 10
19794.6779326972
 20
-1887.119871521
 30
0
 40
250
  1
1517
 50
90
 41
0.899999976158142
 51
0
  7
ISOCP
 71
0
 72
0
 11
0
 21
0
 31
0
100
AcDbText
 73
0
  0
INSERT
  5
1286
100
AcDbEntity
  8
0
100
AcDbBlockReference
370
-2
 62
124
  6
BYLAYER
  2
_ARCHTICK
 10
19792.1779326972
 20
-871.066171849413
 30
0
 41
100
 42
100
 43
100
 50
90
  0
INSERT
  5
1287
100
AcDbEntity
  8
0
100
AcDbBlockReference
370
-2
 62
124
  6
BYLAYER
  2
_ARCHTICK
 10
19792.1779326972
 20
-2388.1735854977
 30
0
 41
100
 42
100
 43
100
 50
270
  0
INSERT
  5
1288
100
AcDbEntity
  8
0
100
AcDbBlockReference
370
-2
 62
124
  6
BYLAYER
  2
SGCLOSEDFILEDLINE
 10
19792.1779326972
 20
-871.066171849413
 30
0
 41
25
 42
25
 43
25
 50
270
  0
INSERT
  5
1289
100
AcDbEntity
  8
0
100
AcDbBlockReference
370
-2
 62
124
  6
BYLAYER
  2
SGCLOSEDFILEDLINE
 10
19792.1779326972
 20
-2388.1735854977
 30
0
 41
25
 42
25
 43
25
 50
270
  0
ENDBLK
  5
1342
100
AcDbEntity
  8
0
100
AcDbBlockEnd
  0
BLOCK
  5
12A5
100
AcDbEntity
  8
0
100
AcDbBlockBegin
  2
*sgDim40
 70
1
 10
0
 20
0
 30
0
  3
*sgDim40
  1

  0
POINT
  5
12A8
100
AcDbEntity
  8
DEFPOINTS
100
AcDbPoint
370
-1
 62
0
  6
BYLAYER
 10
13197.2438915248
 20
-1050.28889259349
 30
0
  0
POINT
  5
12A9
100
AcDbEntity
  8
DEFPOINTS
100
AcDbPoint
370
-1
 62
0
  6
BYLAYER
 10
13197.2438915248
 20
-1000.35557206334
 30
0
  0
LINE
  5
12AB
100
AcDbEntity
  8
0
100
AcDbLine
370
-1
 62
0
 10
13180.2869050675
 20
-1250.28889259349
 30
0
 11
12857.2847283706
 21
-1250.28889259349
 31
0
  0
LINE
  5
12AC
100
AcDbEntity
  8
0
100
AcDbLine
370
-1
 62
0
 10
13180.2869050675
 20
-1050.28889259349
 30
0
 11
13180.2869050675
 21
-1250.28889259349
 31
0
  0
LINE
  5
12AD
100
AcDbEntity
  8
0
100
AcDbLine
370
-2
 62
124
 10
13177.2438915248
 20
-1050.28889259349
 30
0
 11
13155.2869050675
 21
-1050.28889259349
 31
0
  0
LINE
  5
12AE
100
AcDbEntity
  8
0
100
AcDbLine
370
-2
 62
124
 10
13177.2438915248
 20
-1000.35557206334
 30
0
 11
13155.2869050675
 21
-1000.35557206334
 31
0
  0
LINE
  5
12AF
100
AcDbEntity
  8
0
100
AcDbLine
370
-2
 62
124
 10
13180.2869050675
 20
-1000.35557206334
 30
0
 11
13180.2869050675
 21
-1000.35557206334
 31
0
  0
LINE
  5
12B0
100
AcDbEntity
  8
0
100
AcDbLine
370
-2
 62
124
 10
13180.2869050675
 20
-1050.28889259349
 30
0
 11
13180.2869050675
 21
-1050.28889259349
 31
0
  0
TEXT
  5
12AA
100
AcDbEntity
  8
0
100
AcDbText
370
-1
 62
124
 10
12823.5347292647
 20
-1217.82709381676
 30
0
 40
250
  1
50
 50
0
 41
0.899999976158142
 51
0
  7
ISOCP
 71
0
 72
0
 11
0
 21
0
 31
0
100
AcDbText
 73
0
  0
INSERT
  5
12B1
100
AcDbEntity
  8
0
100
AcDbBlockReference
370
-2
 62
124
  6
BYLAYER
  2
_ARCHTICK
 10
13180.2869050675
 20
-1000.35557206334
 30
0
 41
100
 42
100
 43
100
 50
90
  0
INSERT
  5
12B2
100
AcDbEntity
  8
0
100
AcDbBlockReference
370
-2
 62
124
  6
BYLAYER
  2
_ARCHTICK
 10
13180.2869050675
 20
-1050.28889259349
 30
0
 41
100
 42
100
 43
100
 50
270
  0
INSERT
  5
12B3
100
AcDbEntity
  8
0
100
AcDbBlockReference
370
-2
 62
124
  6
BYLAYER
  2
SGCLOSEDFILEDLINE
 10
13180.2869050675
 20
-1000.35557206334
 30
0
 41
25
 42
25
 43
25
 50
270
  0
INSERT
  5
12B4
100
AcDbEntity
  8
0
100
AcDbBlockReference
370
-2
 62
124
  6
BYLAYER
  2
SGCLOSEDFILEDLINE
 10
13180.2869050675
 20
-1050.28889259349
 30
0
 41
25
 42
25
 43
25
 50
270
  0
ENDBLK
  5
1343
100
AcDbEntity
  8
0
100
AcDbBlockEnd
  0
BLOCK
  5
12D2
100
AcDbEntity
  8
0
100
AcDbBlockBegin
  2
*sgDim42
 70
1
 10
0
 20
0
 30
0
  3
*sgDim42
  1

  0
POINT
  5
12D5
100
AcDbEntity
  8
DEFPOINTS
100
AcDbPoint
370
-1
 62
0
  6
BYLAYER
 10
21031.3464354264
 20
-951.066171849413
 30
0
  0
POINT
  5
12D6
100
AcDbEntity
  8
DEFPOINTS
100
AcDbPoint
370
-1
 62
0
  6
BYLAYER
 10
21031.3464354264
 20
-871.066171849413
 30
0
  0
LINE
  5
12D8
100
AcDbEntity
  8
0
100
AcDbLine
370
-1
 62
0
 10
20815.3181846659
 20
-1151.06617184941
 30
0
 11
20492.316007969
 21
-1151.06617184941
 31
0
  0
LINE
  5
12D9
100
AcDbEntity
  8
0
100
AcDbLine
370
-1
 62
0
 10
20815.3181846659
 20
-951.066171849413
 30
0
 11
20815.3181846659
 21
-1151.06617184941
 31
0
  0
LINE
  5
12DA
100
AcDbEntity
  8
0
100
AcDbLine
370
-2
 62
124
 10
21011.3464354264
 20
-951.066171849413
 30
0
 11
20790.3181846659
 21
-951.066171849413
 31
0
  0
LINE
  5
12DB
100
AcDbEntity
  8
0
100
AcDbLine
370
-2
 62
124
 10
21011.3464354264
 20
-871.066171849413
 30
0
 11
20790.3181846659
 21
-871.066171849413
 31
0
  0
LINE
  5
12DC
100
AcDbEntity
  8
0
100
AcDbLine
370
-2
 62
124
 10
20815.3181846659
 20
-871.066171849413
 30
0
 11
20815.3181846659
 21
-871.066171849413
 31
0
  0
LINE
  5
12DD
100
AcDbEntity
  8
0
100
AcDbLine
370
-2
 62
124
 10
20815.3181846659
 20
-951.066171849413
 30
0
 11
20815.3181846659
 21
-951.066171849413
 31
0
  0
TEXT
  5
12D7
100
AcDbEntity
  8
0
100
AcDbText
370
-1
 62
124
 10
20458.5660088631
 20
-1118.60437307268
 30
0
 40
250
  1
80
 50
0
 41
0.899999976158142
 51
0
  7
ISOCP
 71
0
 72
0
 11
0
 21
0
 31
0
100
AcDbText
 73
0
  0
INSERT
  5
12DE
100
AcDbEntity
  8
0
100
AcDbBlockReference
370
-2
 62
124
  6
BYLAYER
  2
_ARCHTICK
 10
20815.3181846659
 20
-871.066171849413
 30
0
 41
100
 42
100
 43
100
 50
90
  0
INSERT
  5
12DF
100
AcDbEntity
  8
0
100
AcDbBlockReference
370
-2
 62
124
  6
BYLAYER
  2
_ARCHTICK
 10
20815.3181846659
 20
-951.066171849413
 30
0
 41
100
 42
100
 43
100
 50
270
  0
INSERT
  5
12E0
100
AcDbEntity
  8
0
100
AcDbBlockReference
370
-2
 62
124
  6
BYLAYER
  2
SGCLOSEDFILEDLINE
 10
20815.3181846659
 20
-871.066171849413
 30
0
 41
25
 42
25
 43
25
 50
270
  0
INSERT
  5
12E1
100
AcDbEntity
  8
0
100
AcDbBlockReference
370
-2
 62
124
  6
BYLAYER
  2
SGCLOSEDFILEDLINE
 10
20815.3181846659
 20
-951.066171849413
 30
0
 41
25
 42
25
 43
25
 50
270
  0
ENDBLK
  5
1344
100
AcDbEntity
  8
0
100
AcDbBlockEnd
  0
BLOCK
  5
12FF
100
AcDbEntity
  8
0
100
AcDbBlockBegin
  2
*sgDim44
 70
1
 10
0
 20
0
 30
0
  3
*sgDim44
  1

  0
POINT
  5
1302
100
AcDbEntity
  8
DEFPOINTS
100
AcDbPoint
370
-1
 62
0
  6
BYLAYER
 10
21830.5584412301
 20
-871.066171849413
 30
0
  0
POINT
  5
1303
100
AcDbEntity
  8
DEFPOINTS
100
AcDbPoint
370
-1
 62
0
  6
BYLAYER
 10
21830.5584412301
 20
-951.066171849413
 30
0
  0
LINE
  5
1305
100
AcDbEntity
  8
0
100
AcDbLine
370
-1
 62
0
 10
21830.5584412301
 20
-671.066171849413
 30
0
 11
21507.5562645332
 21
-671.066171849413
 31
0
  0
LINE
  5
1306
100
AcDbEntity
  8
0
100
AcDbLine
370
-1
 62
0
 10
21830.5584412301
 20
-871.066171849413
 30
0
 11
21830.5584412301
 21
-671.066171849413
 31
0
  0
LINE
  5
1307
100
AcDbEntity
  8
0
100
AcDbLine
370
-2
 62
124
 10
21830.5584412301
 20
-871.066171849413
 30
0
 11
21830.5584412301
 21
-871.066171849413
 31
0
  0
LINE
  5
1308
100
AcDbEntity
  8
0
100
AcDbLine
370
-2
 62
124
 10
21830.5584412301
 20
-951.066171849413
 30
0
 11
21830.5584412301
 21
-951.066171849413
 31
0
  0
LINE
  5
1309
100
AcDbEntity
  8
0
100
AcDbLine
370
-2
 62
124
 10
21830.5584412301
 20
-951.066171849413
 30
0
 11
21830.5584412301
 21
-951.066171849413
 31
0
  0
LINE
  5
130A
100
AcDbEntity
  8
0
100
AcDbLine
370
-2
 62
124
 10
21830.5584412301
 20
-871.066171849413
 30
0
 11
21830.5584412301
 21
-871.066171849413
 31
0
  0
TEXT
  5
1304
100
AcDbEntity
  8
0
100
AcDbText
370
-1
 62
124
 10
21473.8062654273
 20
-638.604373072677
 30
0
 40
250
  1
80
 50
0
 41
0.899999976158142
 51
0
  7
ISOCP
 71
0
 72
0
 11
0
 21
0
 31
0
100
AcDbText
 73
0
  0
INSERT
  5
130B
100
AcDbEntity
  8
0
100
AcDbBlockReference
370
-2
 62
124
  6
BYLAYER
  2
_ARCHTICK
 10
21830.5584412301
 20
-951.066171849413
 30
0
 41
100
 42
100
 43
100
 50
-90
  0
INSERT
  5
130C
100
AcDbEntity
  8
0
100
AcDbBlockReference
370
-2
 62
124
  6
BYLAYER
  2
_ARCHTICK
 10
21830.5584412301
 20
-871.066171849413
 30
0
 41
100
 42
100
 43
100
 50
90
  0
INSERT
  5
130D
100
AcDbEntity
  8
0
100
AcDbBlockReference
370
-2
 62
124
  6
BYLAYER
  2
SGCLOSEDFILEDLINE
 10
21830.5584412301
 20
-951.066171849413
 30
0
 41
25
 42
25
 43
25
 50
90
  0
INSERT
  5
130E
100
AcDbEntity
  8
0
100
AcDbBlockReference
370
-2
 62
124
  6
BYLAYER
  2
SGCLOSEDFILEDLINE
 10
21830.5584412301
 20
-871.066171849413
 30
0
 41
25
 42
25
 43
25
 50
90
  0
ENDBLK
  5
1345
100
AcDbEntity
  8
0
100
AcDbBlockEnd
  0
ENDSEC
  0
SECTION
  2
ENTITIES
  0
LWPOLYLINE
  5
24
100
AcDbEntity
  8
2
100
AcDbPolyline
370
-1
  6
BYLAYER
 38
0
 90
4
 70
1
 10
14373.8089757612
 20
-2240.59398802935
 10
14373.8089757612
 20
-2440.59398802935
 10
13973.8089757612
 20
-2440.59398802935
 10
13973.8089757612
 20
-2240.59398802935
  0
LWPOLYLINE
  5
25
100
AcDbEntity
  8
2
100
AcDbPolyline
370
-1
  6
BYLAYER
 38
0
 90
4
 70
1
 10
13973.8089757612
 20
-2240.59398802935
 10
13973.8089757612
 20
-2440.59398802935
 10
13573.8089757612
 20
-2440.59398802935
 10
13573.8089757612
 20
-2240.59398802935
  0
LWPOLYLINE
  5
26
100
AcDbEntity
  8
2
100
AcDbPolyline
370
-1
  6
BYLAYER
 38
0
 90
4
 70
1
 10
13573.8089757612
 20
-2240.59398802935
 10
13573.8089757612
 20
-2440.59398802935
 10
13173.8089757612
 20
-2440.59398802935
 10
13173.8089757612
 20
-2240.59398802935
  0
LWPOLYLINE
  5
27
100
AcDbEntity
  8
2
100
AcDbPolyline
370
-1
  6
BYLAYER
 38
0
 90
4
 70
1
 10
13173.8089757612
 20
-2240.59398802935
 10
13173.8089757612
 20
-2440.59398802935
 10
12773.8089757612
 20
-2440.59398802935
 10
12773.8089757612
 20
-2240.59398802935
  0
LWPOLYLINE
  5
28
100
AcDbEntity
  8
2
100
AcDbPolyline
370
-1
  6
BYLAYER
 38
0
 90
4
 70
1
 10
12773.8089757612
 20
-2240.59398802935
 10
12773.8089757612
 20
-2440.59398802935
 10
12373.8089757612
 20
-2440.59398802935
 10
12373.8089757612
 20
-2240.59398802935
  0
LWPOLYLINE
  5
29
100
AcDbEntity
  8
2
100
AcDbPolyline
370
-1
  6
BYLAYER
 38
0
 90
4
 70
1
 10
12373.8089757612
 20
-2240.59398802935
 10
12373.8089757612
 20
-2440.59398802935
 10
11973.8089757612
 20
-2440.59398802935
 10
11973.8089757612
 20
-2240.59398802935
  0
LWPOLYLINE
  5
2A
100
AcDbEntity
  8
2
100
AcDbPolyline
370
-1
  6
BYLAYER
 38
0
 90
4
 70
1
 10
11973.8089757612
 20
-2240.59398802935
 10
11973.8089757612
 20
-2440.59398802935
 10
11573.8089757612
 20
-2440.59398802935
 10
11573.8089757612
 20
-2240.59398802935
  0
LWPOLYLINE
  5
2B
100
AcDbEntity
  8
2
100
AcDbPolyline
370
-1
  6
BYLAYER
 38
0
 90
4
 70
1
 10
11573.8089757612
 20
-2240.59398802935
 10
11573.8089757612
 20
-2440.59398802935
 10
11173.8089757612
 20
-2440.59398802935
 10
11173.8089757612
 20
-2240.59398802935
  0
LWPOLYLINE
  5
2C
100
AcDbEntity
  8
2
100
AcDbPolyline
370
-1
  6
BYLAYER
 38
0
 90
4
 70
1
 10
11173.8089757612
 20
-2240.59398802935
 10
11173.8089757612
 20
-2440.59398802935
 10
10773.8089757612
 20
-2440.59398802935
 10
10773.8089757612
 20
-2240.59398802935
  0
LWPOLYLINE
  5
2D
100
AcDbEntity
  8
2
100
AcDbPolyline
370
-1
  6
BYLAYER
 38
0
 90
4
 70
1
 10
10773.8089757612
 20
-2240.59398802935
 10
10773.8089757612
 20
-2440.59398802935
 10
10373.8089757612
 20
-2440.59398802935
 10
10373.8089757612
 20
-2240.59398802935
  0
LWPOLYLINE
  5
2E
100
AcDbEntity
  8
2
100
AcDbPolyline
370
-1
  6
BYLAYER
 38
0
 90
4
 70
1
 10
10373.8089757612
 20
-2240.59398802935
 10
10373.8089757612
 20
-2440.59398802935
 10
9973.80897576118
 20
-2440.59398802935
 10
9973.80897576118
 20
-2240.59398802935
  0
LWPOLYLINE
  5
2F
100
AcDbEntity
  8
2
100
AcDbPolyline
370
-1
  6
BYLAYER
 38
0
 90
4
 70
1
 10
9973.80897576118
 20
-2240.59398802935
 10
9973.80897576118
 20
-2440.59398802935
 10
9573.80897576118
 20
-2440.59398802935
 10
9573.80897576118
 20
-2240.59398802935
  0
LWPOLYLINE
  5
30
100
AcDbEntity
  8
2
100
AcDbPolyline
370
-1
  6
BYLAYER
 38
0
 90
4
 70
1
 10
9573.80897576118
 20
-2240.59398802935
 10
9573.80897576118
 20
-2440.59398802935
 10
9173.80897576118
 20
-2440.59398802935
 10
9173.80897576118
 20
-2240.59398802935
  0
LWPOLYLINE
  5
31
100
AcDbEntity
  8
2
100
AcDbPolyline
370
-1
  6
BYLAYER
 38
0
 90
4
 70
1
 10
9173.80897576118
 20
-2240.59398802935
 10
9173.80897576118
 20
-2440.59398802935
 10
8773.80897576118
 20
-2440.59398802935
 10
8773.80897576118
 20
-2240.59398802935
  0
LWPOLYLINE
  5
32
100
AcDbEntity
  8
2
100
AcDbPolyline
370
-1
  6
BYLAYER
 38
0
 90
4
 70
1
 10
8773.80897576118
 20
-2240.59398802935
 10
8773.80897576118
 20
-2440.59398802935
 10
8373.80897576118
 20
-2440.59398802935
 10
8373.80897576118
 20
-2240.59398802935
  0
LWPOLYLINE
  5
33
100
AcDbEntity
  8
2
100
AcDbPolyline
370
-1
  6
BYLAYER
 38
0
 90
4
 70
1
 10
8373.80897576118
 20
-2240.59398802935
 10
8373.80897576118
 20
-2440.59398802935
 10
7973.80897576118
 20
-2440.59398802935
 10
7973.80897576118
 20
-2240.59398802935
  0
LWPOLYLINE
  5
34
100
AcDbEntity
  8
2
100
AcDbPolyline
370
-1
  6
BYLAYER
 38
0
 90
4
 70
1
 10
7973.80897576118
 20
-2240.59398802935
 10
7973.80897576118
 20
-2440.59398802935
 10
7573.80897576118
 20
-2440.59398802935
 10
7573.80897576118
 20
-2240.59398802935
  0
LWPOLYLINE
  5
35
100
AcDbEntity
  8
2
100
AcDbPolyline
370
-1
  6
BYLAYER
 38
0
 90
4
 70
1
 10
7573.80897576118
 20
-2240.59398802935
 10
7573.80897576118
 20
-2440.59398802935
 10
7173.80897576118
 20
-2440.59398802935
 10
7173.80897576118
 20
-2240.59398802935
  0
LWPOLYLINE
  5
36
100
AcDbEntity
  8
2
100
AcDbPolyline
370
-1
  6
BYLAYER
 38
0
 90
4
 70
1
 10
7173.80897576118
 20
-2240.59398802935
 10
7173.80897576118
 20
-2440.59398802935
 10
6773.80897576118
 20
-2440.59398802935
 10
6773.80897576118
 20
-2240.59398802935
  0
LWPOLYLINE
  5
37
100
AcDbEntity
  8
2
100
AcDbPolyline
370
-1
  6
BYLAYER
 38
0
 90
4
 70
1
 10
6773.80897576118
 20
-2240.59398802935
 10
6773.80897576118
 20
-2440.59398802935
 10
6373.80897576118
 20
-2440.59398802935
 10
6373.80897576118
 20
-2240.59398802935
  0
LWPOLYLINE
  5
38
100
AcDbEntity
  8
2
100
AcDbPolyline
370
-1
  6
BYLAYER
 38
0
 90
4
 70
1
 10
14373.8089757612
 20
-2240.59398802935
 10
14173.8089757612
 20
-2240.59398802935
 10
14173.8089757612
 20
-2040.59398802935
 10
14373.8089757612
 20
-2040.59398802935
  0
LWPOLYLINE
  5
39
100
AcDbEntity
  8
2
100
AcDbPolyline
370
-1
  6
BYLAYER
 38
0
 90
4
 70
1
 10
8173.80897576118
 20
-2040.59398802935
 10
8173.80897576118
 20
-2240.59398802935
 10
7773.80897576118
 20
-2240.59398802935
 10
7773.80897576118
 20
-2040.59398802935
  0
LWPOLYLINE
  5
3A
100
AcDbEntity
  8
2
100
AcDbPolyline
370
-1
  6
BYLAYER
 38
0
 90
4
 70
1
 10
7773.80897576118
 20
-2040.59398802935
 10
7773.80897576118
 20
-2240.59398802935
 10
7373.80897576118
 20
-2240.59398802935
 10
7373.80897576118
 20
-2040.59398802935
  0
LWPOLYLINE
  5
3B
100
AcDbEntity
  8
2
100
AcDbPolyline
370
-1
  6
BYLAYER
 38
0
 90
4
 70
1
 10
7373.80897576118
 20
-2040.59398802935
 10
7373.80897576118
 20
-2240.59398802935
 10
6973.80897576118
 20
-2240.59398802935
 10
6973.80897576118
 20
-2040.59398802935
  0
LWPOLYLINE
  5
3C
100
AcDbEntity
  8
2
100
AcDbPolyline
370
-1
  6
BYLAYER
 38
0
 90
4
 70
1
 10
6973.80897576118
 20
-2040.59398802935
 10
6973.80897576118
 20
-2240.59398802935
 10
6573.80897576118
 20
-2240.59398802935
 10
6573.80897576118
 20
-2040.59398802935
  0
LWPOLYLINE
  5
3D
100
AcDbEntity
  8
2
100
AcDbPolyline
370
-1
  6
BYLAYER
 38
0
 90
4
 70
1
 10
14173.8089757612
 20
-2040.59398802935
 10
14173.8089757612
 20
-2240.59398802935
 10
13773.8089757612
 20
-2240.59398802935
 10
13773.8089757612
 20
-2040.59398802935
  0
LWPOLYLINE
  5
3E
100
AcDbEntity
  8
2
100
AcDbPolyline
370
-1
  6
BYLAYER
 38
0
 90
4
 70
1
 10
13773.8089757612
 20
-2040.59398802935
 10
13773.8089757612
 20
-2240.59398802935
 10
13373.8089757612
 20
-2240.59398802935
 10
13373.8089757612
 20
-2040.59398802935
  0
LWPOLYLINE
  5
3F
100
AcDbEntity
  8
2
100
AcDbPolyline
370
-1
  6
BYLAYER
 38
0
 90
4
 70
1
 10
13373.8089757612
 20
-2040.59398802935
 10
13373.8089757612
 20
-2240.59398802935
 10
12973.8089757612
 20
-2240.59398802935
 10
12973.8089757612
 20
-2040.59398802935
  0
LWPOLYLINE
  5
40
100
AcDbEntity
  8
2
100
AcDbPolyline
370
-1
  6
BYLAYER
 38
0
 90
4
 70
1
 10
12973.8089757612
 20
-2040.59398802935
 10
12973.8089757612
 20
-2240.59398802935
 10
12573.8089757612
 20
-2240.59398802935
 10
12573.8089757612
 20
-2040.59398802935
  0
LWPOLYLINE
  5
41
100
AcDbEntity
  8
2
100
AcDbPolyline
370
-1
  6
BYLAYER
 38
0
 90
4
 70
1
 10
12573.8089757612
 20
-2040.59398802935
 10
12573.8089757612
 20
-2240.59398802935
 10
12173.8089757612
 20
-2240.59398802935
 10
12173.8089757612
 20
-2040.59398802935
  0
LWPOLYLINE
  5
42
100
AcDbEntity
  8
2
100
AcDbPolyline
370
-1
  6
BYLAYER
 38
0
 90
4
 70
1
 10
12173.8089757612
 20
-2040.59398802935
 10
12173.8089757612
 20
-2240.59398802935
 10
11773.8089757612
 20
-2240.59398802935
 10
11773.8089757612
 20
-2040.59398802935
  0
LWPOLYLINE
  5
43
100
AcDbEntity
  8
2
100
AcDbPolyline
370
-1
  6
BYLAYER
 38
0
 90
4
 70
1
 10
11773.8089757612
 20
-2040.59398802935
 10
11773.8089757612
 20
-2240.59398802935
 10
11373.8089757612
 20
-2240.59398802935
 10
11373.8089757612
 20
-2040.59398802935
  0
LWPOLYLINE
  5
44
100
AcDbEntity
  8
2
100
AcDbPolyline
370
-1
  6
BYLAYER
 38
0
 90
4
 70
1
 10
11373.8089757612
 20
-2040.59398802935
 10
11373.8089757612
 20
-2240.59398802935
 10
10973.8089757612
 20
-2240.59398802935
 10
10973.8089757612
 20
-2040.59398802935
  0
LWPOLYLINE
  5
45
100
AcDbEntity
  8
2
100
AcDbPolyline
370
-1
  6
BYLAYER
 38
0
 90
4
 70
1
 10
10973.8089757612
 20
-2040.59398802935
 10
10973.8089757612
 20
-2240.59398802935
 10
10573.8089757612
 20
-2240.59398802935
 10
10573.8089757612
 20
-2040.59398802935
  0
LWPOLYLINE
  5
46
100
AcDbEntity
  8
2
100
AcDbPolyline
370
-1
  6
BYLAYER
 38
0
 90
4
 70
1
 10
10573.8089757612
 20
-2040.59398802935
 10
10573.8089757612
 20
-2240.59398802935
 10
10173.8089757612
 20
-2240.59398802935
 10
10173.8089757612
 20
-2040.59398802935
  0
LWPOLYLINE
  5
47
100
AcDbEntity
  8
2
100
AcDbPolyline
370
-1
  6
BYLAYER
 38
0
 90
4
 70
1
 10
10173.8089757612
 20
-2040.59398802935
 10
10173.8089757612
 20
-2240.59398802935
 10
9773.80897576118
 20
-2240.59398802935
 10
9773.80897576118
 20
-2040.59398802935
  0
LWPOLYLINE
  5
48
100
AcDbEntity
  8
2
100
AcDbPolyline
370
-1
  6
BYLAYER
 38
0
 90
4
 70
1
 10
9773.80897576118
 20
-2040.59398802935
 10
9773.80897576118
 20
-2240.59398802935
 10
9373.80897576118
 20
-2240.59398802935
 10
9373.80897576118
 20
-2040.59398802935
  0
LWPOLYLINE
  5
49
100
AcDbEntity
  8
2
100
AcDbPolyline
370
-1
  6
BYLAYER
 38
0
 90
4
 70
1
 10
9373.80897576118
 20
-2040.59398802935
 10
9373.80897576118
 20
-2240.59398802935
 10
8973.80897576118
 20
-2240.59398802935
 10
8973.80897576118
 20
-2040.59398802935
  0
LWPOLYLINE
  5
4A
100
AcDbEntity
  8
2
100
AcDbPolyline
370
-1
  6
BYLAYER
 38
0
 90
4
 70
1
 10
8973.80897576118
 20
-2040.59398802935
 10
8973.80897576118
 20
-2240.59398802935
 10
8573.80897576118
 20
-2240.59398802935
 10
8573.80897576118
 20
-2040.59398802935
  0
LWPOLYLINE
  5
4B
100
AcDbEntity
  8
2
100
AcDbPolyline
370
-1
  6
BYLAYER
 38
0
 90
4
 70
1
 10
8573.80897576118
 20
-2040.59398802935
 10
8573.80897576118
 20
-2240.59398802935
 10
8173.80897576118
 20
-2240.59398802935
 10
8173.80897576118
 20
-2040.59398802935
  0
LWPOLYLINE
  5
4C
100
AcDbEntity
  8
2
100
AcDbPolyline
370
-1
  6
BYLAYER
 38
0
 90
4
 70
1
 10
8373.80897576118
 20
-1840.59398802935
 10
8373.80897576118
 20
-2040.59398802935
 10
7973.80897576118
 20
-2040.59398802935
 10
7973.80897576118
 20
-1840.59398802935
  0
LWPOLYLINE
  5
4D
100
AcDbEntity
  8
2
100
AcDbPolyline
370
-1
  6
BYLAYER
 38
0
 90
4
 70
1
 10
7973.80897576118
 20
-1840.59398802935
 10
7973.80897576118
 20
-2040.59398802935
 10
7573.80897576118
 20
-2040.59398802935
 10
7573.80897576118
 20
-1840.59398802935
  0
LWPOLYLINE
  5
4E
100
AcDbEntity
  8
2
100
AcDbPolyline
370
-1
  6
BYLAYER
 38
0
 90
4
 70
1
 10
7573.80897576118
 20
-1840.59398802935
 10
7573.80897576118
 20
-2040.59398802935
 10
7173.80897576118
 20
-2040.59398802935
 10
7173.80897576118
 20
-1840.59398802935
  0
LWPOLYLINE
  5
4F
100
AcDbEntity
  8
2
100
AcDbPolyline
370
-1
  6
BYLAYER
 38
0
 90
4
 70
1
 10
7173.80897576118
 20
-1840.59398802935
 10
7173.80897576118
 20
-2040.59398802935
 10
6773.80897576118
 20
-2040.59398802935
 10
6773.80897576118
 20
-1840.59398802935
  0
LWPOLYLINE
  5
50
100
AcDbEntity
  8
2
100
AcDbPolyline
370
-1
  6
BYLAYER
 38
0
 90
4
 70
1
 10
6773.80897576118
 20
-1840.59398802935
 10
6773.80897576118
 20
-2040.59398802935
 10
6373.80897576118
 20
-2040.59398802935
 10
6373.80897576118
 20
-1840.59398802935
  0
LWPOLYLINE
  5
51
100
AcDbEntity
  8
2
100
AcDbPolyline
370
-1
  6
BYLAYER
 38
0
 90
4
 70
1
 10
14373.8089757612
 20
-1840.59398802935
 10
14373.8089757612
 20
-2040.59398802935
 10
13973.8089757612
 20
-2040.59398802935
 10
13973.8089757612
 20
-1840.59398802935
  0
LWPOLYLINE
  5
52
100
AcDbEntity
  8
2
100
AcDbPolyline
370
-1
  6
BYLAYER
 38
0
 90
4
 70
1
 10
13973.8089757612
 20
-1840.59398802935
 10
13973.8089757612
 20
-2040.59398802935
 10
13573.8089757612
 20
-2040.59398802935
 10
13573.8089757612
 20
-1840.59398802935
  0
LWPOLYLINE
  5
53
100
AcDbEntity
  8
2
100
AcDbPolyline
370
-1
  6
BYLAYER
 38
0
 90
4
 70
1
 10
13573.8089757612
 20
-1840.59398802935
 10
13573.8089757612
 20
-2040.59398802935
 10
13173.8089757612
 20
-2040.59398802935
 10
13173.8089757612
 20
-1840.59398802935
  0
LWPOLYLINE
  5
54
100
AcDbEntity
  8
2
100
AcDbPolyline
370
-1
  6
BYLAYER
 38
0
 90
4
 70
1
 10
13173.8089757612
 20
-1840.59398802935
 10
13173.8089757612
 20
-2040.59398802935
 10
12773.8089757612
 20
-2040.59398802935
 10
12773.8089757612
 20
-1840.59398802935
  0
LWPOLYLINE
  5
55
100
AcDbEntity
  8
2
100
AcDbPolyline
370
-1
  6
BYLAYER
 38
0
 90
4
 70
1
 10
12773.8089757612
 20
-1840.59398802935
 10
12773.8089757612
 20
-2040.59398802935
 10
12373.8089757612
 20
-2040.59398802935
 10
12373.8089757612
 20
-1840.59398802935
  0
LWPOLYLINE
  5
56
100
AcDbEntity
  8
2
100
AcDbPolyline
370
-1
  6
BYLAYER
 38
0
 90
4
 70
1
 10
12373.8089757612
 20
-1840.59398802935
 10
12373.8089757612
 20
-2040.59398802935
 10
11973.8089757612
 20
-2040.59398802935
 10
11973.8089757612
 20
-1840.59398802935
  0
LWPOLYLINE
  5
57
100
AcDbEntity
  8
2
100
AcDbPolyline
370
-1
  6
BYLAYER
 38
0
 90
4
 70
1
 10
11973.8089757612
 20
-1840.59398802935
 10
11973.8089757612
 20
-2040.59398802935
 10
11573.8089757612
 20
-2040.59398802935
 10
11573.8089757612
 20
-1840.59398802935
  0
LWPOLYLINE
  5
58
100
AcDbEntity
  8
2
100
AcDbPolyline
370
-1
  6
BYLAYER
 38
0
 90
4
 70
1
 10
11573.8089757612
 20
-1840.59398802935
 10
11573.8089757612
 20
-2040.59398802935
 10
11173.8089757612
 20
-2040.59398802935
 10
11173.8089757612
 20
-1840.59398802935
  0
LWPOLYLINE
  5
59
100
AcDbEntity
  8
2
100
AcDbPolyline
370
-1
  6
BYLAYER
 38
0
 90
4
 70
1
 10
11173.8089757612
 20
-1840.59398802935
 10
11173.8089757612
 20
-2040.59398802935
 10
10773.8089757612
 20
-2040.59398802935
 10
10773.8089757612
 20
-1840.59398802935
  0
LWPOLYLINE
  5
5A
100
AcDbEntity
  8
2
100
AcDbPolyline
370
-1
  6
BYLAYER
 38
0
 90
4
 70
1
 10
10773.8089757612
 20
-1840.59398802935
 10
10773.8089757612
 20
-2040.59398802935
 10
10373.8089757612
 20
-2040.59398802935
 10
10373.8089757612
 20
-1840.59398802935
  0
LWPOLYLINE
  5
5B
100
AcDbEntity
  8
2
100
AcDbPolyline
370
-1
  6
BYLAYER
 38
0
 90
4
 70
1
 10
10373.8089757612
 20
-1840.59398802935
 10
10373.8089757612
 20
-2040.59398802935
 10
9973.80897576118
 20
-2040.59398802935
 10
9973.80897576118
 20
-1840.59398802935
  0
LWPOLYLINE
  5
5C
100
AcDbEntity
  8
2
100
AcDbPolyline
370
-1
  6
BYLAYER
 38
0
 90
4
 70
1
 10
9973.80897576118
 20
-1840.59398802935
 10
9973.80897576118
 20
-2040.59398802935
 10
9573.80897576118
 20
-2040.59398802935
 10
9573.80897576118
 20
-1840.59398802935
  0
LWPOLYLINE
  5
5D
100
AcDbEntity
  8
2
100
AcDbPolyline
370
-1
  6
BYLAYER
 38
0
 90
4
 70
1
 10
9573.80897576118
 20
-1840.59398802935
 10
9573.80897576118
 20
-2040.59398802935
 10
9173.80897576118
 20
-2040.59398802935
 10
9173.80897576118
 20
-1840.59398802935
  0
LWPOLYLINE
  5
5E
100
AcDbEntity
  8
2
100
AcDbPolyline
370
-1
  6
BYLAYER
 38
0
 90
4
 70
1
 10
9173.80897576118
 20
-1840.59398802935
 10
9173.80897576118
 20
-2040.59398802935
 10
8773.80897576118
 20
-2040.59398802935
 10
8773.80897576118
 20
-1840.59398802935
  0
LWPOLYLINE
  5
5F
100
AcDbEntity
  8
2
100
AcDbPolyline
370
-1
  6
BYLAYER
 38
0
 90
4
 70
1
 10
8773.80897576118
 20
-1840.59398802935
 10
8773.80897576118
 20
-2040.59398802935
 10
8373.80897576118
 20
-2040.59398802935
 10
8373.80897576118
 20
-1840.59398802935
  0
LWPOLYLINE
  5
60
100
AcDbEntity
  8
2
100
AcDbPolyline
370
-1
  6
BYLAYER
 38
0
 90
4
 70
0
 10
6373.80897576118
 20
-2040.59398802935
 10
6573.80897576118
 20
-2040.59398802935
 10
6573.80897576118
 20
-2240.59398802935
 10
6373.80897576118
 20
-2240.59398802935
  0
LWPOLYLINE
  5
61
100
AcDbEntity
  8
2
100
AcDbPolyline
370
-1
  6
BYLAYER
 38
0
 90
4
 70
1
 10
6773.80897576118
 20
-1440.59398802935
 10
6773.80897576118
 20
-1640.59398802935
 10
6373.80897576118
 20
-1640.59398802935
 10
6373.80897576118
 20
-1440.59398802935
  0
LWPOLYLINE
  5
62
100
AcDbEntity
  8
2
100
AcDbPolyline
370
-1
  6
BYLAYER
 38
0
 90
4
 70
1
 10
6773.80897576118
 20
-1040.59398802935
 10
6773.80897576118
 20
-1240.59398802935
 10
6373.80897576118
 20
-1240.59398802935
 10
6373.80897576118
 20
-1040.59398802935
  0
LWPOLYLINE
  5
63
100
AcDbEntity
  8
2
100
AcDbPolyline
370
-1
  6
BYLAYER
 38
0
 90
4
 70
1
 10
14373.8089757612
 20
-1440.59398802935
 10
14373.8089757612
 20
-1640.59398802935
 10
13973.8089757612
 20
-1640.59398802935
 10
13973.8089757612
 20
-1440.59398802935
  0
LWPOLYLINE
  5
64
100
AcDbEntity
  8
2
100
AcDbPolyline
370
-1
  6
BYLAYER
 38
0
 90
4
 70
1
 10
14373.8089757612
 20
-1240.59398802935
 10
14373.8089757612
 20
-1440.59398802935
 10
13973.8089757612
 20
-1440.59398802935
 10
13973.8089757612
 20
-1240.59398802935
  0
LWPOLYLINE
  5
65
100
AcDbEntity
  8
2
100
AcDbPolyline
370
-1
  6
BYLAYER
 38
0
 90
4
 70
1
 10
14373.8089757612
 20
-1040.59398802935
 10
14373.8089757612
 20
-1240.59398802935
 10
13973.8089757612
 20
-1240.59398802935
 10
13973.8089757612
 20
-1040.59398802935
  0
LWPOLYLINE
  5
66
100
AcDbEntity
  8
2
100
AcDbPolyline
370
-1
  6
BYLAYER
 38
0
 90
4
 70
1
 10
14373.8089757612
 20
-840.593988029353
 10
14373.8089757612
 20
-1040.59398802935
 10
13973.8089757612
 20
-1040.59398802935
 10
13973.8089757612
 20
-840.593988029353
  0
LINE
  5
67
100
AcDbEntity
  8
2
100
AcDbLine
370
-1
  6
BYLAYER
 10
14373.8089757612
 20
-840.593988029353
 30
0
 11
14173.8877601922
 21
-834.980828016473
 31
0
  0
LWPOLYLINE
  5
68
100
AcDbEntity
  8
2
100
AcDbPolyline
370
-1
  6
BYLAYER
 38
0
 90
4
 70
1
 10
12573.6098000282
 20
-1437.85245291053
 10
12573.6098000282
 20
-1637.85245291053
 10
12173.6098000282
 20
-1637.85245291053
 10
12173.6098000282
 20
-1437.85245291053
  0
LWPOLYLINE
  5
69
100
AcDbEntity
  8
2
100
AcDbPolyline
370
-1
  6
BYLAYER
 38
0
 90
4
 70
1
 10
12573.6098000282
 20
-1237.85245291053
 10
12573.6098000282
 20
-1437.85245291053
 10
12173.6098000282
 20
-1437.85245291053
 10
12173.6098000282
 20
-1237.85245291053
  0
LWPOLYLINE
  5
6A
100
AcDbEntity
  8
2
100
AcDbPolyline
370
-1
  6
BYLAYER
 38
0
 90
4
 70
1
 10
12573.6098000282
 20
-1037.85245291053
 10
12573.6098000282
 20
-1237.85245291053
 10
12173.6098000282
 20
-1237.85245291053
 10
12173.6098000282
 20
-1037.85245291053
  0
LWPOLYLINE
  5
6B
100
AcDbEntity
  8
2
100
AcDbPolyline
370
-1
  6
BYLAYER
 38
0
 90
4
 70
1
 10
12573.6098000282
 20
-837.852452910533
 10
12573.6098000282
 20
-1037.85245291053
 10
12173.6098000282
 20
-1037.85245291053
 10
12173.6098000282
 20
-837.852452910533
  0
LINE
  5
6C
100
AcDbEntity
  8
2
100
AcDbLine
370
-1
  6
BYLAYER
 10
12573.6098000282
 20
-837.852452910533
 30
0
 11
12373.6885844582
 21
-832.239292897643
 31
0
  0
LWPOLYLINE
  5
6D
100
AcDbEntity
  8
2
100
AcDbPolyline
370
-1
  6
BYLAYER
 38
0
 90
4
 70
1
 10
17341.6779326972
 20
-2246.06617184941
 10
17341.6779326972
 20
-2446.06617184941
 10
16941.6779326972
 20
-2446.06617184941
 10
16941.6779326972
 20
-2246.06617184941
  0
LWPOLYLINE
  5
6E
100
AcDbEntity
  8
2
100
AcDbPolyline
370
-1
  6
BYLAYER
 38
0
 90
4
 70
1
 10
16941.6779326972
 20
-2246.06617184941
 10
16941.6779326972
 20
-2446.06617184941
 10
16541.6779326972
 20
-2446.06617184941
 10
16541.6779326972
 20
-2246.06617184941
  0
LWPOLYLINE
  5
6F
100
AcDbEntity
  8
2
100
AcDbPolyline
370
-1
  6
BYLAYER
 38
0
 90
4
 70
1
 10
16541.6779326972
 20
-2246.06617184941
 10
16541.6779326972
 20
-2446.06617184941
 10
16141.6779326972
 20
-2446.06617184941
 10
16141.6779326972
 20
-2246.06617184941
  0
LWPOLYLINE
  5
70
100
AcDbEntity
  8
2
100
AcDbPolyline
370
-1
  6
BYLAYER
 38
0
 90
4
 70
1
 10
16141.6779326972
 20
-2246.06617184941
 10
16141.6779326972
 20
-2446.06617184941
 10
15741.6779326972
 20
-2446.06617184941
 10
15741.6779326972
 20
-2246.06617184941
  0
LWPOLYLINE
  5
71
100
AcDbEntity
  8
2
100
AcDbPolyline
370
-1
  6
BYLAYER
 38
0
 90
4
 70
1
 10
17341.6779326972
 20
-2246.06617184941
 10
17141.6779326972
 20
-2246.06617184941
 10
17141.6779326972
 20
-2046.06617184941
 10
17341.6779326972
 20
-2046.06617184941
  0
LWPOLYLINE
  5
72
100
AcDbEntity
  8
2
100
AcDbPolyline
370
-1
  6
BYLAYER
 38
0
 90
4
 70
1
 10
17141.6779326972
 20
-2046.06617184941
 10
17141.6779326972
 20
-2246.06617184941
 10
16741.6779326972
 20
-2246.06617184941
 10
16741.6779326972
 20
-2046.06617184941
  0
LWPOLYLINE
  5
73
100
AcDbEntity
  8
2
100
AcDbPolyline
370
-1
  6
BYLAYER
 38
0
 90
4
 70
1
 10
16741.6779326972
 20
-2046.06617184941
 10
16741.6779326972
 20
-2246.06617184941
 10
16341.6779326972
 20
-2246.06617184941
 10
16341.6779326972
 20
-2046.06617184941
  0
LWPOLYLINE
  5
74
100
AcDbEntity
  8
2
100
AcDbPolyline
370
-1
  6
BYLAYER
 38
0
 90
4
 70
1
 10
16341.6779326972
 20
-2046.06617184941
 10
16341.6779326972
 20
-2246.06617184941
 10
15941.6779326972
 20
-2246.06617184941
 10
15941.6779326972
 20
-2046.06617184941
  0
LWPOLYLINE
  5
75
100
AcDbEntity
  8
2
100
AcDbPolyline
370
-1
  6
BYLAYER
 38
0
 90
4
 70
1
 10
17341.6779326972
 20
-1846.06617184941
 10
17341.6779326972
 20
-2046.06617184941
 10
16941.6779326972
 20
-2046.06617184941
 10
16941.6779326972
 20
-1846.06617184941
  0
LWPOLYLINE
  5
76
100
AcDbEntity
  8
2
100
AcDbPolyline
370
-1
  6
BYLAYER
 38
0
 90
4
 70
1
 10
16941.6779326972
 20
-1846.06617184941
 10
16941.6779326972
 20
-2046.06617184941
 10
16541.6779326972
 20
-2046.06617184941
 10
16541.6779326972
 20
-1846.06617184941
  0
LWPOLYLINE
  5
77
100
AcDbEntity
  8
2
100
AcDbPolyline
370
-1
  6
BYLAYER
 38
0
 90
4
 70
1
 10
16541.6779326972
 20
-1846.06617184941
 10
16541.6779326972
 20
-2046.06617184941
 10
16141.6779326972
 20
-2046.06617184941
 10
16141.6779326972
 20
-1846.06617184941
  0
LWPOLYLINE
  5
78
100
AcDbEntity
  8
2
100
AcDbPolyline
370
-1
  6
BYLAYER
 38
0
 90
4
 70
1
 10
16141.6779326972
 20
-1846.06617184941
 10
16141.6779326972
 20
-2046.06617184941
 10
15741.6779326972
 20
-2046.06617184941
 10
15741.6779326972
 20
-1846.06617184941
  0
LWPOLYLINE
  5
79
100
AcDbEntity
  8
2
100
AcDbPolyline
370
-1
  6
BYLAYER
 38
0
 90
4
 70
1
 10
17341.6779326972
 20
-1846.06617184941
 10
17141.6779326972
 20
-1846.06617184941
 10
17141.6779326972
 20
-1646.06617184941
 10
17341.6779326972
 20
-1646.06617184941
  0
LWPOLYLINE
  5
7A
100
AcDbEntity
  8
2
100
AcDbPolyline
370
-1
  6
BYLAYER
 38
0
 90
4
 70
1
 10
17141.6779326972
 20
-1646.06617184941
 10
17141.6779326972
 20
-1846.06617184941
 10
16741.6779326972
 20
-1846.06617184941
 10
16741.6779326972
 20
-1646.06617184941
  0
LWPOLYLINE
  5
7B
100
AcDbEntity
  8
2
100
AcDbPolyline
370
-1
  6
BYLAYER
 38
0
 90
4
 70
1
 10
16741.6779326972
 20
-1646.06617184941
 10
16741.6779326972
 20
-1846.06617184941
 10
16341.6779326972
 20
-1846.06617184941
 10
16341.6779326972
 20
-1646.06617184941
  0
LWPOLYLINE
  5
7C
100
AcDbEntity
  8
2
100
AcDbPolyline
370
-1
  6
BYLAYER
 38
0
 90
4
 70
1
 10
16341.6779326972
 20
-1646.06617184941
 10
16341.6779326972
 20
-1846.06617184941
 10
15941.6779326972
 20
-1846.06617184941
 10
15941.6779326972
 20
-1646.06617184941
  0
LINE
  5
7D
100
AcDbEntity
  8
2
100
AcDbLine
370
-1
  6
BYLAYER
 10
15741.6779326972
 20
-2446.06617184941
 30
0
 11
15741.6779326972
 21
-1204.77103694493
 31
0
  0
LWPOLYLINE
  5
7E
100
AcDbEntity
  8
2
100
AcDbPolyline
370
-1
  6
BYLAYER
 38
0
 90
4
 70
0
 10
15741.6779326972
 20
-2046.06617184941
 10
15941.6779326972
 20
-2046.06617184941
 10
15941.6779326972
 20
-2246.06617184941
 10
15741.6779326972
 20
-2246.06617184941
  0
LWPOLYLINE
  5
7F
100
AcDbEntity
  8
2
100
AcDbPolyline
370
-1
  6
BYLAYER
 38
0
 90
2
 70
0
 10
15741.6779326972
 20
-1846.06617184941
 10
15741.6779326972
 20
-2046.06617184941
  0
LWPOLYLINE
  5
80
100
AcDbEntity
  8
2
100
AcDbPolyline
370
-1
  6
BYLAYER
 38
0
 90
4
 70
0
 10
15741.6779326972
 20
-1646.06617184941
 10
15941.6779326972
 20
-1646.06617184941
 10
15941.6779326972
 20
-1846.06617184941
 10
15741.6779326972
 20
-1846.06617184941
  0
LWPOLYLINE
  5
81
100
AcDbEntity
  8
2
100
AcDbPolyline
370
-1
  6
BYLAYER
 38
0
 90
4
 70
1
 10
17341.6779326972
 20
-1446.06617184941
 10
17341.6779326972
 20
-1646.06617184941
 10
16941.6779326972
 20
-1646.06617184941
 10
16941.6779326972
 20
-1446.06617184941
  0
LWPOLYLINE
  5
82
100
AcDbEntity
  8
2
100
AcDbPolyline
370
-1
  6
BYLAYER
 38
0
 90
4
 70
1
 10
16941.6779326972
 20
-1446.06617184941
 10
16941.6779326972
 20
-1646.06617184941
 10
16541.6779326972
 20
-1646.06617184941
 10
16541.6779326972
 20
-1446.06617184941
  0
LWPOLYLINE
  5
83
100
AcDbEntity
  8
2
100
AcDbPolyline
370
-1
  6
BYLAYER
 38
0
 90
4
 70
1
 10
16541.6779326972
 20
-1446.06617184941
 10
16541.6779326972
 20
-1646.06617184941
 10
16141.6779326972
 20
-1646.06617184941
 10
16141.6779326972
 20
-1446.06617184941
  0
LWPOLYLINE
  5
84
100
AcDbEntity
  8
2
100
AcDbPolyline
370
-1
  6
BYLAYER
 38
0
 90
4
 70
1
 10
16141.6779326972
 20
-1446.06617184941
 10
16141.6779326972
 20
-1646.06617184941
 10
15741.6779326972
 20
-1646.06617184941
 10
15741.6779326972
 20
-1446.06617184941
  0
LWPOLYLINE
  5
85
100
AcDbEntity
  8
2
100
AcDbPolyline
370
-1
  6
BYLAYER
 38
0
 90
4
 70
1
 10
17341.6779326972
 20
-1446.06617184941
 10
17141.6779326972
 20
-1446.06617184941
 10
17141.6779326972
 20
-1246.06617184941
 10
17341.6779326972
 20
-1246.06617184941
  0
LWPOLYLINE
  5
86
100
AcDbEntity
  8
2
100
AcDbPolyline
370
-1
  6
BYLAYER
 38
0
 90
4
 70
1
 10
17141.6779326972
 20
-1246.06617184941
 10
17141.6779326972
 20
-1446.06617184941
 10
16741.6779326972
 20
-1446.06617184941
 10
16741.6779326972
 20
-1246.06617184941
  0
LWPOLYLINE
  5
87
100
AcDbEntity
  8
2
100
AcDbPolyline
370
-1
  6
BYLAYER
 38
0
 90
4
 70
1
 10
16741.6779326972
 20
-1246.06617184941
 10
16741.6779326972
 20
-1446.06617184941
 10
16341.6779326972
 20
-1446.06617184941
 10
16341.6779326972
 20
-1246.06617184941
  0
LWPOLYLINE
  5
88
100
AcDbEntity
  8
2
100
AcDbPolyline
370
-1
  6
BYLAYER
 38
0
 90
4
 70
1
 10
16341.6779326972
 20
-1246.06617184941
 10
16341.6779326972
 20
-1446.06617184941
 10
15941.6779326972
 20
-1446.06617184941
 10
15941.6779326972
 20
-1246.06617184941
  0
LWPOLYLINE
  5
89
100
AcDbEntity
  8
2
100
AcDbPolyline
370
-1
  6
BYLAYER
 38
0
 90
4
 70
1
 10
17341.6779326972
 20
-1046.06617184941
 10
17341.6779326972
 20
-1246.06617184941
 10
16941.6779326972
 20
-1246.06617184941
 10
16941.6779326972
 20
-1046.06617184941
  0
LWPOLYLINE
  5
8A
100
AcDbEntity
  8
2
100
AcDbPolyline
370
-1
  6
BYLAYER
 38
0
 90
4
 70
1
 10
16941.6779326972
 20
-1046.06617184941
 10
16941.6779326972
 20
-1246.06617184941
 10
16541.6779326972
 20
-1246.06617184941
 10
16541.6779326972
 20
-1046.06617184941
  0
LWPOLYLINE
  5
8B
100
AcDbEntity
  8
2
100
AcDbPolyline
370
-1
  6
BYLAYER
 38
0
 90
4
 70
1
 10
16541.6779326972
 20
-1046.06617184941
 10
16541.6779326972
 20
-1246.06617184941
 10
16141.6779326972
 20
-1246.06617184941
 10
16141.6779326972
 20
-1046.06617184941
  0
LWPOLYLINE
  5
8C
100
AcDbEntity
  8
2
100
AcDbPolyline
370
-1
  6
BYLAYER
 38
0
 90
4
 70
1
 10
16141.6779326972
 20
-1046.06617184941
 10
16141.6779326972
 20
-1246.06617184941
 10
15741.6779326972
 20
-1246.06617184941
 10
15741.6779326972
 20
-1046.06617184941
  0
LWPOLYLINE
  5
8D
100
AcDbEntity
  8
2
100
AcDbPolyline
370
-1
  6
BYLAYER
 38
0
 90
4
 70
1
 10
17341.6779326972
 20
-1046.06617184941
 10
17141.6779326972
 20
-1046.06617184941
 10
17141.6779326972
 20
-846.066171849412
 10
17341.6779326972
 20
-846.066171849412
  0
LWPOLYLINE
  5
8E
100
AcDbEntity
  8
2
100
AcDbPolyline
370
-1
  6
BYLAYER
 38
0
 90
4
 70
1
 10
17141.6779326972
 20
-846.066171849412
 10
17141.6779326972
 20
-1046.06617184941
 10
16741.6779326972
 20
-1046.06617184941
 10
16741.6779326972
 20
-846.066171849412
  0
LWPOLYLINE
  5
8F
100
AcDbEntity
  8
2
100
AcDbPolyline
370
-1
  6
BYLAYER
 38
0
 90
4
 70
1
 10
16741.6779326972
 20
-846.066171849412
 10
16741.6779326972
 20
-1046.06617184941
 10
16341.6779326972
 20
-1046.06617184941
 10
16341.6779326972
 20
-846.066171849412
  0
LWPOLYLINE
  5
90
100
AcDbEntity
  8
2
100
AcDbPolyline
370
-1
  6
BYLAYER
 38
0
 90
4
 70
1
 10
16341.6779326972
 20
-846.066171849412
 10
16341.6779326972
 20
-1046.06617184941
 10
15941.6779326972
 20
-1046.06617184941
 10
15941.6779326972
 20
-846.066171849412
  0
LWPOLYLINE
  5
91
100
AcDbEntity
  8
2
100
AcDbPolyline
370
-1
  6
BYLAYER
 38
0
 90
4
 70
0
 10
15741.6779326972
 20
-1246.06617184941
 10
15941.6779326972
 20
-1246.06617184941
 10
15941.6779326972
 20
-1446.06617184941
 10
15741.6779326972
 20
-1446.06617184941
  0
LWPOLYLINE
  5
92
100
AcDbEntity
  8
2
100
AcDbPolyline
370
-1
  6
BYLAYER
 38
0
 90
2
 70
0
 10
15741.6779326972
 20
-846.066171849412
 10
15741.6779326972
 20
-1246.06617184941
  0
LWPOLYLINE
  5
93
100
AcDbEntity
  8
2
100
AcDbPolyline
370
-1
  6
BYLAYER
 38
0
 90
4
 70
0
 10
15741.6779326972
 20
-846.066171849412
 10
15941.6779326972
 20
-846.066171849412
 10
15941.6779326972
 20
-1046.06617184941
 10
15741.6779326972
 20
-1046.06617184941
  0
LWPOLYLINE
  5
94
100
AcDbEntity
  8
2
100
AcDbPolyline
370
-1
  6
BYLAYER
 38
0
 90
4
 70
1
 10
22693.0586881542
 20
-2253.31626853753
 10
22693.0586881542
 20
-2453.31626853753
 10
22293.0586881542
 20
-2453.31626853753
 10
22293.0586881542
 20
-2253.31626853753
  0
LWPOLYLINE
  5
95
100
AcDbEntity
  8
2
100
AcDbPolyline
370
-1
  6
BYLAYER
 38
0
 90
4
 70
1
 10
22693.0586881542
 20
-2053.31626853753
 10
22693.0586881542
 20
-2253.31626853753
 10
22293.0586881542
 20
-2253.31626853753
 10
22293.0586881542
 20
-2053.31626853753
  0
LWPOLYLINE
  5
96
100
AcDbEntity
  8
2
100
AcDbPolyline
370
-1
  6
BYLAYER
 38
0
 90
4
 70
1
 10
22693.0586881542
 20
-1853.31626853753
 10
22693.0586881542
 20
-2053.31626853753
 10
22293.0586881542
 20
-2053.31626853753
 10
22293.0586881542
 20
-1853.31626853753
  0
LWPOLYLINE
  5
97
100
AcDbEntity
  8
2
100
AcDbPolyline
370
-1
  6
BYLAYER
 38
0
 90
4
 70
1
 10
22693.0586881542
 20
-1653.31626853753
 10
22693.0586881542
 20
-1853.31626853753
 10
22293.0586881542
 20
-1853.31626853753
 10
22293.0586881542
 20
-1653.31626853753
  0
LWPOLYLINE
  5
98
100
AcDbEntity
  8
2
100
AcDbPolyline
370
-1
  6
BYLAYER
 38
0
 90
4
 70
1
 10
22693.0586881542
 20
-1453.31626853753
 10
22693.0586881542
 20
-1653.31626853753
 10
22293.0586881542
 20
-1653.31626853753
 10
22293.0586881542
 20
-1453.31626853753
  0
LWPOLYLINE
  5
99
100
AcDbEntity
  8
2
100
AcDbPolyline
370
-1
  6
BYLAYER
 38
0
 90
4
 70
1
 10
22693.0586881542
 20
-1253.31626853753
 10
22693.0586881542
 20
-1453.31626853753
 10
22293.0586881542
 20
-1453.31626853753
 10
22293.0586881542
 20
-1253.31626853753
  0
LWPOLYLINE
  5
9A
100
AcDbEntity
  8
2
100
AcDbPolyline
370
-1
  6
BYLAYER
 38
0
 90
4
 70
1
 10
22693.0586881542
 20
-1053.31626853753
 10
22693.0586881542
 20
-1253.31626853753
 10
22293.0586881542
 20
-1253.31626853753
 10
22293.0586881542
 20
-1053.31626853753
  0
LWPOLYLINE
  5
9B
100
AcDbEntity
  8
2
100
AcDbPolyline
370
-1
  6
BYLAYER
 38
0
 90
4
 70
1
 10
22693.0586881542
 20
-853.316268537533
 10
22693.0586881542
 20
-1053.31626853753
 10
22293.0586881542
 20
-1053.31626853753
 10
22293.0586881542
 20
-853.316268537533
  0
LWPOLYLINE
  5
9C
100
AcDbEntity
  8
2
100
AcDbPolyline
370
-1
  6
BYLAYER
 38
0
 90
4
 70
1
 10
22911.8457216922
 20
-2447.92916270775
 10
23515.6535791632
 20
-2447.92916270775
 10
23515.6535791632
 20
-1092.59576805685
 10
22911.8457216922
 20
-1092.59576805685
  0
LINE
  5
9D
100
AcDbEntity
  8
2
100
AcDbLine
370
-1
  6
BYLAYER
 10
22693.0539893712
 20
-2454.18425581938
 30
0
 11
22693.0539893712
 21
-1212.88912091489
 31
0
  0
LWPOLYLINE
  5
9E
100
AcDbEntity
  8
2
100
AcDbPolyline
370
-1
  6
BYLAYER
 38
0
 90
4
 70
0
 10
22693.0539893712
 20
-2054.18425581938
 10
22893.0539893712
 20
-2054.18425581938
 10
22893.0539893712
 20
-2254.18425581938
 10
22693.0539893712
 20
-2254.18425581938
  0
LWPOLYLINE
  5
9F
100
AcDbEntity
  8
2
100
AcDbPolyline
370
-1
  6
BYLAYER
 38
0
 90
2
 70
0
 10
22693.0539893712
 20
-1854.18425581938
 10
22693.0539893712
 20
-2054.18425581938
  0
LWPOLYLINE
  5
A0
100
AcDbEntity
  8
2
100
AcDbPolyline
370
-1
  6
BYLAYER
 38
0
 90
4
 70
0
 10
22693.0539893712
 20
-1654.18425581938
 10
22893.0539893712
 20
-1654.18425581938
 10
22893.0539893712
 20
-1854.18425581938
 10
22693.0539893712
 20
-1854.18425581938
  0
LWPOLYLINE
  5
A1
100
AcDbEntity
  8
2
100
AcDbPolyline
370
-1
  6
BYLAYER
 38
0
 90
4
 70
1
 10
23293.0539893712
 20
-854.184255819382
 10
23293.0539893712
 20
-1054.18425581938
 10
22893.0539893712
 20
-1054.18425581938
 10
22893.0539893712
 20
-854.184255819382
  0
LWPOLYLINE
  5
A2
100
AcDbEntity
  8
2
100
AcDbPolyline
370
-1
  6
BYLAYER
 38
0
 90
4
 70
0
 10
22693.0539893712
 20
-1254.18425581938
 10
22893.0539893712
 20
-1254.18425581938
 10
22893.0539893712
 20
-1454.18425581938
 10
22693.0539893712
 20
-1454.18425581938
  0
LWPOLYLINE
  5
A3
100
AcDbEntity
  8
2
100
AcDbPolyline
370
-1
  6
BYLAYER
 38
0
 90
2
 70
0
 10
22693.0539893712
 20
-854.184255819382
 10
22693.0539893712
 20
-1254.18425581938
  0
LWPOLYLINE
  5
A4
100
AcDbEntity
  8
2
100
AcDbPolyline
370
-1
  6
BYLAYER
 38
0
 90
4
 70
0
 10
22693.0539893712
 20
-854.184255819382
 10
22893.0539893712
 20
-854.184255819382
 10
22893.0539893712
 20
-1054.18425581938
 10
22693.0539893712
 20
-1054.18425581938
  0
LWPOLYLINE
  5
A5
100
AcDbEntity
  8
2
100
AcDbPolyline
370
-1
  6
BYLAYER
 38
0
 90
5
 70
0
 10
23093.0539893712
 20
-2447.92916270775
 10
23093.0539893712
 20
-2454.18425581938
 10
22693.0539893712
 20
-2454.18425581938
 10
22693.0539893712
 20
-2254.18425581938
 10
22911.8457216922
 20
-2254.18425581938
  0
LWPOLYLINE
  5
A6
100
AcDbEntity
  8
2
100
AcDbPolyline
370
-1
  6
BYLAYER
 38
0
 90
4
 70
0
 10
23493.0539893712
 20
-2447.92916270775
 10
23493.0539893712
 20
-2454.18425581938
 10
23093.0539893712
 20
-2454.18425581938
 10
23093.0539893712
 20
-2447.92916270775
  0
LWPOLYLINE
  5
A7
100
AcDbEntity
  8
2
100
AcDbPolyline
370
-1
  6
BYLAYER
 38
0
 90
4
 70
0
 10
23493.0539893712
 20
-2447.92916270775
 10
23493.0539893712
 20
-2454.18425581938
 10
23093.0539893712
 20
-2454.18425581938
 10
23093.0539893712
 20
-2447.92916270775
  0
LWPOLYLINE
  5
A8
100
AcDbEntity
  8
2
100
AcDbPolyline
370
-1
  6
BYLAYER
 38
0
 90
5
 70
0
 10
23093.0539893712
 20
-2447.92916270775
 10
23093.0539893712
 20
-2454.18425581938
 10
22693.0539893712
 20
-2454.18425581938
 10
22693.0539893712
 20
-2254.18425581938
 10
22911.8457216922
 20
-2254.18425581938
  0
LWPOLYLINE
  5
A9
100
AcDbEntity
  8
2
100
AcDbPolyline
370
-1
  6
BYLAYER
 38
0
 90
4
 70
0
 10
22911.8457216922
 20
-2254.18425581938
 10
22893.0539893712
 20
-2254.18425581938
 10
22893.0539893712
 20
-2054.18425581938
 10
22911.8457216922
 20
-2054.18425581938
  0
LWPOLYLINE
  5
AA
100
AcDbEntity
  8
2
100
AcDbPolyline
370
-1
  6
BYLAYER
 38
0
 90
4
 70
0
 10
22911.8457216922
 20
-2054.18425581938
 10
22693.0539893712
 20
-2054.18425581938
 10
22693.0539893712
 20
-1854.18425581938
 10
22911.8457216922
 20
-1854.18425581938
  0
LWPOLYLINE
  5
AB
100
AcDbEntity
  8
2
100
AcDbPolyline
370
-1
  6
BYLAYER
 38
0
 90
4
 70
0
 10
22911.8457216922
 20
-1854.18425581938
 10
22893.0539893712
 20
-1854.18425581938
 10
22893.0539893712
 20
-1654.18425581938
 10
22911.8457216922
 20
-1654.18425581938
  0
LWPOLYLINE
  5
AC
100
AcDbEntity
  8
2
100
AcDbPolyline
370
-1
  6
BYLAYER
 38
0
 90
4
 70
0
 10
22911.8457216922
 20
-1654.18425581938
 10
22693.0539893712
 20
-1654.18425581938
 10
22693.0539893712
 20
-1454.18425581938
 10
22911.8457216922
 20
-1454.18425581938
  0
LWPOLYLINE
  5
AD
100
AcDbEntity
  8
2
100
AcDbPolyline
370
-1
  6
BYLAYER
 38
0
 90
4
 70
0
 10
22911.8457216922
 20
-1454.18425581938
 10
22893.0539893712
 20
-1454.18425581938
 10
22893.0539893712
 20
-1254.18425581938
 10
22911.8457216922
 20
-1254.18425581938
  0
LWPOLYLINE
  5
AE
100
AcDbEntity
  8
2
100
AcDbPolyline
370
-1
  6
BYLAYER
 38
0
 90
4
 70
0
 10
23093.0539893712
 20
-1092.59576805685
 10
23093.0539893712
 20
-1054.18425581938
 10
23493.0539893712
 20
-1054.18425581938
 10
23493.0539893712
 20
-1092.59576805685
  0
LWPOLYLINE
  5
AF
100
AcDbEntity
  8
2
100
AcDbPolyline
370
-1
  6
BYLAYER
 38
0
 90
5
 70
0
 10
22911.8457216922
 20
-1254.18425581938
 10
22693.0539893712
 20
-1254.18425581938
 10
22693.0539893712
 20
-1054.18425581938
 10
23093.0539893712
 20
-1054.18425581938
 10
23093.0539893712
 20
-1092.59576805685
  0
LWPOLYLINE
  5
B0
100
AcDbEntity
  8
2
100
AcDbPolyline
370
-1
  6
BYLAYER
 38
0
 90
4
 70
1
 10
6323.87135881716
 20
-838.097107182163
 10
6823.87135881716
 20
-838.097107182163
 10
6823.87135881716
 20
-788.097107182163
 10
6323.87135881716
 20
-788.097107182163
  0
LINE
  5
B1
100
AcDbEntity
  8
2
100
AcDbLine
370
-1
  6
BYLAYER
 10
6323.87135881716
 20
-838.097107182163
 30
0
 11
6373.80897576118
 21
-840.593988029353
 31
0
  0
LWPOLYLINE
  5
B2
100
AcDbEntity
  8
2
100
AcDbPolyline
370
-1
  6
BYLAYER
 38
0
 90
4
 70
1
 10
12123.6721830842
 20
-835.355572063342
 10
12623.6721830842
 20
-835.355572063342
 10
12623.6721830842
 20
-785.355572063342
 10
12123.6721830842
 20
-785.355572063342
  0
LINE
  5
B3
100
AcDbEntity
  8
2
100
AcDbLine
370
-1
  6
BYLAYER
 10
12123.6721830842
 20
-835.355572063342
 30
0
 11
12173.6098000282
 21
-837.852452910533
 31
0
  0
LWPOLYLINE
  5
B4
100
AcDbEntity
  8
2
100
AcDbPolyline
370
-1
  6
BYLAYER
 38
0
 90
4
 70
1
 10
13923.8713588172
 20
-838.097107182163
 10
14423.8713588172
 20
-838.097107182163
 10
14423.8713588172
 20
-788.097107182163
 10
13923.8713588172
 20
-788.097107182163
  0
LINE
  5
B5
100
AcDbEntity
  8
2
100
AcDbLine
370
-1
  6
BYLAYER
 10
13923.8713588172
 20
-838.097107182163
 30
0
 11
13973.8089757612
 21
-840.593988029353
 31
0
  0
LWPOLYLINE
  5
B6
100
AcDbEntity
  8
2
100
AcDbPolyline
370
-1
  6
BYLAYER
 38
0
 90
4
 70
1
 10
15691.7403157532
 20
-843.569291002223
 10
16191.7403157532
 20
-843.569291002223
 10
16191.7403157532
 20
-793.569291002223
 10
15691.7403157532
 20
-793.569291002223
  0
LINE
  5
B7
100
AcDbEntity
  8
2
100
AcDbLine
370
-1
  6
BYLAYER
 10
15691.7403157532
 20
-843.569291002223
 30
0
 11
15741.6779326972
 21
-846.066171849412
 31
0
  0
LWPOLYLINE
  5
B8
100
AcDbEntity
  8
2
100
AcDbPolyline
370
-1
  6
BYLAYER
 38
0
 90
4
 70
1
 10
16191.7403157532
 20
-843.569291002223
 10
16691.7403157532
 20
-843.569291002223
 10
16691.7403157532
 20
-793.569291002223
 10
16191.7403157532
 20
-793.569291002223
  0
LWPOLYLINE
  5
B9
100
AcDbEntity
  8
2
100
AcDbPolyline
370
-1
  6
BYLAYER
 38
0
 90
4
 70
1
 10
16691.7403157532
 20
-843.569291002223
 10
17191.7403157532
 20
-843.569291002223
 10
17191.7403157532
 20
-793.569291002223
 10
16691.7403157532
 20
-793.569291002223
  0
LWPOLYLINE
  5
BA
100
AcDbEntity
  8
2
100
AcDbPolyline
370
-1
  6
BYLAYER
 38
0
 90
4
 70
1
 10
16913.7589413762
 20
-844.436382065883
 10
17413.7589413762
 20
-844.436382065883
 10
17413.7589413762
 20
-794.436382065883
 10
16913.7589413762
 20
-794.436382065883
  0
LWPOLYLINE
  5
BB
100
AcDbEntity
  8
2
100
AcDbPolyline
370
-1
  6
BYLAYER
 38
0
 90
4
 70
1
 10
22225.6720237522
 20
-843.569291002223
 10
22725.6720237522
 20
-843.569291002223
 10
22725.6720237522
 20
-793.569291002223
 10
22225.6720237522
 20
-793.569291002223
  0
LWPOLYLINE
  5
BC
100
AcDbEntity
  8
2
100
AcDbPolyline
370
-1
  6
BYLAYER
 38
0
 90
4
 70
1
 10
22725.6720237522
 20
-843.569291002223
 10
23225.6720237522
 20
-843.569291002223
 10
23225.6720237522
 20
-793.569291002223
 10
22725.6720237522
 20
-793.569291002223
  0
LWPOLYLINE
  5
BD
100
AcDbEntity
  8
2
100
AcDbPolyline
370
-1
  6
BYLAYER
 38
0
 90
4
 70
1
 10
23225.6720237522
 20
-843.569291002223
 10
23725.6720237522
 20
-843.569291002223
 10
23725.6720237522
 20
-793.569291002223
 10
23225.6720237522
 20
-793.569291002223
  0
LINE
  5
BE
100
AcDbEntity
  8
2
100
AcDbLine
370
-1
  6
BYLAYER
 10
15741.6779326972
 20
-901.820308055133
 30
0
 11
15741.6779326972
 21
-2299.73137926304
 31
0
  0
LINE
  5
BF
100
AcDbEntity
  8
2
100
AcDbLine
370
-1
  6
BYLAYER
 10
14374.8254225472
 20
-2299.73137926304
 30
0
 11
14372.6940186722
 21
-901.820308055133
 31
0
  0
DIMENSION
  5
C1
100
AcDbEntity
  8
2
100
AcDbDimension
370
-1
  3
GENISO
  2
*sgDim0
 10
15863.2064981702
 20
-2299.73137926304
 30
0
 11
0
 21
0
 31
0
 70
1
 12
0
 22
0
 32
0
100
AcDbAlignedDimension
 13
15741.6779326972
 23
-2446.06617184941
 33
0
 14
15741.6779326972
 24
-2299.73137926304
 34
0
1001
ACAD
1000
DSTYLE
1002
{
1070
41
1040
2.5
1070
42
1040
0.868
1070
44
1040
2.5
1070
74
1070
0
1070
77
1070
0
1070
140
1040
2.5
1070
144
1040
1
1070
147
1040
0.1
1070
173
1070
1
1070
174
1070
0
1070
178
1070
0
1070
271
1070
2
1070
340
1005
14
1070
341
1005
10
1070
342
1005
10
1070
343
1005
10
1070
344
1005
10
1002
}
  0
LINE
  5
DE
100
AcDbEntity
  8
2
100
AcDbLine
370
-1
  6
BYLAYER
 10
22290.8862606862
 20
-890.593988029353
 30
0
 11
22290.8862606862
 21
-2299.73137926304
 31
0
  0
LWPOLYLINE
  5
DF
100
AcDbEntity
  8
2
100
AcDbPolyline
370
-1
  6
BYLAYER
 38
0
 90
4
 70
1
 10
14373.8089757612
 20
-1640.59398802935
 10
14373.8089757612
 20
-1840.59398802935
 10
13973.8089757612
 20
-1840.59398802935
 10
13973.8089757612
 20
-1640.59398802935
  0
LWPOLYLINE
  5
E0
100
AcDbEntity
  8
2
100
AcDbPolyline
370
-1
  6
BYLAYER
 38
0
 90
4
 70
1
 10
12573.6098000282
 20
-1637.85245291053
 10
12573.6098000282
 20
-1837.85245291053
 10
12173.6098000282
 20
-1837.85245291053
 10
12173.6098000282
 20
-1637.85245291053
  0
LINE
  5
E1
100
AcDbEntity
  8
2
100
AcDbLine
370
-1
  6
BYLAYER
 10
6373.80897576118
 20
-2440.59398802935
 30
0
 11
3871.85804835117
 21
-2440.59398802935
 31
0
  0
LINE
  5
E2
100
AcDbEntity
  8
2
100
AcDbLine
370
-1
  6
BYLAYER
 10
3871.85804835117
 20
-2440.59398802935
 30
0
 11
1058.00224137118
 21
-2440.59398802934
 31
0
  0
LWPOLYLINE
  5
E3
100
AcDbEntity
  8
2
100
AcDbPolyline
370
-1
  6
BYLAYER
 38
0
 90
4
 70
1
 10
6373.80897576118
 20
-2240.59398802935
 10
6373.80897576118
 20
-2440.59398802935
 10
5973.80897576118
 20
-2440.59398802935
 10
5973.80897576118
 20
-2240.59398802935
  0
LWPOLYLINE
  5
E4
100
AcDbEntity
  8
2
100
AcDbPolyline
370
-1
  6
BYLAYER
 38
0
 90
4
 70
1
 10
5973.80897576118
 20
-2240.59398802935
 10
5973.80897576118
 20
-2440.59398802935
 10
5573.80897576118
 20
-2440.59398802935
 10
5573.80897576118
 20
-2240.59398802935
  0
LWPOLYLINE
  5
E5
100
AcDbEntity
  8
2
100
AcDbPolyline
370
-1
  6
BYLAYER
 38
0
 90
4
 70
1
 10
6173.80897576118
 20
-2040.59398802935
 10
6173.80897576118
 20
-2240.59398802935
 10
5773.80897576118
 20
-2240.59398802935
 10
5773.80897576118
 20
-2040.59398802935
  0
LWPOLYLINE
  5
E6
100
AcDbEntity
  8
2
100
AcDbPolyline
370
-1
  6
BYLAYER
 38
0
 90
4
 70
1
 10
6373.80897576118
 20
-1840.59398802935
 10
6373.80897576118
 20
-2040.59398802935
 10
5973.80897576118
 20
-2040.59398802935
 10
5973.80897576118
 20
-1840.59398802935
  0
LWPOLYLINE
  5
E7
100
AcDbEntity
  8
2
100
AcDbPolyline
370
-1
  6
BYLAYER
 38
0
 90
4
 70
1
 10
5973.80897576118
 20
-1840.59398802935
 10
5973.80897576118
 20
-2040.59398802935
 10
5573.80897576118
 20
-2040.59398802935
 10
5573.80897576118
 20
-1840.59398802935
  0
LWPOLYLINE
  5
E8
100
AcDbEntity
  8
2
100
AcDbPolyline
370
-1
  6
BYLAYER
 38
0
 90
4
 70
0
 10
5573.80897576118
 20
-2040.59398802935
 10
5773.80897576118
 20
-2040.59398802935
 10
5773.80897576118
 20
-2240.59398802935
 10
5573.80897576118
 20
-2240.59398802935
  0
LWPOLYLINE
  5
E9
100
AcDbEntity
  8
2
100
AcDbPolyline
370
-1
  6
BYLAYER
 38
0
 90
4
 70
1
 10
6573.80897576118
 20
-2040.59398802935
 10
6573.80897576118
 20
-2240.59398802935
 10
6173.80897576118
 20
-2240.59398802935
 10
6173.80897576118
 20
-2040.59398802935
  0
LWPOLYLINE
  5
EA
100
AcDbEntity
  8
2
100
AcDbPolyline
370
-1
  6
BYLAYER
 38
0
 90
4
 70
1
 10
5573.80897576118
 20
-2240.59398802935
 10
5573.80897576118
 20
-2440.59398802935
 10
5173.80897576118
 20
-2440.59398802935
 10
5173.80897576118
 20
-2240.59398802935
  0
LWPOLYLINE
  5
EB
100
AcDbEntity
  8
2
100
AcDbPolyline
370
-1
  6
BYLAYER
 38
0
 90
4
 70
1
 10
5173.80897576118
 20
-2240.59398802935
 10
5173.80897576118
 20
-2440.59398802935
 10
4773.80897576118
 20
-2440.59398802935
 10
4773.80897576118
 20
-2240.59398802935
  0
LWPOLYLINE
  5
EC
100
AcDbEntity
  8
2
100
AcDbPolyline
370
-1
  6
BYLAYER
 38
0
 90
4
 70
1
 10
5373.80897576118
 20
-2040.59398802935
 10
5373.80897576118
 20
-2240.59398802935
 10
4973.80897576118
 20
-2240.59398802935
 10
4973.80897576118
 20
-2040.59398802935
  0
LWPOLYLINE
  5
ED
100
AcDbEntity
  8
2
100
AcDbPolyline
370
-1
  6
BYLAYER
 38
0
 90
4
 70
1
 10
5573.80897576118
 20
-1840.59398802935
 10
5573.80897576118
 20
-2040.59398802935
 10
5173.80897576118
 20
-2040.59398802935
 10
5173.80897576118
 20
-1840.59398802935
  0
LWPOLYLINE
  5
EE
100
AcDbEntity
  8
2
100
AcDbPolyline
370
-1
  6
BYLAYER
 38
0
 90
4
 70
1
 10
5173.80897576118
 20
-1840.59398802935
 10
5173.80897576118
 20
-2040.59398802935
 10
4773.80897576118
 20
-2040.59398802935
 10
4773.80897576118
 20
-1840.59398802935
  0
LWPOLYLINE
  5
EF
100
AcDbEntity
  8
2
100
AcDbPolyline
370
-1
  6
BYLAYER
 38
0
 90
4
 70
0
 10
4773.80897576118
 20
-2040.59398802935
 10
4973.80897576118
 20
-2040.59398802935
 10
4973.80897576118
 20
-2240.59398802935
 10
4773.80897576118
 20
-2240.59398802935
  0
LWPOLYLINE
  5
F0
100
AcDbEntity
  8
2
100
AcDbPolyline
370
-1
  6
BYLAYER
 38
0
 90
4
 70
1
 10
5773.80897576118
 20
-2040.59398802935
 10
5773.80897576118
 20
-2240.59398802935
 10
5373.80897576118
 20
-2240.59398802935
 10
5373.80897576118
 20
-2040.59398802935
  0
LWPOLYLINE
  5
F1
100
AcDbEntity
  8
2
100
AcDbPolyline
370
-1
  6
BYLAYER
 38
0
 90
4
 70
1
 10
4773.80897576118
 20
-2240.59398802935
 10
4773.80897576118
 20
-2440.59398802935
 10
4373.80897576118
 20
-2440.59398802935
 10
4373.80897576118
 20
-2240.59398802935
  0
LWPOLYLINE
  5
F2
100
AcDbEntity
  8
2
100
AcDbPolyline
370
-1
  6
BYLAYER
 38
0
 90
4
 70
1
 10
4373.80897576118
 20
-2240.59398802935
 10
4373.80897576118
 20
-2440.59398802935
 10
3973.80897576118
 20
-2440.59398802935
 10
3973.80897576118
 20
-2240.59398802935
  0
LWPOLYLINE
  5
F3
100
AcDbEntity
  8
2
100
AcDbPolyline
370
-1
  6
BYLAYER
 38
0
 90
4
 70
1
 10
4573.80897576118
 20
-2040.59398802935
 10
4573.80897576118
 20
-2240.59398802935
 10
4173.80897576118
 20
-2240.59398802935
 10
4173.80897576118
 20
-2040.59398802935
  0
LWPOLYLINE
  5
F4
100
AcDbEntity
  8
2
100
AcDbPolyline
370
-1
  6
BYLAYER
 38
0
 90
4
 70
1
 10
4773.80897576118
 20
-1840.59398802935
 10
4773.80897576118
 20
-2040.59398802935
 10
4373.80897576118
 20
-2040.59398802935
 10
4373.80897576118
 20
-1840.59398802935
  0
LWPOLYLINE
  5
F5
100
AcDbEntity
  8
2
100
AcDbPolyline
370
-1
  6
BYLAYER
 38
0
 90
4
 70
1
 10
4373.80897576118
 20
-1840.59398802935
 10
4373.80897576118
 20
-2040.59398802935
 10
3973.80897576118
 20
-2040.59398802935
 10
3973.80897576118
 20
-1840.59398802935
  0
LWPOLYLINE
  5
F6
100
AcDbEntity
  8
2
100
AcDbPolyline
370
-1
  6
BYLAYER
 38
0
 90
4
 70
0
 10
3973.80897576118
 20
-2040.59398802935
 10
4173.80897576118
 20
-2040.59398802935
 10
4173.80897576118
 20
-2240.59398802935
 10
3973.80897576118
 20
-2240.59398802935
  0
LWPOLYLINE
  5
F7
100
AcDbEntity
  8
2
100
AcDbPolyline
370
-1
  6
BYLAYER
 38
0
 90
4
 70
1
 10
4973.80897576118
 20
-2040.59398802935
 10
4973.80897576118
 20
-2240.59398802935
 10
4573.80897576118
 20
-2240.59398802935
 10
4573.80897576118
 20
-2040.59398802935
  0
LWPOLYLINE
  5
F8
100
AcDbEntity
  8
2
100
AcDbPolyline
370
-1
  6
BYLAYER
 38
0
 90
4
 70
1
 10
3973.80897576118
 20
-2240.59398802935
 10
3973.80897576118
 20
-2440.59398802935
 10
3573.80897576118
 20
-2440.59398802935
 10
3573.80897576118
 20
-2240.59398802935
  0
LWPOLYLINE
  5
F9
100
AcDbEntity
  8
2
100
AcDbPolyline
370
-1
  6
BYLAYER
 38
0
 90
4
 70
1
 10
3573.80897576118
 20
-2240.59398802935
 10
3573.80897576118
 20
-2440.59398802935
 10
3173.80897576118
 20
-2440.59398802935
 10
3173.80897576118
 20
-2240.59398802935
  0
LWPOLYLINE
  5
FA
100
AcDbEntity
  8
2
100
AcDbPolyline
370
-1
  6
BYLAYER
 38
0
 90
4
 70
1
 10
3773.80897576118
 20
-2040.59398802935
 10
3773.80897576118
 20
-2240.59398802935
 10
3373.80897576118
 20
-2240.59398802935
 10
3373.80897576118
 20
-2040.59398802935
  0
LWPOLYLINE
  5
FB
100
AcDbEntity
  8
2
100
AcDbPolyline
370
-1
  6
BYLAYER
 38
0
 90
4
 70
1
 10
3973.80897576118
 20
-1840.59398802935
 10
3973.80897576118
 20
-2040.59398802935
 10
3573.80897576118
 20
-2040.59398802935
 10
3573.80897576118
 20
-1840.59398802935
  0
LWPOLYLINE
  5
FC
100
AcDbEntity
  8
2
100
AcDbPolyline
370
-1
  6
BYLAYER
 38
0
 90
4
 70
1
 10
3573.80897576118
 20
-1840.59398802935
 10
3573.80897576118
 20
-2040.59398802935
 10
3173.80897576118
 20
-2040.59398802935
 10
3173.80897576118
 20
-1840.59398802935
  0
LWPOLYLINE
  5
FD
100
AcDbEntity
  8
2
100
AcDbPolyline
370
-1
  6
BYLAYER
 38
0
 90
4
 70
0
 10
3173.80897576118
 20
-2040.59398802935
 10
3373.80897576118
 20
-2040.59398802935
 10
3373.80897576118
 20
-2240.59398802935
 10
3173.80897576118
 20
-2240.59398802935
  0
LWPOLYLINE
  5
FE
100
AcDbEntity
  8
2
100
AcDbPolyline
370
-1
  6
BYLAYER
 38
0
 90
4
 70
1
 10
4173.80897576118
 20
-2040.59398802935
 10
4173.80897576118
 20
-2240.59398802935
 10
3773.80897576118
 20
-2240.59398802935
 10
3773.80897576118
 20
-2040.59398802935
  0
LWPOLYLINE
  5
FF
100
AcDbEntity
  8
2
100
AcDbPolyline
370
-1
  6
BYLAYER
 38
0
 90
4
 70
1
 10
3173.80897576118
 20
-2240.59398802935
 10
3173.80897576118
 20
-2440.59398802935
 10
2773.80897576118
 20
-2440.59398802935
 10
2773.80897576118
 20
-2240.59398802935
  0
LWPOLYLINE
  5
100
100
AcDbEntity
  8
2
100
AcDbPolyline
370
-1
  6
BYLAYER
 38
0
 90
4
 70
1
 10
2773.80897576118
 20
-2240.59398802935
 10
2773.80897576118
 20
-2440.59398802935
 10
2373.80897576118
 20
-2440.59398802935
 10
2373.80897576118
 20
-2240.59398802935
  0
LWPOLYLINE
  5
101
100
AcDbEntity
  8
2
100
AcDbPolyline
370
-1
  6
BYLAYER
 38
0
 90
4
 70
1
 10
2973.80897576118
 20
-2040.59398802935
 10
2973.80897576118
 20
-2240.59398802935
 10
2573.80897576118
 20
-2240.59398802935
 10
2573.80897576118
 20
-2040.59398802935
  0
LWPOLYLINE
  5
102
100
AcDbEntity
  8
2
100
AcDbPolyline
370
-1
  6
BYLAYER
 38
0
 90
4
 70
1
 10
3173.80897576118
 20
-1840.59398802935
 10
3173.80897576118
 20
-2040.59398802935
 10
2773.80897576118
 20
-2040.59398802935
 10
2773.80897576118
 20
-1840.59398802935
  0
LWPOLYLINE
  5
103
100
AcDbEntity
  8
2
100
AcDbPolyline
370
-1
  6
BYLAYER
 38
0
 90
4
 70
1
 10
2773.80897576118
 20
-1840.59398802935
 10
2773.80897576118
 20
-2040.59398802935
 10
2373.80897576118
 20
-2040.59398802935
 10
2373.80897576118
 20
-1840.59398802935
  0
LWPOLYLINE
  5
104
100
AcDbEntity
  8
2
100
AcDbPolyline
370
-1
  6
BYLAYER
 38
0
 90
4
 70
0
 10
2373.80897576118
 20
-2040.59398802935
 10
2573.80897576118
 20
-2040.59398802935
 10
2573.80897576118
 20
-2240.59398802935
 10
2373.80897576118
 20
-2240.59398802935
  0
LWPOLYLINE
  5
105
100
AcDbEntity
  8
2
100
AcDbPolyline
370
-1
  6
BYLAYER
 38
0
 90
4
 70
1
 10
3373.80897576118
 20
-2040.59398802935
 10
3373.80897576118
 20
-2240.59398802935
 10
2973.80897576118
 20
-2240.59398802935
 10
2973.80897576118
 20
-2040.59398802935
  0
LWPOLYLINE
  5
106
100
AcDbEntity
  8
2
100
AcDbPolyline
370
-1
  6
BYLAYER
 38
0
 90
4
 70
1
 10
2373.80897576118
 20
-2240.59398802935
 10
2373.80897576118
 20
-2440.59398802935
 10
1973.80897576118
 20
-2440.59398802935
 10
1973.80897576118
 20
-2240.59398802935
  0
LWPOLYLINE
  5
107
100
AcDbEntity
  8
2
100
AcDbPolyline
370
-1
  6
BYLAYER
 38
0
 90
4
 70
1
 10
1973.80897576118
 20
-2240.59398802935
 10
1973.80897576118
 20
-2440.59398802935
 10
1573.80897576118
 20
-2440.59398802935
 10
1573.80897576118
 20
-2240.59398802935
  0
LWPOLYLINE
  5
108
100
AcDbEntity
  8
2
100
AcDbPolyline
370
-1
  6
BYLAYER
 38
0
 90
4
 70
1
 10
2173.80897576118
 20
-2040.59398802935
 10
2173.80897576118
 20
-2240.59398802935
 10
1773.80897576118
 20
-2240.59398802935
 10
1773.80897576118
 20
-2040.59398802935
  0
LWPOLYLINE
  5
109
100
AcDbEntity
  8
2
100
AcDbPolyline
370
-1
  6
BYLAYER
 38
0
 90
4
 70
1
 10
2373.80897576118
 20
-1840.59398802935
 10
2373.80897576118
 20
-2040.59398802935
 10
1973.80897576118
 20
-2040.59398802935
 10
1973.80897576118
 20
-1840.59398802935
  0
LWPOLYLINE
  5
10A
100
AcDbEntity
  8
2
100
AcDbPolyline
370
-1
  6
BYLAYER
 38
0
 90
4
 70
1
 10
1973.80897576118
 20
-1840.59398802935
 10
1973.80897576118
 20
-2040.59398802935
 10
1573.80897576118
 20
-2040.59398802935
 10
1573.80897576118
 20
-1840.59398802935
  0
LWPOLYLINE
  5
10B
100
AcDbEntity
  8
2
100
AcDbPolyline
370
-1
  6
BYLAYER
 38
0
 90
4
 70
0
 10
1573.80897576118
 20
-2040.59398802935
 10
1773.80897576118
 20
-2040.59398802935
 10
1773.80897576118
 20
-2240.59398802935
 10
1573.80897576118
 20
-2240.59398802935
  0
LWPOLYLINE
  5
10C
100
AcDbEntity
  8
2
100
AcDbPolyline
370
-1
  6
BYLAYER
 38
0
 90
4
 70
1
 10
2573.80897576118
 20
-2040.59398802935
 10
2573.80897576118
 20
-2240.59398802935
 10
2173.80897576118
 20
-2240.59398802935
 10
2173.80897576118
 20
-2040.59398802935
  0
LWPOLYLINE
  5
10D
100
AcDbEntity
  8
2
100
AcDbPolyline
370
-1
  6
BYLAYER
 38
0
 90
4
 70
1
 10
1973.80897576118
 20
-2240.59398802935
 10
1973.80897576118
 20
-2440.59398802935
 10
1573.80897576118
 20
-2440.59398802935
 10
1573.80897576118
 20
-2240.59398802935
  0
LWPOLYLINE
  5
10E
100
AcDbEntity
  8
2
100
AcDbPolyline
370
-1
  6
BYLAYER
 38
0
 90
4
 70
1
 10
1573.80897576118
 20
-2240.59398802935
 10
1573.80897576118
 20
-2440.59398802935
 10
1173.80897576118
 20
-2440.59398802935
 10
1173.80897576118
 20
-2240.59398802935
  0
LWPOLYLINE
  5
10F
100
AcDbEntity
  8
2
100
AcDbPolyline
370
-1
  6
BYLAYER
 38
0
 90
4
 70
1
 10
1773.80897576118
 20
-2040.59398802935
 10
1773.80897576118
 20
-2240.59398802935
 10
1373.80897576118
 20
-2240.59398802935
 10
1373.80897576118
 20
-2040.59398802935
  0
LWPOLYLINE
  5
110
100
AcDbEntity
  8
2
100
AcDbPolyline
370
-1
  6
BYLAYER
 38
0
 90
4
 70
1
 10
1973.80897576118
 20
-1840.59398802935
 10
1973.80897576118
 20
-2040.59398802935
 10
1573.80897576118
 20
-2040.59398802935
 10
1573.80897576118
 20
-1840.59398802935
  0
LWPOLYLINE
  5
111
100
AcDbEntity
  8
2
100
AcDbPolyline
370
-1
  6
BYLAYER
 38
0
 90
4
 70
1
 10
1573.80897576118
 20
-1840.59398802935
 10
1573.80897576118
 20
-2040.59398802935
 10
1173.80897576118
 20
-2040.59398802935
 10
1173.80897576118
 20
-1840.59398802935
  0
LWPOLYLINE
  5
112
100
AcDbEntity
  8
2
100
AcDbPolyline
370
-1
  6
BYLAYER
 38
0
 90
4
 70
0
 10
1173.80897576118
 20
-2040.59398802935
 10
1373.80897576118
 20
-2040.59398802935
 10
1373.80897576118
 20
-2240.59398802935
 10
1173.80897576118
 20
-2240.59398802935
  0
LWPOLYLINE
  5
113
100
AcDbEntity
  8
2
100
AcDbPolyline
370
-1
  6
BYLAYER
 38
0
 90
4
 70
1
 10
2173.80897576118
 20
-2040.59398802935
 10
2173.80897576118
 20
-2240.59398802935
 10
1773.80897576118
 20
-2240.59398802935
 10
1773.80897576118
 20
-2040.59398802935
  0
LWPOLYLINE
  5
114
100
AcDbEntity
  8
2
100
AcDbPolyline
370
-1
  6
BYLAYER
 38
0
 90
4
 70
0
 10
1058.00224137118
 20
-2240.59398802935
 10
1173.80897576118
 20
-2240.59398802935
 10
1173.80897576118
 20
-2440.59398802935
 10
1058.00224137118
 20
-2440.59398802935
  0
LWPOLYLINE
  5
115
100
AcDbEntity
  8
2
100
AcDbPolyline
370
-1
  6
BYLAYER
 38
0
 90
4
 70
0
 10
1058.00224137118
 20
-1840.59398802935
 10
1173.80897576118
 20
-1840.59398802935
 10
1173.80897576118
 20
-2040.59398802935
 10
1058.00224137118
 20
-2040.59398802935
  0
LWPOLYLINE
  5
116
100
AcDbEntity
  8
2
100
AcDbPolyline
370
-1
  6
BYLAYER
 38
0
 90
4
 70
0
 10
1058.00224137118
 20
-2040.59398802935
 10
1373.80897576118
 20
-2040.59398802935
 10
1373.80897576118
 20
-2240.59398802935
 10
1058.00224137118
 20
-2240.59398802935
  0
LWPOLYLINE
  5
117
100
AcDbEntity
  8
2
100
AcDbPolyline
370
-1
  6
BYLAYER
 38
0
 90
4
 70
1
 10
6173.80897576118
 20
-1640.59398802935
 10
6173.80897576118
 20
-1840.59398802935
 10
5773.80897576118
 20
-1840.59398802935
 10
5773.80897576118
 20
-1640.59398802935
  0
LWPOLYLINE
  5
118
100
AcDbEntity
  8
2
100
AcDbPolyline
370
-1
  6
BYLAYER
 38
0
 90
4
 70
1
 10
6373.80897576118
 20
-1440.59398802935
 10
6373.80897576118
 20
-1640.59398802935
 10
5973.80897576118
 20
-1640.59398802935
 10
5973.80897576118
 20
-1440.59398802935
  0
LWPOLYLINE
  5
119
100
AcDbEntity
  8
2
100
AcDbPolyline
370
-1
  6
BYLAYER
 38
0
 90
4
 70
1
 10
5973.80897576118
 20
-1440.59398802935
 10
5973.80897576118
 20
-1640.59398802935
 10
5573.80897576118
 20
-1640.59398802935
 10
5573.80897576118
 20
-1440.59398802935
  0
LWPOLYLINE
  5
11A
100
AcDbEntity
  8
2
100
AcDbPolyline
370
-1
  6
BYLAYER
 38
0
 90
4
 70
0
 10
5573.80897576118
 20
-1640.59398802935
 10
5773.80897576118
 20
-1640.59398802935
 10
5773.80897576118
 20
-1840.59398802935
 10
5573.80897576118
 20
-1840.59398802935
  0
LWPOLYLINE
  5
11B
100
AcDbEntity
  8
2
100
AcDbPolyline
370
-1
  6
BYLAYER
 38
0
 90
4
 70
1
 10
6573.80897576118
 20
-1640.59398802935
 10
6573.80897576118
 20
-1840.59398802935
 10
6173.80897576118
 20
-1840.59398802935
 10
6173.80897576118
 20
-1640.59398802935
  0
LWPOLYLINE
  5
11C
100
AcDbEntity
  8
2
100
AcDbPolyline
370
-1
  6
BYLAYER
 38
0
 90
4
 70
1
 10
5373.80897576118
 20
-1640.59398802935
 10
5373.80897576118
 20
-1840.59398802935
 10
4973.80897576118
 20
-1840.59398802935
 10
4973.80897576118
 20
-1640.59398802935
  0
LWPOLYLINE
  5
11D
100
AcDbEntity
  8
2
100
AcDbPolyline
370
-1
  6
BYLAYER
 38
0
 90
4
 70
1
 10
5573.80897576118
 20
-1440.59398802935
 10
5573.80897576118
 20
-1640.59398802935
 10
5173.80897576118
 20
-1640.59398802935
 10
5173.80897576118
 20
-1440.59398802935
  0
LWPOLYLINE
  5
11E
100
AcDbEntity
  8
2
100
AcDbPolyline
370
-1
  6
BYLAYER
 38
0
 90
4
 70
1
 10
5173.80897576118
 20
-1440.59398802935
 10
5173.80897576118
 20
-1640.59398802935
 10
4773.80897576118
 20
-1640.59398802935
 10
4773.80897576118
 20
-1440.59398802935
  0
LWPOLYLINE
  5
11F
100
AcDbEntity
  8
2
100
AcDbPolyline
370
-1
  6
BYLAYER
 38
0
 90
4
 70
0
 10
4773.80897576118
 20
-1640.59398802935
 10
4973.80897576118
 20
-1640.59398802935
 10
4973.80897576118
 20
-1840.59398802935
 10
4773.80897576118
 20
-1840.59398802935
  0
LWPOLYLINE
  5
120
100
AcDbEntity
  8
2
100
AcDbPolyline
370
-1
  6
BYLAYER
 38
0
 90
4
 70
1
 10
5773.80897576118
 20
-1640.59398802935
 10
5773.80897576118
 20
-1840.59398802935
 10
5373.80897576118
 20
-1840.59398802935
 10
5373.80897576118
 20
-1640.59398802935
  0
LWPOLYLINE
  5
121
100
AcDbEntity
  8
2
100
AcDbPolyline
370
-1
  6
BYLAYER
 38
0
 90
4
 70
1
 10
4573.80897576118
 20
-1640.59398802935
 10
4573.80897576118
 20
-1840.59398802935
 10
4173.80897576118
 20
-1840.59398802935
 10
4173.80897576118
 20
-1640.59398802935
  0
LWPOLYLINE
  5
122
100
AcDbEntity
  8
2
100
AcDbPolyline
370
-1
  6
BYLAYER
 38
0
 90
4
 70
1
 10
4773.80897576118
 20
-1440.59398802935
 10
4773.80897576118
 20
-1640.59398802935
 10
4373.80897576118
 20
-1640.59398802935
 10
4373.80897576118
 20
-1440.59398802935
  0
LWPOLYLINE
  5
123
100
AcDbEntity
  8
2
100
AcDbPolyline
370
-1
  6
BYLAYER
 38
0
 90
4
 70
1
 10
4373.80897576118
 20
-1440.59398802935
 10
4373.80897576118
 20
-1640.59398802935
 10
3973.80897576118
 20
-1640.59398802935
 10
3973.80897576118
 20
-1440.59398802935
  0
LWPOLYLINE
  5
124
100
AcDbEntity
  8
2
100
AcDbPolyline
370
-1
  6
BYLAYER
 38
0
 90
4
 70
0
 10
3973.80897576118
 20
-1640.59398802935
 10
4173.80897576118
 20
-1640.59398802935
 10
4173.80897576118
 20
-1840.59398802935
 10
3973.80897576118
 20
-1840.59398802935
  0
LWPOLYLINE
  5
125
100
AcDbEntity
  8
2
100
AcDbPolyline
370
-1
  6
BYLAYER
 38
0
 90
4
 70
1
 10
4973.80897576118
 20
-1640.59398802935
 10
4973.80897576118
 20
-1840.59398802935
 10
4573.80897576118
 20
-1840.59398802935
 10
4573.80897576118
 20
-1640.59398802935
  0
LWPOLYLINE
  5
126
100
AcDbEntity
  8
2
100
AcDbPolyline
370
-1
  6
BYLAYER
 38
0
 90
4
 70
1
 10
3773.80897576118
 20
-1640.59398802935
 10
3773.80897576118
 20
-1840.59398802935
 10
3373.80897576118
 20
-1840.59398802935
 10
3373.80897576118
 20
-1640.59398802935
  0
LWPOLYLINE
  5
127
100
AcDbEntity
  8
2
100
AcDbPolyline
370
-1
  6
BYLAYER
 38
0
 90
4
 70
1
 10
3973.80897576118
 20
-1440.59398802935
 10
3973.80897576118
 20
-1640.59398802935
 10
3573.80897576118
 20
-1640.59398802935
 10
3573.80897576118
 20
-1440.59398802935
  0
LWPOLYLINE
  5
128
100
AcDbEntity
  8
2
100
AcDbPolyline
370
-1
  6
BYLAYER
 38
0
 90
4
 70
1
 10
3573.80897576118
 20
-1440.59398802935
 10
3573.80897576118
 20
-1640.59398802935
 10
3173.80897576118
 20
-1640.59398802935
 10
3173.80897576118
 20
-1440.59398802935
  0
LWPOLYLINE
  5
129
100
AcDbEntity
  8
2
100
AcDbPolyline
370
-1
  6
BYLAYER
 38
0
 90
4
 70
0
 10
3173.80897576118
 20
-1640.59398802935
 10
3373.80897576118
 20
-1640.59398802935
 10
3373.80897576118
 20
-1840.59398802935
 10
3173.80897576118
 20
-1840.59398802935
  0
LWPOLYLINE
  5
12A
100
AcDbEntity
  8
2
100
AcDbPolyline
370
-1
  6
BYLAYER
 38
0
 90
4
 70
1
 10
4173.80897576118
 20
-1640.59398802935
 10
4173.80897576118
 20
-1840.59398802935
 10
3773.80897576118
 20
-1840.59398802935
 10
3773.80897576118
 20
-1640.59398802935
  0
LWPOLYLINE
  5
12B
100
AcDbEntity
  8
2
100
AcDbPolyline
370
-1
  6
BYLAYER
 38
0
 90
4
 70
1
 10
2973.80897576118
 20
-1640.59398802935
 10
2973.80897576118
 20
-1840.59398802935
 10
2573.80897576118
 20
-1840.59398802935
 10
2573.80897576118
 20
-1640.59398802935
  0
LWPOLYLINE
  5
12C
100
AcDbEntity
  8
2
100
AcDbPolyline
370
-1
  6
BYLAYER
 38
0
 90
4
 70
1
 10
3173.80897576118
 20
-1440.59398802935
 10
3173.80897576118
 20
-1640.59398802935
 10
2773.80897576118
 20
-1640.59398802935
 10
2773.80897576118
 20
-1440.59398802935
  0
LWPOLYLINE
  5
12D
100
AcDbEntity
  8
2
100
AcDbPolyline
370
-1
  6
BYLAYER
 38
0
 90
4
 70
1
 10
2773.80897576118
 20
-1440.59398802935
 10
2773.80897576118
 20
-1640.59398802935
 10
2373.80897576118
 20
-1640.59398802935
 10
2373.80897576118
 20
-1440.59398802935
  0
LWPOLYLINE
  5
12E
100
AcDbEntity
  8
2
100
AcDbPolyline
370
-1
  6
BYLAYER
 38
0
 90
4
 70
0
 10
2373.80897576118
 20
-1640.59398802935
 10
2573.80897576118
 20
-1640.59398802935
 10
2573.80897576118
 20
-1840.59398802935
 10
2373.80897576118
 20
-1840.59398802935
  0
LWPOLYLINE
  5
12F
100
AcDbEntity
  8
2
100
AcDbPolyline
370
-1
  6
BYLAYER
 38
0
 90
4
 70
1
 10
3373.80897576118
 20
-1640.59398802935
 10
3373.80897576118
 20
-1840.59398802935
 10
2973.80897576118
 20
-1840.59398802935
 10
2973.80897576118
 20
-1640.59398802935
  0
LWPOLYLINE
  5
130
100
AcDbEntity
  8
2
100
AcDbPolyline
370
-1
  6
BYLAYER
 38
0
 90
4
 70
1
 10
2173.80897576118
 20
-1640.59398802935
 10
2173.80897576118
 20
-1840.59398802935
 10
1773.80897576118
 20
-1840.59398802935
 10
1773.80897576118
 20
-1640.59398802935
  0
LWPOLYLINE
  5
131
100
AcDbEntity
  8
2
100
AcDbPolyline
370
-1
  6
BYLAYER
 38
0
 90
4
 70
1
 10
2373.80897576118
 20
-1440.59398802935
 10
2373.80897576118
 20
-1640.59398802935
 10
1973.80897576118
 20
-1640.59398802935
 10
1973.80897576118
 20
-1440.59398802935
  0
LWPOLYLINE
  5
132
100
AcDbEntity
  8
2
100
AcDbPolyline
370
-1
  6
BYLAYER
 38
0
 90
4
 70
1
 10
1973.80897576118
 20
-1440.59398802935
 10
1973.80897576118
 20
-1640.59398802935
 10
1573.80897576118
 20
-1640.59398802935
 10
1573.80897576118
 20
-1440.59398802935
  0
LWPOLYLINE
  5
133
100
AcDbEntity
  8
2
100
AcDbPolyline
370
-1
  6
BYLAYER
 38
0
 90
4
 70
0
 10
1573.80897576118
 20
-1640.59398802935
 10
1773.80897576118
 20
-1640.59398802935
 10
1773.80897576118
 20
-1840.59398802935
 10
1573.80897576118
 20
-1840.59398802935
  0
LWPOLYLINE
  5
134
100
AcDbEntity
  8
2
100
AcDbPolyline
370
-1
  6
BYLAYER
 38
0
 90
4
 70
1
 10
2573.80897576118
 20
-1640.59398802935
 10
2573.80897576118
 20
-1840.59398802935
 10
2173.80897576118
 20
-1840.59398802935
 10
2173.80897576118
 20
-1640.59398802935
  0
LWPOLYLINE
  5
135
100
AcDbEntity
  8
2
100
AcDbPolyline
370
-1
  6
BYLAYER
 38
0
 90
4
 70
1
 10
1773.80897576118
 20
-1640.59398802935
 10
1773.80897576118
 20
-1840.59398802935
 10
1373.80897576118
 20
-1840.59398802935
 10
1373.80897576118
 20
-1640.59398802935
  0
LWPOLYLINE
  5
136
100
AcDbEntity
  8
2
100
AcDbPolyline
370
-1
  6
BYLAYER
 38
0
 90
4
 70
1
 10
1973.80897576118
 20
-1440.59398802935
 10
1973.80897576118
 20
-1640.59398802935
 10
1573.80897576118
 20
-1640.59398802935
 10
1573.80897576118
 20
-1440.59398802935
  0
LWPOLYLINE
  5
137
100
AcDbEntity
  8
2
100
AcDbPolyline
370
-1
  6
BYLAYER
 38
0
 90
4
 70
1
 10
1573.80897576118
 20
-1440.59398802935
 10
1573.80897576118
 20
-1640.59398802935
 10
1173.80897576118
 20
-1640.59398802935
 10
1173.80897576118
 20
-1440.59398802935
  0
LWPOLYLINE
  5
138
100
AcDbEntity
  8
2
100
AcDbPolyline
370
-1
  6
BYLAYER
 38
0
 90
4
 70
0
 10
1173.80897576118
 20
-1640.59398802935
 10
1373.80897576118
 20
-1640.59398802935
 10
1373.80897576118
 20
-1840.59398802935
 10
1173.80897576118
 20
-1840.59398802935
  0
LWPOLYLINE
  5
139
100
AcDbEntity
  8
2
100
AcDbPolyline
370
-1
  6
BYLAYER
 38
0
 90
4
 70
1
 10
2173.80897576118
 20
-1640.59398802935
 10
2173.80897576118
 20
-1840.59398802935
 10
1773.80897576118
 20
-1840.59398802935
 10
1773.80897576118
 20
-1640.59398802935
  0
LWPOLYLINE
  5
13A
100
AcDbEntity
  8
2
100
AcDbPolyline
370
-1
  6
BYLAYER
 38
0
 90
4
 70
0
 10
1058.00224137118
 20
-1440.59398802935
 10
1173.80897576118
 20
-1440.59398802935
 10
1173.80897576118
 20
-1640.59398802935
 10
1058.00224137118
 20
-1640.59398802935
  0
LWPOLYLINE
  5
13B
100
AcDbEntity
  8
2
100
AcDbPolyline
370
-1
  6
BYLAYER
 38
0
 90
4
 70
0
 10
1058.00224137118
 20
-1640.59398802935
 10
1373.80897576118
 20
-1640.59398802935
 10
1373.80897576118
 20
-1840.59398802935
 10
1058.00224137118
 20
-1840.59398802935
  0
LWPOLYLINE
  5
13C
100
AcDbEntity
  8
2
100
AcDbPolyline
370
-1
  6
BYLAYER
 38
0
 90
4
 70
1
 10
6173.80897576118
 20
-1240.59398802935
 10
6173.80897576118
 20
-1440.59398802935
 10
5773.80897576118
 20
-1440.59398802935
 10
5773.80897576118
 20
-1240.59398802935
  0
LWPOLYLINE
  5
13D
100
AcDbEntity
  8
2
100
AcDbPolyline
370
-1
  6
BYLAYER
 38
0
 90
4
 70
1
 10
6373.80897576118
 20
-1040.59398802935
 10
6373.80897576118
 20
-1240.59398802935
 10
5973.80897576118
 20
-1240.59398802935
 10
5973.80897576118
 20
-1040.59398802935
  0
LWPOLYLINE
  5
13E
100
AcDbEntity
  8
2
100
AcDbPolyline
370
-1
  6
BYLAYER
 38
0
 90
4
 70
1
 10
5973.80897576118
 20
-1040.59398802935
 10
5973.80897576118
 20
-1240.59398802935
 10
5573.80897576118
 20
-1240.59398802935
 10
5573.80897576118
 20
-1040.59398802935
  0
LWPOLYLINE
  5
13F
100
AcDbEntity
  8
2
100
AcDbPolyline
370
-1
  6
BYLAYER
 38
0
 90
4
 70
0
 10
5573.80897576118
 20
-1240.59398802935
 10
5773.80897576118
 20
-1240.59398802935
 10
5773.80897576118
 20
-1440.59398802935
 10
5573.80897576118
 20
-1440.59398802935
  0
LWPOLYLINE
  5
140
100
AcDbEntity
  8
2
100
AcDbPolyline
370
-1
  6
BYLAYER
 38
0
 90
4
 70
1
 10
6573.80897576118
 20
-1240.59398802935
 10
6573.80897576118
 20
-1440.59398802935
 10
6173.80897576118
 20
-1440.59398802935
 10
6173.80897576118
 20
-1240.59398802935
  0
LWPOLYLINE
  5
141
100
AcDbEntity
  8
2
100
AcDbPolyline
370
-1
  6
BYLAYER
 38
0
 90
4
 70
1
 10
5373.80897576118
 20
-1240.59398802935
 10
5373.80897576118
 20
-1440.59398802935
 10
4973.80897576118
 20
-1440.59398802935
 10
4973.80897576118
 20
-1240.59398802935
  0
LWPOLYLINE
  5
142
100
AcDbEntity
  8
2
100
AcDbPolyline
370
-1
  6
BYLAYER
 38
0
 90
4
 70
1
 10
5573.80897576118
 20
-1040.59398802935
 10
5573.80897576118
 20
-1240.59398802935
 10
5173.80897576118
 20
-1240.59398802935
 10
5173.80897576118
 20
-1040.59398802935
  0
LWPOLYLINE
  5
143
100
AcDbEntity
  8
2
100
AcDbPolyline
370
-1
  6
BYLAYER
 38
0
 90
4
 70
1
 10
5173.80897576118
 20
-1040.59398802935
 10
5173.80897576118
 20
-1240.59398802935
 10
4773.80897576118
 20
-1240.59398802935
 10
4773.80897576118
 20
-1040.59398802935
  0
LWPOLYLINE
  5
144
100
AcDbEntity
  8
2
100
AcDbPolyline
370
-1
  6
BYLAYER
 38
0
 90
4
 70
0
 10
4773.80897576118
 20
-1240.59398802935
 10
4973.80897576118
 20
-1240.59398802935
 10
4973.80897576118
 20
-1440.59398802935
 10
4773.80897576118
 20
-1440.59398802935
  0
LWPOLYLINE
  5
145
100
AcDbEntity
  8
2
100
AcDbPolyline
370
-1
  6
BYLAYER
 38
0
 90
4
 70
1
 10
5773.80897576118
 20
-1240.59398802935
 10
5773.80897576118
 20
-1440.59398802935
 10
5373.80897576118
 20
-1440.59398802935
 10
5373.80897576118
 20
-1240.59398802935
  0
LWPOLYLINE
  5
146
100
AcDbEntity
  8
2
100
AcDbPolyline
370
-1
  6
BYLAYER
 38
0
 90
4
 70
1
 10
4573.80897576118
 20
-1240.59398802935
 10
4573.80897576118
 20
-1440.59398802935
 10
4173.80897576118
 20
-1440.59398802935
 10
4173.80897576118
 20
-1240.59398802935
  0
LWPOLYLINE
  5
147
100
AcDbEntity
  8
2
100
AcDbPolyline
370
-1
  6
BYLAYER
 38
0
 90
4
 70
1
 10
4773.80897576118
 20
-1040.59398802935
 10
4773.80897576118
 20
-1240.59398802935
 10
4373.80897576118
 20
-1240.59398802935
 10
4373.80897576118
 20
-1040.59398802935
  0
LWPOLYLINE
  5
148
100
AcDbEntity
  8
2
100
AcDbPolyline
370
-1
  6
BYLAYER
 38
0
 90
4
 70
1
 10
4373.80897576118
 20
-1040.59398802935
 10
4373.80897576118
 20
-1240.59398802935
 10
3973.80897576118
 20
-1240.59398802935
 10
3973.80897576118
 20
-1040.59398802935
  0
LWPOLYLINE
  5
149
100
AcDbEntity
  8
2
100
AcDbPolyline
370
-1
  6
BYLAYER
 38
0
 90
4
 70
0
 10
3973.80897576118
 20
-1240.59398802935
 10
4173.80897576118
 20
-1240.59398802935
 10
4173.80897576118
 20
-1440.59398802935
 10
3973.80897576118
 20
-1440.59398802935
  0
LWPOLYLINE
  5
14A
100
AcDbEntity
  8
2
100
AcDbPolyline
370
-1
  6
BYLAYER
 38
0
 90
4
 70
1
 10
4973.80897576118
 20
-1240.59398802935
 10
4973.80897576118
 20
-1440.59398802935
 10
4573.80897576118
 20
-1440.59398802935
 10
4573.80897576118
 20
-1240.59398802935
  0
LWPOLYLINE
  5
14B
100
AcDbEntity
  8
2
100
AcDbPolyline
370
-1
  6
BYLAYER
 38
0
 90
4
 70
1
 10
3773.80897576118
 20
-1240.59398802935
 10
3773.80897576118
 20
-1440.59398802935
 10
3373.80897576118
 20
-1440.59398802935
 10
3373.80897576118
 20
-1240.59398802935
  0
LWPOLYLINE
  5
14C
100
AcDbEntity
  8
2
100
AcDbPolyline
370
-1
  6
BYLAYER
 38
0
 90
4
 70
1
 10
3973.80897576118
 20
-1040.59398802935
 10
3973.80897576118
 20
-1240.59398802935
 10
3573.80897576118
 20
-1240.59398802935
 10
3573.80897576118
 20
-1040.59398802935
  0
LWPOLYLINE
  5
14D
100
AcDbEntity
  8
2
100
AcDbPolyline
370
-1
  6
BYLAYER
 38
0
 90
4
 70
1
 10
3573.80897576118
 20
-1040.59398802935
 10
3573.80897576118
 20
-1240.59398802935
 10
3173.80897576118
 20
-1240.59398802935
 10
3173.80897576118
 20
-1040.59398802935
  0
LWPOLYLINE
  5
14E
100
AcDbEntity
  8
2
100
AcDbPolyline
370
-1
  6
BYLAYER
 38
0
 90
4
 70
0
 10
3173.80897576118
 20
-1240.59398802935
 10
3373.80897576118
 20
-1240.59398802935
 10
3373.80897576118
 20
-1440.59398802935
 10
3173.80897576118
 20
-1440.59398802935
  0
LWPOLYLINE
  5
14F
100
AcDbEntity
  8
2
100
AcDbPolyline
370
-1
  6
BYLAYER
 38
0
 90
4
 70
1
 10
4173.80897576118
 20
-1240.59398802935
 10
4173.80897576118
 20
-1440.59398802935
 10
3773.80897576118
 20
-1440.59398802935
 10
3773.80897576118
 20
-1240.59398802935
  0
LWPOLYLINE
  5
150
100
AcDbEntity
  8
2
100
AcDbPolyline
370
-1
  6
BYLAYER
 38
0
 90
4
 70
1
 10
2973.80897576118
 20
-1240.59398802935
 10
2973.80897576118
 20
-1440.59398802935
 10
2573.80897576118
 20
-1440.59398802935
 10
2573.80897576118
 20
-1240.59398802935
  0
LWPOLYLINE
  5
151
100
AcDbEntity
  8
2
100
AcDbPolyline
370
-1
  6
BYLAYER
 38
0
 90
4
 70
1
 10
3173.80897576118
 20
-1040.59398802935
 10
3173.80897576118
 20
-1240.59398802935
 10
2773.80897576118
 20
-1240.59398802935
 10
2773.80897576118
 20
-1040.59398802935
  0
LWPOLYLINE
  5
152
100
AcDbEntity
  8
2
100
AcDbPolyline
370
-1
  6
BYLAYER
 38
0
 90
4
 70
1
 10
2773.80897576118
 20
-1040.59398802935
 10
2773.80897576118
 20
-1240.59398802935
 10
2373.80897576118
 20
-1240.59398802935
 10
2373.80897576118
 20
-1040.59398802935
  0
LWPOLYLINE
  5
153
100
AcDbEntity
  8
2
100
AcDbPolyline
370
-1
  6
BYLAYER
 38
0
 90
4
 70
0
 10
2373.80897576118
 20
-1240.59398802935
 10
2573.80897576118
 20
-1240.59398802935
 10
2573.80897576118
 20
-1440.59398802935
 10
2373.80897576118
 20
-1440.59398802935
  0
LWPOLYLINE
  5
154
100
AcDbEntity
  8
2
100
AcDbPolyline
370
-1
  6
BYLAYER
 38
0
 90
4
 70
1
 10
3373.80897576118
 20
-1240.59398802935
 10
3373.80897576118
 20
-1440.59398802935
 10
2973.80897576118
 20
-1440.59398802935
 10
2973.80897576118
 20
-1240.59398802935
  0
LWPOLYLINE
  5
155
100
AcDbEntity
  8
2
100
AcDbPolyline
370
-1
  6
BYLAYER
 38
0
 90
4
 70
1
 10
2173.80897576118
 20
-1240.59398802935
 10
2173.80897576118
 20
-1440.59398802935
 10
1773.80897576118
 20
-1440.59398802935
 10
1773.80897576118
 20
-1240.59398802935
  0
LWPOLYLINE
  5
156
100
AcDbEntity
  8
2
100
AcDbPolyline
370
-1
  6
BYLAYER
 38
0
 90
4
 70
1
 10
2373.80897576118
 20
-1040.59398802935
 10
2373.80897576118
 20
-1240.59398802935
 10
1973.80897576118
 20
-1240.59398802935
 10
1973.80897576118
 20
-1040.59398802935
  0
LWPOLYLINE
  5
157
100
AcDbEntity
  8
2
100
AcDbPolyline
370
-1
  6
BYLAYER
 38
0
 90
4
 70
1
 10
1973.80897576118
 20
-1040.59398802935
 10
1973.80897576118
 20
-1240.59398802935
 10
1573.80897576118
 20
-1240.59398802935
 10
1573.80897576118
 20
-1040.59398802935
  0
LWPOLYLINE
  5
158
100
AcDbEntity
  8
2
100
AcDbPolyline
370
-1
  6
BYLAYER
 38
0
 90
4
 70
0
 10
1573.80897576118
 20
-1240.59398802935
 10
1773.80897576118
 20
-1240.59398802935
 10
1773.80897576118
 20
-1440.59398802935
 10
1573.80897576118
 20
-1440.59398802935
  0
LWPOLYLINE
  5
159
100
AcDbEntity
  8
2
100
AcDbPolyline
370
-1
  6
BYLAYER
 38
0
 90
4
 70
1
 10
2573.80897576118
 20
-1240.59398802935
 10
2573.80897576118
 20
-1440.59398802935
 10
2173.80897576118
 20
-1440.59398802935
 10
2173.80897576118
 20
-1240.59398802935
  0
LWPOLYLINE
  5
15A
100
AcDbEntity
  8
2
100
AcDbPolyline
370
-1
  6
BYLAYER
 38
0
 90
4
 70
1
 10
1773.80897576118
 20
-1240.59398802935
 10
1773.80897576118
 20
-1440.59398802935
 10
1373.80897576118
 20
-1440.59398802935
 10
1373.80897576118
 20
-1240.59398802935
  0
LWPOLYLINE
  5
15B
100
AcDbEntity
  8
2
100
AcDbPolyline
370
-1
  6
BYLAYER
 38
0
 90
4
 70
1
 10
1973.80897576118
 20
-1040.59398802935
 10
1973.80897576118
 20
-1240.59398802935
 10
1573.80897576118
 20
-1240.59398802935
 10
1573.80897576118
 20
-1040.59398802935
  0
LWPOLYLINE
  5
15C
100
AcDbEntity
  8
2
100
AcDbPolyline
370
-1
  6
BYLAYER
 38
0
 90
4
 70
1
 10
1573.80897576118
 20
-1040.59398802935
 10
1573.80897576118
 20
-1240.59398802935
 10
1173.80897576118
 20
-1240.59398802935
 10
1173.80897576118
 20
-1040.59398802935
  0
LWPOLYLINE
  5
15D
100
AcDbEntity
  8
2
100
AcDbPolyline
370
-1
  6
BYLAYER
 38
0
 90
4
 70
0
 10
1173.80897576118
 20
-1240.59398802935
 10
1373.80897576118
 20
-1240.59398802935
 10
1373.80897576118
 20
-1440.59398802935
 10
1173.80897576118
 20
-1440.59398802935
  0
LWPOLYLINE
  5
15E
100
AcDbEntity
  8
2
100
AcDbPolyline
370
-1
  6
BYLAYER
 38
0
 90
4
 70
1
 10
2173.80897576118
 20
-1240.59398802935
 10
2173.80897576118
 20
-1440.59398802935
 10
1773.80897576118
 20
-1440.59398802935
 10
1773.80897576118
 20
-1240.59398802935
  0
LWPOLYLINE
  5
15F
100
AcDbEntity
  8
2
100
AcDbPolyline
370
-1
  6
BYLAYER
 38
0
 90
4
 70
0
 10
1058.00224137118
 20
-1040.59398802935
 10
1173.80897576118
 20
-1040.59398802935
 10
1173.80897576118
 20
-1240.59398802935
 10
1058.00224137118
 20
-1240.59398802935
  0
LWPOLYLINE
  5
160
100
AcDbEntity
  8
2
100
AcDbPolyline
370
-1
  6
BYLAYER
 38
0
 90
4
 70
0
 10
1058.00224137118
 20
-1240.59398802935
 10
1373.80897576118
 20
-1240.59398802935
 10
1373.80897576118
 20
-1440.59398802935
 10
1058.00224137118
 20
-1440.59398802935
  0
LWPOLYLINE
  5
161
100
AcDbEntity
  8
2
100
AcDbPolyline
370
-1
  6
BYLAYER
 38
0
 90
4
 70
1
 10
6173.80897576118
 20
-840.593988029353
 10
6173.80897576118
 20
-1040.59398802935
 10
5773.80897576118
 20
-1040.59398802935
 10
5773.80897576118
 20
-840.593988029353
  0
LWPOLYLINE
  5
162
100
AcDbEntity
  8
2
100
AcDbPolyline
370
-1
  6
BYLAYER
 38
0
 90
4
 70
0
 10
5573.80897576118
 20
-840.593988029353
 10
5773.80897576118
 20
-840.593988029353
 10
5773.80897576118
 20
-1040.59398802935
 10
5573.80897576118
 20
-1040.59398802935
  0
LWPOLYLINE
  5
163
100
AcDbEntity
  8
2
100
AcDbPolyline
370
-1
  6
BYLAYER
 38
0
 90
4
 70
1
 10
6573.80897576118
 20
-840.593988029353
 10
6573.80897576118
 20
-1040.59398802935
 10
6173.80897576118
 20
-1040.59398802935
 10
6173.80897576118
 20
-840.593988029353
  0
LWPOLYLINE
  5
164
100
AcDbEntity
  8
2
100
AcDbPolyline
370
-1
  6
BYLAYER
 38
0
 90
4
 70
1
 10
5373.80897576118
 20
-840.593988029353
 10
5373.80897576118
 20
-1040.59398802935
 10
4973.80897576118
 20
-1040.59398802935
 10
4973.80897576118
 20
-840.593988029353
  0
LWPOLYLINE
  5
165
100
AcDbEntity
  8
2
100
AcDbPolyline
370
-1
  6
BYLAYER
 38
0
 90
4
 70
0
 10
4773.80897576118
 20
-840.593988029353
 10
4973.80897576118
 20
-840.593988029353
 10
4973.80897576118
 20
-1040.59398802935
 10
4773.80897576118
 20
-1040.59398802935
  0
LWPOLYLINE
  5
166
100
AcDbEntity
  8
2
100
AcDbPolyline
370
-1
  6
BYLAYER
 38
0
 90
4
 70
1
 10
5773.80897576118
 20
-840.593988029353
 10
5773.80897576118
 20
-1040.59398802935
 10
5373.80897576118
 20
-1040.59398802935
 10
5373.80897576118
 20
-840.593988029353
  0
LWPOLYLINE
  5
167
100
AcDbEntity
  8
2
100
AcDbPolyline
370
-1
  6
BYLAYER
 38
0
 90
4
 70
1
 10
4573.80897576118
 20
-840.593988029353
 10
4573.80897576118
 20
-1040.59398802935
 10
4173.80897576118
 20
-1040.59398802935
 10
4173.80897576118
 20
-840.593988029353
  0
LWPOLYLINE
  5
168
100
AcDbEntity
  8
2
100
AcDbPolyline
370
-1
  6
BYLAYER
 38
0
 90
4
 70
0
 10
3973.80897576118
 20
-840.593988029353
 10
4173.80897576118
 20
-840.593988029353
 10
4173.80897576118
 20
-1040.59398802935
 10
3973.80897576118
 20
-1040.59398802935
  0
LWPOLYLINE
  5
169
100
AcDbEntity
  8
2
100
AcDbPolyline
370
-1
  6
BYLAYER
 38
0
 90
4
 70
1
 10
4973.80897576118
 20
-840.593988029353
 10
4973.80897576118
 20
-1040.59398802935
 10
4573.80897576118
 20
-1040.59398802935
 10
4573.80897576118
 20
-840.593988029353
  0
LWPOLYLINE
  5
16A
100
AcDbEntity
  8
2
100
AcDbPolyline
370
-1
  6
BYLAYER
 38
0
 90
4
 70
1
 10
3773.80897576118
 20
-840.593988029353
 10
3773.80897576118
 20
-1040.59398802935
 10
3373.80897576118
 20
-1040.59398802935
 10
3373.80897576118
 20
-840.593988029353
  0
LWPOLYLINE
  5
16B
100
AcDbEntity
  8
2
100
AcDbPolyline
370
-1
  6
BYLAYER
 38
0
 90
4
 70
0
 10
3173.80897576118
 20
-840.593988029353
 10
3373.80897576118
 20
-840.593988029353
 10
3373.80897576118
 20
-1040.59398802935
 10
3173.80897576118
 20
-1040.59398802935
  0
LWPOLYLINE
  5
16C
100
AcDbEntity
  8
2
100
AcDbPolyline
370
-1
  6
BYLAYER
 38
0
 90
4
 70
1
 10
4173.80897576118
 20
-840.593988029353
 10
4173.80897576118
 20
-1040.59398802935
 10
3773.80897576118
 20
-1040.59398802935
 10
3773.80897576118
 20
-840.593988029353
  0
LWPOLYLINE
  5
16D
100
AcDbEntity
  8
2
100
AcDbPolyline
370
-1
  6
BYLAYER
 38
0
 90
4
 70
1
 10
2973.80897576118
 20
-840.593988029353
 10
2973.80897576118
 20
-1040.59398802935
 10
2573.80897576118
 20
-1040.59398802935
 10
2573.80897576118
 20
-840.593988029353
  0
LWPOLYLINE
  5
16E
100
AcDbEntity
  8
2
100
AcDbPolyline
370
-1
  6
BYLAYER
 38
0
 90
4
 70
0
 10
2373.80897576118
 20
-840.593988029353
 10
2573.80897576118
 20
-840.593988029353
 10
2573.80897576118
 20
-1040.59398802935
 10
2373.80897576118
 20
-1040.59398802935
  0
LWPOLYLINE
  5
16F
100
AcDbEntity
  8
2
100
AcDbPolyline
370
-1
  6
BYLAYER
 38
0
 90
4
 70
1
 10
3373.80897576118
 20
-840.593988029353
 10
3373.80897576118
 20
-1040.59398802935
 10
2973.80897576118
 20
-1040.59398802935
 10
2973.80897576118
 20
-840.593988029353
  0
LWPOLYLINE
  5
170
100
AcDbEntity
  8
2
100
AcDbPolyline
370
-1
  6
BYLAYER
 38
0
 90
4
 70
1
 10
2173.80897576118
 20
-840.593988029353
 10
2173.80897576118
 20
-1040.59398802935
 10
1773.80897576118
 20
-1040.59398802935
 10
1773.80897576118
 20
-840.593988029353
  0
LWPOLYLINE
  5
171
100
AcDbEntity
  8
2
100
AcDbPolyline
370
-1
  6
BYLAYER
 38
0
 90
4
 70
0
 10
1573.80897576118
 20
-840.593988029353
 10
1773.80897576118
 20
-840.593988029353
 10
1773.80897576118
 20
-1040.59398802935
 10
1573.80897576118
 20
-1040.59398802935
  0
LWPOLYLINE
  5
172
100
AcDbEntity
  8
2
100
AcDbPolyline
370
-1
  6
BYLAYER
 38
0
 90
4
 70
1
 10
2573.80897576118
 20
-840.593988029353
 10
2573.80897576118
 20
-1040.59398802935
 10
2173.80897576118
 20
-1040.59398802935
 10
2173.80897576118
 20
-840.593988029353
  0
LWPOLYLINE
  5
173
100
AcDbEntity
  8
2
100
AcDbPolyline
370
-1
  6
BYLAYER
 38
0
 90
4
 70
1
 10
1773.80897576118
 20
-840.593988029353
 10
1773.80897576118
 20
-1040.59398802935
 10
1373.80897576118
 20
-1040.59398802935
 10
1373.80897576118
 20
-840.593988029353
  0
LWPOLYLINE
  5
174
100
AcDbEntity
  8
2
100
AcDbPolyline
370
-1
  6
BYLAYER
 38
0
 90
4
 70
0
 10
1173.80897576118
 20
-840.593988029353
 10
1373.80897576118
 20
-840.593988029353
 10
1373.80897576118
 20
-1040.59398802935
 10
1173.80897576118
 20
-1040.59398802935
  0
LWPOLYLINE
  5
175
100
AcDbEntity
  8
2
100
AcDbPolyline
370
-1
  6
BYLAYER
 38
0
 90
4
 70
1
 10
2173.80897576118
 20
-840.593988029353
 10
2173.80897576118
 20
-1040.59398802935
 10
1773.80897576118
 20
-1040.59398802935
 10
1773.80897576118
 20
-840.593988029353
  0
LWPOLYLINE
  5
176
100
AcDbEntity
  8
2
100
AcDbPolyline
370
-1
  6
BYLAYER
 38
0
 90
4
 70
0
 10
1058.00224137118
 20
-840.593988029353
 10
1373.80897576118
 20
-840.593988029353
 10
1373.80897576118
 20
-1040.59398802935
 10
1058.00224137118
 20
-1040.59398802935
  0
LWPOLYLINE
  5
177
100
AcDbEntity
  8
2
100
AcDbPolyline
370
-1
  6
BYLAYER
 38
0
 90
4
 70
1
 10
5823.87135881716
 20
-838.097107182163
 10
6323.87135881716
 20
-838.097107182163
 10
6323.87135881716
 20
-788.097107182163
 10
5823.87135881716
 20
-788.097107182163
  0
LWPOLYLINE
  5
178
100
AcDbEntity
  8
2
100
AcDbPolyline
370
-1
  6
BYLAYER
 38
0
 90
4
 70
1
 10
5323.87135881716
 20
-838.097107182163
 10
5823.87135881716
 20
-838.097107182163
 10
5823.87135881716
 20
-788.097107182163
 10
5323.87135881716
 20
-788.097107182163
  0
LWPOLYLINE
  5
179
100
AcDbEntity
  8
2
100
AcDbPolyline
370
-1
  6
BYLAYER
 38
0
 90
4
 70
1
 10
4823.87135881716
 20
-838.097107182163
 10
5323.87135881716
 20
-838.097107182163
 10
5323.87135881716
 20
-788.097107182163
 10
4823.87135881716
 20
-788.097107182163
  0
LWPOLYLINE
  5
17A
100
AcDbEntity
  8
2
100
AcDbPolyline
370
-1
  6
BYLAYER
 38
0
 90
4
 70
1
 10
4323.87135881716
 20
-838.097107182163
 10
4823.87135881716
 20
-838.097107182163
 10
4823.87135881716
 20
-788.097107182163
 10
4323.87135881716
 20
-788.097107182163
  0
LWPOLYLINE
  5
17B
100
AcDbEntity
  8
2
100
AcDbPolyline
370
-1
  6
BYLAYER
 38
0
 90
4
 70
1
 10
3823.87135881716
 20
-838.097107182163
 10
4323.87135881716
 20
-838.097107182163
 10
4323.87135881716
 20
-788.097107182163
 10
3823.87135881716
 20
-788.097107182163
  0
LWPOLYLINE
  5
17C
100
AcDbEntity
  8
2
100
AcDbPolyline
370
-1
  6
BYLAYER
 38
0
 90
4
 70
1
 10
3323.87135881716
 20
-838.097107182163
 10
3823.87135881716
 20
-838.097107182163
 10
3823.87135881716
 20
-788.097107182163
 10
3323.87135881716
 20
-788.097107182163
  0
LWPOLYLINE
  5
17D
100
AcDbEntity
  8
2
100
AcDbPolyline
370
-1
  6
BYLAYER
 38
0
 90
4
 70
1
 10
2823.87135881716
 20
-838.097107182163
 10
3323.87135881716
 20
-838.097107182163
 10
3323.87135881716
 20
-788.097107182163
 10
2823.87135881716
 20
-788.097107182163
  0
LWPOLYLINE
  5
17E
100
AcDbEntity
  8
2
100
AcDbPolyline
370
-1
  6
BYLAYER
 38
0
 90
4
 70
1
 10
2323.87135881716
 20
-838.097107182163
 10
2823.87135881716
 20
-838.097107182163
 10
2823.87135881716
 20
-788.097107182163
 10
2323.87135881716
 20
-788.097107182163
  0
LWPOLYLINE
  5
17F
100
AcDbEntity
  8
2
100
AcDbPolyline
370
-1
  6
BYLAYER
 38
0
 90
4
 70
1
 10
1823.87135881716
 20
-838.097107182163
 10
2323.87135881716
 20
-838.097107182163
 10
2323.87135881716
 20
-788.097107182163
 10
1823.87135881716
 20
-788.097107182163
  0
LWPOLYLINE
  5
180
100
AcDbEntity
  8
2
100
AcDbPolyline
370
-1
  6
BYLAYER
 38
0
 90
4
 70
1
 10
1323.87135881716
 20
-838.097107182163
 10
1823.87135881716
 20
-838.097107182163
 10
1823.87135881716
 20
-788.097107182163
 10
1323.87135881716
 20
-788.097107182163
  0
LWPOLYLINE
  5
181
100
AcDbEntity
  8
2
100
AcDbPolyline
370
-1
  6
BYLAYER
 38
0
 90
4
 70
0
 10
1058.00224137118
 20
-838.097107182163
 10
1323.87135881716
 20
-838.097107182163
 10
1323.87135881716
 20
-788.097107182163
 10
1058.00224137118
 20
-788.097107182163
  0
LINE
  5
182
100
AcDbEntity
  8
2
100
AcDbLine
370
-1
  6
BYLAYER
 10
1058.00224137118
 20
-2440.59398802934
 30
0
 11
1058.00224137118
 21
-788.097107182163
 31
0
  0
LINE
  5
183
100
AcDbEntity
  8
2
100
AcDbLine
370
-1
  6
BYLAYER
 10
6773.80897576118
 20
-1040.59398802935
 30
0
 11
6773.80897576118
 21
-835.796726055543
 31
0
  0
LWPOLYLINE
  5
184
100
AcDbEntity
  8
2
100
AcDbPolyline
370
-1
  6
BYLAYER
 38
0
 90
4
 70
1
 10
22911.8457216922
 20
-2447.92916270774
 10
23515.6535791632
 20
-2447.92916270774
 10
23515.6535791632
 20
-1092.59576805685
 10
22911.8457216922
 20
-1092.59576805685
  0
LWPOLYLINE
  5
185
100
AcDbEntity
  8
2
100
AcDbPolyline
370
-1
  6
BYLAYER
 38
0
 90
4
 70
1
 10
23693.0539893712
 20
-854.184255819382
 10
23693.0539893712
 20
-1054.18425581938
 10
23293.0539893712
 20
-1054.18425581938
 10
23293.0539893712
 20
-854.184255819382
  0
LWPOLYLINE
  5
186
100
AcDbEntity
  8
2
100
AcDbPolyline
370
-1
  6
BYLAYER
 38
0
 90
4
 70
0
 10
23493.0539893712
 20
-2447.92916270774
 10
23493.0539893712
 20
-2454.18425581938
 10
23093.0539893712
 20
-2454.18425581938
 10
23093.0539893712
 20
-2447.92916270774
  0
LWPOLYLINE
  5
187
100
AcDbEntity
  8
2
100
AcDbPolyline
370
-1
  6
BYLAYER
 38
0
 90
4
 70
0
 10
23493.0539893712
 20
-2447.92916270774
 10
23493.0539893712
 20
-2454.18425581938
 10
23093.0539893712
 20
-2454.18425581938
 10
23093.0539893712
 20
-2447.92916270774
  0
LWPOLYLINE
  5
188
100
AcDbEntity
  8
2
100
AcDbPolyline
370
-1
  6
BYLAYER
 38
0
 90
4
 70
0
 10
23093.0539893712
 20
-1092.59576805685
 10
23093.0539893712
 20
-1054.18425581938
 10
23493.0539893712
 20
-1054.18425581938
 10
23493.0539893712
 20
-1092.59576805685
  0
LWPOLYLINE
  5
189
100
AcDbEntity
  8
2
100
AcDbPolyline
370
-1
  6
BYLAYER
 38
0
 90
4
 70
1
 10
23225.6720237522
 20
-843.569291002223
 10
23725.6720237522
 20
-843.569291002223
 10
23725.6720237522
 20
-793.569291002223
 10
23225.6720237522
 20
-793.569291002223
  0
LINE
  5
18A
100
AcDbEntity
  8
2
100
AcDbLine
370
-1
  6
BYLAYER
 10
23693.0539893712
 20
-1254.18425581938
 30
0
 11
23693.0539893712
 21
-2454.18425581938
 31
0
  0
LWPOLYLINE
  5
18B
100
AcDbEntity
  8
2
100
AcDbPolyline
370
-1
  6
BYLAYER
 38
0
 90
4
 70
0
 10
23493.0539893712
 20
-1054.18425581938
 10
23693.0539893712
 20
-1054.18425581938
 10
23693.0539893712
 20
-1254.18425581938
 10
23515.6535791632
 20
-1254.18425581938
  0
LWPOLYLINE
  5
18C
100
AcDbEntity
  8
2
100
AcDbPolyline
370
-1
  6
BYLAYER
 38
0
 90
2
 70
0
 10
23693.0539893712
 20
-1454.18425581938
 10
23515.6535791632
 20
-1454.18425581938
  0
LWPOLYLINE
  5
18D
100
AcDbEntity
  8
2
100
AcDbPolyline
370
-1
  6
BYLAYER
 38
0
 90
2
 70
0
 10
23515.6535791632
 20
-1254.18425581938
 10
23693.0539893712
 20
-1254.18425581938
  0
LWPOLYLINE
  5
18E
100
AcDbEntity
  8
2
100
AcDbPolyline
370
-1
  6
BYLAYER
 38
0
 90
2
 70
0
 10
23693.0539893712
 20
-1854.18425581938
 10
23515.6535791632
 20
-1854.18425581938
  0
LWPOLYLINE
  5
18F
100
AcDbEntity
  8
2
100
AcDbPolyline
370
-1
  6
BYLAYER
 38
0
 90
2
 70
0
 10
23515.6535791632
 20
-1654.18425581938
 10
23693.0539893712
 20
-1654.18425581938
  0
LWPOLYLINE
  5
190
100
AcDbEntity
  8
2
100
AcDbPolyline
370
-1
  6
BYLAYER
 38
0
 90
4
 70
0
 10
23515.6535791632
 20
-1454.18425581938
 10
23693.0539893712
 20
-1454.18425581938
 10
23693.0539893712
 20
-1654.18425581938
 10
23515.6535791632
 20
-1654.18425581938
  0
LWPOLYLINE
  5
191
100
AcDbEntity
  8
2
100
AcDbPolyline
370
-1
  6
BYLAYER
 38
0
 90
4
 70
0
 10
23515.6535791632
 20
-2254.18425581938
 10
23693.0539893712
 20
-2254.18425581938
 10
23693.0539893712
 20
-2454.18425581938
 10
23493.0539893712
 20
-2454.18425581938
  0
LWPOLYLINE
  5
192
100
AcDbEntity
  8
2
100
AcDbPolyline
370
-1
  6
BYLAYER
 38
0
 90
2
 70
0
 10
23693.0539893712
 20
-2254.18425581938
 10
23515.6535791632
 20
-2254.18425581938
  0
LWPOLYLINE
  5
193
100
AcDbEntity
  8
2
100
AcDbPolyline
370
-1
  6
BYLAYER
 38
0
 90
2
 70
0
 10
23515.6535791632
 20
-2054.18425581938
 10
23693.0539893712
 20
-2054.18425581938
  0
LWPOLYLINE
  5
194
100
AcDbEntity
  8
2
100
AcDbPolyline
370
-1
  6
BYLAYER
 38
0
 90
4
 70
0
 10
23515.6535791632
 20
-1854.18425581938
 10
23693.0539893712
 20
-1854.18425581938
 10
23693.0539893712
 20
-2054.18425581938
 10
23515.6535791632
 20
-2054.18425581938
  0
LINE
  5
195
100
AcDbEntity
  8
2
100
AcDbLine
370
-1
  6
BYLAYER
 10
6773.80897576118
 20
-835.796726055543
 30
0
 11
6773.80897576118
 21
-1840.59398802935
 31
0
  0
DIMENSION
  5
19C
100
AcDbEntity
  8
2
100
AcDbDimension
370
-1
  1
1600
  3
STAV
  2
*sgDim1
 10
23692.8691942622
 20
-2752.24424928225
 30
0
 11
0
 21
0
 31
0
 70
1
 12
0
 22
0
 32
0
100
AcDbAlignedDimension
 13
22293.0586881542
 23
-2453.31626853753
 33
0
 14
23693.0539893712
 24
-2454.18425581938
 34
0
1001
ACAD
1000
DSTYLE
1002
{
1070
41
1040
100
1070
42
1040
20
1070
44
1040
25
1070
74
1070
0
1070
77
1070
1
1070
140
1040
250
1070
144
1040
1
1070
147
1040
10
1070
173
1070
1
1070
174
1070
0
1070
178
1070
124
1070
271
1070
0
1070
340
1005
196
1070
341
1005
10
1070
342
1005
199
1070
343
1005
199
1070
344
1005
199
1002
}
  0
DIMENSION
  5
1B6
100
AcDbEntity
  8
2
100
AcDbDimension
370
-1
  1
1600
  3
STAV
  2
*sgDim2
 10
15742.5459326972
 20
-2893.19505580774
 30
0
 11
0
 21
0
 31
0
 70
1
 12
0
 22
0
 32
0
100
AcDbAlignedDimension
 13
17341.6779326972
 23
-2446.06617184941
 33
0
 14
15742.5459326972
 24
-2446.06617184941
 34
0
1001
ACAD
1000
DSTYLE
1002
{
1070
41
1040
100
1070
42
1040
20
1070
44
1040
25
1070
74
1070
0
1070
77
1070
1
1070
140
1040
250
1070
144
1040
1
1070
147
1040
10
1070
173
1070
1
1070
174
1070
0
1070
178
1070
124
1070
271
1070
0
1070
340
1005
196
1070
341
1005
10
1070
342
1005
199
1070
343
1005
199
1070
344
1005
199
1002
}
  0
DIMENSION
  5
1D0
100
AcDbEntity
  8
2
100
AcDbDimension
370
-1
  3
STAV
  2
*sgDim3
 10
761.241889837174
 20
-2440.59398802934
 30
0
 11
0
 21
0
 31
0
 70
1
 12
0
 22
0
 32
0
100
AcDbAlignedDimension
 13
1058.00224137118
 23
-840.593988029353
 33
0
 14
1058.00224137118
 24
-2440.59398802934
 34
0
1001
ACAD
1000
DSTYLE
1002
{
1070
41
1040
100
1070
42
1040
20
1070
44
1040
25
1070
74
1070
0
1070
77
1070
1
1070
140
1040
250
1070
144
1040
1
1070
147
1040
10
1070
173
1070
1
1070
174
1070
0
1070
178
1070
124
1070
271
1070
0
1070
340
1005
196
1070
341
1005
10
1070
342
1005
199
1070
343
1005
199
1070
344
1005
199
1002
}
  0
DIMENSION
  5
1EA
100
AcDbEntity
  8
2
100
AcDbDimension
370
-1
  3
STAV
  2
*sgDim4
 10
281.732606207171
 20
-788.097107182163
 30
0
 11
0
 21
0
 31
0
 70
1
 12
0
 22
0
 32
0
100
AcDbAlignedDimension
 13
1058.00224137118
 23
-840.593988029353
 33
0
 14
1058.00224137118
 24
-788.097107182163
 34
0
1001
ACAD
1000
DSTYLE
1002
{
1070
41
1040
100
1070
42
1040
20
1070
44
1040
25
1070
74
1070
0
1070
77
1070
1
1070
140
1040
250
1070
144
1040
1
1070
147
1040
10
1070
173
1070
1
1070
174
1070
0
1070
178
1070
124
1070
271
1070
0
1070
340
1005
196
1070
341
1005
10
1070
342
1005
199
1070
343
1005
199
1070
344
1005
199
1002
}
  0
DIMENSION
  5
222
100
AcDbEntity
  8
2
100
AcDbDimension
370
-1
  3
STAV
  2
*sgDim6
 10
22294.1280780632
 20
-2868.61013290739
 30
0
 11
0
 21
0
 31
0
 70
1
 12
0
 22
0
 32
0
100
AcDbAlignedDimension
 13
17341.6779326972
 23
-2466.06617184941
 33
0
 14
22293.0586881542
 24
-2453.31626853753
 34
0
1001
ACAD
1000
DSTYLE
1002
{
1070
41
1040
100
1070
42
1040
20
1070
44
1040
25
1070
74
1070
0
1070
77
1070
1
1070
140
1040
250
1070
144
1040
1
1070
147
1040
10
1070
173
1070
1
1070
174
1070
0
1070
178
1070
124
1070
271
1070
0
1070
340
1005
196
1070
341
1005
10
1070
342
1005
199
1070
343
1005
199
1070
344
1005
199
1002
}
  0
LINE
  5
23B
100
AcDbEntity
  8
0
100
AcDbLine
370
-1
 62
5
  6
BYLAYER
 10
10414.0863887042
 20
-4867.15736210065
 30
0
 11
10383.8114654482
 21
-4903.53737035369
 31
0
  0
LINE
  5
23C
100
AcDbEntity
  8
0
100
AcDbLine
370
-1
 62
5
  6
BYLAYER
 10
9789.96490932515
 20
-5573.14280653903
 30
0
 11
9759.68282887715
 21
-5606.46669369745
 31
0
  0
LINE
  5
23D
100
AcDbEntity
  8
0
100
AcDbLine
370
-1
 62
5
  6
BYLAYER
 10
9759.68282887715
 20
-5606.46669369745
 30
0
 11
9726.35178452617
 21
-5642.75365845113
 31
0
  0
LWPOLYLINE
  5
23F
100
AcDbEntity
  8
Rozpiska
100
AcDbPolyline
370
50
 62
2
  6
BYLAYER
 38
0
 90
4
 70
1
 43
46.2403869628906
 10
9739.57074349418
 20
-9695.62448460813
 10
23611.6862540642
 20
-9695.62448460813
 10
23611.6862540642
 20
-4886.62444094411
 10
9739.57074349418
 20
-4886.62444094411
  0
LINE
  5
240
100
AcDbEntity
  8
Rozpiska
100
AcDbLine
370
30
 62
7
  6
BYLAYER
 10
9739.57074349418
 20
-8585.85524376259
 30
0
 11
20837.2631519502
 21
-8585.85524376259
 31
0
  0
LINE
  5
241
100
AcDbEntity
  8
Rozpiska
100
AcDbLine
370
30
 62
7
  6
BYLAYER
 10
9739.57074349418
 20
-6273.83599200103
 30
0
 11
18987.6477505402
 21
-6273.83599200103
 31
0
  0
LINE
  5
242
100
AcDbEntity
  8
Rozpiska
100
AcDbLine
370
30
 62
7
  6
BYLAYER
 10
9739.57074349418
 20
-6736.23984235335
 30
0
 11
23611.6862540642
 21
-6736.23984235335
 31
0
  0
LINE
  5
243
100
AcDbEntity
  8
Rozpiska
100
AcDbLine
370
30
 62
7
  6
BYLAYER
 10
9739.57074349418
 20
-5626.47060150781
 30
0
 11
18987.6477505402
 21
-5626.47060150781
 31
0
  0
TEXT
  5
245
100
AcDbEntity
  8
Rozpiska
100
AcDbText
370
-1
 62
7
 10
9851.33671886716
 20
-8869.59671822413
 30
0
 40
203.45768737793
  1
PRÍLOHA:
 50
0
 41
0.800000011920929
 51
0
  7
ARIAL
 71
0
 72
0
 11
23611.6862540642
 21
-9695.62448460813
 31
0
100
AcDbText
 73
0
  0
TEXT
  5
246
100
AcDbEntity
  8
Rozpiska
100
AcDbText
370
-1
 62
7
 10
9851.33671886716
 20
-7019.98131681489
 30
0
 40
203.45768737793
  1
AKCIA:
 50
0
 41
0.800000011920929
 51
0
  7
ARIAL
 71
0
 72
0
 11
23611.6862540642
 21
-9695.62448460813
 31
0
100
AcDbText
 73
0
  0
TEXT
  5
247
100
AcDbEntity
  8
Rozpiska
100
AcDbText
370
-1
 62
7
 10
9851.33671886716
 20
-6094.78651955444
 30
0
 40
203.45768737793
  1
VYPRACOVAL:
 50
0
 41
0.800000011920929
 51
0
  7
ARIAL
 71
0
 72
0
 11
23611.6862540642
 21
-9695.62448460813
 31
0
100
AcDbText
 73
0
  0
TEXT
  5
248
100
AcDbEntity
  8
Rozpiska
100
AcDbText
370
-1
 62
7
 10
9851.33671886716
 20
-6603.41196559848
 30
0
 40
203.45768737793
  1
OBJEDNÁVATE\U+013D: Mgr.Monika Danihelová
 50
0
 41
0.800000011920929
 51
0
  7
ARIAL
 71
0
 72
0
 11
23611.6862540642
 21
-9695.62448460813
 31
0
100
AcDbText
 73
0
  0
TEXT
  5
249
100
AcDbEntity
  8
Rozpiska
100
AcDbText
370
-1
 62
7
 10
20894.3485960302
 20
-8894.78698952207
 30
0
 40
203.45768737793
  1
\U+010CÍSLO PRÍLOHY:
 50
0
 41
0.800000011920929
 51
0
  7
ARIAL
 71
0
 72
0
 11
23611.6862540642
 21
-9695.62448460813
 31
0
100
AcDbText
 73
0
  0
LINE
  5
24A
100
AcDbEntity
  8
Rozpiska
100
AcDbLine
370
30
 62
7
  6
BYLAYER
 10
18987.6477505402
 20
-7198.64369270566
 30
0
 11
23611.6862540642
 21
-7198.64369270566
 31
0
  0
LINE
  5
24B
100
AcDbEntity
  8
Rozpiska
100
AcDbLine
370
30
 62
7
  6
BYLAYER
 10
18987.6477505402
 20
-7661.04754305798
 30
0
 11
23611.6862540642
 21
-7661.04754305798
 31
0
  0
LINE
  5
24C
100
AcDbEntity
  8
Rozpiska
100
AcDbLine
370
30
 62
7
  6
BYLAYER
 10
18987.6477505402
 20
-8123.45139341027
 30
0
 11
23611.6862540642
 21
-8123.45139341027
 31
0
  0
LINE
  5
24D
100
AcDbEntity
  8
Rozpiska
100
AcDbLine
370
40
 62
7
  6
BYLAYER
 10
18987.6477505402
 20
-6273.83599200103
 30
0
 11
18987.6477505402
 21
-9695.62448460813
 31
0
  0
LINE
  5
24E
100
AcDbEntity
  8
Rozpiska
100
AcDbLine
370
30
 62
7
  6
BYLAYER
 10
12493.3008496092
 20
-6266.93563750326
 30
0
 11
12493.3008496092
 21
-4872.73759499895
 31
0
  0
TEXT
  5
24F
100
AcDbEntity
  8
Rozpiska
100
AcDbText
370
-1
 62
7
 10
19111.0068204752
 20
-7059.52875062207
 30
0
 40
203.45768737793
  1
DÁTUM:
 50
0
 41
0.800000011920929
 51
0
  7
ARIAL
 71
0
 72
0
 11
23611.6862540642
 21
-9695.62448460813
 31
0
100
AcDbText
 73
0
  0
TEXT
  5
250
100
AcDbEntity
  8
Rozpiska
100
AcDbText
370
-1
 62
7
 10
19111.0068204752
 20
-8869.59671822413
 30
0
 40
203.45768737793
  1
MIERKA:
 50
0
 41
0.800000011920929
 51
0
  7
ARIAL
 71
0
 72
0
 11
23611.6862540642
 21
-9695.62448460813
 31
0
100
AcDbText
 73
0
  0
TEXT
  5
251
100
AcDbEntity
  8
Rozpiska
100
AcDbText
370
-1
 62
7
 10
19111.0068204752
 20
-8446.74030167899
 30
0
 40
203.45768737793
  1
ARCH. \U+010C.
 50
0
 41
0.800000011920929
 51
0
  7
ARIAL
 71
0
 72
0
 11
23611.6862540642
 21
-9695.62448460813
 31
0
100
AcDbText
 73
0
  0
TEXT
  5
252
100
AcDbEntity
  8
Rozpiska
100
AcDbText
370
-1
 62
7
 10
19111.0068204752
 20
-7984.33645132668
 30
0
 40
203.45768737793
  1
\U+010C. ZÁKAZKY:
 50
0
 41
0.800000011920929
 51
0
  7
ARIAL
 71
0
 72
0
 11
23611.6862540642
 21
-9695.62448460813
 31
0
100
AcDbText
 73
0
  0
TEXT
  5
253
100
AcDbEntity
  8
Rozpiska
100
AcDbText
370
-1
 62
7
 10
19111.0068204752
 20
-7521.93260097436
 30
0
 40
203.45768737793
  1
STUPE\U+0147:
 50
0
 41
0.800000011920929
 51
0
  7
ARIAL
 71
0
 72
0
 11
23611.6862540642
 21
-9695.62448460813
 31
0
100
AcDbText
 73
0
  0
TEXT
  5
254
100
AcDbEntity
  8
Rozpiska
100
AcDbText
370
-1
 62
7
 10
19111.0068204752
 20
-6597.12490026975
 30
0
 40
203.45768737793
  1
FORMÁT:
 50
0
 41
0.800000011920929
 51
0
  7
ARIAL
 71
0
 72
0
 11
23611.6862540642
 21
-9695.62448460813
 31
0
100
AcDbText
 73
0
  0
LINE
  5
255
100
AcDbEntity
  8
Rozpiska
100
AcDbLine
370
30
 62
7
  6
BYLAYER
 10
20467.3400716682
 20
-6273.83599200103
 30
0
 11
20467.3400716682
 21
-8585.85524376259
 31
0
  0
LINE
  5
256
100
AcDbEntity
  8
Rozpiska
100
AcDbLine
370
50
 62
2
  6
BYLAYER
 10
20837.2631519502
 20
-8585.85524376259
 30
0
 11
20837.2631519502
 21
-9695.62448460813
 31
0
  0
TEXT
  5
257
100
AcDbEntity
  8
Rozpiska
100
AcDbText
370
-1
 62
7
 10
20732.3811535022
 20
-7521.93260097436
 30
0
 40
203.45768737793
  1
PD pre stavebné povolenie
 50
0
 41
0.800000011920929
 51
0
  7
ARIAL
 71
0
 72
0
 11
23611.6862540642
 21
-9695.62448460813
 31
0
100
AcDbText
 73
0
  0
ATTDEF
  5
258
100
AcDbEntity
  8
Rozpiska
100
AcDbText
370
50
 62
10
 10
12900.9305256342
 20
-7499.11120124549
 30
0
 40
443.907684326172
  1
RODINNÝ DOM
 50
0
 41
0.800000011920929
 51
0
  7
ARIAL
 71
0
 72
1
 11
14330.7614547672
 21
-7277.15735307637
 31
0
100
AcDbAttributeDefinition
  3
Oplotenie \U+010Delný poh\U+013Ead
  2
Oplotenie \U+010Delný poh\U+013Ead
 70
0
 74
2
1001
AcDbAttr
1070
0
1070
1
  0
ATTDEF
  5
259
100
AcDbEntity
  8
Rozpiska
100
AcDbText
370
-1
 62
7
 10
19214.7922163482
 20
-9486.00646754457
 30
0
 40
313.694549560547
  1
1:50
 50
0
 41
0.800000011920929
 51
0
  7
ARIAL
 71
0
 72
1
 11
19887.1170740882
 21
-9486.00646754457
 31
0
100
AcDbAttributeDefinition
  3
MIERKA
  2
MIERKA
 70
0
 74
0
1001
AcDbAttr
1070
0
1070
1
  0
ATTDEF
  5
25A
100
AcDbEntity
  8
Rozpiska
100
AcDbText
370
50
 62
10
 10
21599.5007080052
 20
-9516.1319011356
 30
0
 40
443.907684326172
  1
4.
 50
0
 41
0.800000011920929
 51
0
  7
ARIAL
 71
0
 72
1
 11
22030.2365184012
 21
-9294.1780529665
 31
0
100
AcDbAttributeDefinition
  3
CP
  2
CP
 70
0
 74
2
1001
AcDbAttr
1070
0
1070
1
  0
ATTDEF
  5
25B
100
AcDbEntity
  8
Rozpiska
100
AcDbText
370
-1
 62
7
 10
20744.7823818792
 20
-8447.1340886569
 30
0
 40
203.45768737793
  1
2013 - X - Y
 50
0
 41
0.800000011920929
 51
0
  7
ARIAL
 71
0
 72
0
 11
23611.6862540642
 21
-9695.62448460813
 31
0
100
AcDbAttributeDefinition
  3
ARCHC
  2
ARCHC
 70
0
 74
0
1001
AcDbAttr
1070
0
1070
1
  0
ATTDEF
  5
25C
100
AcDbEntity
  8
Rozpiska
100
AcDbText
370
30
 62
7
 10
13790.9701371612
 20
-7964.45833112338
 30
0
 40
329.379272460937
  1
-
 50
0
 41
0.800000011920929
 51
0
  7
ARIAL
 71
0
 72
1
 11
14363.6092470172
 21
-7799.76869816367
 31
0
100
AcDbAttributeDefinition
  3
Rozvinutý pláš\U+0165
  2
Rozvinutý pláš\U+0165
 70
0
 74
2
1001
AcDbAttr
1070
0
1070
1
  0
LINE
  5
25D
100
AcDbEntity
  8
Rozpiska
100
AcDbLine
370
50
 62
2
  6
BYLAYER
 10
20837.2631519502
 20
-8585.85524376259
 30
0
 11
23611.6862540642
 21
-8585.85524376259
 31
0
  0
LINE
  5
25E
100
AcDbEntity
  8
Rozpiska
100
AcDbLine
370
50
 62
2
  6
BYLAYER
 10
18987.6477505402
 20
-6273.83599200103
 30
0
 11
18987.6477505402
 21
-4886.62444094411
 31
0
  0
LINE
  5
25F
100
AcDbEntity
  8
Rozpiska
100
AcDbLine
370
50
 62
2
  6
BYLAYER
 10
18987.6477505402
 20
-6273.83599200103
 30
0
 11
23611.6862540642
 21
-6273.83599200103
 31
0
  0
LINE
  5
260
100
AcDbEntity
  8
Rozpiska
100
AcDbLine
370
50
 62
2
  6
BYLAYER
 10
9739.57074349418
 20
-4886.62444094411
 30
0
 11
9739.57074349418
 21
-4240.94956791787
 31
0
  0
LINE
  5
261
100
AcDbEntity
  8
Rozpiska
100
AcDbLine
370
50
 62
2
  6
BYLAYER
 10
14363.6092470172
 20
-4240.94956791787
 30
0
 11
14363.6092470172
 21
-4886.62444094411
 31
0
  0
ATTDEF
  5
262
100
AcDbEntity
  8
Rozpiska
100
AcDbText
370
-1
 62
252
 48
8
 10
11590.0741920352
 20
-4714.95867874739
 30
0
 40
277.442321777344
  1
%%P0,000 m = X,XXX m n. m.
 50
0
 41
0.800000011920929
 51
0
  7
ARIAL
 71
0
 72
1
 11
11934.5871398592
 21
-4576.2375236417
 31
0
100
AcDbAttributeDefinition
  3
NMV
  2
NMV
 70
0
 74
2
1001
AcDbAttr
1070
0
1070
1
  0
LINE
  5
263
100
AcDbEntity
  8
Rozpiska
100
AcDbLine
370
-1
 62
252
 48
8
  6
BYLAYER
 10
18987.6477505402
 20
-9695.62448460813
 30
0
 11
18987.6477505402
 21
-10115.6795482414
 31
0
  0
LINE
  5
264
100
AcDbEntity
  8
Rozpiska
100
AcDbLine
370
-1
 62
252
 48
8
  6
BYLAYER
 10
18987.6477505402
 20
-10115.6795482414
 30
0
 11
23611.6862540642
 21
-10115.6795482414
 31
0
  0
LINE
  5
265
100
AcDbEntity
  8
Rozpiska
100
AcDbLine
370
-1
 62
252
 48
8
  6
BYLAYER
 10
23611.6862540642
 20
-10115.6795482414
 30
0
 11
23611.6862540642
 21
-9695.62448460813
 31
0
  0
LINE
  5
266
100
AcDbEntity
  8
Rozpiska
100
AcDbLine
370
50
 62
2
  6
BYLAYER
 10
14363.6092470172
 20
-4240.94956791787
 30
0
 11
9739.57074349418
 21
-4240.94956791787
 31
0
  0
LWPOLYLINE
  5
267
100
AcDbEntity
  8
2
100
AcDbPolyline
370
-1
  6
BYLAYER
 38
0
 90
4
 70
1
 10
12573.6098000282
 20
-1837.85245291053
 10
13073.6098000282
 20
-1837.85245291053
 10
13073.6098000282
 20
-1787.85245291053
 10
12573.6098000282
 20
-1787.85245291053
  0
LWPOLYLINE
  5
268
100
AcDbEntity
  8
2
100
AcDbPolyline
370
-1
  6
BYLAYER
 38
0
 90
4
 70
1
 10
13073.6098000282
 20
-1837.85245291053
 10
13573.6098000282
 20
-1837.85245291053
 10
13573.6098000282
 20
-1787.85245291053
 10
13073.6098000282
 20
-1787.85245291053
  0
LWPOLYLINE
  5
269
100
AcDbEntity
  8
2
100
AcDbPolyline
370
-1
  6
BYLAYER
 38
0
 90
4
 70
1
 10
13573.6098000282
 20
-1837.85245291053
 10
14073.6098000282
 20
-1837.85245291053
 10
14073.6098000282
 20
-1787.85245291053
 10
13573.6098000282
 20
-1787.85245291053
  0
LWPOLYLINE
  5
26A
100
AcDbEntity
  8
2
100
AcDbPolyline
370
-1
  6
BYLAYER
 38
0
 90
4
 70
1
 10
12573.6098000282
 20
-1762.85245291053
 10
12608.6098000282
 20
-1762.85245291053
 10
12608.6098000282
 20
-860.355572063342
 10
12573.6098000282
 20
-860.355572063342
  0
LWPOLYLINE
  5
26B
100
AcDbEntity
  8
2
100
AcDbPolyline
370
-1
  6
BYLAYER
 38
0
 90
4
 70
1
 10
13938.7817747862
 20
-1762.64068813024
 10
13973.7817747862
 20
-1762.64068813024
 10
13973.7817747862
 20
-860.143807283053
 10
13938.7817747862
 20
-860.143807283053
  0
LWPOLYLINE
  5
26C
100
AcDbEntity
  8
2
100
AcDbPolyline
370
-1
  6
BYLAYER
 38
0
 90
4
 70
1
 10
12608.6098000282
 20
-860.355572063342
 10
13939.6418378242
 20
-860.355572063342
 10
13939.6418378242
 20
-1000.35557206334
 10
12608.6098000282
 20
-1000.35557206334
  0
LWPOLYLINE
  5
26D
100
AcDbEntity
  8
2
100
AcDbPolyline
370
-1
  6
BYLAYER
 38
0
 90
4
 70
1
 10
12607.7497369902
 20
-1622.64068813024
 10
13938.7817747862
 20
-1622.64068813024
 10
13938.7817747862
 20
-1762.64068813024
 10
12607.7497369902
 20
-1762.64068813024
  0
LWPOLYLINE
  5
26E
100
AcDbEntity
  8
2
100
AcDbPolyline
370
-1
  6
BYLAYER
 38
0
 90
4
 70
1
 10
12608.6098000282
 20
-1050.28889259349
 10
13939.6418378242
 20
-1050.28889259349
 10
13939.6418378242
 20
-1190.28889259349
 10
12608.6098000282
 20
-1190.28889259349
  0
LWPOLYLINE
  5
26F
100
AcDbEntity
  8
2
100
AcDbPolyline
370
-1
  6
BYLAYER
 38
0
 90
4
 70
1
 10
12608.6098000282
 20
-1240.22221312365
 10
13939.6418378242
 20
-1240.22221312365
 10
13939.6418378242
 20
-1380.22221312365
 10
12608.6098000282
 20
-1380.22221312365
  0
LWPOLYLINE
  5
270
100
AcDbEntity
  8
2
100
AcDbPolyline
370
-1
  6
BYLAYER
 38
0
 90
4
 70
1
 10
12608.6098000282
 20
-1430.1555336538
 10
13939.6418378242
 20
-1430.1555336538
 10
13939.6418378242
 20
-1570.1555336538
 10
12608.6098000282
 20
-1570.1555336538
  0
LINE
  5
271
100
AcDbEntity
  8
2
100
AcDbLine
370
-1
  6
BYLAYER
 10
13973.7817747862
 20
-860.143807283053
 30
0
 11
14373.6281692742
 21
-860.143807283053
 31
0
  0
LWPOLYLINE
  5
272
100
AcDbEntity
  8
2
100
AcDbPolyline
370
-1
  6
BYLAYER
 38
0
 90
4
 70
1
 10
14373.6281692742
 20
-860.143807283053
 10
15741.8291588552
 20
-860.143807283053
 10
15741.8291588552
 20
-2388.1735854977
 10
14373.6281692742
 20
-2388.1735854977
  0
LWPOLYLINE
  5
273
100
AcDbEntity
  8
2
100
AcDbPolyline
370
-1
  6
BYLAYER
 38
0
 90
4
 70
1
 10
14453.6281692742
 20
-940.143807283053
 10
15661.8291588552
 20
-940.143807283053
 10
15661.8291588552
 20
-2308.1735854977
 10
14453.6281692742
 20
-2308.1735854977
  0
LWPOLYLINE
  5
274
100
AcDbEntity
  8
2
100
AcDbPolyline
370
-1
  6
BYLAYER
 38
0
 90
4
 70
1
 10
14453.6281692742
 20
-2308.34843445721
 10
14488.6281692742
 20
-2308.34843445721
 10
14488.6281692742
 20
-940.143807283053
 10
14453.6281692742
 20
-940.143807283053
  0
LWPOLYLINE
  5
275
100
AcDbEntity
  8
2
100
AcDbPolyline
370
-1
  6
BYLAYER
 38
0
 90
2
 70
0
 10
14453.6281692742
 20
-1554.14380728305
 10
14453.6281692742
 20
-1694.14380728305
  0
LWPOLYLINE
  5
276
100
AcDbEntity
  8
2
100
AcDbPolyline
370
-1
  6
BYLAYER
 38
0
 90
2
 70
0
 10
14453.6281692742
 20
-1742.64380728305
 10
14453.6281692742
 20
-1882.64380728305
  0
LWPOLYLINE
  5
277
100
AcDbEntity
  8
2
100
AcDbPolyline
370
-1
  6
BYLAYER
 38
0
 90
2
 70
0
 10
14453.6281692742
 20
-1931.14380728305
 10
14453.6281692742
 20
-2071.14380728305
  0
LWPOLYLINE
  5
278
100
AcDbEntity
  8
2
100
AcDbPolyline
370
-1
  6
BYLAYER
 38
0
 90
4
 70
1
 10
15626.8291588552
 20
-2308.34843445721
 10
15661.8291588552
 20
-2308.34843445721
 10
15661.8291588552
 20
-940.143807283053
 10
15626.8291588552
 20
-940.143807283053
  0
LWPOLYLINE
  5
279
100
AcDbEntity
  8
2
100
AcDbPolyline
370
-1
  6
BYLAYER
 38
0
 90
2
 70
0
 10
15661.8291588552
 20
-1128.64380728305
 10
15661.8291588552
 20
-988.643807283053
  0
LWPOLYLINE
  5
27A
100
AcDbEntity
  8
2
100
AcDbPolyline
370
-1
  6
BYLAYER
 38
0
 90
4
 70
0
 10
15626.8291588552
 20
-988.643807283053
 10
14488.6295158872
 20
-988.643807283053
 10
14488.6295158872
 20
-1128.64380728305
 10
15626.8291588552
 20
-1128.64380728305
  0
LWPOLYLINE
  5
27B
100
AcDbEntity
  8
2
100
AcDbPolyline
370
-1
  6
BYLAYER
 38
0
 90
2
 70
0
 10
15661.8291588552
 20
-1317.14380728305
 10
15661.8291588552
 20
-1177.14380728305
  0
LWPOLYLINE
  5
27C
100
AcDbEntity
  8
2
100
AcDbPolyline
370
-1
  6
BYLAYER
 38
0
 90
4
 70
0
 10
15626.8291588552
 20
-1177.18302373208
 10
14488.0450047412
 20
-1178.4589971817
 10
14488.0450047412
 20
-1318.4589971817
 10
15626.8291588552
 20
-1317.18302373208
  0
LWPOLYLINE
  5
27D
100
AcDbEntity
  8
2
100
AcDbPolyline
370
-1
  6
BYLAYER
 38
0
 90
2
 70
0
 10
15626.8291588552
 20
-1365.65677943909
 10
14488.6281692742
 20
-1366.07863432043
  0
LWPOLYLINE
  5
27E
100
AcDbEntity
  8
2
100
AcDbPolyline
370
-1
  6
BYLAYER
 38
0
 90
2
 70
0
 10
14488.6281692742
 20
-1506.07863432043
 10
15626.8291588552
 20
-1505.65677943909
  0
LWPOLYLINE
  5
27F
100
AcDbEntity
  8
2
100
AcDbPolyline
370
-1
  6
BYLAYER
 38
0
 90
2
 70
0
 10
15661.8291588552
 20
-1505.64380728305
 10
15661.8291588552
 20
-1365.64380728305
  0
LWPOLYLINE
  5
280
100
AcDbEntity
  8
2
100
AcDbPolyline
370
-1
  6
BYLAYER
 38
0
 90
2
 70
0
 10
15626.8291588552
 20
-1554.14380728305
 10
14488.6281692742
 20
-1554.14380728305
  0
LWPOLYLINE
  5
281
100
AcDbEntity
  8
2
100
AcDbPolyline
370
-1
  6
BYLAYER
 38
0
 90
2
 70
0
 10
14488.6281692742
 20
-1694.14380728305
 10
15626.8291588552
 20
-1694.14380728305
  0
LWPOLYLINE
  5
282
100
AcDbEntity
  8
2
100
AcDbPolyline
370
-1
  6
BYLAYER
 38
0
 90
2
 70
0
 10
15661.8291588552
 20
-1694.14380728305
 10
15661.8291588552
 20
-1554.14380728305
  0
LWPOLYLINE
  5
283
100
AcDbEntity
  8
2
100
AcDbPolyline
370
-1
  6
BYLAYER
 38
0
 90
2
 70
0
 10
15626.8291588552
 20
-1742.64380728305
 10
14488.6281692742
 20
-1742.64380728305
  0
LWPOLYLINE
  5
284
100
AcDbEntity
  8
2
100
AcDbPolyline
370
-1
  6
BYLAYER
 38
0
 90
2
 70
0
 10
14488.6281692742
 20
-1882.64380728305
 10
15626.8291588552
 20
-1882.64380728305
  0
LWPOLYLINE
  5
285
100
AcDbEntity
  8
2
100
AcDbPolyline
370
-1
  6
BYLAYER
 38
0
 90
2
 70
0
 10
15661.8291588552
 20
-1882.64380728305
 10
15661.8291588552
 20
-1742.64380728305
  0
LWPOLYLINE
  5
286
100
AcDbEntity
  8
2
100
AcDbPolyline
370
-1
  6
BYLAYER
 38
0
 90
2
 70
0
 10
15626.8291588552
 20
-1931.14380728305
 10
14488.6281692742
 20
-1931.14380728305
  0
LWPOLYLINE
  5
287
100
AcDbEntity
  8
2
100
AcDbPolyline
370
-1
  6
BYLAYER
 38
0
 90
2
 70
0
 10
14488.6281692742
 20
-2071.14380728305
 10
15626.8291588552
 20
-2071.14380728305
  0
LWPOLYLINE
  5
288
100
AcDbEntity
  8
2
100
AcDbPolyline
370
-1
  6
BYLAYER
 38
0
 90
2
 70
0
 10
15661.8291588552
 20
-2071.14380728305
 10
15661.8291588552
 20
-1931.14380728305
  0
LWPOLYLINE
  5
289
100
AcDbEntity
  8
2
100
AcDbPolyline
370
-1
  6
BYLAYER
 38
0
 90
5
 70
0
 10
15626.8291588552
 20
-2119.58310867518
 10
14488.6023035352
 20
-2117.6091433736
 10
14488.6023035352
 20
-2257.6091433736
 10
15661.8291588552
 20
-2259.64380728305
 10
15661.8291588552
 20
-2119.64380728305
  0
LWPOLYLINE
  5
28A
100
AcDbEntity
  8
2
100
AcDbPolyline
370
-1
  6
BYLAYER
 38
0
 90
4
 70
1
 10
10773.4106242952
 20
-1435.11091779171
 10
10773.4106242952
 20
-1635.11091779171
 10
10373.4106242952
 20
-1635.11091779171
 10
10373.4106242952
 20
-1435.11091779171
  0
LWPOLYLINE
  5
28B
100
AcDbEntity
  8
2
100
AcDbPolyline
370
-1
  6
BYLAYER
 38
0
 90
4
 70
1
 10
10773.4106242952
 20
-1235.11091779171
 10
10773.4106242952
 20
-1435.11091779171
 10
10373.4106242952
 20
-1435.11091779171
 10
10373.4106242952
 20
-1235.11091779171
  0
LWPOLYLINE
  5
28C
100
AcDbEntity
  8
2
100
AcDbPolyline
370
-1
  6
BYLAYER
 38
0
 90
4
 70
1
 10
10773.4106242952
 20
-1035.11091779171
 10
10773.4106242952
 20
-1235.11091779171
 10
10373.4106242952
 20
-1235.11091779171
 10
10373.4106242952
 20
-1035.11091779171
  0
LWPOLYLINE
  5
28D
100
AcDbEntity
  8
2
100
AcDbPolyline
370
-1
  6
BYLAYER
 38
0
 90
4
 70
1
 10
10773.4106242952
 20
-835.110917791713
 10
10773.4106242952
 20
-1035.11091779171
 10
10373.4106242952
 20
-1035.11091779171
 10
10373.4106242952
 20
-835.110917791713
  0
LINE
  5
28E
100
AcDbEntity
  8
2
100
AcDbLine
370
-1
  6
BYLAYER
 10
10773.4106242952
 20
-835.110917791713
 30
0
 11
10573.4894087242
 21
-829.497757778822
 31
0
  0
LWPOLYLINE
  5
28F
100
AcDbEntity
  8
2
100
AcDbPolyline
370
-1
  6
BYLAYER
 38
0
 90
4
 70
1
 10
10323.4730073502
 20
-832.614036944523
 10
10823.4730073502
 20
-832.614036944523
 10
10823.4730073502
 20
-782.614036944523
 10
10323.4730073502
 20
-782.614036944523
  0
LINE
  5
290
100
AcDbEntity
  8
2
100
AcDbLine
370
-1
  6
BYLAYER
 10
10323.4730073502
 20
-832.614036944523
 30
0
 11
10373.4106242952
 21
-835.110917791713
 31
0
  0
LWPOLYLINE
  5
291
100
AcDbEntity
  8
2
100
AcDbPolyline
370
-1
  6
BYLAYER
 38
0
 90
4
 70
1
 10
10773.4106242952
 20
-1760.11091779171
 10
10808.4106242952
 20
-1760.11091779171
 10
10808.4106242952
 20
-857.614036944523
 10
10773.4106242952
 20
-857.614036944523
  0
LWPOLYLINE
  5
292
100
AcDbEntity
  8
2
100
AcDbPolyline
370
-1
  6
BYLAYER
 38
0
 90
4
 70
1
 10
10808.4106242952
 20
-857.614036944523
 10
12139.4426620912
 20
-857.614036944523
 10
12139.4426620912
 20
-997.614036944523
 10
10808.4106242952
 20
-997.614036944523
  0
LWPOLYLINE
  5
293
100
AcDbEntity
  8
2
100
AcDbPolyline
370
-1
  6
BYLAYER
 38
0
 90
4
 70
1
 10
10808.4106242952
 20
-1047.54735747467
 10
12139.4426620912
 20
-1047.54735747467
 10
12139.4426620912
 20
-1187.54735747467
 10
10808.4106242952
 20
-1187.54735747467
  0
LWPOLYLINE
  5
294
100
AcDbEntity
  8
2
100
AcDbPolyline
370
-1
  6
BYLAYER
 38
0
 90
4
 70
1
 10
10808.4106242952
 20
-1237.48067800483
 10
12139.4426620912
 20
-1237.48067800483
 10
12139.4426620912
 20
-1377.48067800483
 10
10808.4106242952
 20
-1377.48067800483
  0
LWPOLYLINE
  5
295
100
AcDbEntity
  8
2
100
AcDbPolyline
370
-1
  6
BYLAYER
 38
0
 90
4
 70
1
 10
10808.4106242952
 20
-1427.41399853498
 10
12139.4426620912
 20
-1427.41399853498
 10
12139.4426620912
 20
-1567.41399853498
 10
10808.4106242952
 20
-1567.41399853498
  0
LWPOLYLINE
  5
296
100
AcDbEntity
  8
2
100
AcDbPolyline
370
-1
  6
BYLAYER
 38
0
 90
4
 70
1
 10
10773.4106242952
 20
-1635.11091779171
 10
10773.4106242952
 20
-1835.11091779171
 10
10373.4106242952
 20
-1835.11091779171
 10
10373.4106242952
 20
-1635.11091779171
  0
LWPOLYLINE
  5
297
100
AcDbEntity
  8
2
100
AcDbPolyline
370
-1
  6
BYLAYER
 38
0
 90
4
 70
1
 10
10807.5505612572
 20
-1619.89915301142
 10
12138.5825990532
 20
-1619.89915301142
 10
12138.5825990532
 20
-1759.89915301142
 10
10807.5505612572
 20
-1759.89915301142
  0
LWPOLYLINE
  5
298
100
AcDbEntity
  8
2
100
AcDbPolyline
370
-1
  6
BYLAYER
 38
0
 90
4
 70
1
 10
10773.4106242952
 20
-1835.11091779171
 10
11273.4106242952
 20
-1835.11091779171
 10
11273.4106242952
 20
-1785.11091779171
 10
10773.4106242952
 20
-1785.11091779171
  0
LWPOLYLINE
  5
299
100
AcDbEntity
  8
2
100
AcDbPolyline
370
-1
  6
BYLAYER
 38
0
 90
4
 70
1
 10
11273.4106242952
 20
-1835.11091779171
 10
11773.4106242952
 20
-1835.11091779171
 10
11773.4106242952
 20
-1785.11091779171
 10
11273.4106242952
 20
-1785.11091779171
  0
LWPOLYLINE
  5
29A
100
AcDbEntity
  8
2
100
AcDbPolyline
370
-1
  6
BYLAYER
 38
0
 90
4
 70
1
 10
11773.4106242952
 20
-1835.11091779171
 10
12273.4106242952
 20
-1835.11091779171
 10
12273.4106242952
 20
-1785.11091779171
 10
11773.4106242952
 20
-1785.11091779171
  0
LWPOLYLINE
  5
29B
100
AcDbEntity
  8
2
100
AcDbPolyline
370
-1
  6
BYLAYER
 38
0
 90
4
 70
1
 10
12138.5825990532
 20
-1759.89915301142
 10
12173.5825990532
 20
-1759.89915301142
 10
12173.5825990532
 20
-857.402272164232
 10
12138.5825990532
 20
-857.402272164232
  0
LWPOLYLINE
  5
29C
100
AcDbEntity
  8
2
100
AcDbPolyline
370
-1
  6
BYLAYER
 38
0
 90
4
 70
1
 10
8973.21144856117
 20
-1432.36938267289
 10
8973.21144856117
 20
-1632.36938267289
 10
8573.21144856117
 20
-1632.36938267289
 10
8573.21144856117
 20
-1432.36938267289
  0
LWPOLYLINE
  5
29D
100
AcDbEntity
  8
2
100
AcDbPolyline
370
-1
  6
BYLAYER
 38
0
 90
4
 70
1
 10
8973.21144856117
 20
-1232.36938267289
 10
8973.21144856117
 20
-1432.36938267289
 10
8573.21144856117
 20
-1432.36938267289
 10
8573.21144856117
 20
-1232.36938267289
  0
LWPOLYLINE
  5
29E
100
AcDbEntity
  8
2
100
AcDbPolyline
370
-1
  6
BYLAYER
 38
0
 90
4
 70
1
 10
8973.21144856117
 20
-1032.36938267289
 10
8973.21144856117
 20
-1232.36938267289
 10
8573.21144856117
 20
-1232.36938267289
 10
8573.21144856117
 20
-1032.36938267289
  0
LWPOLYLINE
  5
29F
100
AcDbEntity
  8
2
100
AcDbPolyline
370
-1
  6
BYLAYER
 38
0
 90
4
 70
1
 10
8973.21144856117
 20
-832.369382672892
 10
8973.21144856117
 20
-1032.36938267289
 10
8573.21144856117
 20
-1032.36938267289
 10
8573.21144856117
 20
-832.369382672892
  0
LINE
  5
2A0
100
AcDbEntity
  8
2
100
AcDbLine
370
-1
  6
BYLAYER
 10
8973.21144856117
 20
-832.369382672892
 30
0
 11
8773.29023299116
 21
-826.756222660002
 31
0
  0
LWPOLYLINE
  5
2A1
100
AcDbEntity
  8
2
100
AcDbPolyline
370
-1
  6
BYLAYER
 38
0
 90
4
 70
1
 10
8523.27383161718
 20
-829.872501825703
 10
9023.27383161718
 20
-829.872501825703
 10
9023.27383161718
 20
-779.872501825703
 10
8523.27383161718
 20
-779.872501825703
  0
LINE
  5
2A2
100
AcDbEntity
  8
2
100
AcDbLine
370
-1
  6
BYLAYER
 10
8523.27383161718
 20
-829.872501825703
 30
0
 11
8573.21144856117
 21
-832.369382672892
 31
0
  0
LWPOLYLINE
  5
2A3
100
AcDbEntity
  8
2
100
AcDbPolyline
370
-1
  6
BYLAYER
 38
0
 90
4
 70
1
 10
8973.21144856117
 20
-1757.36938267289
 10
9008.21144856117
 20
-1757.36938267289
 10
9008.21144856117
 20
-854.872501825703
 10
8973.21144856117
 20
-854.872501825703
  0
LWPOLYLINE
  5
2A4
100
AcDbEntity
  8
2
100
AcDbPolyline
370
-1
  6
BYLAYER
 38
0
 90
4
 70
1
 10
9008.21144856117
 20
-854.872501825703
 10
10339.2434863582
 20
-854.872501825703
 10
10339.2434863582
 20
-994.872501825703
 10
9008.21144856117
 20
-994.872501825703
  0
LWPOLYLINE
  5
2A5
100
AcDbEntity
  8
2
100
AcDbPolyline
370
-1
  6
BYLAYER
 38
0
 90
4
 70
1
 10
9008.21144856117
 20
-1044.80582235585
 10
10339.2434863582
 20
-1044.80582235585
 10
10339.2434863582
 20
-1184.80582235585
 10
9008.21144856117
 20
-1184.80582235585
  0
LWPOLYLINE
  5
2A6
100
AcDbEntity
  8
2
100
AcDbPolyline
370
-1
  6
BYLAYER
 38
0
 90
4
 70
1
 10
9008.21144856117
 20
-1234.73914288601
 10
10339.2434863582
 20
-1234.73914288601
 10
10339.2434863582
 20
-1374.73914288601
 10
9008.21144856117
 20
-1374.73914288601
  0
LWPOLYLINE
  5
2A7
100
AcDbEntity
  8
2
100
AcDbPolyline
370
-1
  6
BYLAYER
 38
0
 90
4
 70
1
 10
9008.21144856117
 20
-1424.67246341616
 10
10339.2434863582
 20
-1424.67246341616
 10
10339.2434863582
 20
-1564.67246341616
 10
9008.21144856117
 20
-1564.67246341616
  0
LWPOLYLINE
  5
2A8
100
AcDbEntity
  8
2
100
AcDbPolyline
370
-1
  6
BYLAYER
 38
0
 90
4
 70
1
 10
8973.21144856117
 20
-1632.36938267289
 10
8973.21144856117
 20
-1832.36938267289
 10
8573.21144856117
 20
-1832.36938267289
 10
8573.21144856117
 20
-1632.36938267289
  0
LWPOLYLINE
  5
2A9
100
AcDbEntity
  8
2
100
AcDbPolyline
370
-1
  6
BYLAYER
 38
0
 90
4
 70
1
 10
9007.35138552316
 20
-1617.1576178926
 10
10338.3834233202
 20
-1617.1576178926
 10
10338.3834233202
 20
-1757.1576178926
 10
9007.35138552316
 20
-1757.1576178926
  0
LWPOLYLINE
  5
2AA
100
AcDbEntity
  8
2
100
AcDbPolyline
370
-1
  6
BYLAYER
 38
0
 90
4
 70
1
 10
8973.21144856117
 20
-1832.36938267289
 10
9473.21144856117
 20
-1832.36938267289
 10
9473.21144856117
 20
-1782.36938267289
 10
8973.21144856117
 20
-1782.36938267289
  0
LWPOLYLINE
  5
2AB
100
AcDbEntity
  8
2
100
AcDbPolyline
370
-1
  6
BYLAYER
 38
0
 90
4
 70
1
 10
9473.21144856117
 20
-1832.36938267289
 10
9973.21144856117
 20
-1832.36938267289
 10
9973.21144856117
 20
-1782.36938267289
 10
9473.21144856117
 20
-1782.36938267289
  0
LWPOLYLINE
  5
2AC
100
AcDbEntity
  8
2
100
AcDbPolyline
370
-1
  6
BYLAYER
 38
0
 90
4
 70
1
 10
9973.21144856117
 20
-1832.36938267289
 10
10473.2114485612
 20
-1832.36938267289
 10
10473.2114485612
 20
-1782.36938267289
 10
9973.21144856117
 20
-1782.36938267289
  0
LWPOLYLINE
  5
2AD
100
AcDbEntity
  8
2
100
AcDbPolyline
370
-1
  6
BYLAYER
 38
0
 90
4
 70
1
 10
10338.3834233202
 20
-1757.1576178926
 10
10373.3834233202
 20
-1757.1576178926
 10
10373.3834233202
 20
-854.660737045402
 10
10338.3834233202
 20
-854.660737045402
  0
LWPOLYLINE
  5
2AE
100
AcDbEntity
  8
2
100
AcDbPolyline
370
-1
  6
BYLAYER
 38
0
 90
4
 70
1
 10
7173.01227282818
 20
-1429.62784755407
 10
7173.01227282818
 20
-1629.62784755407
 10
6773.01227282818
 20
-1629.62784755407
 10
6773.01227282818
 20
-1429.62784755407
  0
LWPOLYLINE
  5
2AF
100
AcDbEntity
  8
2
100
AcDbPolyline
370
-1
  6
BYLAYER
 38
0
 90
4
 70
1
 10
7173.01227282818
 20
-1229.62784755407
 10
7173.01227282818
 20
-1429.62784755407
 10
6773.01227282818
 20
-1429.62784755407
 10
6773.01227282818
 20
-1229.62784755407
  0
LWPOLYLINE
  5
2B0
100
AcDbEntity
  8
2
100
AcDbPolyline
370
-1
  6
BYLAYER
 38
0
 90
4
 70
1
 10
7173.01227282818
 20
-1029.62784755407
 10
7173.01227282818
 20
-1229.62784755407
 10
6773.01227282818
 20
-1229.62784755407
 10
6773.01227282818
 20
-1029.62784755407
  0
LWPOLYLINE
  5
2B1
100
AcDbEntity
  8
2
100
AcDbPolyline
370
-1
  6
BYLAYER
 38
0
 90
4
 70
1
 10
7173.01227282818
 20
-829.627847554072
 10
7173.01227282818
 20
-1029.62784755407
 10
6773.01227282818
 20
-1029.62784755407
 10
6773.01227282818
 20
-829.627847554072
  0
LINE
  5
2B2
100
AcDbEntity
  8
2
100
AcDbLine
370
-1
  6
BYLAYER
 10
7173.01227282818
 20
-829.627847554072
 30
0
 11
6973.09105725817
 21
-824.014687541183
 31
0
  0
LWPOLYLINE
  5
2B3
100
AcDbEntity
  8
2
100
AcDbPolyline
370
-1
  6
BYLAYER
 38
0
 90
4
 70
1
 10
6723.07465588416
 20
-827.130966706883
 10
7223.07465588416
 20
-827.130966706883
 10
7223.07465588416
 20
-777.130966706883
 10
6723.07465588416
 20
-777.130966706883
  0
LINE
  5
2B4
100
AcDbEntity
  8
2
100
AcDbLine
370
-1
  6
BYLAYER
 10
6723.07465588416
 20
-827.130966706883
 30
0
 11
6773.01227282818
 21
-829.627847554072
 31
0
  0
LWPOLYLINE
  5
2B5
100
AcDbEntity
  8
2
100
AcDbPolyline
370
-1
  6
BYLAYER
 38
0
 90
4
 70
1
 10
7173.01227282818
 20
-1754.62784755407
 10
7208.01227282818
 20
-1754.62784755407
 10
7208.01227282818
 20
-852.130966706883
 10
7173.01227282818
 20
-852.130966706883
  0
LWPOLYLINE
  5
2B6
100
AcDbEntity
  8
2
100
AcDbPolyline
370
-1
  6
BYLAYER
 38
0
 90
4
 70
1
 10
7208.01227282818
 20
-852.130966706883
 10
8539.04431062416
 20
-852.130966706883
 10
8539.04431062416
 20
-992.130966706883
 10
7208.01227282818
 20
-992.130966706883
  0
LWPOLYLINE
  5
2B7
100
AcDbEntity
  8
2
100
AcDbPolyline
370
-1
  6
BYLAYER
 38
0
 90
4
 70
1
 10
7208.01227282818
 20
-1042.06428723703
 10
8539.04431062416
 20
-1042.06428723703
 10
8539.04431062416
 20
-1182.06428723703
 10
7208.01227282818
 20
-1182.06428723703
  0
LWPOLYLINE
  5
2B8
100
AcDbEntity
  8
2
100
AcDbPolyline
370
-1
  6
BYLAYER
 38
0
 90
4
 70
1
 10
7208.01227282818
 20
-1231.99760776719
 10
8539.04431062416
 20
-1231.99760776719
 10
8539.04431062416
 20
-1371.99760776719
 10
7208.01227282818
 20
-1371.99760776719
  0
LWPOLYLINE
  5
2B9
100
AcDbEntity
  8
2
100
AcDbPolyline
370
-1
  6
BYLAYER
 38
0
 90
4
 70
1
 10
7208.01227282818
 20
-1421.93092829734
 10
8539.04431062416
 20
-1421.93092829734
 10
8539.04431062416
 20
-1561.93092829734
 10
7208.01227282818
 20
-1561.93092829734
  0
LWPOLYLINE
  5
2BA
100
AcDbEntity
  8
2
100
AcDbPolyline
370
-1
  6
BYLAYER
 38
0
 90
4
 70
1
 10
7173.01227282818
 20
-1629.62784755407
 10
7173.01227282818
 20
-1829.62784755407
 10
6773.01227282818
 20
-1829.62784755407
 10
6773.01227282818
 20
-1629.62784755407
  0
LWPOLYLINE
  5
2BB
100
AcDbEntity
  8
2
100
AcDbPolyline
370
-1
  6
BYLAYER
 38
0
 90
4
 70
1
 10
7207.15220979017
 20
-1614.41608277377
 10
8538.18424758615
 20
-1614.41608277377
 10
8538.18424758615
 20
-1754.41608277377
 10
7207.15220979017
 20
-1754.41608277377
  0
LWPOLYLINE
  5
2BC
100
AcDbEntity
  8
2
100
AcDbPolyline
370
-1
  6
BYLAYER
 38
0
 90
4
 70
1
 10
7173.01227282818
 20
-1829.62784755407
 10
7673.01227282818
 20
-1829.62784755407
 10
7673.01227282818
 20
-1779.62784755407
 10
7173.01227282818
 20
-1779.62784755407
  0
LWPOLYLINE
  5
2BD
100
AcDbEntity
  8
2
100
AcDbPolyline
370
-1
  6
BYLAYER
 38
0
 90
4
 70
1
 10
7673.01227282818
 20
-1829.62784755407
 10
8173.01227282818
 20
-1829.62784755407
 10
8173.01227282818
 20
-1779.62784755407
 10
7673.01227282818
 20
-1779.62784755407
  0
LWPOLYLINE
  5
2BE
100
AcDbEntity
  8
2
100
AcDbPolyline
370
-1
  6
BYLAYER
 38
0
 90
4
 70
1
 10
8173.01227282818
 20
-1829.62784755407
 10
8673.01227282818
 20
-1829.62784755407
 10
8673.01227282818
 20
-1779.62784755407
 10
8173.01227282818
 20
-1779.62784755407
  0
LWPOLYLINE
  5
2BF
100
AcDbEntity
  8
2
100
AcDbPolyline
370
-1
  6
BYLAYER
 38
0
 90
4
 70
1
 10
8538.18424758615
 20
-1754.41608277377
 10
8573.18424758615
 20
-1754.41608277377
 10
8573.18424758615
 20
-851.919201926583
 10
8538.18424758615
 20
-851.919201926583
  0
LWPOLYLINE
  5
2C0
100
AcDbEntity
  8
2
100
AcDbPolyline
370
-1
  6
BYLAYER
 38
0
 90
4
 70
1
 10
17341.6779326972
 20
-846.066171849412
 10
17316.6779326972
 20
-846.066171849412
 10
17316.6779326972
 20
-871.066171849413
 10
17341.6779326972
 20
-871.066171849413
  0
LINE
  5
2C1
100
AcDbEntity
  8
2
100
AcDbLine
370
-1
  6
BYLAYER
 10
15741.8291588552
 20
-2388.1735854977
 30
0
 11
17593.2577075802
 21
-2388.1735854977
 31
0
  0
LWPOLYLINE
  5
2C2
100
AcDbEntity
  8
2
100
AcDbPolyline
370
-1
  6
BYLAYER
 38
0
 90
4
 70
1
 10
17341.6779326972
 20
-871.066171849413
 10
22292.6779326972
 20
-871.066171849413
 10
22292.6779326972
 20
-2388.1735854977
 10
17341.6779326972
 20
-2388.1735854977
  0
DIMENSION
  5
2C4
100
AcDbEntity
  8
2
100
AcDbDimension
370
-1
  3
STAV
  2
*sgDim7
 10
22212.6779326972
 20
-236.009713453133
 30
0
 11
0
 21
0
 31
0
 70
1
 12
0
 22
0
 32
0
100
AcDbAlignedDimension
 13
17421.6779326972
 23
-951.066171849413
 33
0
 14
22212.6779326972
 24
-951.066171849413
 34
0
1001
ACAD
1000
DSTYLE
1002
{
1070
41
1040
100
1070
42
1040
20
1070
44
1040
25
1070
74
1070
0
1070
77
1070
1
1070
140
1040
250
1070
144
1040
1
1070
147
1040
10
1070
173
1070
1
1070
174
1070
0
1070
178
1070
124
1070
271
1070
0
1070
340
1005
196
1070
341
1005
10
1070
342
1005
199
1070
343
1005
199
1070
344
1005
199
1002
}
  0
LWPOLYLINE
  5
2DD
100
AcDbEntity
  8
2
100
AcDbPolyline
370
-1
  6
BYLAYER
 38
0
 90
4
 70
1
 10
18944.1291304062
 20
-2307.69460133677
 10
18979.1291304062
 20
-2307.69460133677
 10
18978.6779326972
 20
-951.066171849413
 10
18943.6779326972
 20
-951.066171849413
  0
LWPOLYLINE
  5
2DE
100
AcDbEntity
  8
2
100
AcDbPolyline
370
-1
  6
BYLAYER
 38
0
 90
4
 70
0
 10
18943.6779326972
 20
-999.566171849403
 10
17456.6792793102
 20
-999.566171849403
 10
17456.6792793102
 20
-1139.5661718494
 10
18943.6779326972
 20
-1139.5661718494
  0
LWPOLYLINE
  5
2DF
100
AcDbEntity
  8
2
100
AcDbPolyline
370
-1
  6
BYLAYER
 38
0
 90
4
 70
0
 10
18943.6792793102
 20
-1188.06617184938
 10
17456.6806259232
 20
-1188.06617184938
 10
17456.6806259232
 20
-1328.06617184938
 10
18943.6792793102
 20
-1328.06617184938
  0
LWPOLYLINE
  5
2E0
100
AcDbEntity
  8
2
100
AcDbPolyline
370
-1
  6
BYLAYER
 38
0
 90
4
 70
0
 10
18943.6806259232
 20
-1376.56617184937
 10
17456.6819725352
 20
-1376.56617184937
 10
17456.6819725352
 20
-1516.56617184937
 10
18943.6806259232
 20
-1516.56617184937
  0
LWPOLYLINE
  5
2E1
100
AcDbEntity
  8
2
100
AcDbPolyline
370
-1
  6
BYLAYER
 38
0
 90
4
 70
0
 10
18943.6819725352
 20
-1565.06617184935
 10
17456.6833191482
 20
-1565.06617184935
 10
17456.6833191482
 20
-1705.06617184935
 10
18943.6819725352
 20
-1705.06617184935
  0
LWPOLYLINE
  5
2E2
100
AcDbEntity
  8
2
100
AcDbPolyline
370
-1
  6
BYLAYER
 38
0
 90
4
 70
0
 10
18943.6833191482
 20
-1753.56617184934
 10
17456.6846657612
 20
-1753.56617184934
 10
17456.6846657612
 20
-1893.56617184934
 10
18943.6833191482
 20
-1893.56617184934
  0
LWPOLYLINE
  5
2E3
100
AcDbEntity
  8
2
100
AcDbPolyline
370
-1
  6
BYLAYER
 38
0
 90
4
 70
0
 10
18943.6846657612
 20
-1942.06617184932
 10
17456.6860123742
 20
-1942.06617184932
 10
17456.6860123742
 20
-2082.06617184932
 10
18943.6846657612
 20
-2082.06617184932
  0
LWPOLYLINE
  5
2E4
100
AcDbEntity
  8
2
100
AcDbPolyline
370
-1
  6
BYLAYER
 38
0
 90
4
 70
0
 10
18943.6860123742
 20
-2130.56617184931
 10
17456.6873589862
 20
-2130.56617184931
 10
17456.6873589862
 20
-2270.56617184931
 10
18943.6860123742
 20
-2270.56617184931
  0
LWPOLYLINE
  5
2E5
100
AcDbEntity
  8
2
100
AcDbPolyline
370
-1
  6
BYLAYER
 38
0
 90
4
 70
0
 10
22177.6779326972
 20
-999.566171849393
 10
20690.6792793102
 20
-999.566171849393
 10
20690.6792793102
 20
-1139.56617184939
 10
22177.6779326972
 20
-1139.56617184939
  0
LWPOLYLINE
  5
2E6
100
AcDbEntity
  8
2
100
AcDbPolyline
370
-1
  6
BYLAYER
 38
0
 90
4
 70
0
 10
22177.6792793102
 20
-1188.06617184938
 10
20690.6806259232
 20
-1188.06617184938
 10
20690.6806259232
 20
-1328.06617184938
 10
22177.6792793102
 20
-1328.06617184938
  0
LWPOLYLINE
  5
2E7
100
AcDbEntity
  8
2
100
AcDbPolyline
370
-1
  6
BYLAYER
 38
0
 90
4
 70
0
 10
22177.6806259232
 20
-1376.56617184937
 10
20690.6819725352
 20
-1376.56617184937
 10
20690.6819725352
 20
-1516.56617184937
 10
22177.6806259232
 20
-1516.56617184937
  0
LWPOLYLINE
  5
2E8
100
AcDbEntity
  8
2
100
AcDbPolyline
370
-1
  6
BYLAYER
 38
0
 90
4
 70
0
 10
22177.6819725352
 20
-1565.06617184935
 10
20690.6833191482
 20
-1565.06617184935
 10
20690.6833191482
 20
-1705.06617184935
 10
22177.6819725352
 20
-1705.06617184935
  0
LWPOLYLINE
  5
2E9
100
AcDbEntity
  8
2
100
AcDbPolyline
370
-1
  6
BYLAYER
 38
0
 90
4
 70
0
 10
22177.6833191482
 20
-1753.56617184934
 10
20690.6846657612
 20
-1753.56617184934
 10
20690.6846657612
 20
-1893.56617184934
 10
22177.6833191482
 20
-1893.56617184934
  0
LWPOLYLINE
  5
2EA
100
AcDbEntity
  8
2
100
AcDbPolyline
370
-1
  6
BYLAYER
 38
0
 90
4
 70
0
 10
22177.6846657612
 20
-1942.06617184932
 10
20690.6860123742
 20
-1942.06617184932
 10
20690.6860123742
 20
-2082.06617184932
 10
22177.6846657612
 20
-2082.06617184932
  0
LWPOLYLINE
  5
2EB
100
AcDbEntity
  8
2
100
AcDbPolyline
370
-1
  6
BYLAYER
 38
0
 90
4
 70
0
 10
22177.6860123742
 20
-2130.56617184931
 10
20690.6873589862
 20
-2130.56617184931
 10
20690.6873589862
 20
-2270.56617184931
 10
22177.6860123742
 20
-2270.56617184931
  0
LWPOLYLINE
  5
2EC
100
AcDbEntity
  8
2
100
AcDbPolyline
370
-1
  6
BYLAYER
 38
0
 90
2
 70
0
 10
20580.6779326972
 20
-999.566171849403
 10
20575.6779326972
 20
-999.566171849403
  0
LWPOLYLINE
  5
2ED
100
AcDbEntity
  8
2
100
AcDbPolyline
370
-1
  6
BYLAYER
 38
0
 90
4
 70
0
 10
20540.6779326972
 20
-999.566171849403
 10
19093.6792793102
 20
-999.566171849403
 10
19093.6792793102
 20
-1139.5661718494
 10
20540.6779326972
 20
-1139.5661718494
  0
LWPOLYLINE
  5
2EE
100
AcDbEntity
  8
2
100
AcDbPolyline
370
-1
  6
BYLAYER
 38
0
 90
2
 70
0
 10
20575.6779326972
 20
-1139.5661718494
 10
20580.6779326972
 20
-1139.5661718494
  0
LWPOLYLINE
  5
2EF
100
AcDbEntity
  8
2
100
AcDbPolyline
370
-1
  6
BYLAYER
 38
0
 90
2
 70
0
 10
20580.6792793102
 20
-1188.06617184938
 10
20575.6779326972
 20
-1188.06617184938
  0
LWPOLYLINE
  5
2F0
100
AcDbEntity
  8
2
100
AcDbPolyline
370
-1
  6
BYLAYER
 38
0
 90
4
 70
0
 10
20540.6779326972
 20
-1188.06617184938
 10
19093.6806259232
 20
-1188.06617184938
 10
19093.6806259232
 20
-1328.06617184938
 10
20540.6779326972
 20
-1328.06617184938
  0
LWPOLYLINE
  5
2F1
100
AcDbEntity
  8
2
100
AcDbPolyline
370
-1
  6
BYLAYER
 38
0
 90
2
 70
0
 10
20575.6779326972
 20
-1328.06617184938
 10
20580.6792793102
 20
-1328.06617184938
  0
LWPOLYLINE
  5
2F2
100
AcDbEntity
  8
2
100
AcDbPolyline
370
-1
  6
BYLAYER
 38
0
 90
2
 70
0
 10
20580.6806259232
 20
-1376.56617184937
 10
20575.6779326972
 20
-1376.56617184937
  0
LWPOLYLINE
  5
2F3
100
AcDbEntity
  8
2
100
AcDbPolyline
370
-1
  6
BYLAYER
 38
0
 90
4
 70
0
 10
20540.6779326972
 20
-1376.56617184937
 10
19093.6819725352
 20
-1376.56617184937
 10
19093.6819725352
 20
-1516.56617184937
 10
20540.6779326972
 20
-1516.56617184937
  0
LWPOLYLINE
  5
2F4
100
AcDbEntity
  8
2
100
AcDbPolyline
370
-1
  6
BYLAYER
 38
0
 90
2
 70
0
 10
20575.6779326972
 20
-1516.56617184937
 10
20580.6806259232
 20
-1516.56617184937
  0
LWPOLYLINE
  5
2F5
100
AcDbEntity
  8
2
100
AcDbPolyline
370
-1
  6
BYLAYER
 38
0
 90
2
 70
0
 10
20580.6819725352
 20
-1565.06617184935
 10
20575.6779326972
 20
-1565.06617184935
  0
LWPOLYLINE
  5
2F6
100
AcDbEntity
  8
2
100
AcDbPolyline
370
-1
  6
BYLAYER
 38
0
 90
4
 70
0
 10
20540.6779326972
 20
-1565.06617184935
 10
19093.6833191482
 20
-1565.06617184935
 10
19093.6833191482
 20
-1705.06617184935
 10
20540.6779326972
 20
-1705.06617184935
  0
LWPOLYLINE
  5
2F7
100
AcDbEntity
  8
2
100
AcDbPolyline
370
-1
  6
BYLAYER
 38
0
 90
2
 70
0
 10
20575.6779326972
 20
-1705.06617184935
 10
20580.6819725352
 20
-1705.06617184935
  0
LWPOLYLINE
  5
2F8
100
AcDbEntity
  8
2
100
AcDbPolyline
370
-1
  6
BYLAYER
 38
0
 90
2
 70
0
 10
20580.6833191482
 20
-1753.56617184934
 10
20575.6779326972
 20
-1753.56617184934
  0
LWPOLYLINE
  5
2F9
100
AcDbEntity
  8
2
100
AcDbPolyline
370
-1
  6
BYLAYER
 38
0
 90
2
 70
0
 10
20580.6846657612
 20
-1942.06617184932
 10
20575.6779326972
 20
-1942.06617184932
  0
LWPOLYLINE
  5
2FA
100
AcDbEntity
  8
2
100
AcDbPolyline
370
-1
  6
BYLAYER
 38
0
 90
4
 70
0
 10
20540.6779326972
 20
-1942.06617184932
 10
19093.6860123742
 20
-1942.06617184932
 10
19093.6860123742
 20
-2082.06617184932
 10
20540.6779326972
 20
-2082.06617184932
  0
LWPOLYLINE
  5
2FB
100
AcDbEntity
  8
2
100
AcDbPolyline
370
-1
  6
BYLAYER
 38
0
 90
2
 70
0
 10
20575.6779326972
 20
-2082.06617184932
 10
20580.6846657612
 20
-2082.06617184932
  0
LWPOLYLINE
  5
2FC
100
AcDbEntity
  8
2
100
AcDbPolyline
370
-1
  6
BYLAYER
 38
0
 90
2
 70
0
 10
20580.6860123742
 20
-2130.56617184931
 10
20575.6779326972
 20
-2130.56617184931
  0
LWPOLYLINE
  5
2FD
100
AcDbEntity
  8
2
100
AcDbPolyline
370
-1
  6
BYLAYER
 38
0
 90
4
 70
0
 10
20540.6779326972
 20
-2130.56617184931
 10
19093.6873589862
 20
-2130.56617184931
 10
19093.6873589862
 20
-2270.56617184931
 10
20540.6779326972
 20
-2270.56617184931
  0
LWPOLYLINE
  5
2FE
100
AcDbEntity
  8
2
100
AcDbPolyline
370
-1
  6
BYLAYER
 38
0
 90
2
 70
0
 10
20575.6779326972
 20
-2270.56617184931
 10
20580.6860123742
 20
-2270.56617184931
  0
LWPOLYLINE
  5
2FF
100
AcDbEntity
  8
2
100
AcDbPolyline
370
-1
  6
BYLAYER
 38
0
 90
4
 70
0
 10
20540.6779326972
 20
-1753.56617184934
 10
19093.6846657612
 20
-1753.56617184934
 10
19093.6846657612
 20
-1893.56617184934
 10
20540.6779326972
 20
-1893.56617184934
  0
LWPOLYLINE
  5
300
100
AcDbEntity
  8
2
100
AcDbPolyline
370
-1
  6
BYLAYER
 38
0
 90
2
 70
0
 10
20575.6779326972
 20
-1893.56617184934
 10
20580.6833191482
 20
-1893.56617184934
  0
LWPOLYLINE
  5
301
100
AcDbEntity
  8
2
100
AcDbPolyline
370
-1
  6
BYLAYER
 38
0
 90
4
 70
0
 10
20690.6779326972
 20
-2308.1735854977
 10
20690.6779326972
 20
-951.066171849413
 10
20655.6779326972
 20
-951.066171849413
 10
20655.6779326972
 20
-2308.1735854977
  0
LWPOLYLINE
  5
302
100
AcDbEntity
  8
2
100
AcDbPolyline
370
-1
  6
BYLAYER
 38
0
 90
4
 70
0
 10
20575.6779326972
 20
-2308.1735854977
 10
20575.6779326972
 20
-951.066171849413
 10
20540.6779326972
 20
-951.066171849413
 10
20540.6779326972
 20
-2308.1735854977
  0
LWPOLYLINE
  5
303
100
AcDbEntity
  8
2
100
AcDbPolyline
370
-1
  6
BYLAYER
 38
0
 90
4
 70
0
 10
19093.6779326972
 20
-2308.1735854977
 10
19093.6779326972
 20
-951.066171849413
 10
19058.6779326972
 20
-951.066171849413
 10
19058.6779326972
 20
-2308.1735854977
  0
LWPOLYLINE
  5
304
100
AcDbEntity
  8
2
100
AcDbPolyline
370
-1
  6
BYLAYER
 38
0
 90
4
 70
0
 10
22212.6779326972
 20
-2308.1735854977
 10
22212.6779326972
 20
-951.066171849413
 10
22177.6779326972
 20
-951.066171849413
 10
22177.6779326972
 20
-2308.1735854977
  0
LWPOLYLINE
  5
305
100
AcDbEntity
  8
2
100
AcDbPolyline
370
-1
  6
BYLAYER
 38
0
 90
4
 70
0
 10
17456.6779326972
 20
-2308.1735854977
 10
17456.6779326972
 20
-951.066171849413
 10
17421.6779326972
 20
-951.066171849413
 10
17421.6779326972
 20
-2308.1735854977
  0
LWPOLYLINE
  5
306
100
AcDbEntity
  8
2
100
AcDbPolyline
370
-1
  6
BYLAYER
 38
0
 90
2
 70
0
 10
20575.6779326972
 20
-2308.1735854977
 10
19058.6779326972
 20
-2308.1735854977
  0
LWPOLYLINE
  5
307
100
AcDbEntity
  8
2
100
AcDbPolyline
370
-1
  6
BYLAYER
 38
0
 90
2
 70
0
 10
18978.6779326972
 20
-2308.1735854977
 10
18980.2459961032
 20
-951.066171849413
  0
LWPOLYLINE
  5
308
100
AcDbEntity
  8
2
100
AcDbPolyline
370
-1
  6
BYLAYER
 38
0
 90
2
 70
0
 10
19060.2459961032
 20
-951.066171849413
 10
19058.6779326972
 20
-2308.1735854977
  0
LWPOLYLINE
  5
309
100
AcDbEntity
  8
2
100
AcDbPolyline
370
-1
  6
BYLAYER
 38
0
 90
2
 70
0
 10
20575.6779326972
 20
-2308.1735854977
 10
20577.4549010922
 20
-951.066171849413
  0
LWPOLYLINE
  5
30A
100
AcDbEntity
  8
2
100
AcDbPolyline
370
-1
  6
BYLAYER
 38
0
 90
2
 70
0
 10
20657.4549010922
 20
-951.066171849413
 10
20655.6779326972
 20
-2308.1735854977
  0
LWPOLYLINE
  5
30B
100
AcDbEntity
  8
2
100
AcDbPolyline
370
-1
  6
BYLAYER
 38
0
 90
4
 70
0
 10
18978.6779326972
 20
-2308.1735854977
 10
17421.6779326972
 20
-2308.1735854977
 10
17421.6779326972
 20
-951.066171849413
 10
18980.2459961032
 20
-951.066171849413
  0
LWPOLYLINE
  5
30C
100
AcDbEntity
  8
2
100
AcDbPolyline
370
-1
  6
BYLAYER
 38
0
 90
2
 70
0
 10
19060.2459961032
 20
-951.066171849413
 10
20577.4549010922
 20
-951.066171849413
  0
LWPOLYLINE
  5
30D
100
AcDbEntity
  8
2
100
AcDbPolyline
370
-1
  6
BYLAYER
 38
0
 90
4
 70
0
 10
20655.6779326972
 20
-951.066171849413
 10
22212.6779326972
 20
-951.066171849413
 10
22212.6779326972
 20
-2308.1735854977
 10
20655.6779326972
 20
-2308.1735854977
  0
DIMENSION
  5
30F
100
AcDbEntity
  8
2
100
AcDbDimension
370
-1
  3
STAV
  2
*sgDim8
 10
18978.6779326972
 20
-602.701599963393
 30
0
 11
0
 21
0
 31
0
 70
1
 12
0
 22
0
 32
0
100
AcDbAlignedDimension
 13
17421.6779326972
 23
-951.066171849413
 33
0
 14
18978.6779326972
 24
-951.066171849413
 34
0
1001
ACAD
1000
DSTYLE
1002
{
1070
41
1040
100
1070
42
1040
20
1070
44
1040
25
1070
74
1070
0
1070
77
1070
1
1070
140
1040
250
1070
144
1040
1
1070
147
1040
10
1070
173
1070
1
1070
174
1070
0
1070
178
1070
124
1070
271
1070
0
1070
340
1005
196
1070
341
1005
10
1070
342
1005
199
1070
343
1005
199
1070
344
1005
199
1002
}
  0
DIMENSION
  5
F2A
100
AcDbEntity
  8
0
100
AcDbDimension
370
-1
  3
GENISO
  2
*sgDim19
 10
7066.4528642586
 20
-1754.28196739899
 30
0
 11
0
 21
0
 31
0
 70
1
 12
0
 22
0
 32
0
100
AcDbAlignedDimension
 13
7208.01227282818
 23
-852.130966706883
 33
0
 14
7207.15220979017
 24
-1754.41608277377
 34
0
1001
ACAD
1000
DSTYLE
1002
{
1070
41
1040
2.5
1070
42
1040
0.868
1070
44
1040
2.5
1070
73
1070
0
1070
74
1070
0
1070
77
1070
0
1070
140
1040
2.5
1070
144
1040
1
1070
147
1040
0.1
1070
173
1070
1
1070
174
1070
0
1070
178
1070
0
1070
271
1070
2
1070
342
1005
10
1070
343
1005
10
1070
344
1005
10
1002
}
  0
DIMENSION
  5
1186
100
AcDbEntity
  8
0
100
AcDbDimension
370
-1
  3
STAV
  2
*sgDim27
 10
8573.13284705889
 20
-512.062981934086
 30
0
 11
0
 21
0
 31
0
 70
1
 12
0
 22
0
 32
0
100
AcDbAlignedDimension
 13
7173.01227282818
 23
-852.130966706883
 33
0
 14
8573.18424758615
 24
-851.919201926583
 34
0
1001
ACAD
1000
DSTYLE
1002
{
1070
41
1040
100
1070
42
1040
20
1070
44
1040
25
1070
73
1070
0
1070
74
1070
0
1070
77
1070
1
1070
140
1040
250
1070
144
1040
1
1070
147
1040
10
1070
173
1070
1
1070
174
1070
0
1070
178
1070
124
1070
271
1070
0
1070
343
1005
199
1070
344
1005
199
1002
}
  0
DIMENSION
  5
11AD
100
AcDbEntity
  8
0
100
AcDbDimension
370
-1
  3
STAV
  2
*sgDim29
 10
8852.77855752461
 20
-1757.36938267289
 30
0
 11
0
 21
0
 31
0
 70
1
 12
0
 22
0
 32
0
100
AcDbAlignedDimension
 13
8973.21144856117
 23
-854.872501825703
 33
0
 14
8973.21144856117
 24
-1757.36938267289
 34
0
1001
ACAD
1000
DSTYLE
1002
{
1070
41
1040
100
1070
42
1040
20
1070
44
1040
25
1070
73
1070
0
1070
74
1070
0
1070
77
1070
1
1070
140
1040
250
1070
144
1040
1
1070
147
1040
10
1070
173
1070
1
1070
174
1070
0
1070
178
1070
124
1070
271
1070
0
1070
343
1005
199
1070
344
1005
199
1002
}
  0
DIMENSION
  5
11D6
100
AcDbEntity
  8
0
100
AcDbDimension
370
-1
  3
STAV
  2
*sgDim31
 10
10049.644799003
 20
-856.431868154618
 30
0
 11
0
 21
0
 31
0
 70
1
 12
0
 22
0
 32
0
100
AcDbAlignedDimension
 13
10339.2434863582
 23
-994.872501825703
 33
0
 14
10338.3834233202
 24
-854.660737045402
 34
0
1001
ACAD
1000
DSTYLE
1002
{
1070
41
1040
100
1070
42
1040
20
1070
44
1040
25
1070
73
1070
0
1070
74
1070
0
1070
77
1070
1
1070
140
1040
250
1070
144
1040
1
1070
147
1040
10
1070
173
1070
1
1070
174
1070
0
1070
178
1070
124
1070
271
1070
0
1070
343
1005
199
1070
344
1005
199
1002
}
  0
DIMENSION
  5
1201
100
AcDbEntity
  8
0
100
AcDbDimension
370
-1
  1
1080
  3
STAV
  2
*sgDim33
 10
15741.8291588552
 20
-528.919804113475
 30
0
 11
0
 21
0
 31
0
 70
1
 12
0
 22
0
 32
0
100
AcDbAlignedDimension
 13
14373.6281692742
 23
-860.143807283053
 33
0
 14
15741.8291588552
 24
-860.143807283053
 34
0
1001
ACAD
1000
DSTYLE
1002
{
1070
41
1040
100
1070
42
1040
20
1070
44
1040
25
1070
73
1070
0
1070
74
1070
0
1070
77
1070
1
1070
140
1040
250
1070
144
1040
1
1070
147
1040
10
1070
173
1070
1
1070
174
1070
0
1070
178
1070
124
1070
271
1070
0
1070
343
1005
199
1070
344
1005
199
1002
}
  0
DIMENSION
  5
1257
100
AcDbEntity
  8
0
100
AcDbDimension
370
-1
  3
STAV
  2
*sgDim36
 10
14173.8089757612
 20
-2388.1735854977
 30
0
 11
0
 21
0
 31
0
 70
1
 12
0
 22
0
 32
0
100
AcDbAlignedDimension
 13
14373.6281692742
 23
-860.143807283053
 33
0
 14
14373.6281692742
 24
-2388.1735854977
 34
0
1001
ACAD
1000
DSTYLE
1002
{
1070
41
1040
100
1070
42
1040
20
1070
44
1040
25
1070
73
1070
0
1070
74
1070
0
1070
77
1070
1
1070
140
1040
250
1070
144
1040
1
1070
147
1040
10
1070
173
1070
1
1070
174
1070
0
1070
178
1070
124
1070
271
1070
0
1070
343
1005
199
1070
344
1005
199
1002
}
  0
DIMENSION
  5
127E
100
AcDbEntity
  8
0
100
AcDbDimension
370
-1
  3
STAV
  2
*sgDim38
 10
19817.1779326972
 20
-2388.1735854977
 30
0
 11
0
 21
0
 31
0
 70
1
 12
0
 22
0
 32
0
100
AcDbAlignedDimension
 13
19502.1499860824
 23
-871.066171849413
 33
0
 14
19502.1499860824
 24
-2388.1735854977
 34
0
1001
ACAD
1000
DSTYLE
1002
{
1070
41
1040
100
1070
42
1040
20
1070
44
1040
25
1070
73
1070
0
1070
74
1070
0
1070
77
1070
1
1070
140
1040
250
1070
144
1040
1
1070
147
1040
10
1070
173
1070
1
1070
174
1070
0
1070
178
1070
124
1070
271
1070
0
1070
343
1005
199
1070
344
1005
199
1002
}
  0
DIMENSION
  5
12A7
100
AcDbEntity
  8
0
100
AcDbDimension
370
-1
  3
STAV
  2
*sgDim40
 10
13155.2869050675
 20
-1050.28889259349
 30
0
 11
0
 21
0
 31
0
 70
1
 12
0
 22
0
 32
0
100
AcDbAlignedDimension
 13
13197.2438915248
 23
-1000.35557206334
 33
0
 14
13197.2438915248
 24
-1050.28889259349
 34
0
1001
ACAD
1000
DSTYLE
1002
{
1070
41
1040
100
1070
42
1040
20
1070
44
1040
25
1070
73
1070
0
1070
74
1070
0
1070
77
1070
1
1070
140
1040
250
1070
144
1040
1
1070
147
1040
10
1070
173
1070
1
1070
174
1070
0
1070
178
1070
124
1070
271
1070
0
1070
343
1005
199
1070
344
1005
199
1002
}
  0
DIMENSION
  5
1301
100
AcDbEntity
  8
0
100
AcDbDimension
370
-1
  3
STAV
  2
*sgDim44
 10
21830.5584412301
 20
-871.066171849413
 30
0
 11
0
 21
0
 31
0
 70
1
 12
0
 22
0
 32
0
100
AcDbAlignedDimension
 13
21830.5584412301
 23
-951.066171849413
 33
0
 14
21830.5584412301
 24
-871.066171849413
 34
0
1001
ACAD
1000
DSTYLE
1002
{
1070
41
1040
100
1070
42
1040
20
1070
44
1040
25
1070
73
1070
0
1070
74
1070
0
1070
77
1070
1
1070
140
1040
250
1070
144
1040
1
1070
147
1040
10
1070
173
1070
1
1070
174
1070
0
1070
178
1070
124
1070
271
1070
0
1070
343
1005
199
1070
344
1005
199
1002
}
  0
ENDSEC
  0
SECTION
  2
OBJECTS
  0
DICTIONARY
  5
1346
100
AcDbDictionary
  3
ACAD_GROUP
350
1347
  3
ACAD_MATERIAL
350
1348
  3
ACAD_WIPEOUT_VARS
350
1349
  3
ACAD_MLINESTYLE
350
134A
  3
ACAD_LAYOUT
350
134B
  0
DICTIONARY
  5
1347
100
AcDbDictionary
  0
DICTIONARY
  5
1348
100
AcDbDictionary
  0
WIPEOUTVARIABLES
  5
1349
100
AcDbWipeoutVariables
 70
1
  0
DICTIONARY
  5
134A
100
AcDbDictionary
  3
STANDARD
350
134C
  0
MLINESTYLE
  5
134C
100
AcDbMlineStyle
  2
STANDARD
 70
0
  3

 62
256
 51
90
 52
90
 71
2
 49
0.5
 62
256
  6
ByLayer
 49
-0.5
 62
256
  6
ByLayer
  0
DICTIONARY
  5
134B
100
AcDbDictionary
  3
Model
350
13
  0
LAYOUT
  5
13
100
AcDbPlotSettings
  1

  2
none_device
  4
ISO_A4_(297.00_x_210.00_MM)
  6

 40
7.5
 41
20
 42
7.5
 43
20
 44
297
 45
210
 46
0
 47
0
 48
0
 49
0
 70
1712
 72
1
 73
0
 74
1
 75
0
 76
0
 77
0
 78
100
140
0
141
0
142
1
143
1.23529411764706
147
1
148
148.5
149
105
100
AcDbLayout
  1
Model
 70
1
 71
1
 10
-17.0785818356975
 20
-10115.6795482414
 11
23748.2222716792
 21
-1.0097134531328
 12
0
 22
0
 32
0
 14
-17.0785818356975
 24
-10115.6795482414
 34
0
 15
23748.2222716792
 25
-1.0097134531328
 35
0
146
0
 13
0
 23
0
 33
0
 16
1
 26
0
 36
0
 17
0
 27
1
 37
0
 76
0
330
22
  0
ENDSEC
  0
EOF
