  0
SECTION
  2
HEADER
  9
$ACADVER
  1
AC1032
  9
$ACADMAINTVER
 90
        4
  9
$DWGCODEPAGE
  3
ANSI_1250
  9
$REQUIREDVERSIONS
160
                 0
  9
$INSBASE
 10
0.0
 20
0.0
 30
0.0
  9
$EXTMIN
 10
1.000000000000000E+20
 20
1.000000000000000E+20
 30
1.000000000000000E+20
  9
$EXTMAX
 10
-1.000000000000000E+20
 20
-1.000000000000000E+20
 30
-1.000000000000000E+20
  9
$LIMMIN
 10
0.0
 20
0.0
  9
$LIMMAX
 10
420.0
 20
297.0
  9
$ORTHOMODE
 70
     0
  9
$REGENMODE
 70
     1
  9
$FILLMODE
 70
     1
  9
$QTEXTMODE
 70
     0
  9
$MIRRTEXT
 70
     1
  9
$LTSCALE
 40
1.0
  9
$ATTMODE
 70
     1
  9
$TEXTSIZE
 40
2.5
  9
$TRACEWID
 40
1.0
  9
$TEXTSTYLE
  7
Standard
  9
$CLAYER
  8
0
  9
$CELTYPE
  6
ByLayer
  9
$CECOLOR
 62
   256
  9
$CELTSCALE
 40
1.0
  9
$DISPSILH
 70
     0
  9
$DIMSCALE
 40
1.0
  9
$DIMASZ
 40
3.0
  9
$DIMEXO
 40
0.625
  9
$DIMDLI
 40
3.75
  9
$DIMRND
 40
0.0
  9
$DIMDLE
 40
0.0
  9
$DIMEXE
 40
1.25
  9
$DIMTP
 40
0.0
  9
$DIMTM
 40
0.0
  9
$DIMTXT
 40
1.336918010447422
  9
$DIMCEN
 40
2.5
  9
$DIMTSZ
 40
0.0
  9
$DIMTOL
 70
     0
  9
$DIMLIM
 70
     0
  9
$DIMTIH
 70
     0
  9
$DIMTOH
 70
     0
  9
$DIMSE1
 70
     0
  9
$DIMSE2
 70
     0
  9
$DIMTAD
 70
     1
  9
$DIMZIN
 70
     8
  9
$DIMBLK
  1

  9
$DIMASO
 70
     1
  9
$DIMSHO
 70
     1
  9
$DIMPOST
  1

  9
$DIMAPOST
  1

  9
$DIMALT
 70
     0
  9
$DIMALTD
 70
     3
  9
$DIMALTF
 40
0.03937007874016
  9
$DIMLFAC
 40
1.0
  9
$DIMTOFL
 70
     1
  9
$DIMTVP
 40
0.0
  9
$DIMTIX
 70
     0
  9
$DIMSOXD
 70
     0
  9
$DIMSAH
 70
     0
  9
$DIMBLK1
  1

  9
$DIMBLK2
  1

  9
$DIMSTYLE
  2
ISO-25
  9
$DIMCLRD
 70
     0
  9
$DIMCLRE
 70
     0
  9
$DIMCLRT
 70
     0
  9
$DIMTFAC
 40
1.0
  9
$DIMGAP
 40
0.625
  9
$DIMJUST
 70
     0
  9
$DIMSD1
 70
     0
  9
$DIMSD2
 70
     0
  9
$DIMTOLJ
 70
     0
  9
$DIMTZIN
 70
     8
  9
$DIMALTZ
 70
     0
  9
$DIMALTTZ
 70
     0
  9
$DIMUPT
 70
     0
  9
$DIMDEC
 70
     2
  9
$DIMTDEC
 70
     2
  9
$DIMALTU
 70
     2
  9
$DIMALTTD
 70
     3
  9
$DIMTXSTY
  7
Standard
  9
$DIMAUNIT
 70
     0
  9
$DIMADEC
 70
     0
  9
$DIMALTRND
 40
0.0
  9
$DIMAZIN
 70
     0
  9
$DIMDSEP
 70
    44
  9
$DIMATFIT
 70
     3
  9
$DIMFRAC
 70
     0
  9
$DIMLDRBLK
  1

  9
$DIMLUNIT
 70
     2
  9
$DIMLWD
 70
    -2
  9
$DIMLWE
 70
    -2
  9
$DIMTMOVE
 70
     0
  9
$DIMFXL
 40
1.0
  9
$DIMFXLON
 70
     0
  9
$DIMJOGANG
 40
0.7853981633974483
  9
$DIMTFILL
 70
     0
  9
$DIMTFILLCLR
 70
     0
  9
$DIMARCSYM
 70
     0
  9
$DIMLTYPE
  6

  9
$DIMLTEX1
  6

  9
$DIMLTEX2
  6

  9
$DIMTXTDIRECTION
 70
     0
  9
$LUNITS
 70
     2
  9
$LUPREC
 70
     4
  9
$SKETCHINC
 40
1.0
  9
$FILLETRAD
 40
10.0
  9
$AUNITS
 70
     0
  9
$AUPREC
 70
     0
  9
$MENU
  1
.
  9
$ELEVATION
 40
0.0
  9
$PELEVATION
 40
0.0
  9
$THICKNESS
 40
0.0
  9
$LIMCHECK
 70
     0
  9
$CHAMFERA
 40
0.0
  9
$CHAMFERB
 40
0.0
  9
$CHAMFERC
 40
0.0
  9
$CHAMFERD
 40
0.0
  9
$SKPOLY
 70
     0
  9
$TDCREATE
 40
2459331.427390174
  9
$TDUCREATE
 40
2459331.34405684
  9
$TDUPDATE
 40
2459331.427392824
  9
$TDUUPDATE
 40
2459331.344059491
  9
$TDINDWG
 40
0.0000000116
  9
$TDUSRTIMER
 40
0.0000000116
  9
$USRTIMER
 70
     1
  9
$ANGBASE
 50
0.0
  9
$ANGDIR
 70
     0
  9
$PDMODE
 70
     0
  9
$PDSIZE
 40
0.0
  9
$PLINEWID
 40
0.0
  9
$SPLFRAME
 70
     0
  9
$SPLINETYPE
 70
     6
  9
$SPLINESEGS
 70
     8
  9
$HANDSEED
  5
289
  9
$SURFTAB1
 70
     6
  9
$SURFTAB2
 70
     6
  9
$SURFTYPE
 70
     6
  9
$SURFU
 70
     6
  9
$SURFV
 70
     6
  9
$UCSBASE
  2

  9
$UCSNAME
  2

  9
$UCSORG
 10
0.0
 20
0.0
 30
0.0
  9
$UCSXDIR
 10
1.0
 20
0.0
 30
0.0
  9
$UCSYDIR
 10
0.0
 20
1.0
 30
0.0
  9
$UCSORTHOREF
  2

  9
$UCSORTHOVIEW
 70
     0
  9
$UCSORGTOP
 10
0.0
 20
0.0
 30
0.0
  9
$UCSORGBOTTOM
 10
0.0
 20
0.0
 30
0.0
  9
$UCSORGLEFT
 10
0.0
 20
0.0
 30
0.0
  9
$UCSORGRIGHT
 10
0.0
 20
0.0
 30
0.0
  9
$UCSORGFRONT
 10
0.0
 20
0.0
 30
0.0
  9
$UCSORGBACK
 10
0.0
 20
0.0
 30
0.0
  9
$PUCSBASE
  2

  9
$PUCSNAME
  2

  9
$PUCSORG
 10
0.0
 20
0.0
 30
0.0
  9
$PUCSXDIR
 10
1.0
 20
0.0
 30
0.0
  9
$PUCSYDIR
 10
0.0
 20
1.0
 30
0.0
  9
$PUCSORTHOREF
  2

  9
$PUCSORTHOVIEW
 70
     0
  9
$PUCSORGTOP
 10
0.0
 20
0.0
 30
0.0
  9
$PUCSORGBOTTOM
 10
0.0
 20
0.0
 30
0.0
  9
$PUCSORGLEFT
 10
0.0
 20
0.0
 30
0.0
  9
$PUCSORGRIGHT
 10
0.0
 20
0.0
 30
0.0
  9
$PUCSORGFRONT
 10
0.0
 20
0.0
 30
0.0
  9
$PUCSORGBACK
 10
0.0
 20
0.0
 30
0.0
  9
$USERI1
 70
     0
  9
$USERI2
 70
     0
  9
$USERI3
 70
     0
  9
$USERI4
 70
     0
  9
$USERI5
 70
     0
  9
$USERR1
 40
0.0
  9
$USERR2
 40
0.0
  9
$USERR3
 40
0.0
  9
$USERR4
 40
0.0
  9
$USERR5
 40
0.0
  9
$WORLDVIEW
 70
     1
  9
$SHADEDGE
 70
     3
  9
$SHADEDIF
 70
    70
  9
$TILEMODE
 70
     1
  9
$MAXACTVP
 70
    64
  9
$PINSBASE
 10
0.0
 20
0.0
 30
0.0
  9
$PLIMCHECK
 70
     0
  9
$PEXTMIN
 10
1.000000000000000E+20
 20
1.000000000000000E+20
 30
1.000000000000000E+20
  9
$PEXTMAX
 10
-1.000000000000000E+20
 20
-1.000000000000000E+20
 30
-1.000000000000000E+20
  9
$PLIMMIN
 10
0.0
 20
0.0
  9
$PLIMMAX
 10
420.0
 20
297.0
  9
$UNITMODE
 70
     0
  9
$VISRETAIN
 70
     1
  9
$PLINEGEN
 70
     0
  9
$PSLTSCALE
 70
     1
  9
$TREEDEPTH
 70
  3020
  9
$CMLSTYLE
  2
Standard
  9
$CMLJUST
 70
     0
  9
$CMLSCALE
 40
20.0
  9
$PROXYGRAPHICS
 70
     1
  9
$MEASUREMENT
 70
     1
  9
$CELWEIGHT
370
    -1
  9
$ENDCAPS
280
     0
  9
$JOINSTYLE
280
     0
  9
$LWDISPLAY
290
     0
  9
$INSUNITS
 70
     4
  9
$HYPERLINKBASE
  1

  9
$STYLESHEET
  1

  9
$XEDIT
290
     1
  9
$CEPSNTYPE
380
     0
  9
$PSTYLEMODE
290
     1
  9
$FINGERPRINTGUID
  2
{2c639bb5-29f7-42b9-a7a8-cf42ea76c50a}
  9
$VERSIONGUID
  2
{FAEB1C32-E019-11D5-929B-00C0DF256EC4}
  9
$EXTNAMES
290
     1
  9
$PSVPSCALE
 40
0.0
  9
$OLESTARTUP
290
     0
  9
$SORTENTS
280
   127
  9
$INDEXCTL
280
     0
  9
$HIDETEXT
280
     1
  9
$XCLIPFRAME
280
     2
  9
$HALOGAP
280
     0
  9
$OBSCOLOR
 70
   257
  9
$OBSLTYPE
280
     0
  9
$INTERSECTIONDISPLAY
280
     0
  9
$INTERSECTIONCOLOR
 70
   257
  9
$DIMASSOC
280
     2
  9
$PROJECTNAME
  1

  9
$CAMERADISPLAY
290
     0
  9
$LENSLENGTH
 40
50.0
  9
$CAMERAHEIGHT
 40
0.0
  9
$STEPSPERSEC
 40
2.0
  9
$STEPSIZE
 40
6.0
  9
$3DDWFPREC
 40
2.0
  9
$PSOLWIDTH
 40
5.0
  9
$PSOLHEIGHT
 40
80.0
  9
$LOFTANG1
 40
1.570796326794897
  9
$LOFTANG2
 40
1.570796326794897
  9
$LOFTMAG1
 40
0.0
  9
$LOFTMAG2
 40
0.0
  9
$LOFTPARAM
 70
     7
  9
$LOFTNORMALS
280
     1
  9
$LATITUDE
 40
37.795
  9
$LONGITUDE
 40
-122.394
  9
$NORTHDIRECTION
 40
0.0
  9
$TIMEZONE
 70
 -8000
  9
$LIGHTGLYPHDISPLAY
280
     1
  9
$TILEMODELIGHTSYNCH
280
     1
  9
$CMATERIAL
347
44
  9
$SOLIDHIST
280
     0
  9
$SHOWHIST
280
     1
  9
$DWFFRAME
280
     2
  9
$DGNFRAME
280
     2
  9
$REALWORLDSCALE
290
     1
  9
$INTERFERECOLOR
 62
   256
  9
$CSHADOW
280
     0
  9
$SHADOWPLANELOCATION
 40
0.0
  0
ENDSEC
  0
SECTION
  2
CLASSES
  0
CLASS
  1
ACDBDICTIONARYWDFLT
  2
AcDbDictionaryWithDefault
  3
ObjectDBX Classes
 90
        0
 91
        3
280
     0
281
     0
  0
CLASS
  1
VISUALSTYLE
  2
AcDbVisualStyle
  3
ObjectDBX Classes
 90
     4095
 91
        3
280
     0
281
     0
  0
CLASS
  1
MATERIAL
  2
AcDbMaterial
  3
ObjectDBX Classes
 90
     1153
 91
        3
280
     0
281
     0
  0
CLASS
  1
SCALE
  2
AcDbScale
  3
ObjectDBX Classes
 90
     1153
 91
        3
280
     0
281
     0
  0
CLASS
  1
TABLESTYLE
  2
AcDbTableStyle
  3
ObjectDBX Classes
 90
     4095
 91
        3
280
     0
281
     0
  0
CLASS
  1
MLEADERSTYLE
  2
AcDbMLeaderStyle
  3
ACDB_MLEADERSTYLE_CLASS
 90
     4095
 91
        3
280
     0
281
     0
  0
CLASS
  1
SUN
  2
AcDbSun
  3
SCENEOE
 90
     1153
 91
        3
280
     0
281
     0
  0
CLASS
  1
DICTIONARYVAR
  2
AcDbDictionaryVar
  3
ObjectDBX Classes
 90
        0
 91
        3
280
     0
281
     0
  0
CLASS
  1
CELLSTYLEMAP
  2
AcDbCellStyleMap
  3
ObjectDBX Classes
 90
     1152
 91
        3
280
     0
281
     0
  0
ENDSEC
  0
SECTION
  2
TABLES
  0
TABLE
  2
VPORT
  5
8
330
0
100
AcDbSymbolTable
 70
     1
  0
VPORT
  5
29
330
8
100
AcDbSymbolTableRecord
100
AcDbViewportTableRecord
  2
*Active
 70
     0
 10
0.0
 20
0.0
 11
1.0
 21
1.0
 12
344.1869158878504
 22
148.5
 13
0.0
 23
0.0
 14
10.0
 24
10.0
 15
10.0
 25
10.0
 16
0.0
 26
0.0
 36
1.0
 17
0.0
 27
0.0
 37
0.0
 40
297.0
 41
1.972972972850329
 42
50.0
 43
0.0
 44
0.0
 50
0.0
 51
0.0
 71
     0
 72
   100
 73
     1
 74
     3
 75
     0
 76
     0
 77
     0
 78
     0
281
     0
 65
     1
110
0.0
120
0.0
130
0.0
111
1.0
121
0.0
131
0.0
112
0.0
122
1.0
132
0.0
 79
     0
146
0.0
348
2F
 60
     3
 61
     5
292
     1
282
     1
141
0.0
142
0.0
 63
   250
361
6D
  0
ENDTAB
  0
TABLE
  2
LTYPE
  5
5
330
0
100
AcDbSymbolTable
 70
     1
  0
LTYPE
  5
14
330
5
100
AcDbSymbolTableRecord
100
AcDbLinetypeTableRecord
  2
ByBlock
 70
     0
  3

 72
    65
 73
     0
 40
0.0
  0
LTYPE
  5
15
330
5
100
AcDbSymbolTableRecord
100
AcDbLinetypeTableRecord
  2
ByLayer
 70
     0
  3

 72
    65
 73
     0
 40
0.0
  0
LTYPE
  5
16
330
5
100
AcDbSymbolTableRecord
100
AcDbLinetypeTableRecord
  2
Continuous
 70
     0
  3
Solid line
 72
    65
 73
     0
 40
0.0
  0
ENDTAB
  0
TABLE
  2
LAYER
  5
2
330
0
100
AcDbSymbolTable
 70
     6
  0
LAYER
  5
10
330
2
100
AcDbSymbolTableRecord
100
AcDbLayerTableRecord
  2
0
 70
     0
 62
     7
  6
Continuous
370
    -3
390
F
347
46
348
0
  0
LAYER
  5
6E
330
2
100
AcDbSymbolTableRecord
100
AcDbLayerTableRecord
  2
VISIBLE
 70
     0
 62
     7
  6
Continuous
370
     0
390
F
347
46
348
0
  0
LAYER
  5
89
330
2
100
AcDbSymbolTableRecord
100
AcDbLayerTableRecord
  2
CENTER
 70
     0
 62
   204
  6
Continuous
370
     0
390
F
347
46
348
0
  0
LAYER
  5
9C
330
2
100
AcDbSymbolTableRecord
100
AcDbLayerTableRecord
  2
DIMENSIONS
 70
     0
 62
     7
  6
Continuous
370
     0
390
F
347
46
348
0
  0
LAYER
  5
16D
330
2
100
AcDbSymbolTableRecord
100
AcDbLayerTableRecord
  2
CONTINUOUS
 70
     0
 62
     7
  6
Continuous
370
     0
390
F
347
46
348
0
  0
LAYER
  5
182
330
2
100
AcDbSymbolTableRecord
100
AcDbLayerTableRecord
  2
TANGENT EDGES
 70
     0
 62
     7
  6
Continuous
370
     0
390
F
347
46
348
0
  0
ENDTAB
  0
TABLE
  2
STYLE
  5
3
330
0
100
AcDbSymbolTable
 70
     1
  0
STYLE
  5
11
330
3
100
AcDbSymbolTableRecord
100
AcDbTextStyleTableRecord
  2
Standard
 70
     0
 40
0.0
 41
1.0
 50
0.0
 71
     0
 42
2.5
  3
txt
  4

  0
ENDTAB
  0
TABLE
  2
VIEW
  5
6
330
0
100
AcDbSymbolTable
 70
     0
  0
ENDTAB
  0
TABLE
  2
UCS
  5
7
330
0
100
AcDbSymbolTable
 70
     0
  0
ENDTAB
  0
TABLE
  2
APPID
  5
9
330
0
100
AcDbSymbolTable
 70
     1
  0
APPID
  5
12
330
9
100
AcDbSymbolTableRecord
100
AcDbRegAppTableRecord
  2
ACAD
 70
     0
  0
ENDTAB
  0
TABLE
  2
DIMSTYLE
  5
A
330
0
100
AcDbSymbolTable
 70
     1
100
AcDbDimStyleTable
  0
DIMSTYLE
105
27
102
{ACAD_REACTORS
330
9D
330
AF
330
C1
330
D2
330
E3
330
F4
330
106
330
118
330
129
330
13A
330
14B
330
15C
330
18E
330
19F
330
1BA
102
}
330
A
100
AcDbSymbolTableRecord
100
AcDbDimStyleTableRecord
  2
ISO-25
 70
     0
 41
2.5
 42
0.625
 43
3.75
 44
1.25
 73
     0
 74
     0
 77
     1
 78
     8
140
2.5
141
2.5
143
0.03937007874016
147
0.625
171
     3
172
     1
178
     0
271
     2
272
     2
274
     3
278
    44
283
     0
284
     8
340
11
  0
ENDTAB
  0
TABLE
  2
BLOCK_RECORD
  5
1
330
0
100
AcDbSymbolTable
 70
    17
  0
BLOCK_RECORD
  5
1F
330
1
100
AcDbSymbolTableRecord
100
AcDbBlockTableRecord
  2
*Model_Space
340
22
 70
     0
280
     1
281
     0
  0
BLOCK_RECORD
  5
1B
330
1
100
AcDbSymbolTableRecord
100
AcDbBlockTableRecord
  2
*Paper_Space
340
1E
 70
     0
280
     1
281
     0
  0
BLOCK_RECORD
  5
23
330
1
100
AcDbSymbolTableRecord
100
AcDbBlockTableRecord
  2
*Paper_Space0
340
26
 70
     0
280
     1
281
     0
  0
BLOCK_RECORD
  5
9E
330
1
100
AcDbSymbolTableRecord
100
AcDbBlockTableRecord
  2
D1
340
0
 70
     0
280
     1
281
     0
  0
BLOCK_RECORD
  5
B0
330
1
100
AcDbSymbolTableRecord
100
AcDbBlockTableRecord
  2
D2
340
0
 70
     0
280
     1
281
     0
  0
BLOCK_RECORD
  5
C2
330
1
100
AcDbSymbolTableRecord
100
AcDbBlockTableRecord
  2
D3
340
0
 70
     0
280
     1
281
     0
  0
BLOCK_RECORD
  5
D3
330
1
100
AcDbSymbolTableRecord
100
AcDbBlockTableRecord
  2
D4
340
0
 70
     0
280
     1
281
     0
  0
BLOCK_RECORD
  5
E4
330
1
100
AcDbSymbolTableRecord
100
AcDbBlockTableRecord
  2
D5
340
0
 70
     0
280
     1
281
     0
  0
BLOCK_RECORD
  5
F5
330
1
100
AcDbSymbolTableRecord
100
AcDbBlockTableRecord
  2
D6
340
0
 70
     0
280
     1
281
     0
  0
BLOCK_RECORD
  5
107
330
1
100
AcDbSymbolTableRecord
100
AcDbBlockTableRecord
  2
D7
340
0
 70
     0
280
     1
281
     0
  0
BLOCK_RECORD
  5
119
330
1
100
AcDbSymbolTableRecord
100
AcDbBlockTableRecord
  2
D8
340
0
 70
     0
280
     1
281
     0
  0
BLOCK_RECORD
  5
12A
330
1
100
AcDbSymbolTableRecord
100
AcDbBlockTableRecord
  2
D9
340
0
 70
     0
280
     1
281
     0
  0
BLOCK_RECORD
  5
13B
330
1
100
AcDbSymbolTableRecord
100
AcDbBlockTableRecord
  2
D10
340
0
 70
     0
280
     1
281
     0
  0
BLOCK_RECORD
  5
14C
330
1
100
AcDbSymbolTableRecord
100
AcDbBlockTableRecord
  2
D11
340
0
 70
     0
280
     1
281
     0
  0
BLOCK_RECORD
  5
15D
330
1
100
AcDbSymbolTableRecord
100
AcDbBlockTableRecord
  2
D12
340
0
 70
     0
280
     1
281
     0
  0
BLOCK_RECORD
  5
18F
330
1
100
AcDbSymbolTableRecord
100
AcDbBlockTableRecord
  2
D13
340
0
 70
     0
280
     1
281
     0
  0
BLOCK_RECORD
  5
1A0
330
1
100
AcDbSymbolTableRecord
100
AcDbBlockTableRecord
  2
D14
340
0
 70
     0
280
     1
281
     0
  0
BLOCK_RECORD
  5
1BB
330
1
100
AcDbSymbolTableRecord
100
AcDbBlockTableRecord
  2
D15
340
0
 70
     0
280
     1
281
     0
  0
BLOCK_RECORD
  5
22D
330
1
100
AcDbSymbolTableRecord
100
AcDbBlockTableRecord
  2
BLOCK0
340
0
102
{BLKREFS
331
22C
102
}
 70
     0
280
     1
281
     0
  0
ENDTAB
  0
ENDSEC
  0
SECTION
  2
BLOCKS
  0
BLOCK
  5
20
330
1F
100
AcDbEntity
  8
0
100
AcDbBlockBegin
  2
*Model_Space
 70
     0
 10
0.0
 20
0.0
 30
0.0
  3
*Model_Space
  1

  0
ENDBLK
  5
21
330
1F
100
AcDbEntity
  8
0
100
AcDbBlockEnd
  0
BLOCK
  5
1C
330
1B
100
AcDbEntity
 67
     1
  8
0
100
AcDbBlockBegin
  2
*Paper_Space
 70
     0
 10
0.0
 20
0.0
 30
0.0
  3
*Paper_Space
  1

  0
ENDBLK
  5
1D
330
1B
100
AcDbEntity
 67
     1
  8
0
100
AcDbBlockEnd
  0
BLOCK
  5
24
330
23
100
AcDbEntity
  8
0
100
AcDbBlockBegin
  2
*Paper_Space0
 70
     0
 10
0.0
 20
0.0
 30
0.0
  3
*Paper_Space0
  1

  0
ENDBLK
  5
25
330
23
100
AcDbEntity
  8
0
100
AcDbBlockEnd
  0
BLOCK
  5
9F
330
9E
100
AcDbEntity
  8
0
100
AcDbBlockBegin
  2
D1
 70
     0
 10
0.0
 20
0.0
 30
0.0
  3
D1
  1

  0
MTEXT
  5
A1
330
9E
100
AcDbEntity
  8
DIMENSIONS
100
AcDbMText
 10
32.20516967773436
 20
150.4495544433594
 30
0.0
 40
2.134018756842158
 41
0.0
 46
0.0
 71
     5
 72
     1
  1
{\fAlibre Symbols|b0|i0|c0|p0;n}{\fCE|b0|i0|c0|p0;\H0.95x;79}{\fCE|b0|i0|c0|p0;}
 11
6.123031769111886E-17
 21
1.0
 31
0.0
 73
     1
 44
1.0
  0
MTEXT
  5
A2
330
9E
100
AcDbEntity
  8
DIMENSIONS
100
AcDbMText
 10
32.20516967773436
 20
150.4495544433594
 30
0.0
 40
2.134018756842158
 41
0.0
 46
0.0
 71
     5
 72
     1
  1
{\fCE|b0|i0|c0|p0;}
 11
6.123031769111886E-17
 21
1.0
 31
0.0
 73
     1
 44
1.0
  0
MTEXT
  5
A3
330
9E
100
AcDbEntity
  8
DIMENSIONS
100
AcDbMText
 10
32.20516967773436
 20
150.4495544433594
 30
0.0
 40
2.134018756842158
 41
0.0
 46
0.0
 71
     5
 72
     1
  1
{\fCE|b0|i0|c0|p0;}
 11
6.123031769111886E-17
 21
1.0
 31
0.0
 73
     1
 44
1.0
  0
MTEXT
  5
A4
330
9E
100
AcDbEntity
  8
DIMENSIONS
100
AcDbMText
 10
32.20516967773436
 20
146.7453877766927
 30
0.0
 40
2.134018756842158
 41
0.0
 46
0.0
 71
     5
 72
     1
  1
{\fCE|b0|i0|c0|p0;}
 11
6.123031769111886E-17
 21
1.0
 31
0.0
 73
     1
 44
1.0
  0
MTEXT
  5
A5
330
9E
100
AcDbEntity
  8
DIMENSIONS
100
AcDbMText
 10
32.20516967773436
 20
154.1537211100261
 30
0.0
 40
2.134018756842158
 41
0.0
 46
0.0
 71
     5
 72
     1
  1
{\fCE|b0|i0|c0|p0;}
 11
6.123031769111886E-17
 21
1.0
 31
0.0
 73
     1
 44
1.0
  0
LINE
  5
A6
330
9E
100
AcDbEntity
  8
DIMENSIONS
100
AcDbLine
 10
87.70415496826172
 20
110.3208923339844
 30
0.0
 11
32.67461412217881
 21
110.3208923339844
 31
0.0
  0
LINE
  5
A7
330
9E
100
AcDbEntity
  8
DIMENSIONS
100
AcDbLine
 10
87.70415496826172
 20
189.3208923339844
 30
0.0
 11
32.67461412217881
 21
189.3208923339844
 31
0.0
  0
LWPOLYLINE
  5
A8
330
9E
100
AcDbEntity
  8
DIMENSIONS
100
AcDbPolyline
 90
        4
 70
     0
 43
0.0
 10
34.67461412217881
 20
110.3208923339844
 10
34.17461412217881
 20
113.3208923339844
 10
35.17461412217882
 20
113.3208923339844
 10
34.67461412217881
 20
110.3208923339844
  0
LINE
  5
A9
330
9E
100
AcDbEntity
  8
DIMENSIONS
100
AcDbLine
 10
34.67461412217881
 20
113.3208923339844
 30
0.0
 11
34.67461412217881
 21
150.4495544433594
 31
0.0
  0
LWPOLYLINE
  5
AA
330
9E
100
AcDbEntity
  8
DIMENSIONS
100
AcDbPolyline
 90
        4
 70
     0
 43
0.0
 10
34.67461412217882
 20
189.3208923339844
 10
35.17461412217882
 20
186.3208923339844
 10
34.17461412217882
 20
186.3208923339844
 10
34.67461412217882
 20
189.3208923339844
  0
LINE
  5
AB
330
9E
100
AcDbEntity
  8
DIMENSIONS
100
AcDbLine
 10
34.67461412217881
 20
186.3208923339844
 30
0.0
 11
34.67461412217881
 21
150.4495544433594
 31
0.0
  0
LINE
  5
AC
330
9E
100
AcDbEntity
  8
DIMENSIONS
100
AcDbLine
 10
34.67461412217881
 20
144.3926095217466
 30
0.0
 11
34.67461412217881
 21
156.5064992159605
 31
0.0
  0
LWPOLYLINE
  5
AD
330
9E
100
AcDbEntity
  8
DIMENSIONS
100
AcDbPolyline
 90
        5
 70
     0
 43
0.0
 10
89.70415496826172
 20
149.8208923339844
 10
89.70415496826172
 20
149.8208923339844
 10
89.70415496826172
 20
149.8208923339844
 10
89.70415496826172
 20
149.8208923339844
 10
89.70415496826172
 20
149.8208923339844
  0
HATCH
  5
AE
330
9E
100
AcDbEntity
  8
0
 62
     7
100
AcDbHatch
 10
0.0
 20
0.0
 30
0.0
210
0.0
220
0.0
230
1.0
  2
PLNÁ, Plné vyplnění
 70
     0
 71
     0
 91
        2
 92
        0
 93
        3
 72
     1
 10
35.17461412217882
 20
113.3208923339844
 11
34.67461412217881
 21
110.3208923339844
 72
     1
 10
34.67461412217881
 20
110.3208923339844
 11
34.17461412217881
 21
113.3208923339844
 72
     1
 10
34.17461412217881
 20
113.3208923339844
 11
35.17461412217882
 21
113.3208923339844
 97
        0
 92
        0
 93
        3
 72
     1
 10
34.17461412217882
 20
186.3208923339844
 11
34.67461412217882
 21
189.3208923339844
 72
     1
 10
34.67461412217882
 20
189.3208923339844
 11
35.17461412217882
 21
186.3208923339844
 72
     1
 10
35.17461412217882
 20
186.3208923339844
 11
34.17461412217882
 21
186.3208923339844
 97
        0
 75
     0
 76
     0
 52
0.0
 41
1.0
 77
     0
 78
     1
 53
45.0
 43
0.0
 44
0.0
 45
0.0
 46
0.0
 79
     0
 98
        0
  0
ENDBLK
  5
A0
330
9E
100
AcDbEntity
  8
0
100
AcDbBlockEnd
  0
BLOCK
  5
B1
330
B0
100
AcDbEntity
  8
0
100
AcDbBlockBegin
  2
D2
 70
     0
 10
0.0
 20
0.0
 30
0.0
  3
D2
  1

  0
MTEXT
  5
B3
330
B0
100
AcDbEntity
  8
DIMENSIONS
100
AcDbMText
 10
42.36282348632811
 20
150.2713470458984
 30
0.0
 40
2.134018756842158
 41
0.0
 46
0.0
 71
     5
 72
     1
  1
{\fAlibre Symbols|b0|i0|c0|p0;n}{\fCE|b0|i0|c0|p0;\H0.95x;42}{\fCE|b0|i0|c0|p0;}
 11
6.123031769111886E-17
 21
1.0
 31
0.0
 73
     1
 44
1.0
  0
MTEXT
  5
B4
330
B0
100
AcDbEntity
  8
DIMENSIONS
100
AcDbMText
 10
42.36282348632811
 20
150.2713470458984
 30
0.0
 40
2.134018756842158
 41
0.0
 46
0.0
 71
     5
 72
     1
  1
{\fCE|b0|i0|c0|p0;}
 11
6.123031769111886E-17
 21
1.0
 31
0.0
 73
     1
 44
1.0
  0
MTEXT
  5
B5
330
B0
100
AcDbEntity
  8
DIMENSIONS
100
AcDbMText
 10
42.36282348632811
 20
150.2713470458984
 30
0.0
 40
2.134018756842158
 41
0.0
 46
0.0
 71
     5
 72
     1
  1
{\fCE|b0|i0|c0|p0;}
 11
6.123031769111886E-17
 21
1.0
 31
0.0
 73
     1
 44
1.0
  0
MTEXT
  5
B6
330
B0
100
AcDbEntity
  8
DIMENSIONS
100
AcDbMText
 10
42.36282348632811
 20
146.5671803792318
 30
0.0
 40
2.134018756842158
 41
0.0
 46
0.0
 71
     5
 72
     1
  1
{\fCE|b0|i0|c0|p0;}
 11
6.123031769111886E-17
 21
1.0
 31
0.0
 73
     1
 44
1.0
  0
MTEXT
  5
B7
330
B0
100
AcDbEntity
  8
DIMENSIONS
100
AcDbMText
 10
42.36282348632811
 20
153.9755137125651
 30
0.0
 40
2.134018756842158
 41
0.0
 46
0.0
 71
     5
 72
     1
  1
{\fCE|b0|i0|c0|p0;}
 11
6.123031769111886E-17
 21
1.0
 31
0.0
 73
     1
 44
1.0
  0
LINE
  5
B8
330
B0
100
AcDbEntity
  8
DIMENSIONS
100
AcDbLine
 10
87.70415496826172
 20
128.8208923339844
 30
0.0
 11
42.83226793077255
 21
128.8208923339844
 31
0.0
  0
LINE
  5
B9
330
B0
100
AcDbEntity
  8
DIMENSIONS
100
AcDbLine
 10
87.70415496826172
 20
170.8208923339844
 30
0.0
 11
42.83226793077255
 21
170.8208923339844
 31
0.0
  0
LWPOLYLINE
  5
BA
330
B0
100
AcDbEntity
  8
DIMENSIONS
100
AcDbPolyline
 90
        4
 70
     0
 43
0.0
 10
44.83226793077255
 20
128.8208923339844
 10
44.33226793077255
 20
131.8208923339844
 10
45.33226793077255
 20
131.8208923339844
 10
44.83226793077255
 20
128.8208923339844
  0
LINE
  5
BB
330
B0
100
AcDbEntity
  8
DIMENSIONS
100
AcDbLine
 10
44.83226793077255
 20
131.8208923339844
 30
0.0
 11
44.83226793077255
 21
150.2713470458984
 31
0.0
  0
LWPOLYLINE
  5
BC
330
B0
100
AcDbEntity
  8
DIMENSIONS
100
AcDbPolyline
 90
        4
 70
     0
 43
0.0
 10
44.83226793077255
 20
170.8208923339844
 10
45.33226793077255
 20
167.8208923339844
 10
44.33226793077255
 20
167.8208923339844
 10
44.83226793077255
 20
170.8208923339844
  0
LINE
  5
BD
330
B0
100
AcDbEntity
  8
DIMENSIONS
100
AcDbLine
 10
44.83226793077255
 20
167.8208923339844
 30
0.0
 11
44.83226793077255
 21
150.2713470458984
 31
0.0
  0
LINE
  5
BE
330
B0
100
AcDbEntity
  8
DIMENSIONS
100
AcDbLine
 10
44.83226793077255
 20
144.2144022136927
 30
0.0
 11
44.83226793077255
 21
156.3282919079065
 31
0.0
  0
LWPOLYLINE
  5
BF
330
B0
100
AcDbEntity
  8
DIMENSIONS
100
AcDbPolyline
 90
        5
 70
     0
 43
0.0
 10
89.70415496826172
 20
149.8208923339844
 10
89.70415496826172
 20
149.8208923339844
 10
89.70415496826172
 20
149.8208923339844
 10
89.70415496826172
 20
149.8208923339844
 10
89.70415496826172
 20
149.8208923339844
  0
HATCH
  5
C0
330
B0
100
AcDbEntity
  8
0
 62
     7
100
AcDbHatch
 10
0.0
 20
0.0
 30
0.0
210
0.0
220
0.0
230
1.0
  2
PLNÁ, Plné vyplnění
 70
     0
 71
     0
 91
        2
 92
        0
 93
        3
 72
     1
 10
45.33226793077255
 20
131.8208923339844
 11
44.83226793077255
 21
128.8208923339844
 72
     1
 10
44.83226793077255
 20
128.8208923339844
 11
44.33226793077255
 21
131.8208923339844
 72
     1
 10
44.33226793077255
 20
131.8208923339844
 11
45.33226793077255
 21
131.8208923339844
 97
        0
 92
        0
 93
        3
 72
     1
 10
44.33226793077255
 20
167.8208923339844
 11
44.83226793077255
 21
170.8208923339844
 72
     1
 10
44.83226793077255
 20
170.8208923339844
 11
45.33226793077255
 21
167.8208923339844
 72
     1
 10
45.33226793077255
 20
167.8208923339844
 11
44.33226793077255
 21
167.8208923339844
 97
        0
 75
     0
 76
     0
 52
0.0
 41
1.0
 77
     0
 78
     1
 53
45.0
 43
0.0
 44
0.0
 45
0.0
 46
0.0
 79
     0
 98
        0
  0
ENDBLK
  5
B2
330
B0
100
AcDbEntity
  8
0
100
AcDbBlockEnd
  0
BLOCK
  5
C3
330
C2
100
AcDbEntity
  8
0
100
AcDbBlockBegin
  2
D3
 70
     0
 10
0.0
 20
0.0
 30
0.0
  3
D3
  1

  0
MTEXT
  5
C5
330
C2
100
AcDbEntity
  8
DIMENSIONS
100
AcDbMText
 10
99.9228515625
 20
91.28569030761719
 30
0.0
 40
2.134018756842158
 41
0.0
 46
0.0
 71
     5
 72
     1
  1
{\fCE|b0|i0|c0|p0;123,5}{\fCE|b0|i0|c0|p0;}
 73
     1
 44
1.0
  0
MTEXT
  5
C6
330
C2
100
AcDbEntity
  8
DIMENSIONS
100
AcDbMText
 10
99.9228515625
 20
91.28569030761719
 30
0.0
 40
2.134018756842158
 41
0.0
 46
0.0
 71
     5
 72
     1
  1
{\fCE|b0|i0|c0|p0;}
 73
     1
 44
1.0
  0
MTEXT
  5
C7
330
C2
100
AcDbEntity
  8
DIMENSIONS
100
AcDbMText
 10
99.9228515625
 20
91.28569030761719
 30
0.0
 40
2.134018756842158
 41
0.0
 46
0.0
 71
     5
 72
     1
  1
{\fCE|b0|i0|c0|p0;}
 73
     1
 44
1.0
  0
MTEXT
  5
C8
330
C2
100
AcDbEntity
  8
DIMENSIONS
100
AcDbMText
 10
95.1603515625
 20
91.28569030761719
 30
0.0
 40
2.134018756842158
 41
0.0
 46
0.0
 71
     5
 72
     1
  1
{\fCE|b0|i0|c0|p0;}
 73
     1
 44
1.0
  0
MTEXT
  5
C9
330
C2
100
AcDbEntity
  8
DIMENSIONS
100
AcDbMText
 10
104.6853515625
 20
91.28569030761719
 30
0.0
 40
2.134018756842158
 41
0.0
 46
0.0
 71
     5
 72
     1
  1
{\fCE|b0|i0|c0|p0;}
 73
     1
 44
1.0
  0
LINE
  5
CA
330
C2
100
AcDbEntity
  8
DIMENSIONS
100
AcDbLine
 10
50.20415496826172
 20
147.8208923339844
 30
0.0
 11
50.20415496826172
 21
87.52180141872829
 31
0.0
  0
LINE
  5
CB
330
C2
100
AcDbEntity
  8
DIMENSIONS
100
AcDbLine
 10
173.7041549682617
 20
147.8208923339844
 30
0.0
 11
173.7041549682617
 21
87.52180141872829
 31
0.0
  0
LWPOLYLINE
  5
CC
330
C2
100
AcDbEntity
  8
DIMENSIONS
100
AcDbPolyline
 90
        4
 70
     0
 43
0.0
 10
50.20415496826172
 20
89.52180141872829
 10
53.20415496826172
 20
90.0218014187283
 10
53.20415496826172
 20
89.0218014187283
 10
50.20415496826172
 20
89.52180141872829
  0
LINE
  5
CD
330
C2
100
AcDbEntity
  8
DIMENSIONS
100
AcDbLine
 10
53.20415496826172
 20
89.52180141872829
 30
0.0
 11
99.9228515625
 21
89.5218014187283
 31
0.0
  0
LWPOLYLINE
  5
CE
330
C2
100
AcDbEntity
  8
DIMENSIONS
100
AcDbPolyline
 90
        4
 70
     0
 43
0.0
 10
173.7041549682617
 20
89.5218014187283
 10
170.7041549682617
 20
89.0218014187283
 10
170.7041549682617
 20
90.0218014187283
 10
173.7041549682617
 20
89.5218014187283
  0
LINE
  5
CF
330
C2
100
AcDbEntity
  8
DIMENSIONS
100
AcDbLine
 10
170.7041549682617
 20
89.52180141872829
 30
0.0
 11
99.9228515625
 21
89.5218014187283
 31
0.0
  0
LINE
  5
D0
330
C2
100
AcDbEntity
  8
DIMENSIONS
100
AcDbLine
 10
106.685350894928
 20
89.52180141872829
 30
0.0
 11
92.45479595661163
 21
89.52180141872829
 31
0.0
  0
HATCH
  5
D1
330
C2
100
AcDbEntity
  8
0
 62
     7
100
AcDbHatch
 10
0.0
 20
0.0
 30
0.0
210
0.0
220
0.0
230
1.0
  2
PLNÁ, Plné vyplnění
 70
     0
 71
     0
 91
        2
 92
        0
 93
        3
 72
     1
 10
53.20415496826172
 20
89.0218014187283
 11
50.20415496826172
 21
89.52180141872829
 72
     1
 10
50.20415496826172
 20
89.52180141872829
 11
53.20415496826172
 21
90.0218014187283
 72
     1
 10
53.20415496826172
 20
90.0218014187283
 11
53.20415496826172
 21
89.0218014187283
 97
        0
 92
        0
 93
        3
 72
     1
 10
170.7041549682617
 20
90.0218014187283
 11
173.7041549682617
 21
89.5218014187283
 72
     1
 10
173.7041549682617
 20
89.5218014187283
 11
170.7041549682617
 21
89.0218014187283
 72
     1
 10
170.7041549682617
 20
89.0218014187283
 11
170.7041549682617
 21
90.0218014187283
 97
        0
 75
     0
 76
     0
 52
0.0
 41
1.0
 77
     0
 78
     1
 53
45.0
 43
0.0
 44
0.0
 45
0.0
 46
0.0
 79
     0
 98
        0
  0
ENDBLK
  5
C4
330
C2
100
AcDbEntity
  8
0
100
AcDbBlockEnd
  0
BLOCK
  5
D4
330
D3
100
AcDbEntity
  8
0
100
AcDbBlockBegin
  2
D4
 70
     0
 10
0.0
 20
0.0
 30
0.0
  3
D4
  1

  0
MTEXT
  5
D6
330
D3
100
AcDbEntity
  8
DIMENSIONS
100
AcDbMText
 10
182.6097106933594
 20
150.4495544433594
 30
0.0
 40
2.134018756842158
 41
0.0
 46
0.0
 71
     5
 72
     1
  1
{\fCE|b0|i0|c0|p0;20}{\fCE|b0|i0|c0|p0;}
 11
6.123031769111886E-17
 21
1.0
 31
0.0
 73
     1
 44
1.0
  0
MTEXT
  5
D7
330
D3
100
AcDbEntity
  8
DIMENSIONS
100
AcDbMText
 10
182.6097106933594
 20
150.4495544433594
 30
0.0
 40
2.134018756842158
 41
0.0
 46
0.0
 71
     5
 72
     1
  1
{\fCE|b0|i0|c0|p0;}
 11
6.123031769111886E-17
 21
1.0
 31
0.0
 73
     1
 44
1.0
  0
MTEXT
  5
D8
330
D3
100
AcDbEntity
  8
DIMENSIONS
100
AcDbMText
 10
182.6097106933594
 20
150.4495544433594
 30
0.0
 40
2.134018756842158
 41
0.0
 46
0.0
 71
     5
 72
     1
  1
{\fCE|b0|i0|c0|p0;}
 11
6.123031769111886E-17
 21
1.0
 31
0.0
 73
     1
 44
1.0
  0
MTEXT
  5
D9
330
D3
100
AcDbEntity
  8
DIMENSIONS
100
AcDbMText
 10
182.6097106933594
 20
147.9801099989149
 30
0.0
 40
2.134018756842158
 41
0.0
 46
0.0
 71
     5
 72
     1
  1
{\fCE|b0|i0|c0|p0;}
 11
6.123031769111886E-17
 21
1.0
 31
0.0
 73
     1
 44
1.0
  0
MTEXT
  5
DA
330
D3
100
AcDbEntity
  8
DIMENSIONS
100
AcDbMText
 10
182.6097106933594
 20
152.9189988878038
 30
0.0
 40
2.134018756842158
 41
0.0
 46
0.0
 71
     5
 72
     1
  1
{\fCE|b0|i0|c0|p0;}
 11
6.123031769111886E-17
 21
1.0
 31
0.0
 73
     1
 44
1.0
  0
LINE
  5
DB
330
D3
100
AcDbEntity
  8
DIMENSIONS
100
AcDbLine
 10
165.7041549682617
 20
139.8208923339844
 30
0.0
 11
186.3735995822483
 21
139.8208923339844
 31
0.0
  0
LINE
  5
DC
330
D3
100
AcDbEntity
  8
DIMENSIONS
100
AcDbLine
 10
165.7041549682617
 20
159.8208923339844
 30
0.0
 11
186.3735995822483
 21
159.8208923339844
 31
0.0
  0
LWPOLYLINE
  5
DD
330
D3
100
AcDbEntity
  8
DIMENSIONS
100
AcDbPolyline
 90
        4
 70
     0
 43
0.0
 10
184.3735995822483
 20
139.8208923339844
 10
183.8735995822483
 20
142.8208923339844
 10
184.8735995822483
 20
142.8208923339844
 10
184.3735995822483
 20
139.8208923339844
  0
LINE
  5
DE
330
D3
100
AcDbEntity
  8
DIMENSIONS
100
AcDbLine
 10
184.3735995822483
 20
142.8208923339844
 30
0.0
 11
184.3735995822483
 21
150.4495544433594
 31
0.0
  0
LWPOLYLINE
  5
DF
330
D3
100
AcDbEntity
  8
DIMENSIONS
100
AcDbPolyline
 90
        4
 70
     0
 43
0.0
 10
184.3735995822483
 20
159.8208923339844
 10
184.8735995822483
 20
156.8208923339844
 10
183.8735995822483
 20
156.8208923339844
 10
184.3735995822483
 20
159.8208923339844
  0
LINE
  5
E0
330
D3
100
AcDbEntity
  8
DIMENSIONS
100
AcDbLine
 10
184.3735995822483
 20
156.8208923339844
 30
0.0
 11
184.3735995822483
 21
150.4495544433594
 31
0.0
  0
LINE
  5
E1
330
D3
100
AcDbEntity
  8
DIMENSIONS
100
AcDbLine
 10
184.3735995822483
 20
155.2717771530151
 30
0.0
 11
184.3735995822483
 21
145.6273317337036
 31
0.0
  0
HATCH
  5
E2
330
D3
100
AcDbEntity
  8
0
 62
     7
100
AcDbHatch
 10
0.0
 20
0.0
 30
0.0
210
0.0
220
0.0
230
1.0
  2
PLNÁ, Plné vyplnění
 70
     0
 71
     0
 91
        2
 92
        0
 93
        3
 72
     1
 10
184.8735995822483
 20
142.8208923339844
 11
184.3735995822483
 21
139.8208923339844
 72
     1
 10
184.3735995822483
 20
139.8208923339844
 11
183.8735995822483
 21
142.8208923339844
 72
     1
 10
183.8735995822483
 20
142.8208923339844
 11
184.8735995822483
 21
142.8208923339844
 97
        0
 92
        0
 93
        3
 72
     1
 10
183.8735995822483
 20
156.8208923339844
 11
184.3735995822483
 21
159.8208923339844
 72
     1
 10
184.3735995822483
 20
159.8208923339844
 11
184.8735995822483
 21
156.8208923339844
 72
     1
 10
184.8735995822483
 20
156.8208923339844
 11
183.8735995822483
 21
156.8208923339844
 97
        0
 75
     0
 76
     0
 52
0.0
 41
1.0
 77
     0
 78
     1
 53
45.0
 43
0.0
 44
0.0
 45
0.0
 46
0.0
 79
     0
 98
        0
  0
ENDBLK
  5
D5
330
D3
100
AcDbEntity
  8
0
100
AcDbBlockEnd
  0
BLOCK
  5
E5
330
E4
100
AcDbEntity
  8
0
100
AcDbBlockBegin
  2
D5
 70
     0
 10
0.0
 20
0.0
 30
0.0
  3
D5
  1

  0
MTEXT
  5
E7
330
E4
100
AcDbEntity
  8
DIMENSIONS
100
AcDbMText
 10
156.3699493408203
 20
131.3817749023438
 30
0.0
 40
2.134018756842158
 41
0.0
 46
0.0
 71
     5
 72
     1
  1
{\fCE|b0|i0|c0|p0;32,2}{\fCE|b0|i0|c0|p0;}
 73
     1
 44
1.0
  0
MTEXT
  5
E8
330
E4
100
AcDbEntity
  8
DIMENSIONS
100
AcDbMText
 10
156.3699493408203
 20
131.3817749023438
 30
0.0
 40
2.134018756842158
 41
0.0
 46
0.0
 71
     5
 72
     1
  1
{\fCE|b0|i0|c0|p0;}
 73
     1
 44
1.0
  0
MTEXT
  5
E9
330
E4
100
AcDbEntity
  8
DIMENSIONS
100
AcDbMText
 10
156.3699493408203
 20
131.3817749023438
 30
0.0
 40
2.134018756842158
 41
0.0
 46
0.0
 71
     5
 72
     1
  1
{\fCE|b0|i0|c0|p0;}
 73
     1
 44
1.0
  0
MTEXT
  5
EA
330
E4
100
AcDbEntity
  8
DIMENSIONS
100
AcDbMText
 10
152.4893937852648
 20
131.3817749023438
 30
0.0
 40
2.134018756842158
 41
0.0
 46
0.0
 71
     5
 72
     1
  1
{\fCE|b0|i0|c0|p0;}
 73
     1
 44
1.0
  0
MTEXT
  5
EB
330
E4
100
AcDbEntity
  8
DIMENSIONS
100
AcDbMText
 10
160.2505048963759
 20
131.3817749023438
 30
0.0
 40
2.134018756842158
 41
0.0
 46
0.0
 71
     5
 72
     1
  1
{\fCE|b0|i0|c0|p0;}
 73
     1
 44
1.0
  0
LINE
  5
EC
330
E4
100
AcDbEntity
  8
DIMENSIONS
100
AcDbLine
 10
173.7041549682617
 20
147.8208923339844
 30
0.0
 11
173.7041549682617
 21
127.6178860134548
 31
0.0
  0
LINE
  5
ED
330
E4
100
AcDbEntity
  8
DIMENSIONS
100
AcDbLine
 10
141.5162345625608
 20
137.8208923339844
 30
0.0
 11
141.5162345625608
 21
127.6178860134548
 31
0.0
  0
LWPOLYLINE
  5
EE
330
E4
100
AcDbEntity
  8
DIMENSIONS
100
AcDbPolyline
 90
        4
 70
     0
 43
0.0
 10
173.7041549682617
 20
129.6178860134548
 10
170.7041549682617
 20
129.1178860134548
 10
170.7041549682617
 20
130.1178860134548
 10
173.7041549682617
 20
129.6178860134548
  0
LINE
  5
EF
330
E4
100
AcDbEntity
  8
DIMENSIONS
100
AcDbLine
 10
170.7041549682617
 20
129.6178860134548
 30
0.0
 11
156.3699493408203
 21
129.6178860134548
 31
0.0
  0
LWPOLYLINE
  5
F0
330
E4
100
AcDbEntity
  8
DIMENSIONS
100
AcDbPolyline
 90
        4
 70
     0
 43
0.0
 10
141.5162345625608
 20
129.6178860134548
 10
144.5162345625608
 20
130.1178860134548
 10
144.5162345625608
 20
129.1178860134548
 10
141.5162345625608
 20
129.6178860134548
  0
LINE
  5
F1
330
E4
100
AcDbEntity
  8
DIMENSIONS
100
AcDbLine
 10
144.5162345625608
 20
129.6178860134548
 30
0.0
 11
156.3699493408203
 21
129.6178860134548
 31
0.0
  0
LINE
  5
F2
330
E4
100
AcDbEntity
  8
DIMENSIONS
100
AcDbLine
 10
149.7838373184204
 20
129.6178860134548
 30
0.0
 11
162.2505054473877
 21
129.6178860134548
 31
0.0
  0
HATCH
  5
F3
330
E4
100
AcDbEntity
  8
0
 62
     7
100
AcDbHatch
 10
0.0
 20
0.0
 30
0.0
210
0.0
220
0.0
230
1.0
  2
PLNÁ, Plné vyplnění
 70
     0
 71
     0
 91
        2
 92
        0
 93
        3
 72
     1
 10
170.7041549682617
 20
130.1178860134548
 11
173.7041549682617
 21
129.6178860134548
 72
     1
 10
173.7041549682617
 20
129.6178860134548
 11
170.7041549682617
 21
129.1178860134548
 72
     1
 10
170.7041549682617
 20
129.1178860134548
 11
170.7041549682617
 21
130.1178860134548
 97
        0
 92
        0
 93
        3
 72
     1
 10
144.5162345625608
 20
129.1178860134548
 11
141.5162345625608
 21
129.6178860134548
 72
     1
 10
141.5162345625608
 20
129.6178860134548
 11
144.5162345625608
 21
130.1178860134548
 72
     1
 10
144.5162345625608
 20
130.1178860134548
 11
144.5162345625608
 21
129.1178860134548
 97
        0
 75
     0
 76
     0
 52
0.0
 41
1.0
 77
     0
 78
     1
 53
45.0
 43
0.0
 44
0.0
 45
0.0
 46
0.0
 79
     0
 98
        0
  0
ENDBLK
  5
E6
330
E4
100
AcDbEntity
  8
0
100
AcDbBlockEnd
  0
BLOCK
  5
F6
330
F5
100
AcDbEntity
  8
0
100
AcDbBlockBegin
  2
D6
 70
     0
 10
0.0
 20
0.0
 30
0.0
  3
D6
  1

  0
MTEXT
  5
F8
330
F5
100
AcDbEntity
  8
DIMENSIONS
100
AcDbMText
 10
163.9561309814453
 20
143.9143218994141
 30
0.0
 40
2.134018756842158
 41
0.0
 46
0.0
 71
     5
 72
     1
  1
{\fAlibre Symbols|b0|i0|c0|p0;n}{\fCE|b0|i0|c0|p0;\H0.95x;8}{\fCE|b0|i0|c0|p0;}
 73
     1
 44
1.0
  0
MTEXT
  5
F9
330
F5
100
AcDbEntity
  8
DIMENSIONS
100
AcDbMText
 10
163.9561309814453
 20
143.9143218994141
 30
0.0
 40
2.134018756842158
 41
0.0
 46
0.0
 71
     5
 72
     1
  1
{\fCE|b0|i0|c0|p0;}
 73
     1
 44
1.0
  0
MTEXT
  5
FA
330
F5
100
AcDbEntity
  8
DIMENSIONS
100
AcDbMText
 10
163.9561309814453
 20
143.9143218994141
 30
0.0
 40
2.134018756842158
 41
0.0
 46
0.0
 71
     5
 72
     1
  1
{\fCE|b0|i0|c0|p0;}
 73
     1
 44
1.0
  0
MTEXT
  5
FB
330
F5
100
AcDbEntity
  8
DIMENSIONS
100
AcDbMText
 10
160.9575198703342
 20
143.9143218994141
 30
0.0
 40
2.134018756842158
 41
0.0
 46
0.0
 71
     5
 72
     1
  1
{\fCE|b0|i0|c0|p0;}
 73
     1
 44
1.0
  0
MTEXT
  5
FC
330
F5
100
AcDbEntity
  8
DIMENSIONS
100
AcDbMText
 10
166.9547420925564
 20
143.9143218994141
 30
0.0
 40
2.134018756842158
 41
0.0
 46
0.0
 71
     5
 72
     1
  1
{\fCE|b0|i0|c0|p0;}
 73
     1
 44
1.0
  0
LINE
  5
FD
330
F5
100
AcDbEntity
  8
DIMENSIONS
100
AcDbLine
 10
167.7041549682617
 20
147.8208923339844
 30
0.0
 11
167.7041549682617
 21
139.4448774549696
 31
0.0
  0
LINE
  5
FE
330
F5
100
AcDbEntity
  8
DIMENSIONS
100
AcDbLine
 10
159.7041549682617
 20
147.8208923339844
 30
0.0
 11
159.7041549682617
 21
139.4448774549696
 31
0.0
  0
LWPOLYLINE
  5
FF
330
F5
100
AcDbEntity
  8
DIMENSIONS
100
AcDbPolyline
 90
        4
 70
     0
 43
0.0
 10
167.7041549682617
 20
141.4448774549696
 10
164.7041549682617
 20
140.9448774549696
 10
164.7041549682617
 20
141.9448774549696
 10
167.7041549682617
 20
141.4448774549696
  0
LINE
  5
100
330
F5
100
AcDbEntity
  8
DIMENSIONS
100
AcDbLine
 10
164.7041549682617
 20
141.4448774549696
 30
0.0
 11
163.9561309814453
 21
141.4448774549696
 31
0.0
  0
LWPOLYLINE
  5
101
330
F5
100
AcDbEntity
  8
DIMENSIONS
100
AcDbPolyline
 90
        4
 70
     0
 43
0.0
 10
159.7041549682617
 20
141.4448774549696
 10
162.7041549682617
 20
141.9448774549696
 10
162.7041549682617
 20
140.9448774549696
 10
159.7041549682617
 20
141.4448774549696
  0
LINE
  5
102
330
F5
100
AcDbEntity
  8
DIMENSIONS
100
AcDbLine
 10
162.7041549682617
 20
141.4448774549696
 30
0.0
 11
163.9561309814453
 21
141.4448774549696
 31
0.0
  0
LINE
  5
103
330
F5
100
AcDbEntity
  8
DIMENSIONS
100
AcDbLine
 10
168.954740524292
 20
141.4448774549696
 30
0.0
 11
158.2519645690918
 21
141.4448774549696
 31
0.0
  0
LWPOLYLINE
  5
104
330
F5
100
AcDbEntity
  8
DIMENSIONS
100
AcDbPolyline
 90
        5
 70
     0
 43
0.0
 10
89.70415496826172
 20
149.8208923339844
 10
89.70415496826172
 20
149.8208923339844
 10
89.70415496826172
 20
149.8208923339844
 10
89.70415496826172
 20
149.8208923339844
 10
89.70415496826172
 20
149.8208923339844
  0
HATCH
  5
105
330
F5
100
AcDbEntity
  8
0
 62
     7
100
AcDbHatch
 10
0.0
 20
0.0
 30
0.0
210
0.0
220
0.0
230
1.0
  2
PLNÁ, Plné vyplnění
 70
     0
 71
     0
 91
        2
 92
        0
 93
        3
 72
     1
 10
164.7041549682617
 20
141.9448774549696
 11
167.7041549682617
 21
141.4448774549696
 72
     1
 10
167.7041549682617
 20
141.4448774549696
 11
164.7041549682617
 21
140.9448774549696
 72
     1
 10
164.7041549682617
 20
140.9448774549696
 11
164.7041549682617
 21
141.9448774549696
 97
        0
 92
        0
 93
        3
 72
     1
 10
162.7041549682617
 20
140.9448774549696
 11
159.7041549682617
 21
141.4448774549696
 72
     1
 10
159.7041549682617
 20
141.4448774549696
 11
162.7041549682617
 21
141.9448774549696
 72
     1
 10
162.7041549682617
 20
141.9448774549696
 11
162.7041549682617
 21
140.9448774549696
 97
        0
 75
     0
 76
     0
 52
0.0
 41
1.0
 77
     0
 78
     1
 53
45.0
 43
0.0
 44
0.0
 45
0.0
 46
0.0
 79
     0
 98
        0
  0
ENDBLK
  5
F7
330
F5
100
AcDbEntity
  8
0
100
AcDbBlockEnd
  0
BLOCK
  5
108
330
107
100
AcDbEntity
  8
0
100
AcDbBlockBegin
  2
D7
 70
     0
 10
0.0
 20
0.0
 30
0.0
  3
D7
  1

  0
MTEXT
  5
10A
330
107
100
AcDbEntity
  8
DIMENSIONS
100
AcDbMText
 10
131.3923492431641
 20
153.8426361083984
 30
0.0
 40
2.134018756842158
 41
0.0
 46
0.0
 71
     5
 72
     1
  1
{\fAlibre Symbols|b0|i0|c0|p0;n}{\fCE|b0|i0|c0|p0;\H0.95x;8}{\fCE|b0|i0|c0|p0;}
 73
     1
 44
1.0
  0
MTEXT
  5
10B
330
107
100
AcDbEntity
  8
DIMENSIONS
100
AcDbMText
 10
131.3923492431641
 20
153.8426361083984
 30
0.0
 40
2.134018756842158
 41
0.0
 46
0.0
 71
     5
 72
     1
  1
{\fCE|b0|i0|c0|p0;}
 73
     1
 44
1.0
  0
MTEXT
  5
10C
330
107
100
AcDbEntity
  8
DIMENSIONS
100
AcDbMText
 10
131.3923492431641
 20
153.8426361083984
 30
0.0
 40
2.134018756842158
 41
0.0
 46
0.0
 71
     5
 72
     1
  1
{\fCE|b0|i0|c0|p0;}
 73
     1
 44
1.0
  0
MTEXT
  5
10D
330
107
100
AcDbEntity
  8
DIMENSIONS
100
AcDbMText
 10
128.393738132053
 20
153.8426361083984
 30
0.0
 40
2.134018756842158
 41
0.0
 46
0.0
 71
     5
 72
     1
  1
{\fCE|b0|i0|c0|p0;}
 73
     1
 44
1.0
  0
MTEXT
  5
10E
330
107
100
AcDbEntity
  8
DIMENSIONS
100
AcDbMText
 10
134.3909603542752
 20
153.8426361083984
 30
0.0
 40
2.134018756842158
 41
0.0
 46
0.0
 71
     5
 72
     1
  1
{\fCE|b0|i0|c0|p0;}
 73
     1
 44
1.0
  0
LINE
  5
10F
330
107
100
AcDbEntity
  8
DIMENSIONS
100
AcDbLine
 10
135.5162345625608
 20
159.8208923339844
 30
0.0
 11
135.5162345625608
 21
149.373191663954
 31
0.0
  0
LINE
  5
110
330
107
100
AcDbEntity
  8
DIMENSIONS
100
AcDbLine
 10
127.5162345625608
 20
159.8208923339844
 30
0.0
 11
127.5162345625608
 21
149.373191663954
 31
0.0
  0
LWPOLYLINE
  5
111
330
107
100
AcDbEntity
  8
DIMENSIONS
100
AcDbPolyline
 90
        4
 70
     0
 43
0.0
 10
135.5162345625608
 20
151.373191663954
 10
132.5162345625608
 20
150.873191663954
 10
132.5162345625608
 20
151.873191663954
 10
135.5162345625608
 20
151.373191663954
  0
LINE
  5
112
330
107
100
AcDbEntity
  8
DIMENSIONS
100
AcDbLine
 10
132.5162345625608
 20
151.373191663954
 30
0.0
 11
131.3923492431641
 21
151.373191663954
 31
0.0
  0
LWPOLYLINE
  5
113
330
107
100
AcDbEntity
  8
DIMENSIONS
100
AcDbPolyline
 90
        4
 70
     0
 43
0.0
 10
127.5162345625608
 20
151.373191663954
 10
130.5162345625608
 20
151.873191663954
 10
130.5162345625608
 20
150.873191663954
 10
127.5162345625608
 20
151.373191663954
  0
LINE
  5
114
330
107
100
AcDbEntity
  8
DIMENSIONS
100
AcDbLine
 10
130.5162345625608
 20
151.373191663954
 30
0.0
 11
131.3923492431641
 21
151.373191663954
 31
0.0
  0
LINE
  5
115
330
107
100
AcDbEntity
  8
DIMENSIONS
100
AcDbLine
 10
136.3909587860107
 20
151.373191663954
 30
0.0
 11
125.6881828308105
 21
151.373191663954
 31
0.0
  0
LWPOLYLINE
  5
116
330
107
100
AcDbEntity
  8
DIMENSIONS
100
AcDbPolyline
 90
        5
 70
     0
 43
0.0
 10
89.70415496826172
 20
149.8208923339844
 10
89.70415496826172
 20
149.8208923339844
 10
89.70415496826172
 20
149.8208923339844
 10
89.70415496826172
 20
149.8208923339844
 10
89.70415496826172
 20
149.8208923339844
  0
HATCH
  5
117
330
107
100
AcDbEntity
  8
0
 62
     7
100
AcDbHatch
 10
0.0
 20
0.0
 30
0.0
210
0.0
220
0.0
230
1.0
  2
PLNÁ, Plné vyplnění
 70
     0
 71
     0
 91
        2
 92
        0
 93
        3
 72
     1
 10
132.5162345625608
 20
151.873191663954
 11
135.5162345625608
 21
151.373191663954
 72
     1
 10
135.5162345625608
 20
151.373191663954
 11
132.5162345625608
 21
150.873191663954
 72
     1
 10
132.5162345625608
 20
150.873191663954
 11
132.5162345625608
 21
151.873191663954
 97
        0
 92
        0
 93
        3
 72
     1
 10
130.5162345625608
 20
150.873191663954
 11
127.5162345625608
 21
151.373191663954
 72
     1
 10
127.5162345625608
 20
151.373191663954
 11
130.5162345625608
 21
151.873191663954
 72
     1
 10
130.5162345625608
 20
151.873191663954
 11
130.5162345625608
 21
150.873191663954
 97
        0
 75
     0
 76
     0
 52
0.0
 41
1.0
 77
     0
 78
     1
 53
45.0
 43
0.0
 44
0.0
 45
0.0
 46
0.0
 79
     0
 98
        0
  0
ENDBLK
  5
109
330
107
100
AcDbEntity
  8
0
100
AcDbBlockEnd
  0
BLOCK
  5
11A
330
119
100
AcDbEntity
  8
0
100
AcDbBlockBegin
  2
D8
 70
     0
 10
0.0
 20
0.0
 30
0.0
  3
D8
  1

  0
MTEXT
  5
11C
330
119
100
AcDbEntity
  8
DIMENSIONS
100
AcDbMText
 10
121.2105096123965
 20
153.3807524442673
 30
0.0
 40
2.134018756842158
 41
0.0
 46
0.0
 71
     5
 72
     1
  1
{\fCE|b0|i0|c0|p0;22}{\fCE|b0|i0|c0|p0;}
 11
6.123031769111886E-17
 21
1.0
 31
0.0
 73
     1
 44
1.0
  0
MTEXT
  5
11D
330
119
100
AcDbEntity
  8
DIMENSIONS
100
AcDbMText
 10
121.2105096123965
 20
153.3807524442673
 30
0.0
 40
2.134018756842158
 41
0.0
 46
0.0
 71
     5
 72
     1
  1
{\fCE|b0|i0|c0|p0;}
 11
6.123031769111886E-17
 21
1.0
 31
0.0
 73
     1
 44
1.0
  0
MTEXT
  5
11E
330
119
100
AcDbEntity
  8
DIMENSIONS
100
AcDbMText
 10
121.2105096123965
 20
153.3807524442673
 30
0.0
 40
2.134018756842158
 41
0.0
 46
0.0
 71
     5
 72
     1
  1
{\fCE|b0|i0|c0|p0;}
 11
6.123031769111886E-17
 21
1.0
 31
0.0
 73
     1
 44
1.0
  0
MTEXT
  5
11F
330
119
100
AcDbEntity
  8
DIMENSIONS
100
AcDbMText
 10
121.2105096123965
 20
150.9113079998228
 30
0.0
 40
2.134018756842158
 41
0.0
 46
0.0
 71
     5
 72
     1
  1
{\fCE|b0|i0|c0|p0;}
 11
6.123031769111886E-17
 21
1.0
 31
0.0
 73
     1
 44
1.0
  0
MTEXT
  5
120
330
119
100
AcDbEntity
  8
DIMENSIONS
100
AcDbMText
 10
121.2105096123965
 20
155.8501968887117
 30
0.0
 40
2.134018756842158
 41
0.0
 46
0.0
 71
     5
 72
     1
  1
{\fCE|b0|i0|c0|p0;}
 11
6.123031769111886E-17
 21
1.0
 31
0.0
 73
     1
 44
1.0
  0
LINE
  5
121
330
119
100
AcDbEntity
  8
DIMENSIONS
100
AcDbLine
 10
125.9173725768327
 20
139.8208923339844
 30
0.0
 11
120.9743985012853
 21
139.8208923339844
 31
0.0
  0
LINE
  5
122
330
119
100
AcDbEntity
  8
DIMENSIONS
100
AcDbLine
 10
129.516233921051
 20
161.8208922147751
 30
0.0
 11
120.9743985012853
 21
161.8208922147751
 31
0.0
  0
LWPOLYLINE
  5
123
330
119
100
AcDbEntity
  8
DIMENSIONS
100
AcDbPolyline
 90
        4
 70
     0
 43
0.0
 10
122.9743985012853
 20
139.8208923339844
 10
122.4743985012853
 20
142.8208923339844
 10
123.4743985012853
 20
142.8208923339844
 10
122.9743985012853
 20
139.8208923339844
  0
LINE
  5
124
330
119
100
AcDbEntity
  8
DIMENSIONS
100
AcDbLine
 10
122.9743985012853
 20
142.8208923339844
 30
0.0
 11
122.9743985012853
 21
153.3807524442673
 31
0.0
  0
LWPOLYLINE
  5
125
330
119
100
AcDbEntity
  8
DIMENSIONS
100
AcDbPolyline
 90
        4
 70
     0
 43
0.0
 10
122.9743985012853
 20
161.8208922147751
 10
123.4743985012853
 20
158.8208922147751
 10
122.4743985012853
 20
158.8208922147751
 10
122.9743985012853
 20
161.8208922147751
  0
LINE
  5
126
330
119
100
AcDbEntity
  8
DIMENSIONS
100
AcDbLine
 10
122.9743985012853
 20
158.8208922147751
 30
0.0
 11
122.9743985012853
 21
153.3807524442673
 31
0.0
  0
LINE
  5
127
330
119
100
AcDbEntity
  8
DIMENSIONS
100
AcDbLine
 10
122.9743985012853
 20
158.2029740661383
 30
0.0
 11
122.9743985012853
 21
148.5585310310125
 31
0.0
  0
HATCH
  5
128
330
119
100
AcDbEntity
  8
0
 62
     7
100
AcDbHatch
 10
0.0
 20
0.0
 30
0.0
210
0.0
220
0.0
230
1.0
  2
PLNÁ, Plné vyplnění
 70
     0
 71
     0
 91
        2
 92
        0
 93
        3
 72
     1
 10
123.4743985012853
 20
142.8208923339844
 11
122.9743985012853
 21
139.8208923339844
 72
     1
 10
122.9743985012853
 20
139.8208923339844
 11
122.4743985012853
 21
142.8208923339844
 72
     1
 10
122.4743985012853
 20
142.8208923339844
 11
123.4743985012853
 21
142.8208923339844
 97
        0
 92
        0
 93
        3
 72
     1
 10
122.4743985012853
 20
158.8208922147751
 11
122.9743985012853
 21
161.8208922147751
 72
     1
 10
122.9743985012853
 20
161.8208922147751
 11
123.4743985012853
 21
158.8208922147751
 72
     1
 10
123.4743985012853
 20
158.8208922147751
 11
122.4743985012853
 21
158.8208922147751
 97
        0
 75
     0
 76
     0
 52
0.0
 41
1.0
 77
     0
 78
     1
 53
45.0
 43
0.0
 44
0.0
 45
0.0
 46
0.0
 79
     0
 98
        0
  0
ENDBLK
  5
11B
330
119
100
AcDbEntity
  8
0
100
AcDbBlockEnd
  0
BLOCK
  5
12B
330
12A
100
AcDbEntity
  8
0
100
AcDbBlockBegin
  2
D9
 70
     0
 10
0.0
 20
0.0
 30
0.0
  3
D9
  1

  0
MTEXT
  5
12D
330
12A
100
AcDbEntity
  8
DIMENSIONS
100
AcDbMText
 10
137.3058160088808
 20
177.1545561552048
 30
0.0
 40
2.134018756842158
 41
0.0
 46
0.0
 71
     5
 72
     1
  1
{\fCE|b0|i0|c0|p0;10}{\fCE|b0|i0|c0|p0;}
 73
     1
 44
1.0
  0
MTEXT
  5
12E
330
12A
100
AcDbEntity
  8
DIMENSIONS
100
AcDbMText
 10
137.3058160088808
 20
177.1545561552048
 30
0.0
 40
2.134018756842158
 41
0.0
 46
0.0
 71
     5
 72
     1
  1
{\fCE|b0|i0|c0|p0;}
 73
     1
 44
1.0
  0
MTEXT
  5
12F
330
12A
100
AcDbEntity
  8
DIMENSIONS
100
AcDbMText
 10
137.3058160088808
 20
177.1545561552048
 30
0.0
 40
2.134018756842158
 41
0.0
 46
0.0
 71
     5
 72
     1
  1
{\fCE|b0|i0|c0|p0;}
 73
     1
 44
1.0
  0
MTEXT
  5
130
330
12A
100
AcDbEntity
  8
DIMENSIONS
100
AcDbMText
 10
134.8363715644364
 20
177.1545561552048
 30
0.0
 40
2.134018756842158
 41
0.0
 46
0.0
 71
     5
 72
     1
  1
{\fCE|b0|i0|c0|p0;}
 73
     1
 44
1.0
  0
MTEXT
  5
131
330
12A
100
AcDbEntity
  8
DIMENSIONS
100
AcDbMText
 10
139.7752604533253
 20
177.1545561552048
 30
0.0
 40
2.134018756842158
 41
0.0
 46
0.0
 71
     5
 72
     1
  1
{\fCE|b0|i0|c0|p0;}
 73
     1
 44
1.0
  0
LINE
  5
132
330
12A
100
AcDbEntity
  8
DIMENSIONS
100
AcDbLine
 10
141.5162345625608
 20
163.8208923339844
 30
0.0
 11
141.5162345625608
 21
177.3906672663159
 31
0.0
  0
LINE
  5
133
330
12A
100
AcDbEntity
  8
DIMENSIONS
100
AcDbLine
 10
131.516233921051
 20
163.8208922147751
 30
0.0
 11
131.516233921051
 21
177.3906672663159
 31
0.0
  0
LWPOLYLINE
  5
134
330
12A
100
AcDbEntity
  8
DIMENSIONS
100
AcDbPolyline
 90
        4
 70
     0
 43
0.0
 10
141.5162345625608
 20
175.3906672663159
 10
138.5162345625608
 20
174.8906672663159
 10
138.5162345625608
 20
175.8906672663159
 10
141.5162345625608
 20
175.3906672663159
  0
LINE
  5
135
330
12A
100
AcDbEntity
  8
DIMENSIONS
100
AcDbLine
 10
138.5162345625608
 20
175.3906672663159
 30
0.0
 11
137.3058160088808
 21
175.3906672663159
 31
0.0
  0
LWPOLYLINE
  5
136
330
12A
100
AcDbEntity
  8
DIMENSIONS
100
AcDbPolyline
 90
        4
 70
     0
 43
0.0
 10
131.516233921051
 20
175.3906672663159
 10
134.516233921051
 20
175.8906672663159
 10
134.516233921051
 20
174.8906672663159
 10
131.516233921051
 20
175.3906672663159
  0
LINE
  5
137
330
12A
100
AcDbEntity
  8
DIMENSIONS
100
AcDbLine
 10
134.516233921051
 20
175.3906672663159
 30
0.0
 11
137.3058160088808
 21
175.3906672663159
 31
0.0
  0
LINE
  5
138
330
12A
100
AcDbEntity
  8
DIMENSIONS
100
AcDbLine
 10
132.1308155059814
 20
175.3906672663159
 30
0.0
 11
141.775260925293
 21
175.3906672663159
 31
0.0
  0
HATCH
  5
139
330
12A
100
AcDbEntity
  8
0
 62
     7
100
AcDbHatch
 10
0.0
 20
0.0
 30
0.0
210
0.0
220
0.0
230
1.0
  2
PLNÁ, Plné vyplnění
 70
     0
 71
     0
 91
        2
 92
        0
 93
        3
 72
     1
 10
138.5162345625608
 20
175.8906672663159
 11
141.5162345625608
 21
175.3906672663159
 72
     1
 10
141.5162345625608
 20
175.3906672663159
 11
138.5162345625608
 21
174.8906672663159
 72
     1
 10
138.5162345625608
 20
174.8906672663159
 11
138.5162345625608
 21
175.8906672663159
 97
        0
 92
        0
 93
        3
 72
     1
 10
134.516233921051
 20
174.8906672663159
 11
131.516233921051
 21
175.3906672663159
 72
     1
 10
131.516233921051
 20
175.3906672663159
 11
134.516233921051
 21
175.8906672663159
 72
     1
 10
134.516233921051
 20
175.8906672663159
 11
134.516233921051
 21
174.8906672663159
 97
        0
 75
     0
 76
     0
 52
0.0
 41
1.0
 77
     0
 78
     1
 53
45.0
 43
0.0
 44
0.0
 45
0.0
 46
0.0
 79
     0
 98
        0
  0
ENDBLK
  5
12C
330
12A
100
AcDbEntity
  8
0
100
AcDbBlockEnd
  0
BLOCK
  5
13C
330
13B
100
AcDbEntity
  8
0
100
AcDbBlockBegin
  2
D10
 70
     0
 10
0.0
 20
0.0
 30
0.0
  3
D10
  1

  0
MTEXT
  5
13E
330
13B
100
AcDbEntity
  8
DIMENSIONS
100
AcDbMText
 10
168.2067718505859
 20
166.7513885498047
 30
0.0
 40
2.134018756842158
 41
0.0
 46
0.0
 71
     5
 72
     1
  1
{\fCE|b0|i0|c0|p0;10}{\fCE|b0|i0|c0|p0;}
 73
     1
 44
1.0
  0
MTEXT
  5
13F
330
13B
100
AcDbEntity
  8
DIMENSIONS
100
AcDbMText
 10
168.2067718505859
 20
166.7513885498047
 30
0.0
 40
2.134018756842158
 41
0.0
 46
0.0
 71
     5
 72
     1
  1
{\fCE|b0|i0|c0|p0;}
 73
     1
 44
1.0
  0
MTEXT
  5
140
330
13B
100
AcDbEntity
  8
DIMENSIONS
100
AcDbMText
 10
168.2067718505859
 20
166.7513885498047
 30
0.0
 40
2.134018756842158
 41
0.0
 46
0.0
 71
     5
 72
     1
  1
{\fCE|b0|i0|c0|p0;}
 73
     1
 44
1.0
  0
MTEXT
  5
141
330
13B
100
AcDbEntity
  8
DIMENSIONS
100
AcDbMText
 10
165.7373274061415
 20
166.7513885498047
 30
0.0
 40
2.134018756842158
 41
0.0
 46
0.0
 71
     5
 72
     1
  1
{\fCE|b0|i0|c0|p0;}
 73
     1
 44
1.0
  0
MTEXT
  5
142
330
13B
100
AcDbEntity
  8
DIMENSIONS
100
AcDbMText
 10
170.6762162950304
 20
166.7513885498047
 30
0.0
 40
2.134018756842158
 41
0.0
 46
0.0
 71
     5
 72
     1
  1
{\fCE|b0|i0|c0|p0;}
 73
     1
 44
1.0
  0
LINE
  5
143
330
13B
100
AcDbEntity
  8
DIMENSIONS
100
AcDbLine
 10
173.7041549682617
 20
151.8208923339844
 30
0.0
 11
173.7041549682617
 21
166.9874996609158
 31
0.0
  0
LINE
  5
144
330
13B
100
AcDbEntity
  8
DIMENSIONS
100
AcDbLine
 10
163.7041549682617
 20
157.4083923339844
 30
0.0
 11
163.7041549682617
 21
166.9874996609158
 31
0.0
  0
LWPOLYLINE
  5
145
330
13B
100
AcDbEntity
  8
DIMENSIONS
100
AcDbPolyline
 90
        4
 70
     0
 43
0.0
 10
173.7041549682617
 20
164.9874996609158
 10
170.7041549682617
 20
164.4874996609158
 10
170.7041549682617
 20
165.4874996609158
 10
173.7041549682617
 20
164.9874996609158
  0
LINE
  5
146
330
13B
100
AcDbEntity
  8
DIMENSIONS
100
AcDbLine
 10
170.7041549682617
 20
164.9874996609158
 30
0.0
 11
168.2067718505859
 21
164.9874996609158
 31
0.0
  0
LWPOLYLINE
  5
147
330
13B
100
AcDbEntity
  8
DIMENSIONS
100
AcDbPolyline
 90
        4
 70
     0
 43
0.0
 10
163.7041549682617
 20
164.9874996609158
 10
166.7041549682617
 20
165.4874996609158
 10
166.7041549682617
 20
164.4874996609158
 10
163.7041549682617
 20
164.9874996609158
  0
LINE
  5
148
330
13B
100
AcDbEntity
  8
DIMENSIONS
100
AcDbLine
 10
166.7041549682617
 20
164.9874996609158
 30
0.0
 11
168.2067718505859
 21
164.9874996609158
 31
0.0
  0
LINE
  5
149
330
13B
100
AcDbEntity
  8
DIMENSIONS
100
AcDbLine
 10
163.0317707061768
 20
164.9874996609158
 30
0.0
 11
172.6762161254883
 21
164.9874996609158
 31
0.0
  0
HATCH
  5
14A
330
13B
100
AcDbEntity
  8
0
 62
     7
100
AcDbHatch
 10
0.0
 20
0.0
 30
0.0
210
0.0
220
0.0
230
1.0
  2
PLNÁ, Plné vyplnění
 70
     0
 71
     0
 91
        2
 92
        0
 93
        3
 72
     1
 10
170.7041549682617
 20
165.4874996609158
 11
173.7041549682617
 21
164.9874996609158
 72
     1
 10
173.7041549682617
 20
164.9874996609158
 11
170.7041549682617
 21
164.4874996609158
 72
     1
 10
170.7041549682617
 20
164.4874996609158
 11
170.7041549682617
 21
165.4874996609158
 97
        0
 92
        0
 93
        3
 72
     1
 10
166.7041549682617
 20
164.4874996609158
 11
163.7041549682617
 21
164.9874996609158
 72
     1
 10
163.7041549682617
 20
164.9874996609158
 11
166.7041549682617
 21
165.4874996609158
 72
     1
 10
166.7041549682617
 20
165.4874996609158
 11
166.7041549682617
 21
164.4874996609158
 97
        0
 75
     0
 76
     0
 52
0.0
 41
1.0
 77
     0
 78
     1
 53
45.0
 43
0.0
 44
0.0
 45
0.0
 46
0.0
 79
     0
 98
        0
  0
ENDBLK
  5
13D
330
13B
100
AcDbEntity
  8
0
100
AcDbBlockEnd
  0
BLOCK
  5
14D
330
14C
100
AcDbEntity
  8
0
100
AcDbBlockBegin
  2
D11
 70
     0
 10
0.0
 20
0.0
 30
0.0
  3
D11
  1

  0
MTEXT
  5
14F
330
14C
100
AcDbEntity
  8
DIMENSIONS
100
AcDbMText
 10
115.8333240085178
 20
155.8208923339844
 30
0.0
 40
2.134018756842158
 41
0.0
 46
0.0
 71
     5
 72
     1
  1
{\fCE|b0|i0|c0|p0;32}{\fCE|b0|i0|c0|p0;}
 11
6.123031769111886E-17
 21
1.0
 31
0.0
 73
     1
 44
1.0
  0
MTEXT
  5
150
330
14C
100
AcDbEntity
  8
DIMENSIONS
100
AcDbMText
 10
115.8333240085178
 20
155.8208923339844
 30
0.0
 40
2.134018756842158
 41
0.0
 46
0.0
 71
     5
 72
     1
  1
{\fCE|b0|i0|c0|p0;}
 11
6.123031769111886E-17
 21
1.0
 31
0.0
 73
     1
 44
1.0
  0
MTEXT
  5
151
330
14C
100
AcDbEntity
  8
DIMENSIONS
100
AcDbMText
 10
115.8333240085178
 20
155.8208923339844
 30
0.0
 40
2.134018756842158
 41
0.0
 46
0.0
 71
     5
 72
     1
  1
{\fCE|b0|i0|c0|p0;}
 11
6.123031769111886E-17
 21
1.0
 31
0.0
 73
     1
 44
1.0
  0
MTEXT
  5
152
330
14C
100
AcDbEntity
  8
DIMENSIONS
100
AcDbMText
 10
115.8333240085178
 20
153.3514478895399
 30
0.0
 40
2.134018756842158
 41
0.0
 46
0.0
 71
     5
 72
     1
  1
{\fCE|b0|i0|c0|p0;}
 11
6.123031769111886E-17
 21
1.0
 31
0.0
 73
     1
 44
1.0
  0
MTEXT
  5
153
330
14C
100
AcDbEntity
  8
DIMENSIONS
100
AcDbMText
 10
115.8333240085178
 20
158.2903367784288
 30
0.0
 40
2.134018756842158
 41
0.0
 46
0.0
 71
     5
 72
     1
  1
{\fCE|b0|i0|c0|p0;}
 11
6.123031769111886E-17
 21
1.0
 31
0.0
 73
     1
 44
1.0
  0
LINE
  5
154
330
14C
100
AcDbEntity
  8
DIMENSIONS
100
AcDbLine
 10
125.9173725768327
 20
139.8208923339844
 30
0.0
 11
115.5972128974067
 21
139.8208923339844
 31
0.0
  0
LINE
  5
155
330
14C
100
AcDbEntity
  8
DIMENSIONS
100
AcDbLine
 10
120.5104043729102
 20
171.8208923339844
 30
0.0
 11
115.5972128974067
 21
171.8208923339844
 31
0.0
  0
LWPOLYLINE
  5
156
330
14C
100
AcDbEntity
  8
DIMENSIONS
100
AcDbPolyline
 90
        4
 70
     0
 43
0.0
 10
117.5972128974067
 20
139.8208923339844
 10
117.0972128974067
 20
142.8208923339844
 10
118.0972128974067
 20
142.8208923339844
 10
117.5972128974067
 20
139.8208923339844
  0
LINE
  5
157
330
14C
100
AcDbEntity
  8
DIMENSIONS
100
AcDbLine
 10
117.5972128974067
 20
142.8208923339844
 30
0.0
 11
117.5972128974067
 21
155.8208923339844
 31
0.0
  0
LWPOLYLINE
  5
158
330
14C
100
AcDbEntity
  8
DIMENSIONS
100
AcDbPolyline
 90
        4
 70
     0
 43
0.0
 10
117.5972128974067
 20
171.8208923339844
 10
118.0972128974067
 20
168.8208923339844
 10
117.0972128974067
 20
168.8208923339844
 10
117.5972128974067
 20
171.8208923339844
  0
LINE
  5
159
330
14C
100
AcDbEntity
  8
DIMENSIONS
100
AcDbLine
 10
117.5972128974067
 20
168.8208923339844
 30
0.0
 11
117.5972128974067
 21
155.8208923339844
 31
0.0
  0
LINE
  5
15A
330
14C
100
AcDbEntity
  8
DIMENSIONS
100
AcDbLine
 10
117.5972128974067
 20
160.6431149840355
 30
0.0
 11
117.5972128974067
 21
150.998669564724
 31
0.0
  0
HATCH
  5
15B
330
14C
100
AcDbEntity
  8
0
 62
     7
100
AcDbHatch
 10
0.0
 20
0.0
 30
0.0
210
0.0
220
0.0
230
1.0
  2
PLNÁ, Plné vyplnění
 70
     0
 71
     0
 91
        2
 92
        0
 93
        3
 72
     1
 10
118.0972128974067
 20
142.8208923339844
 11
117.5972128974067
 21
139.8208923339844
 72
     1
 10
117.5972128974067
 20
139.8208923339844
 11
117.0972128974067
 21
142.8208923339844
 72
     1
 10
117.0972128974067
 20
142.8208923339844
 11
118.0972128974067
 21
142.8208923339844
 97
        0
 92
        0
 93
        3
 72
     1
 10
117.0972128974067
 20
168.8208923339844
 11
117.5972128974067
 21
171.8208923339844
 72
     1
 10
117.5972128974067
 20
171.8208923339844
 11
118.0972128974067
 21
168.8208923339844
 72
     1
 10
118.0972128974067
 20
168.8208923339844
 11
117.0972128974067
 21
168.8208923339844
 97
        0
 75
     0
 76
     0
 52
0.0
 41
1.0
 77
     0
 78
     1
 53
45.0
 43
0.0
 44
0.0
 45
0.0
 46
0.0
 79
     0
 98
        0
  0
ENDBLK
  5
14E
330
14C
100
AcDbEntity
  8
0
100
AcDbBlockEnd
  0
BLOCK
  5
15E
330
15D
100
AcDbEntity
  8
0
100
AcDbBlockBegin
  2
D12
 70
     0
 10
0.0
 20
0.0
 30
0.0
  3
D12
  1

  0
MTEXT
  5
160
330
15D
100
AcDbEntity
  8
DIMENSIONS
100
AcDbMText
 10
132.8570251464844
 20
181.9190216064453
 30
0.0
 40
2.134018756842158
 41
0.0
 46
0.0
 71
     5
 72
     1
  1
{\fCE|b0|i0|c0|p0;19}{\fCE|b0|i0|c0|p0;}
 73
     1
 44
1.0
  0
MTEXT
  5
161
330
15D
100
AcDbEntity
  8
DIMENSIONS
100
AcDbMText
 10
132.8570251464844
 20
181.9190216064453
 30
0.0
 40
2.134018756842158
 41
0.0
 46
0.0
 71
     5
 72
     1
  1
{\fCE|b0|i0|c0|p0;}
 73
     1
 44
1.0
  0
MTEXT
  5
162
330
15D
100
AcDbEntity
  8
DIMENSIONS
100
AcDbMText
 10
132.8570251464844
 20
181.9190216064453
 30
0.0
 40
2.134018756842158
 41
0.0
 46
0.0
 71
     5
 72
     1
  1
{\fCE|b0|i0|c0|p0;}
 73
     1
 44
1.0
  0
MTEXT
  5
163
330
15D
100
AcDbEntity
  8
DIMENSIONS
100
AcDbMText
 10
130.3875807020399
 20
181.9190216064453
 30
0.0
 40
2.134018756842158
 41
0.0
 46
0.0
 71
     5
 72
     1
  1
{\fCE|b0|i0|c0|p0;}
 73
     1
 44
1.0
  0
MTEXT
  5
164
330
15D
100
AcDbEntity
  8
DIMENSIONS
100
AcDbMText
 10
135.3264695909288
 20
181.9190216064453
 30
0.0
 40
2.134018756842158
 41
0.0
 46
0.0
 71
     5
 72
     1
  1
{\fCE|b0|i0|c0|p0;}
 73
     1
 44
1.0
  0
LINE
  5
165
330
15D
100
AcDbEntity
  8
DIMENSIONS
100
AcDbLine
 10
141.5162345625608
 20
163.8208923339844
 30
0.0
 11
141.5162345625608
 21
182.1551327175564
 31
0.0
  0
LINE
  5
166
330
15D
100
AcDbEntity
  8
DIMENSIONS
100
AcDbLine
 10
122.5104043729102
 20
173.8208923339844
 30
0.0
 11
122.5104043729102
 21
182.1551327175564
 31
0.0
  0
LWPOLYLINE
  5
167
330
15D
100
AcDbEntity
  8
DIMENSIONS
100
AcDbPolyline
 90
        4
 70
     0
 43
0.0
 10
141.5162345625608
 20
180.1551327175565
 10
138.5162345625608
 20
179.6551327175564
 10
138.5162345625608
 20
180.6551327175564
 10
141.5162345625608
 20
180.1551327175565
  0
LINE
  5
168
330
15D
100
AcDbEntity
  8
DIMENSIONS
100
AcDbLine
 10
138.5162345625608
 20
180.1551327175564
 30
0.0
 11
132.8570251464844
 21
180.1551327175564
 31
0.0
  0
LWPOLYLINE
  5
169
330
15D
100
AcDbEntity
  8
DIMENSIONS
100
AcDbPolyline
 90
        4
 70
     0
 43
0.0
 10
122.5104043729102
 20
180.1551327175564
 10
125.5104043729102
 20
180.6551327175564
 10
125.5104043729102
 20
179.6551327175564
 10
122.5104043729102
 20
180.1551327175564
  0
LINE
  5
16A
330
15D
100
AcDbEntity
  8
DIMENSIONS
100
AcDbLine
 10
125.5104043729102
 20
180.1551327175564
 30
0.0
 11
132.8570251464844
 21
180.1551327175564
 31
0.0
  0
LINE
  5
16B
330
15D
100
AcDbEntity
  8
DIMENSIONS
100
AcDbLine
 10
127.6820249557495
 20
180.1551327175564
 30
0.0
 11
137.326470375061
 21
180.1551327175564
 31
0.0
  0
HATCH
  5
16C
330
15D
100
AcDbEntity
  8
0
 62
     7
100
AcDbHatch
 10
0.0
 20
0.0
 30
0.0
210
0.0
220
0.0
230
1.0
  2
PLNÁ, Plné vyplnění
 70
     0
 71
     0
 91
        2
 92
        0
 93
        3
 72
     1
 10
138.5162345625608
 20
180.6551327175564
 11
141.5162345625608
 21
180.1551327175565
 72
     1
 10
141.5162345625608
 20
180.1551327175565
 11
138.5162345625608
 21
179.6551327175564
 72
     1
 10
138.5162345625608
 20
179.6551327175564
 11
138.5162345625608
 21
180.6551327175564
 97
        0
 92
        0
 93
        3
 72
     1
 10
125.5104043729102
 20
179.6551327175564
 11
122.5104043729102
 21
180.1551327175564
 72
     1
 10
122.5104043729102
 20
180.1551327175564
 11
125.5104043729102
 21
180.6551327175564
 72
     1
 10
125.5104043729102
 20
180.6551327175564
 11
125.5104043729102
 21
179.6551327175564
 97
        0
 75
     0
 76
     0
 52
0.0
 41
1.0
 77
     0
 78
     1
 53
45.0
 43
0.0
 44
0.0
 45
0.0
 46
0.0
 79
     0
 98
        0
  0
ENDBLK
  5
15F
330
15D
100
AcDbEntity
  8
0
100
AcDbBlockEnd
  0
BLOCK
  5
190
330
18F
100
AcDbEntity
  8
0
100
AcDbBlockBegin
  2
D13
 70
     0
 10
0.0
 20
0.0
 30
0.0
  3
D13
  1

  0
MTEXT
  5
192
330
18F
100
AcDbEntity
  8
DIMENSIONS
100
AcDbMText
 10
181.309326171875
 20
62.83420181274413
 30
0.0
 40
2.134018756842158
 41
0.0
 46
0.0
 71
     5
 72
     1
  1
{\fCE|b0|i0|c0|p0;4}{\fCE|b0|i0|c0|p0;}
 11
6.123031769111886E-17
 21
1.0
 31
0.0
 73
     1
 44
1.0
  0
MTEXT
  5
193
330
18F
100
AcDbEntity
  8
DIMENSIONS
100
AcDbMText
 10
181.309326171875
 20
62.83420181274413
 30
0.0
 40
2.134018756842158
 41
0.0
 46
0.0
 71
     5
 72
     1
  1
{\fCE|b0|i0|c0|p0;}
 11
6.123031769111886E-17
 21
1.0
 31
0.0
 73
     1
 44
1.0
  0
MTEXT
  5
194
330
18F
100
AcDbEntity
  8
DIMENSIONS
100
AcDbMText
 10
181.309326171875
 20
62.83420181274413
 30
0.0
 40
2.134018756842158
 41
0.0
 46
0.0
 71
     5
 72
     1
  1
{\fCE|b0|i0|c0|p0;}
 11
6.123031769111886E-17
 21
1.0
 31
0.0
 73
     1
 44
1.0
  0
MTEXT
  5
195
330
18F
100
AcDbEntity
  8
DIMENSIONS
100
AcDbMText
 10
181.309326171875
 20
61.24670181274413
 30
0.0
 40
2.134018756842158
 41
0.0
 46
0.0
 71
     5
 72
     1
  1
{\fCE|b0|i0|c0|p0;}
 11
6.123031769111886E-17
 21
1.0
 31
0.0
 73
     1
 44
1.0
  0
MTEXT
  5
196
330
18F
100
AcDbEntity
  8
DIMENSIONS
100
AcDbMText
 10
181.309326171875
 20
64.42170181274413
 30
0.0
 40
2.134018756842158
 41
0.0
 46
0.0
 71
     5
 72
     1
  1
{\fCE|b0|i0|c0|p0;}
 11
6.123031769111886E-17
 21
1.0
 31
0.0
 73
     1
 44
1.0
  0
LINE
  5
197
330
18F
100
AcDbEntity
  8
DIMENSIONS
100
AcDbLine
 10
175.7041549682617
 20
61.20460486412048
 30
0.0
 11
185.0732150607639
 21
61.20460486412048
 31
0.0
  0
LINE
  5
198
330
18F
100
AcDbEntity
  8
DIMENSIONS
100
AcDbLine
 10
175.7041549682617
 20
65.20460486412048
 30
0.0
 11
185.0732150607639
 21
65.20460486412048
 31
0.0
  0
LWPOLYLINE
  5
199
330
18F
100
AcDbEntity
  8
DIMENSIONS
100
AcDbPolyline
 90
        4
 70
     0
 43
0.0
 10
183.0732150607639
 20
61.20460486412048
 10
183.5732150607639
 20
58.20460486412048
 10
182.5732150607639
 20
58.20460486412048
 10
183.0732150607639
 20
61.20460486412048
  0
LINE
  5
19A
330
18F
100
AcDbEntity
  8
DIMENSIONS
100
AcDbLine
 10
183.0732150607639
 20
58.20460486412048
 30
0.0
 11
183.0732150607639
 21
57.60460486412048
 31
0.0
  0
LWPOLYLINE
  5
19B
330
18F
100
AcDbEntity
  8
DIMENSIONS
100
AcDbPolyline
 90
        4
 70
     0
 43
0.0
 10
183.0732150607639
 20
65.20460486412048
 10
182.5732150607639
 20
68.20460486412048
 10
183.5732150607639
 20
68.20460486412048
 10
183.0732150607639
 20
65.20460486412048
  0
LINE
  5
19C
330
18F
100
AcDbEntity
  8
DIMENSIONS
100
AcDbLine
 10
183.0732150607639
 20
68.20460486412048
 30
0.0
 11
183.0732150607639
 21
68.80460486412048
 31
0.0
  0
LINE
  5
19D
330
18F
100
AcDbEntity
  8
DIMENSIONS
100
AcDbLine
 10
183.0732150607639
 20
66.7744807600975
 30
0.0
 11
183.0732150607639
 21
58.8939227461815
 31
0.0
  0
HATCH
  5
19E
330
18F
100
AcDbEntity
  8
0
 62
     7
100
AcDbHatch
 10
0.0
 20
0.0
 30
0.0
210
0.0
220
0.0
230
1.0
  2
PLNÁ, Plné vyplnění
 70
     0
 71
     0
 91
        2
 92
        0
 93
        3
 72
     1
 10
182.5732150607639
 20
58.20460486412048
 11
183.0732150607639
 21
61.20460486412048
 72
     1
 10
183.0732150607639
 20
61.20460486412048
 11
183.5732150607639
 21
58.20460486412048
 72
     1
 10
183.5732150607639
 20
58.20460486412048
 11
182.5732150607639
 21
58.20460486412048
 97
        0
 92
        0
 93
        3
 72
     1
 10
183.5732150607639
 20
68.20460486412048
 11
183.0732150607639
 21
65.20460486412048
 72
     1
 10
183.0732150607639
 20
65.20460486412048
 11
182.5732150607639
 21
68.20460486412048
 72
     1
 10
182.5732150607639
 20
68.20460486412048
 11
183.5732150607639
 21
68.20460486412048
 97
        0
 75
     0
 76
     0
 52
0.0
 41
1.0
 77
     0
 78
     1
 53
45.0
 43
0.0
 44
0.0
 45
0.0
 46
0.0
 79
     0
 98
        0
  0
ENDBLK
  5
191
330
18F
100
AcDbEntity
  8
0
100
AcDbBlockEnd
  0
BLOCK
  5
1A1
330
1A0
100
AcDbEntity
  8
0
100
AcDbBlockBegin
  2
D14
 70
     0
 10
0.0
 20
0.0
 30
0.0
  3
D14
  1

  0
MTEXT
  5
1A3
330
1A0
100
AcDbEntity
  8
DIMENSIONS
100
AcDbMText
 10
45.20667266845702
 20
61.92226791381836
 30
0.0
 40
2.134018756842158
 41
0.0
 46
0.0
 71
     5
 72
     1
  1
{\fCE|b0|i0|c0|p0;8}{\fCE|b0|i0|c0|p0;}
 11
6.123031769111886E-17
 21
1.0
 31
0.0
 73
     1
 44
1.0
  0
MTEXT
  5
1A4
330
1A0
100
AcDbEntity
  8
DIMENSIONS
100
AcDbMText
 10
45.20667266845702
 20
61.92226791381836
 30
0.0
 40
2.134018756842158
 41
0.0
 46
0.0
 71
     5
 72
     1
  1
{\fCE|b0|i0|c0|p0;}
 11
6.123031769111886E-17
 21
1.0
 31
0.0
 73
     1
 44
1.0
  0
MTEXT
  5
1A5
330
1A0
100
AcDbEntity
  8
DIMENSIONS
100
AcDbMText
 10
45.20667266845702
 20
61.92226791381836
 30
0.0
 40
2.134018756842158
 41
0.0
 46
0.0
 71
     5
 72
     1
  1
{\fCE|b0|i0|c0|p0;}
 11
6.123031769111886E-17
 21
1.0
 31
0.0
 73
     1
 44
1.0
  0
MTEXT
  5
1A6
330
1A0
100
AcDbEntity
  8
DIMENSIONS
100
AcDbMText
 10
45.20667266845702
 20
60.33476791381836
 30
0.0
 40
2.134018756842158
 41
0.0
 46
0.0
 71
     5
 72
     1
  1
{\fCE|b0|i0|c0|p0;}
 11
6.123031769111886E-17
 21
1.0
 31
0.0
 73
     1
 44
1.0
  0
MTEXT
  5
1A7
330
1A0
100
AcDbEntity
  8
DIMENSIONS
100
AcDbMText
 10
45.20667266845702
 20
63.50976791381836
 30
0.0
 40
2.134018756842158
 41
0.0
 46
0.0
 71
     5
 72
     1
  1
{\fCE|b0|i0|c0|p0;}
 11
6.123031769111886E-17
 21
1.0
 31
0.0
 73
     1
 44
1.0
  0
LINE
  5
1A8
330
1A0
100
AcDbEntity
  8
DIMENSIONS
100
AcDbLine
 10
48.20415496826172
 20
65.20460486412048
 30
0.0
 11
44.97056155734591
 21
65.20460486412048
 31
0.0
  0
LINE
  5
1A9
330
1A0
100
AcDbEntity
  8
DIMENSIONS
100
AcDbLine
 10
48.20415496826172
 20
57.20460486412048
 30
0.0
 11
44.97056155734591
 21
57.20460486412048
 31
0.0
  0
LWPOLYLINE
  5
1AA
330
1A0
100
AcDbEntity
  8
DIMENSIONS
100
AcDbPolyline
 90
        4
 70
     0
 43
0.0
 10
46.97056155734591
 20
65.20460486412048
 10
47.47056155734591
 20
62.20460486412048
 10
46.47056155734591
 20
62.20460486412048
 10
46.97056155734591
 20
65.20460486412048
  0
LINE
  5
1AB
330
1A0
100
AcDbEntity
  8
DIMENSIONS
100
AcDbLine
 10
46.97056155734591
 20
62.20460486412048
 30
0.0
 11
46.97056155734591
 21
61.92226791381836
 31
0.0
  0
LWPOLYLINE
  5
1AC
330
1A0
100
AcDbEntity
  8
DIMENSIONS
100
AcDbPolyline
 90
        4
 70
     0
 43
0.0
 10
46.97056155734591
 20
57.20460486412048
 10
46.47056155734591
 20
60.20460486412048
 10
47.47056155734591
 20
60.20460486412048
 10
46.97056155734591
 20
57.20460486412048
  0
LINE
  5
1AD
330
1A0
100
AcDbEntity
  8
DIMENSIONS
100
AcDbLine
 10
46.97056155734591
 20
60.20460486412048
 30
0.0
 11
46.97056155734591
 21
61.92226791381836
 31
0.0
  0
LINE
  5
1AE
330
1A0
100
AcDbEntity
  8
DIMENSIONS
100
AcDbLine
 10
46.97056155734591
 20
57.98199135065079
 30
0.0
 11
46.97056155734591
 21
65.86254459619522
 31
0.0
  0
HATCH
  5
1AF
330
1A0
100
AcDbEntity
  8
0
 62
     7
100
AcDbHatch
 10
0.0
 20
0.0
 30
0.0
210
0.0
220
0.0
230
1.0
  2
PLNÁ, Plné vyplnění
 70
     0
 71
     0
 91
        2
 92
        0
 93
        3
 72
     1
 10
46.47056155734591
 20
62.20460486412048
 11
46.97056155734591
 21
65.20460486412048
 72
     1
 10
46.97056155734591
 20
65.20460486412048
 11
47.47056155734591
 21
62.20460486412048
 72
     1
 10
47.47056155734591
 20
62.20460486412048
 11
46.47056155734591
 21
62.20460486412048
 97
        0
 92
        0
 93
        3
 72
     1
 10
47.47056155734591
 20
60.20460486412048
 11
46.97056155734591
 21
57.20460486412048
 72
     1
 10
46.97056155734591
 20
57.20460486412048
 11
46.47056155734591
 21
60.20460486412048
 72
     1
 10
46.47056155734591
 20
60.20460486412048
 11
47.47056155734591
 21
60.20460486412048
 97
        0
 75
     0
 76
     0
 52
0.0
 41
1.0
 77
     0
 78
     1
 53
45.0
 43
0.0
 44
0.0
 45
0.0
 46
0.0
 79
     0
 98
        0
  0
ENDBLK
  5
1A2
330
1A0
100
AcDbEntity
  8
0
100
AcDbBlockEnd
  0
BLOCK
  5
1BC
330
1BB
100
AcDbEntity
  8
0
100
AcDbBlockBegin
  2
D15
 70
     0
 10
0.0
 20
0.0
 30
0.0
  3
D15
  1

  0
MTEXT
  5
1BE
330
1BB
100
AcDbEntity
  8
DIMENSIONS
100
AcDbMText
 10
244.1941223144531
 20
104.4483947753906
 30
0.0
 40
2.134018756842158
 41
0.0
 46
0.0
 71
     5
 72
     1
  1
{\fCE|b0|i0|c0|p0;8}{\fCE|b0|i0|c0|p0;}
 73
     1
 44
1.0
  0
MTEXT
  5
1BF
330
1BB
100
AcDbEntity
  8
DIMENSIONS
100
AcDbMText
 10
244.1941223144531
 20
104.4483947753906
 30
0.0
 40
2.134018756842158
 41
0.0
 46
0.0
 71
     5
 72
     1
  1
{\fCE|b0|i0|c0|p0;}
 73
     1
 44
1.0
  0
MTEXT
  5
1C0
330
1BB
100
AcDbEntity
  8
DIMENSIONS
100
AcDbMText
 10
244.1941223144531
 20
104.4483947753906
 30
0.0
 40
2.134018756842158
 41
0.0
 46
0.0
 71
     5
 72
     1
  1
{\fCE|b0|i0|c0|p0;}
 73
     1
 44
1.0
  0
MTEXT
  5
1C1
330
1BB
100
AcDbEntity
  8
DIMENSIONS
100
AcDbMText
 10
242.6066223144531
 20
104.4483947753906
 30
0.0
 40
2.134018756842158
 41
0.0
 46
0.0
 71
     5
 72
     1
  1
{\fCE|b0|i0|c0|p0;}
 73
     1
 44
1.0
  0
MTEXT
  5
1C2
330
1BB
100
AcDbEntity
  8
DIMENSIONS
100
AcDbMText
 10
245.7816223144531
 20
104.4483947753906
 30
0.0
 40
2.134018756842158
 41
0.0
 46
0.0
 71
     5
 72
     1
  1
{\fCE|b0|i0|c0|p0;}
 73
     1
 44
1.0
  0
LINE
  5
1C3
330
1BB
100
AcDbEntity
  8
DIMENSIONS
100
AcDbLine
 10
239.93430352211
 20
108.3208923339844
 30
0.0
 11
239.93430352211
 21
100.6845058865017
 31
0.0
  0
LINE
  5
1C4
330
1BB
100
AcDbEntity
  8
DIMENSIONS
100
AcDbLine
 10
247.93430352211
 20
108.3208923339844
 30
0.0
 11
247.93430352211
 21
100.6845058865017
 31
0.0
  0
LWPOLYLINE
  5
1C5
330
1BB
100
AcDbEntity
  8
DIMENSIONS
100
AcDbPolyline
 90
        4
 70
     0
 43
0.0
 10
239.93430352211
 20
102.6845058865017
 10
242.93430352211
 20
103.1845058865017
 10
242.93430352211
 20
102.1845058865017
 10
239.93430352211
 20
102.6845058865017
  0
LINE
  5
1C6
330
1BB
100
AcDbEntity
  8
DIMENSIONS
100
AcDbLine
 10
242.93430352211
 20
102.6845058865017
 30
0.0
 11
244.1941223144531
 21
102.6845058865017
 31
0.0
  0
LWPOLYLINE
  5
1C7
330
1BB
100
AcDbEntity
  8
DIMENSIONS
100
AcDbPolyline
 90
        4
 70
     0
 43
0.0
 10
247.93430352211
 20
102.6845058865017
 10
244.93430352211
 20
102.1845058865017
 10
244.93430352211
 20
103.1845058865017
 10
247.93430352211
 20
102.6845058865017
  0
LINE
  5
1C8
330
1BB
100
AcDbEntity
  8
DIMENSIONS
100
AcDbLine
 10
244.93430352211
 20
102.6845058865017
 30
0.0
 11
244.1941223144531
 21
102.6845058865017
 31
0.0
  0
LINE
  5
1C9
330
1BB
100
AcDbEntity
  8
DIMENSIONS
100
AcDbLine
 10
247.7816222906113
 20
102.6845058865017
 30
0.0
 11
239.9010668098927
 21
102.6845058865017
 31
0.0
  0
HATCH
  5
1CA
330
1BB
100
AcDbEntity
  8
0
 62
     7
100
AcDbHatch
 10
0.0
 20
0.0
 30
0.0
210
0.0
220
0.0
230
1.0
  2
PLNÁ, Plné vyplnění
 70
     0
 71
     0
 91
        2
 92
        0
 93
        3
 72
     1
 10
242.93430352211
 20
102.1845058865017
 11
239.93430352211
 21
102.6845058865017
 72
     1
 10
239.93430352211
 20
102.6845058865017
 11
242.93430352211
 21
103.1845058865017
 72
     1
 10
242.93430352211
 20
103.1845058865017
 11
242.93430352211
 21
102.1845058865017
 97
        0
 92
        0
 93
        3
 72
     1
 10
244.93430352211
 20
103.1845058865017
 11
247.93430352211
 21
102.6845058865017
 72
     1
 10
247.93430352211
 20
102.6845058865017
 11
244.93430352211
 21
102.1845058865017
 72
     1
 10
244.93430352211
 20
102.1845058865017
 11
244.93430352211
 21
103.1845058865017
 97
        0
 75
     0
 76
     0
 52
0.0
 41
1.0
 77
     0
 78
     1
 53
45.0
 43
0.0
 44
0.0
 45
0.0
 46
0.0
 79
     0
 98
        0
  0
ENDBLK
  5
1BD
330
1BB
100
AcDbEntity
  8
0
100
AcDbBlockEnd
  0
BLOCK
  5
22E
330
22D
100
AcDbEntity
  8
0
100
AcDbBlockBegin
  2
BLOCK0
 70
     0
 10
0.0
 20
0.0
 30
0.0
  3
BLOCK0
  1

  0
LINE
  5
230
330
22D
100
AcDbEntity
  8
CONTINUOUS
100
AcDbLine
 10
9.99999999999998
 20
9.99999999999995
 30
0.0
 11
287.0
 21
10.0
 31
0.0
  0
LINE
  5
231
330
22D
100
AcDbEntity
  8
CONTINUOUS
100
AcDbLine
 10
141.942321777344
 20
5.0
 30
0.0
 11
241.942321777344
 21
5.0
 31
0.0
  0
LINE
  5
232
330
22D
100
AcDbEntity
  8
CONTINUOUS
100
AcDbLine
 10
0.0
 20
0.0
 30
0.0
 11
-0.0000000000000012
 21
10.0
 31
0.0
  0
LINE
  5
233
330
22D
100
AcDbEntity
  8
CONTINUOUS
100
AcDbLine
 10
0.0
 20
0.0
 30
0.0
 11
10.0
 21
0.0000000000000018
 31
0.0
  0
LINE
  5
234
330
22D
100
AcDbEntity
  8
CONTINUOUS
100
AcDbLine
 10
141.942321777344
 20
5.0
 30
0.0
 11
141.942321777344
 21
10.0
 31
0.0
  0
LINE
  5
235
330
22D
100
AcDbEntity
  8
CONTINUOUS
100
AcDbLine
 10
151.942321777344
 20
5.0
 30
0.0
 11
151.942321777344
 21
10.0
 31
0.0
  0
LINE
  5
236
330
22D
100
AcDbEntity
  8
CONTINUOUS
100
AcDbLine
 10
161.942321777344
 20
5.0
 30
0.0
 11
161.942321777344
 21
10.0
 31
0.0
  0
LINE
  5
237
330
22D
100
AcDbEntity
  8
CONTINUOUS
100
AcDbLine
 10
10.0
 20
57.5
 30
0.0
 11
5.0
 21
57.5
 31
0.0
  0
LINE
  5
238
330
22D
100
AcDbEntity
  8
CONTINUOUS
100
AcDbLine
 10
10.0
 20
105.0
 30
0.0
 11
5.0
 21
105.0
 31
0.0
  0
LINE
  5
239
330
22D
100
AcDbEntity
  8
CONTINUOUS
100
AcDbLine
 10
191.942321777344
 20
10.0
 30
0.0
 11
191.942321777344
 21
5.0
 31
0.0
  0
LINE
  5
23A
330
22D
100
AcDbEntity
  8
CONTINUOUS
100
AcDbLine
 10
171.942321777344
 20
5.0
 30
0.0
 11
171.942321777344
 21
10.0
 31
0.0
  0
LINE
  5
23B
330
22D
100
AcDbEntity
  8
CONTINUOUS
100
AcDbLine
 10
181.942321777344
 20
5.0
 30
0.0
 11
181.942321777344
 21
10.0
 31
0.0
  0
LINE
  5
23C
330
22D
100
AcDbEntity
  8
CONTINUOUS
100
AcDbLine
 10
201.942321777344
 20
5.0
 30
0.0
 11
201.942321777344
 21
10.0
 31
0.0
  0
LINE
  5
23D
330
22D
100
AcDbEntity
  8
CONTINUOUS
100
AcDbLine
 10
211.942321777344
 20
5.0
 30
0.0
 11
211.942321777344
 21
10.0
 31
0.0
  0
LINE
  5
23E
330
22D
100
AcDbEntity
  8
CONTINUOUS
100
AcDbLine
 10
221.942321777344
 20
5.0
 30
0.0
 11
221.942321777344
 21
10.0
 31
0.0
  0
LINE
  5
23F
330
22D
100
AcDbEntity
  8
CONTINUOUS
100
AcDbLine
 10
297.0
 20
0.0
 30
0.0
 11
297.0
 21
10.0
 31
0.0
  0
LINE
  5
240
330
22D
100
AcDbEntity
  8
CONTINUOUS
100
AcDbLine
 10
241.942321777344
 20
5.0
 30
0.0
 11
241.942321777344
 21
10.0
 31
0.0
  0
LINE
  5
241
330
22D
100
AcDbEntity
  8
CONTINUOUS
100
AcDbLine
 10
231.942321777344
 20
5.0
 30
0.0
 11
231.942321777344
 21
10.0
 31
0.0
  0
LINE
  5
242
330
22D
100
AcDbEntity
  8
CONTINUOUS
100
AcDbLine
 10
296.942321777344
 20
0.0
 30
0.0
 11
286.942321777344
 21
0.0
 31
0.0
  0
LINE
  5
243
330
22D
100
AcDbEntity
  8
CONTINUOUS
100
AcDbLine
 10
291.942321777344
 20
57.5
 30
0.0
 11
286.942321777344
 21
57.5
 31
0.0
  0
LINE
  5
244
330
22D
100
AcDbEntity
  8
CONTINUOUS
100
AcDbLine
 10
291.942321777344
 20
105.0
 30
0.0
 11
286.942321777344
 21
105.0
 31
0.0
  0
LINE
  5
245
330
22D
100
AcDbEntity
  8
CONTINUOUS
100
AcDbLine
 10
-0.0000000000000249
 20
209.989334106445
 30
0.0
 11
-0.0000000000000249
 21
199.989334106445
 31
0.0
  0
LINE
  5
246
330
22D
100
AcDbEntity
  8
CONTINUOUS
100
AcDbLine
 10
10.0165710449219
 20
209.989334106445
 30
0.0
 11
0.016571044921875
 21
209.989334106445
 31
0.0
  0
LINE
  5
247
330
22D
100
AcDbEntity
  8
CONTINUOUS
100
AcDbLine
 10
194.666666666667
 20
199.989334106445
 30
0.0
 11
194.666666666667
 21
204.989334106445
 31
0.0
  0
LINE
  5
248
330
22D
100
AcDbEntity
  8
CONTINUOUS
100
AcDbLine
 10
297.0
 20
199.989334106445
 30
0.0
 11
297.0
 21
209.989334106445
 31
0.0
  0
LINE
  5
249
330
22D
100
AcDbEntity
  8
CONTINUOUS
100
AcDbLine
 10
240.833333333333
 20
199.989334106445
 30
0.0
 11
240.833333333333
 21
204.989334106445
 31
0.0
  0
LINE
  5
24A
330
22D
100
AcDbEntity
  8
CONTINUOUS
100
AcDbLine
 10
296.958892822266
 20
209.989334106445
 30
0.0
 11
286.958892822266
 21
209.989334106445
 31
0.0
  0
LINE
  5
24B
330
22D
100
AcDbEntity
  8
CONTINUOUS
100
AcDbLine
 10
286.942321777344
 20
152.5
 30
0.0
 11
291.942321777344
 21
152.5
 31
0.0
  0
LINE
  5
24C
330
22D
100
AcDbEntity
  8
CONTINUOUS
100
AcDbLine
 10
5.0
 20
152.5
 30
0.0
 11
10.0
 21
152.5
 31
0.0
  0
LINE
  5
24D
330
22D
100
AcDbEntity
  8
CONTINUOUS
100
AcDbLine
 10
287.0
 20
200.0
 30
0.0
 11
9.99999999999998
 21
200.0
 31
0.0
  0
LINE
  5
24E
330
22D
100
AcDbEntity
  8
CONTINUOUS
100
AcDbLine
 10
287.0
 20
10.0
 30
0.0
 11
287.0
 21
200.0
 31
0.0
  0
LINE
  5
24F
330
22D
100
AcDbEntity
  8
CONTINUOUS
100
AcDbLine
 10
9.99999999999998
 20
200.0
 30
0.0
 11
9.99999999999998
 21
9.99999999999995
 31
0.0
  0
LINE
  5
250
330
22D
100
AcDbEntity
  8
CONTINUOUS
100
AcDbLine
 10
56.1666666666666
 20
200.0
 30
0.0
 11
56.1666666666666
 21
205.0
 31
0.0
  0
LINE
  5
251
330
22D
100
AcDbEntity
  8
CONTINUOUS
100
AcDbLine
 10
102.333333333333
 20
200.0
 30
0.0
 11
102.333333333333
 21
205.0
 31
0.0
  0
LINE
  5
252
330
22D
100
AcDbEntity
  8
CONTINUOUS
100
AcDbLine
 10
148.5
 20
200.0
 30
0.0
 11
148.5
 21
205.0
 31
0.0
  0
LINE
  5
253
330
22D
100
AcDbEntity
  8
CONTINUOUS
100
AcDbLine
 10
56.1666679382324
 20
10.0
 30
0.0
 11
56.1666679382324
 21
5.0
 31
0.0
  0
LINE
  5
254
330
22D
100
AcDbEntity
  8
CONTINUOUS
100
AcDbLine
 10
102.333335876465
 20
10.0
 30
0.0
 11
102.333335876465
 21
5.0
 31
0.0
  0
LINE
  5
255
330
22D
100
AcDbEntity
  8
CONTINUOUS
100
AcDbLine
 10
194.0
 20
10.0
 30
0.0
 11
194.0
 21
48.0
 31
0.0
  0
LINE
  5
256
330
22D
100
AcDbEntity
  8
CONTINUOUS
100
AcDbLine
 10
251.0
 20
10.0
 30
0.0
 11
251.0
 21
20.0
 31
0.0
  0
LINE
  5
257
330
22D
100
AcDbEntity
  8
CONTINUOUS
100
AcDbLine
 10
269.0
 20
10.0
 30
0.0
 11
269.0
 21
20.0
 31
0.0
  0
LINE
  5
258
330
22D
100
AcDbEntity
  8
CONTINUOUS
100
AcDbLine
 10
229.0
 20
9.99999999999999
 30
0.0
 11
229.0
 21
20.0
 31
0.0
  0
LINE
  5
259
330
22D
100
AcDbEntity
  8
CONTINUOUS
100
AcDbLine
 10
241.559921264648
 20
30.0
 30
0.0
 11
241.559921264648
 21
20.0
 31
0.0
  0
LINE
  5
25A
330
22D
100
AcDbEntity
  8
CONTINUOUS
100
AcDbLine
 10
269.0
 20
10.0
 30
0.0
 11
287.0
 21
10.0
 31
0.0
  0
LINE
  5
25B
330
22D
100
AcDbEntity
  8
CONTINUOUS
100
AcDbLine
 10
194.0
 20
48.0
 30
0.0
 11
287.0
 21
48.0
 31
0.0
  0
LINE
  5
25C
330
22D
100
AcDbEntity
  8
CONTINUOUS
100
AcDbLine
 10
194.059921264648
 20
30.0
 30
0.0
 11
287.059921264648
 21
30.0
 31
0.0
  0
LINE
  5
25D
330
22D
100
AcDbEntity
  8
CONTINUOUS
100
AcDbLine
 10
194.059921264648
 20
20.0
 30
0.0
 11
287.059921264648
 21
20.0
 31
0.0
  0
LINE
  5
25E
330
22D
100
AcDbEntity
  8
CONTINUOUS
100
AcDbLine
 10
216.0
 20
30.0
 30
0.0
 11
216.0
 21
48.0
 31
0.0
  0
MTEXT
  5
25F
330
22D
100
AcDbEntity
  8
CONTINUOUS
100
AcDbMText
 10
269.000775146485
 20
17.4468976593018
 30
0.0
 40
2.251496730059653
 41
0.0
 46
0.0
 71
     4
 72
     1
  1
{\fMonotype Corsiva|b0|i1|c0|p0;\C7;Scale }{\fArial|b0|i0|c0|p0;\C7;\H0.7692308x;}
 73
     1
 44
1.0
  0
MTEXT
  5
260
330
22D
100
AcDbEntity
  8
CONTINUOUS
100
AcDbMText
 10
194.206589508057
 20
27.6925756072998
 30
0.0
 40
2.251496730059653
 41
0.0
 46
0.0
 71
     4
 72
     1
  1
{\fMonotype Corsiva|b0|i1|c0|p0;\C7;Name }{\fArial|b0|i0|c0|p0;\C7;\H0.7692308x;}
 73
     1
 44
1.0
  0
MTEXT
  5
261
330
22D
100
AcDbEntity
  8
CONTINUOUS
100
AcDbMText
 10
288.710822753907
 20
79.4667495117188
 30
0.0
 40
3.720853217058121
 41
0.0
 46
0.0
 71
     4
 72
     1
  1
{\fArial|b0|i0|c0|p0;\C7;C}{\fArial|b0|i0|c0|p0;\C7;}
 73
     1
 44
1.0
  0
MTEXT
  5
262
330
22D
100
AcDbEntity
  8
CONTINUOUS
100
AcDbMText
 10
229.187939453125
 20
17.546260986328
 30
0.0
 40
2.251496730059653
 41
0.0
 46
0.0
 71
     4
 72
     1
  1
{\fMonotype Corsiva|b0|i1|c0|p0;\C7;Date}{\fArial|b0|i0|c0|p0;\C7;\H0.7692308x;}
 73
     1
 44
1.0
  0
MTEXT
  5
263
330
22D
100
AcDbEntity
  8
CONTINUOUS
100
AcDbMText
 10
5.18862550735474
 20
80.0342772827149
 30
0.0
 40
3.720853217058121
 41
0.0
 46
0.0
 71
     4
 72
     1
  1
{\fArial|b0|i0|c0|p0;\C7;C}{\fArial|b0|i0|c0|p0;\C7;}
 73
     1
 44
1.0
  0
MTEXT
  5
264
330
22D
100
AcDbEntity
  8
CONTINUOUS
100
AcDbMText
 10
32.2742214965821
 20
204.252439819336
 30
0.0
 40
3.720853217058121
 41
0.0
 46
0.0
 71
     4
 72
     1
  1
{\fArial|b0|i0|c0|p0;\C7;1}{\fArial|b0|i0|c0|p0;\C7;}
 73
     1
 44
1.0
  0
MTEXT
  5
265
330
22D
100
AcDbEntity
  8
CONTINUOUS
100
AcDbMText
 10
5.6160912703474
 20
125.886
 30
0.0
 40
3.720853217058121
 41
0.0
 46
0.0
 71
     4
 72
     1
  1
{\fArial|b0|i0|c0|p0;\C7;B}{\fArial|b0|i0|c0|p0;\C7;}
 73
     1
 44
1.0
  0
MTEXT
  5
266
330
22D
100
AcDbEntity
  8
CONTINUOUS
100
AcDbMText
 10
27.3887158203126
 20
6.7864282951355
 30
0.0
 40
3.720853217058121
 41
0.0
 46
0.0
 71
     4
 72
     1
  1
{\fArial|b0|i0|c0|p0;\C7;1}{\fArial|b0|i0|c0|p0;\C7;}
 73
     1
 44
1.0
  0
MTEXT
  5
267
330
22D
100
AcDbEntity
  8
CONTINUOUS
100
AcDbMText
 10
4.984780712209
 20
172.034376464844
 30
0.0
 40
3.720853217058121
 41
0.0
 46
0.0
 71
     4
 72
     1
  1
{\fArial|b0|i0|c0|p0;\C7;A}{\fArial|b0|i0|c0|p0;\C7;}
 73
     1
 44
1.0
  0
MTEXT
  5
268
330
22D
100
AcDbEntity
  8
CONTINUOUS
100
AcDbMText
 10
244.748741149902
 20
7.15205116271974
 30
0.0
 40
1.969863467854299
 41
0.0
 46
0.0
 71
     4
 72
     1
  1
{\fArial|b0|i0|c0|p0;\C7;}
 73
     1
 44
1.0
  0
MTEXT
  5
269
330
22D
100
AcDbEntity
  8
CONTINUOUS
100
AcDbMText
 10
241.827730760921
 20
26.8954164123535
 30
0.0
 40
2.251496730059653
 41
0.0
 46
0.0
 71
     4
 72
     1
  1
{\fMonotype Corsiva|b0|i1|c0|p0;\C7;Material }{\fArial|b0|i0|c0|p0;\C7;\H0.7692308x;}
 73
     1
 44
1.0
  0
MTEXT
  5
26A
330
22D
100
AcDbEntity
  8
CONTINUOUS
100
AcDbMText
 10
5.33690040588379
 20
33.886
 30
0.0
 40
3.720853217058121
 41
0.0
 46
0.0
 71
     4
 72
     1
  1
{\fArial|b0|i0|c0|p0;\C7;D}{\fArial|b0|i0|c0|p0;\C7;}
 73
     1
 44
1.0
  0
MTEXT
  5
26B
330
22D
100
AcDbEntity
  8
CONTINUOUS
100
AcDbMText
 10
121.245655822681
 20
204.355103698803
 30
0.0
 40
3.720853217058121
 41
0.0
 46
0.0
 71
     4
 72
     1
  1
{\fArial|b0|i0|c0|p0;\C7;3}{\fArial|b0|i0|c0|p0;\C7;}
 73
     1
 44
1.0
  0
MTEXT
  5
26C
330
22D
100
AcDbEntity
  8
CONTINUOUS
100
AcDbMText
 10
262.082233886719
 20
6.73998626327514
 30
0.0
 40
3.720853217058121
 41
0.0
 46
0.0
 71
     4
 72
     1
  1
{\fArial|b0|i0|c0|p0;\C7;6}{\fArial|b0|i0|c0|p0;\C7;}
 73
     1
 44
1.0
  0
MTEXT
  5
26D
330
22D
100
AcDbEntity
  8
CONTINUOUS
100
AcDbMText
 10
81.36409489129
 20
6.84505931157936
 30
0.0
 40
3.720853217058121
 41
0.0
 46
0.0
 71
     4
 72
     1
  1
{\fArial|b0|i0|c0|p0;\C7;2}{\fArial|b0|i0|c0|p0;\C7;}
 73
     1
 44
1.0
  0
MTEXT
  5
26E
330
22D
100
AcDbEntity
  8
CONTINUOUS
100
AcDbMText
 10
288.920463256836
 20
33.4667418823242
 30
0.0
 40
3.720853217058121
 41
0.0
 46
0.0
 71
     4
 72
     1
  1
{\fArial|b0|i0|c0|p0;\C7;D}{\fArial|b0|i0|c0|p0;\C7;}
 73
     1
 44
1.0
  0
MTEXT
  5
26F
330
22D
100
AcDbEntity
  8
CONTINUOUS
100
AcDbMText
 10
77.9621860149715
 20
204.250404272846
 30
0.0
 40
3.720853217058121
 41
0.0
 46
0.0
 71
     4
 72
     1
  1
{\fArial|b0|i0|c0|p0;\C7;2}{\fArial|b0|i0|c0|p0;\C7;}
 73
     1
 44
1.0
  0
MTEXT
  5
270
330
22D
100
AcDbEntity
  8
CONTINUOUS
100
AcDbMText
 10
171.459843139648
 20
204.242353759765
 30
0.0
 40
3.720853217058121
 41
0.0
 46
0.0
 71
     4
 72
     1
  1
{\fArial|b0|i0|c0|p0;\C7;4}{\fArial|b0|i0|c0|p0;\C7;}
 73
     1
 44
1.0
  0
MTEXT
  5
271
330
22D
100
AcDbEntity
  8
CONTINUOUS
100
AcDbMText
 10
126.092175294703
 20
6.61010619923708
 30
0.0
 40
3.720853217058121
 41
0.0
 46
0.0
 71
     4
 72
     1
  1
{\fArial|b0|i0|c0|p0;\C7;3}{\fArial|b0|i0|c0|p0;\C7;}
 73
     1
 44
1.0
  0
MTEXT
  5
272
330
22D
100
AcDbEntity
  8
CONTINUOUS
100
AcDbMText
 10
194.738236236572
 20
17.6612302398682
 30
0.0
 40
2.251496730059653
 41
0.0
 46
0.0
 71
     4
 72
     1
  1
{\fMonotype Corsiva|b0|i1|c0|p0;\C7;Treatment  }{\fArial|b0|i0|c0|p0;\C7;\H0.7692308x;}
 73
     1
 44
1.0
  0
MTEXT
  5
273
330
22D
100
AcDbEntity
  8
CONTINUOUS
100
AcDbMText
 10
288.594410820089
 20
171.67635949707
 30
0.0
 40
3.720853217058121
 41
0.0
 46
0.0
 71
     4
 72
     1
  1
{\fArial|b0|i0|c0|p0;\C7;A}{\fArial|b0|i0|c0|p0;\C7;}
 73
     1
 44
1.0
  0
MTEXT
  5
274
330
22D
100
AcDbEntity
  8
CONTINUOUS
100
AcDbMText
 10
265.171810609717
 20
204.240896547217
 30
0.0
 40
3.720853217058121
 41
0.0
 46
0.0
 71
     4
 72
     1
  1
{\fArial|b0|i0|c0|p0;\C7;6}{\fArial|b0|i0|c0|p0;\C7;}
 73
     1
 44
1.0
  0
MTEXT
  5
275
330
22D
100
AcDbEntity
  8
CONTINUOUS
100
AcDbMText
 10
289.025805015464
 20
125.886
 30
0.0
 40
3.720853217058121
 41
0.0
 46
0.0
 71
     4
 72
     1
  1
{\fArial|b0|i0|c0|p0;\C7;B}{\fArial|b0|i0|c0|p0;\C7;}
 73
     1
 44
1.0
  0
MTEXT
  5
276
330
22D
100
AcDbEntity
  8
CONTINUOUS
100
AcDbMText
 10
251.201002341357
 20
20.0034076309204
 30
0.0
 40
2.251496730059653
 41
0.0
 46
0.0
 71
     1
 72
     1
  1
{\fMonotype Corsiva|b0|i1|c0|p0;\C7;Quantity}{\fArial|b0|i0|c0|p0;\C7;\H0.7692308x;}
 73
     1
 44
1.0
  0
MTEXT
  5
277
330
22D
100
AcDbEntity
  8
CONTINUOUS
100
AcDbMText
 10
216.858890991211
 20
204.29698022461
 30
0.0
 40
3.720853217058121
 41
0.0
 46
0.0
 71
     4
 72
     1
  1
{\fArial|b0|i0|c0|p0;\C7;5}{\fArial|b0|i0|c0|p0;\C7;}
 73
     1
 44
1.0
  0
ENDBLK
  5
22F
330
22D
100
AcDbEntity
  8
0
100
AcDbBlockEnd
  0
ENDSEC
  0
SECTION
  2
ENTITIES
  0
LINE
  5
6F
330
1F
100
AcDbEntity
  8
VISIBLE
100
AcDbLine
 10
141.5162345625608
 20
161.8208923339844
 30
0.0
 11
141.5162345625608
 21
139.8208923339844
 31
0.0
  0
ARC
  5
70
330
1F
100
AcDbEntity
  8
VISIBLE
100
AcDbCircle
 10
89.70415496826172
 20
149.8208923339844
 30
0.0
 40
39.50000000000001
100
AcDbArc
 50
33.84596082144934
 51
345.3351462901587
  0
LINE
  5
71
330
1F
100
AcDbEntity
  8
VISIBLE
100
AcDbLine
 10
141.5162345625608
 20
159.8208923339844
 30
0.0
 11
163.7041549682617
 21
159.8208923339844
 31
0.0
  0
SPLINE
  5
72
330
1F
100
AcDbEntity
  8
VISIBLE
100
AcDbSpline
210
0.0
220
0.0
230
1.0
 70
     8
 71
     3
 72
    14
 73
    10
 74
     0
 42
0.000000001
 43
0.000001
 40
0.256860652685328
 40
0.256860652685328
 40
0.256860652685328
 40
0.256860652685328
 40
0.2710902075902887
 40
0.2710902075902887
 40
0.3734050560702792
 40
0.3734050560702792
 40
0.4817129392233241
 40
0.4817129392233241
 40
0.5951719261159769
 40
0.5951719261159769
 40
0.5951719261159769
 40
0.5951719261159769
 10
111.5067592248183
 20
135.3045954563382
 30
0.0
 10
111.5088145271561
 20
135.2577329191261
 30
0.0
 10
111.5122077716455
 20
135.2108735934643
 30
0.0
 10
111.5509112334717
 20
134.8276047629286
 30
0.0
 10
111.6529658880344
 20
134.5012249987915
 30
0.0
 10
111.9842365547741
 20
133.8867288773991
 30
0.0
 10
112.2170106768169
 20
133.6082957729207
 30
0.0
 10
112.788558618637
 20
133.1432387155314
 30
0.0
 10
113.1259508111822
 20
132.9662646237937
 30
0.0
 10
113.4876642909587
 20
132.857180621492
 30
0.0
  0
ARC
  5
73
330
1F
100
AcDbEntity
  8
VISIBLE
100
AcDbCircle
 10
65.45544366229743
 20
135.8208923339844
 30
0.0
 40
2.5
100
AcDbArc
 50
71.91843389691938
 51
242.9674367074203
  0
ARC
  5
74
330
1F
100
AcDbEntity
  8
VISIBLE
100
AcDbCircle
 10
163.7041549682617
 20
149.8208923339844
 30
0.0
 40
10.0
100
AcDbArc
 50
270.0
 51
90.0
  0
ARC
  5
75
330
1F
100
AcDbEntity
  8
VISIBLE
100
AcDbCircle
 10
113.952866274226
 20
135.8208923339844
 30
0.0
 40
2.498887087813866
100
AcDbArc
 50
2.980851685285899
 51
191.9306237826801
  0
CIRCLE
  5
76
330
1F
100
AcDbEntity
  8
VISIBLE
100
AcDbCircle
 10
65.45544366229743
 20
135.8208923339844
 30
0.0
 40
3.000000000000014
  0
SPLINE
  5
77
330
1F
100
AcDbEntity
  8
VISIBLE
100
AcDbSpline
210
0.0
220
0.0
230
1.0
 70
     8
 71
     3
 72
    30
 73
    26
 74
     0
 42
0.000000001
 43
0.000001
 40
0.0
 40
0.0
 40
0.0
 40
0.0
 40
0.1164544708240717
 40
0.1164544708240717
 40
0.2312583809294113
 40
0.2312583809294113
 40
0.3444112833712192
 40
0.3444112833712192
 40
0.45591272660746
 40
0.45591272660746
 40
0.5657622544616497
 40
0.5657622544616497
 40
0.6739594060905941
 40
0.6739594060905941
 40
0.7805037159576994
 40
0.7805037159576994
 40
0.8853947138127821
 40
0.8853947138127821
 40
0.9886319246795776
 40
0.9886319246795776
 40
1.090214868852072
 40
1.090214868852072
 40
1.190143061901102
 40
1.190143061901102
 40
1.247120777498005
 40
1.247120777498005
 40
1.247120777498005
 40
1.247120777498005
 10
63.12139502141927
 20
137.705624925631
 30
0.0
 10
63.37609290019033
 20
137.9982137722637
 30
0.0
 10
63.68513735792221
 20
138.2385626638218
 30
0.0
 10
64.37351128488989
 20
138.5837678807746
 30
0.0
 10
64.74522358744757
 20
138.6871741046766
 30
0.0
 10
65.5019161899275
 20
138.7441318900217
 30
0.0
 10
65.87940702714847
 20
138.6992439171343
 30
0.0
 10
66.59030613507568
 20
138.4679295697529
 30
0.0
 10
66.91748183794253
 20
138.2857585955369
 30
0.0
 10
67.47862122071862
 20
137.8089820720633
 30
0.0
 10
67.70851850640602
 20
137.5206108748843
 30
0.0
 10
68.04127374766044
 20
136.8763826487603
 30
0.0
 10
68.14278827171113
 20
136.5277416033668
 30
0.0
 10
68.20484121870705
 20
135.8166004824329
 30
0.0
 10
68.16688789070965
 20
135.4611782649168
 30
0.0
 10
67.9574389821259
 20
134.7905270682071
 30
0.0
 10
67.7899955451037
 20
134.4811691900067
 30
0.0
 10
67.348611901104
 20
133.9490551332621
 30
0.0
 10
67.08058179915821
 20
133.7301071431052
 30
0.0
 10
66.48004398110714
 20
133.4108961717886
 30
0.0
 10
66.1543548233127
 20
133.3118595626811
 30
0.0
 10
65.48875733723926
 20
133.2458964421604
 30
0.0
 10
65.15551479168438
 20
133.2775028621728
 30
0.0
 10
64.65680491466343
 20
133.4268739712783
 30
0.0
 10
64.48281180394767
 20
133.5011720839676
 30
0.0
 10
64.31920051969871
 20
133.5940196012501
 30
0.0
  0
SPLINE
  5
78
330
1F
100
AcDbEntity
  8
VISIBLE
100
AcDbSpline
210
0.0
220
0.0
230
1.0
 70
     8
 71
     3
 72
    14
 73
    10
 74
     0
 42
0.000000001
 43
0.000001
 40
0.2568606526852282
 40
0.2568606526852282
 40
0.2568606526852282
 40
0.2568606526852282
 40
0.2710902075901698
 40
0.2710902075901698
 40
0.3734050560700036
 40
0.3734050560700036
 40
0.4817129392228737
 40
0.4817129392228737
 40
0.5951719261154724
 40
0.5951719261154724
 40
0.5951719261154724
 40
0.5951719261154724
 10
91.37433470490177
 20
175.9606499276442
 30
0.0
 10
91.4138912014443
 20
175.9858611402872
 30
0.0
 10
91.45277594562683
 20
176.0122294390472
 30
0.0
 10
91.76534475843607
 20
176.2373820354705
 30
0.0
 10
91.99697059817859
 20
176.4889538409645
 30
0.0
 10
92.3635045164618
 20
177.0830907145859
 30
0.0
 10
92.48824759717341
 20
177.4238955698579
 30
0.0
 10
92.60522485217194
 20
178.1513991356497
 30
0.0
 10
92.5897928151558
 20
178.5320763913015
 30
0.0
 10
92.50340559240722
 20
178.8998714548301
 30
0.0
  0
SPLINE
  5
79
330
1F
100
AcDbEntity
  8
VISIBLE
100
AcDbSpline
210
0.0
220
0.0
230
1.0
 70
     8
 71
     3
 72
    30
 73
    26
 74
     0
 42
0.000000001
 43
0.000001
 40
0.0
 40
0.0
 40
0.0
 40
0.0
 40
0.1164544708240844
 40
0.1164544708240844
 40
0.2312583809294035
 40
0.2312583809294035
 40
0.3444112833712236
 40
0.3444112833712236
 40
0.4559127266074643
 40
0.4559127266074643
 40
0.5657622544616543
 40
0.5657622544616543
 40
0.6739594060905921
 40
0.6739594060905921
 40
0.7805037159576849
 40
0.7805037159576849
 40
0.8853947138127559
 40
0.8853947138127559
 40
0.9886319246795439
 40
0.9886319246795439
 40
1.090214868852036
 40
1.090214868852036
 40
1.190143061901053
 40
1.190143061901053
 40
1.247120777497945
 40
1.247120777497945
 40
1.247120777497945
 40
1.247120777497945
 10
113.4876642909587
 20
132.857180621492
 30
0.0
 10
113.1069259775252
 20
132.9314610314814
 30
0.0
 10
112.7442555027985
 20
133.078926936997
 30
0.0
 10
112.1011120519147
 20
133.5024736365774
 30
0.0
 10
111.8257034838273
 20
133.7726828215405
 30
0.0
 10
111.3980302935351
 20
134.3995189454714
 30
0.0
 10
111.2481589997695
 20
134.7488795866443
 30
0.0
 10
111.093033546898
 20
135.4801934473278
 30
0.0
 10
111.0872103869678
 20
135.8546214046195
 30
0.0
 10
111.2195412768359
 20
136.5789706269044
 30
0.0
 10
111.3543294164691
 20
136.9222531151603
 30
0.0
 10
111.7458698055003
 20
137.5325417203911
 30
0.0
 10
111.9970445455877
 20
137.7947763997688
 30
0.0
 10
112.5818843484942
 20
138.2040863887138
 30
0.0
 10
112.9086656819313
 20
138.3489289512679
 30
0.0
 10
113.5941911096522
 20
138.5028664739942
 30
0.0
 10
113.9458246095457
 20
138.5125351429362
 30
0.0
 10
114.6273407223971
 20
138.3963427227898
 30
0.0
 10
114.9509702949534
 20
138.2736958406042
 30
0.0
 10
115.5276840143058
 20
137.913220319897
 30
0.0
 10
115.7762968125948
 20
137.6806835400636
 30
0.0
 10
116.1662212937153
 20
137.1372407686893
 30
0.0
 10
116.3054706038393
 20
136.8328410486108
 30
0.0
 10
116.4254663672729
 20
136.3262600714397
 30
0.0
 10
116.4481188695886
 20
136.1384285611317
 30
0.0
 10
116.4495162030682
 20
135.9503132739852
 30
0.0
  0
LINE
  5
7A
330
1F
100
AcDbEntity
  8
VISIBLE
100
AcDbLine
 10
122.5104043729102
 20
171.8208923339844
 30
0.0
 11
131.5162345625608
 21
171.8208923339844
 31
0.0
  0
CIRCLE
  5
7B
330
1F
100
AcDbEntity
  8
VISIBLE
100
AcDbCircle
 10
131.5162345625608
 20
161.8208923339844
 30
0.0
 40
4.0
  0
ARC
  5
7C
330
1F
100
AcDbEntity
  8
VISIBLE
100
AcDbCircle
 10
65.45544366229743
 20
135.8208923339844
 30
0.0
 40
2.498887087567364
100
AcDbArc
 50
242.9808516852837
 51
71.93062379990465
  0
CIRCLE
  5
7D
330
1F
100
AcDbEntity
  8
VISIBLE
100
AcDbCircle
 10
89.70415496826172
 20
149.8208923339844
 30
0.0
 40
21.0
  0
ARC
  5
7E
330
1F
100
AcDbEntity
  8
VISIBLE
100
AcDbCircle
 10
89.70415496826172
 20
177.8208923339844
 30
0.0
 40
2.49888708801457
100
AcDbArc
 50
122.9808516852878
 51
311.9306237686957
  0
ARC
  5
7F
330
1F
100
AcDbEntity
  8
VISIBLE
100
AcDbCircle
 10
89.70415496826172
 20
177.8208923339844
 30
0.0
 40
2.499999999999991
100
AcDbArc
 50
311.9184338969178
 51
122.9674367074192
  0
SPLINE
  5
80
330
1F
100
AcDbEntity
  8
VISIBLE
100
AcDbSpline
210
0.0
220
0.0
230
1.0
 70
     8
 71
     3
 72
    14
 73
    10
 74
     0
 42
0.000000001
 43
0.000001
 40
0.2568606526851293
 40
0.2568606526851293
 40
0.2568606526851293
 40
0.2568606526851293
 40
0.2710902075899917
 40
0.2710902075899917
 40
0.3734050560696495
 40
0.3734050560696495
 40
0.4817129392223376
 40
0.4817129392223376
 40
0.5951719261148867
 40
0.5951719261148867
 40
0.5951719261148867
 40
0.5951719261148867
 10
66.23137097506509
 20
138.1974316179709
 30
0.0
 10
66.18975917618494
 20
138.2190829425398
 30
0.0
 10
66.14748118751312
 20
138.2395739694414
 30
0.0
 10
65.79620891287817
 20
138.3976902035533
 30
0.0
 10
65.46252841857336
 20
138.4724981621963
 30
0.0
 10
64.7647238335505
 20
138.4928574099677
 30
0.0
 10
64.40720663079597
 20
138.4304856591744
 30
0.0
 10
63.71868143397685
 20
138.1680391507722
 30
0.0
 10
63.39672127844712
 20
137.9643359868578
 30
0.0
 10
63.12139502141927
 20
137.705624925631
 30
0.0
  0
SPLINE
  5
81
330
1F
100
AcDbEntity
  8
VISIBLE
100
AcDbSpline
210
0.0
220
0.0
230
1.0
 70
     8
 71
     3
 72
    30
 73
    26
 74
     0
 42
0.000000001
 43
0.000001
 40
0.0
 40
0.0
 40
0.0
 40
0.0
 40
0.1164544708240828
 40
0.1164544708240828
 40
0.2312583809294251
 40
0.2312583809294251
 40
0.344411283371246
 40
0.344411283371246
 40
0.4559127266074727
 40
0.4559127266074727
 40
0.5657622544616504
 40
0.5657622544616504
 40
0.6739594060906132
 40
0.6739594060906132
 40
0.7805037159577244
 40
0.7805037159577244
 40
0.8853947138128084
 40
0.8853947138128084
 40
0.9886319246796087
 40
0.9886319246796087
 40
1.090214868852112
 40
1.090214868852112
 40
1.190143061901113
 40
1.190143061901113
 40
1.247120777497938
 40
1.247120777497938
 40
1.247120777497938
 40
1.247120777497938
 10
92.50340559240722
 20
178.8998714548301
 30
0.0
 10
92.62944602706968
 20
178.533002198208
 30
0.0
 10
92.68307204406442
 20
178.1451874011343
 30
0.0
 10
92.63784156798059
 20
177.376435484601
 30
0.0
 10
92.5415378335103
 20
177.0028200757359
 30
0.0
 10
92.21251842132246
 20
176.3190261664599
 30
0.0
 10
91.98489887786707
 20
176.0145534981743
 30
0.0
 10
91.4291252228113
 20
175.5145539848724
 30
0.0
 10
91.1077726798747
 20
175.3222970017967
 30
0.0
 10
90.4143024072306
 20
175.0747243029856
 30
0.0
 10
90.04961698191015
 20
175.0198130119088
 30
0.0
 10
89.32532135162454
 20
175.0537526328019
 30
0.0
 10
88.97263208748645
 20
175.1401589988178
 30
0.0
 10
88.32573933758401
 20
175.4419901308066
 30
0.0
 10
88.03691133214434
 20
175.6525697857685
 30
0.0
 10
87.56083481300715
 20
176.1692834597519
 30
0.0
 10
87.37664475013584
 20
176.4689726690104
 30
0.0
 10
87.13651228128417
 20
177.1172791459014
 30
0.0
 10
87.08091281067361
 20
177.4588740182439
 30
0.0
 10
87.10473690937239
 20
178.1385605102679
 30
0.0
 10
87.18181326887795
 20
178.4701338992089
 30
0.0
 10
87.457486273831
 20
179.0795397911039
 30
0.0
 10
87.6514795092619
 20
179.35233309117
 30
0.0
 10
88.03019362284915
 20
179.7095429592354
 30
0.0
 10
88.18153423124907
 20
179.8230763568539
 30
0.0
 10
88.3437481820183
 20
179.9183441267179
 30
0.0
  0
ARC
  5
82
330
1F
100
AcDbEntity
  8
VISIBLE
100
AcDbCircle
 10
113.952866274226
 20
135.8208923339844
 30
0.0
 40
2.499999999999998
100
AcDbArc
 50
191.9184338969178
 51
2.967436707419754
  0
ARC
  5
83
330
1F
100
AcDbEntity
  8
VISIBLE
100
AcDbCircle
 10
131.5162345625608
 20
161.8208923339844
 30
0.0
 40
10.0
100
AcDbArc
 50
0.0
 51
90.0
  0
LINE
  5
84
330
1F
100
AcDbEntity
  8
VISIBLE
100
AcDbLine
 10
141.5162345625608
 20
139.8208923339844
 30
0.0
 11
127.9173725768327
 21
139.8208923339844
 31
0.0
  0
CIRCLE
  5
85
330
1F
100
AcDbEntity
  8
VISIBLE
100
AcDbCircle
 10
89.70415496826172
 20
177.8208923339844
 30
0.0
 40
3.0
  0
LINE
  5
86
330
1F
100
AcDbEntity
  8
VISIBLE
100
AcDbLine
 10
163.7041549682617
 20
139.8208923339844
 30
0.0
 11
141.5162345625608
 21
139.8208923339844
 31
0.0
  0
CIRCLE
  5
87
330
1F
100
AcDbEntity
  8
VISIBLE
100
AcDbCircle
 10
113.952866274226
 20
135.8208923339844
 30
0.0
 40
2.999999999999986
  0
CIRCLE
  5
88
330
1F
100
AcDbEntity
  8
VISIBLE
100
AcDbCircle
 10
163.7041549682617
 20
149.8208923339844
 30
0.0
 40
4.0
  0
LINE
  5
8A
330
1F
100
AcDbEntity
  8
CENTER
100
AcDbLine
 10
132.0162345625608
 20
161.8208923339844
 30
0.0
 11
131.0162345625608
 21
161.8208923339844
 31
0.0
  0
LINE
  5
8B
330
1F
100
AcDbEntity
  8
CENTER
100
AcDbLine
 10
131.5162345625608
 20
162.3208923339844
 30
0.0
 11
131.5162345625608
 21
161.3208923339844
 31
0.0
  0
LINE
  5
8C
330
1F
100
AcDbEntity
  8
CENTER
100
AcDbLine
 10
132.5162345625608
 20
161.8208923339844
 30
0.0
 11
137.1037345625608
 21
161.8208923339844
 31
0.0
  0
LINE
  5
8D
330
1F
100
AcDbEntity
  8
CENTER
100
AcDbLine
 10
130.5162345625608
 20
161.8208923339844
 30
0.0
 11
125.9287345625608
 21
161.8208923339844
 31
0.0
  0
LINE
  5
8E
330
1F
100
AcDbEntity
  8
CENTER
100
AcDbLine
 10
131.5162345625608
 20
162.8208923339844
 30
0.0
 11
131.5162345625608
 21
167.4083923339844
 31
0.0
  0
LINE
  5
8F
330
1F
100
AcDbEntity
  8
CENTER
100
AcDbLine
 10
131.5162345625608
 20
160.8208923339844
 30
0.0
 11
131.5162345625608
 21
156.2333923339844
 31
0.0
  0
LINE
  5
90
330
1F
100
AcDbEntity
  8
CENTER
100
AcDbLine
 10
90.20415496826172
 20
149.8208923339844
 30
0.0
 11
89.20415496826172
 21
149.8208923339844
 31
0.0
  0
LINE
  5
91
330
1F
100
AcDbEntity
  8
CENTER
100
AcDbLine
 10
89.70415496826172
 20
150.3208923339844
 30
0.0
 11
89.70415496826172
 21
149.3208923339844
 31
0.0
  0
LINE
  5
92
330
1F
100
AcDbEntity
  8
CENTER
100
AcDbLine
 10
90.70415496826172
 20
149.8208923339844
 30
0.0
 11
112.2916549682617
 21
149.8208923339844
 31
0.0
  0
LINE
  5
93
330
1F
100
AcDbEntity
  8
CENTER
100
AcDbLine
 10
88.70415496826172
 20
149.8208923339844
 30
0.0
 11
67.11665496826171
 21
149.8208923339844
 31
0.0
  0
LINE
  5
94
330
1F
100
AcDbEntity
  8
CENTER
100
AcDbLine
 10
89.70415496826172
 20
150.8208923339844
 30
0.0
 11
89.70415496826172
 21
172.4083923339844
 31
0.0
  0
LINE
  5
95
330
1F
100
AcDbEntity
  8
CENTER
100
AcDbLine
 10
89.70415496826172
 20
148.8208923339844
 30
0.0
 11
89.70415496826172
 21
127.2333923339844
 31
0.0
  0
LINE
  5
96
330
1F
100
AcDbEntity
  8
CENTER
100
AcDbLine
 10
164.2041549682617
 20
149.8208923339844
 30
0.0
 11
163.2041549682617
 21
149.8208923339844
 31
0.0
  0
LINE
  5
97
330
1F
100
AcDbEntity
  8
CENTER
100
AcDbLine
 10
163.7041549682617
 20
150.3208923339844
 30
0.0
 11
163.7041549682617
 21
149.3208923339844
 31
0.0
  0
LINE
  5
98
330
1F
100
AcDbEntity
  8
CENTER
100
AcDbLine
 10
164.7041549682617
 20
149.8208923339844
 30
0.0
 11
169.2916549682617
 21
149.8208923339844
 31
0.0
  0
LINE
  5
99
330
1F
100
AcDbEntity
  8
CENTER
100
AcDbLine
 10
162.7041549682617
 20
149.8208923339844
 30
0.0
 11
158.1166549682617
 21
149.8208923339844
 31
0.0
  0
LINE
  5
9A
330
1F
100
AcDbEntity
  8
CENTER
100
AcDbLine
 10
163.7041549682617
 20
150.8208923339844
 30
0.0
 11
163.7041549682617
 21
155.4083923339844
 31
0.0
  0
LINE
  5
9B
330
1F
100
AcDbEntity
  8
CENTER
100
AcDbLine
 10
163.7041549682617
 20
148.8208923339844
 30
0.0
 11
163.7041549682617
 21
144.2333923339844
 31
0.0
  0
DIMENSION
  5
9D
330
1F
100
AcDbEntity
  8
DIMENSIONS
100
AcDbDimension
280
     0
  2
D1
 10
0.0
 20
0.0
 30
0.0
 11
121.9093246459961
 21
300.2704467773438
 31
0.0
 70
    32
  1
<>
 71
     5
 42
-1.0
 73
     0
 74
     0
 75
     0
  3
ISO-25
100
AcDbAlignedDimension
 13
89.7041549682617
 23
110.3208923339844
 33
0.0
 14
89.70415496826172
 24
189.3208923339844
 34
0.0
100
AcDbRotatedDimension
1001
ACAD
1000
DSTYLE
1002
{
1070
    76
1070
     0
1070
    75
1070
     0
1070
   282
1070
     0
1070
   281
1070
     0
1070
    77
1070
     1
1070
    79
1070
     0
1070
    78
1070
     0
1070
   272
1070
     2
1070
   271
1070
     2
1070
   179
1070
     2
1070
   140
1040
2.707850318471337
1070
    71
1070
     0
1070
    72
1070
     0
1070
    48
1040
0.002
1070
    47
1040
0.005
1002
}
  0
DIMENSION
  5
AF
330
1F
100
AcDbEntity
  8
DIMENSIONS
100
AcDbDimension
280
     0
  2
D2
 10
0.0
 20
0.0
 30
0.0
 11
132.0669784545898
 21
300.0922393798828
 31
0.0
 70
    32
  1
<>
 71
     5
 42
-1.0
 73
     0
 74
     0
 75
     0
  3
ISO-25
100
AcDbAlignedDimension
 13
89.70415496826172
 23
128.8208923339844
 33
0.0
 14
89.70415496826172
 24
170.8208923339844
 34
0.0
100
AcDbRotatedDimension
1001
ACAD
1000
DSTYLE
1002
{
1070
    76
1070
     0
1070
    75
1070
     0
1070
   282
1070
     0
1070
   281
1070
     0
1070
    77
1070
     1
1070
    79
1070
     0
1070
    78
1070
     0
1070
   272
1070
     2
1070
   271
1070
     2
1070
   179
1070
     2
1070
   140
1040
2.707850318471337
1070
    71
1070
     0
1070
    72
1070
     0
1070
    48
1040
0.002
1070
    47
1040
0.005
1002
}
  0
DIMENSION
  5
C1
330
1F
100
AcDbEntity
  8
DIMENSIONS
100
AcDbDimension
280
     0
  2
D3
 10
0.0
 20
0.0
 30
0.0
 11
189.6270065307617
 21
241.1065826416016
 31
0.0
 70
    32
  1
<>
 71
     5
 42
-1.0
 73
     0
 74
     0
 75
     0
  3
ISO-25
100
AcDbAlignedDimension
 13
50.20415496826172
 23
149.8208923339844
 33
0.0
 14
173.7041549682617
 24
149.8208923339844
 34
0.0
100
AcDbRotatedDimension
1001
ACAD
1000
DSTYLE
1002
{
1070
    76
1070
     0
1070
    75
1070
     0
1070
   282
1070
     0
1070
   281
1070
     0
1070
    77
1070
     1
1070
    79
1070
     0
1070
    78
1070
     0
1070
   272
1070
     2
1070
   271
1070
     2
1070
   179
1070
     2
1070
   140
1040
2.707850318471337
1070
    71
1070
     0
1070
    72
1070
     0
1070
    48
1040
0.002
1070
    47
1040
0.005
1002
}
  0
DIMENSION
  5
D2
330
1F
100
AcDbEntity
  8
DIMENSIONS
100
AcDbDimension
280
     0
  2
D4
 10
0.0
 20
0.0
 30
0.0
 11
272.3138656616211
 21
300.2704467773438
 31
0.0
 70
    32
  1
<>
 71
     5
 42
-1.0
 73
     0
 74
     0
 75
     0
 53
270.0
  3
ISO-25
100
AcDbAlignedDimension
 13
163.7041549682617
 23
139.8208923339844
 33
0.0
 14
163.7041549682617
 24
159.8208923339844
 34
0.0
 50
270.0
100
AcDbRotatedDimension
1001
ACAD
1000
DSTYLE
1002
{
1070
    76
1070
     0
1070
    75
1070
     0
1070
   282
1070
     0
1070
   281
1070
     0
1070
    77
1070
     1
1070
    79
1070
     0
1070
    78
1070
     0
1070
   272
1070
     2
1070
   271
1070
     2
1070
   179
1070
     2
1070
   140
1040
2.707850318471337
1070
    71
1070
     0
1070
    72
1070
     0
1070
    48
1040
0.002
1070
    47
1040
0.005
1002
}
  0
DIMENSION
  5
E3
330
1F
100
AcDbEntity
  8
DIMENSIONS
100
AcDbDimension
280
     0
  2
D5
 10
0.0
 20
0.0
 30
0.0
 11
246.074104309082
 21
281.2026672363281
 31
0.0
 70
    32
  1
<>
 71
     5
 42
-1.0
 73
     0
 74
     0
 75
     0
  3
ISO-25
100
AcDbAlignedDimension
 13
173.7041549682617
 23
149.8208923339844
 33
0.0
 14
141.5162345625608
 24
139.8208923339844
 34
0.0
100
AcDbRotatedDimension
1001
ACAD
1000
DSTYLE
1002
{
1070
    76
1070
     0
1070
    75
1070
     0
1070
   282
1070
     0
1070
   281
1070
     0
1070
    77
1070
     1
1070
    79
1070
     0
1070
    78
1070
     0
1070
   272
1070
     2
1070
   271
1070
     2
1070
   179
1070
     2
1070
   140
1040
2.707850318471337
1070
    71
1070
     0
1070
    72
1070
     0
1070
    48
1040
0.002
1070
    47
1040
0.005
1002
}
  0
DIMENSION
  5
F4
330
1F
100
AcDbEntity
  8
DIMENSIONS
100
AcDbDimension
280
     0
  2
D6
 10
0.0
 20
0.0
 30
0.0
 11
253.660285949707
 21
293.7352142333984
 31
0.0
 70
    32
  1
<>
 71
     5
 42
-1.0
 73
     0
 74
     0
 75
     0
  3
ISO-25
100
AcDbAlignedDimension
 13
167.7041549682617
 23
149.8208923339844
 33
0.0
 14
159.7041549682617
 24
149.8208923339844
 34
0.0
100
AcDbRotatedDimension
1001
ACAD
1000
DSTYLE
1002
{
1070
    76
1070
     0
1070
    75
1070
     0
1070
   282
1070
     0
1070
   281
1070
     0
1070
    77
1070
     1
1070
    79
1070
     0
1070
    78
1070
     0
1070
   272
1070
     2
1070
   271
1070
     2
1070
   179
1070
     2
1070
   140
1040
2.707850318471337
1070
    71
1070
     0
1070
    72
1070
     0
1070
    48
1040
0.002
1070
    47
1040
0.005
1002
}
  0
DIMENSION
  5
106
330
1F
100
AcDbEntity
  8
DIMENSIONS
100
AcDbDimension
280
     0
  2
D7
 10
0.0
 20
0.0
 30
0.0
 11
221.0965042114258
 21
303.6635284423828
 31
0.0
 70
    32
  1
<>
 71
     5
 42
-1.0
 73
     0
 74
     0
 75
     0
  3
ISO-25
100
AcDbAlignedDimension
 13
135.5162345625608
 23
161.8208923339844
 33
0.0
 14
127.5162345625608
 24
161.8208923339844
 34
0.0
100
AcDbRotatedDimension
1001
ACAD
1000
DSTYLE
1002
{
1070
    76
1070
     0
1070
    75
1070
     0
1070
   282
1070
     0
1070
   281
1070
     0
1070
    77
1070
     1
1070
    79
1070
     0
1070
    78
1070
     0
1070
   272
1070
     2
1070
   271
1070
     2
1070
   179
1070
     2
1070
   140
1040
2.707850318471337
1070
    71
1070
     0
1070
    72
1070
     0
1070
    48
1040
0.002
1070
    47
1040
0.005
1002
}
  0
DIMENSION
  5
118
330
1F
100
AcDbEntity
  8
DIMENSIONS
100
AcDbDimension
280
     0
  2
D8
 10
0.0
 20
0.0
 30
0.0
 11
210.9146645806582
 21
303.2016447782516
 31
0.0
 70
    32
  1
<>
 71
     5
 42
-1.0
 73
     0
 74
     0
 75
     0
 53
270.0
  3
ISO-25
100
AcDbAlignedDimension
 13
127.9173725768327
 23
139.8208923339844
 33
0.0
 14
131.516233921051
 24
161.8208922147751
 34
0.0
 50
270.0
100
AcDbRotatedDimension
1001
ACAD
1000
DSTYLE
1002
{
1070
    76
1070
     0
1070
    75
1070
     0
1070
   282
1070
     0
1070
   281
1070
     0
1070
    77
1070
     1
1070
    79
1070
     0
1070
    78
1070
     0
1070
   272
1070
     2
1070
   271
1070
     2
1070
   179
1070
     2
1070
   140
1040
2.707850318471337
1070
    71
1070
     0
1070
    72
1070
     0
1070
    48
1040
0.002
1070
    47
1040
0.005
1002
}
  0
DIMENSION
  5
129
330
1F
100
AcDbEntity
  8
DIMENSIONS
100
AcDbDimension
280
     0
  2
D9
 10
0.0
 20
0.0
 30
0.0
 11
227.0099709771426
 21
326.9754484891891
 31
0.0
 70
    32
  1
<>
 71
     5
 42
-1.0
 73
     0
 74
     0
 75
     0
  3
ISO-25
100
AcDbAlignedDimension
 13
141.5162345625608
 23
161.8208923339844
 33
0.0
 14
131.516233921051
 24
161.8208922147751
 34
0.0
100
AcDbRotatedDimension
1001
ACAD
1000
DSTYLE
1002
{
1070
    76
1070
     0
1070
    75
1070
     0
1070
   282
1070
     0
1070
   281
1070
     0
1070
    77
1070
     1
1070
    79
1070
     0
1070
    78
1070
     0
1070
   272
1070
     2
1070
   271
1070
     2
1070
   179
1070
     2
1070
   140
1040
2.707850318471337
1070
    71
1070
     0
1070
    72
1070
     0
1070
    48
1040
0.002
1070
    47
1040
0.005
1002
}
  0
DIMENSION
  5
13A
330
1F
100
AcDbEntity
  8
DIMENSIONS
100
AcDbDimension
280
     0
  2
D10
 10
0.0
 20
0.0
 30
0.0
 11
257.9109268188477
 21
316.5722808837891
 31
0.0
 70
    32
  1
<>
 71
     5
 42
-1.0
 73
     0
 74
     0
 75
     0
 53
180.0
  3
ISO-25
100
AcDbAlignedDimension
 13
173.7041549682617
 23
149.8208923339844
 33
0.0
 14
163.7041549682617
 24
155.4083923339844
 34
0.0
 50
180.0
100
AcDbRotatedDimension
1001
ACAD
1000
DSTYLE
1002
{
1070
    76
1070
     0
1070
    75
1070
     0
1070
   282
1070
     0
1070
   281
1070
     0
1070
    77
1070
     1
1070
    79
1070
     0
1070
    78
1070
     0
1070
   272
1070
     2
1070
   271
1070
     2
1070
   179
1070
     2
1070
   140
1040
2.707850318471337
1070
    71
1070
     0
1070
    72
1070
     0
1070
    48
1040
0.002
1070
    47
1040
0.005
1002
}
  0
DIMENSION
  5
14B
330
1F
100
AcDbEntity
  8
DIMENSIONS
100
AcDbDimension
280
     0
  2
D11
 10
0.0
 20
0.0
 30
0.0
 11
205.5374789767795
 21
305.6417846679688
 31
0.0
 70
    32
  1
<>
 71
     5
 42
-1.0
 73
     0
 74
     0
 75
     0
 53
270.0
  3
ISO-25
100
AcDbAlignedDimension
 13
127.9173725768327
 23
139.8208923339844
 33
0.0
 14
122.5104043729102
 24
171.8208923339844
 34
0.0
 50
270.0
100
AcDbRotatedDimension
1001
ACAD
1000
DSTYLE
1002
{
1070
    76
1070
     0
1070
    75
1070
     0
1070
   282
1070
     0
1070
   281
1070
     0
1070
    77
1070
     1
1070
    79
1070
     0
1070
    78
1070
     0
1070
   272
1070
     2
1070
   271
1070
     2
1070
   179
1070
     2
1070
   140
1040
2.707850318471337
1070
    71
1070
     0
1070
    72
1070
     0
1070
    48
1040
0.002
1070
    47
1040
0.005
1002
}
  0
DIMENSION
  5
15C
330
1F
100
AcDbEntity
  8
DIMENSIONS
100
AcDbDimension
280
     0
  2
D12
 10
0.0
 20
0.0
 30
0.0
 11
222.5611801147461
 21
331.7399139404297
 31
0.0
 70
    32
  1
<>
 71
     5
 42
-1.0
 73
     0
 74
     0
 75
     0
  3
ISO-25
100
AcDbAlignedDimension
 13
141.5162345625608
 23
161.8208923339844
 33
0.0
 14
122.5104043729102
 24
171.8208923339844
 34
0.0
100
AcDbRotatedDimension
1001
ACAD
1000
DSTYLE
1002
{
1070
    76
1070
     0
1070
    75
1070
     0
1070
   282
1070
     0
1070
   281
1070
     0
1070
    77
1070
     1
1070
    79
1070
     0
1070
    78
1070
     0
1070
   272
1070
     2
1070
   271
1070
     2
1070
   179
1070
     2
1070
   140
1040
2.707850318471337
1070
    71
1070
     0
1070
    72
1070
     0
1070
    48
1040
0.002
1070
    47
1040
0.005
1002
}
  0
MTEXT
  5
16E
330
1F
100
AcDbEntity
  8
CONTINUOUS
100
AcDbMText
 10
108.1397476196289
 20
194.4168074060482
 30
0.0
 40
2.188737186504777
 41
0.0
 46
0.0
 71
     1
 72
     1
  1
{\fCE|b0|i0|c0|p0;\C7;3x M6  na }{\fAlibre Symbols|b0|i0|c0|p0;\C7;n}{\fCE|b0|i0|c0|p0;\C7;56mm}{\fCE|b0|i0|c0|p0;\C7;}
 73
     1
 44
1.0
  0
LINE
  5
16F
330
1F
100
AcDbEntity
  8
CONTINUOUS
100
AcDbLine
 10
102.2303726196289
 20
192.3097913953993
 30
0.0
 11
107.3897476196289
 21
192.3097913953993
 31
0.0
  0
LINE
  5
170
330
1F
100
AcDbEntity
  8
CONTINUOUS
100
AcDbLine
 10
91.22491456344417
 20
180.1190246891194
 30
0.0
 11
91.22491456344417
 21
180.1190246891194
 31
0.0
  0
LINE
  5
171
330
1F
100
AcDbEntity
  8
CONTINUOUS
100
AcDbLine
 10
91.22491456344417
 20
180.1190246891194
 30
0.0
 11
102.2303726196289
 21
192.3097913953993
 31
0.0
  0
LWPOLYLINE
  5
172
330
1F
100
AcDbEntity
  8
CONTINUOUS
100
AcDbPolyline
 90
        4
 70
     0
 43
0.0
 10
89.21461486816408
 20
177.8922119140625
 10
90.85377910093472
 20
180.4540746383327
 10
91.59605002595369
 20
179.783974739906
 10
89.21461486816408
 20
177.8922119140625
  0
HATCH
  5
173
330
1F
100
AcDbEntity
  8
0
 62
     7
100
AcDbHatch
 10
0.0
 20
0.0
 30
0.0
210
0.0
220
0.0
230
1.0
  2
PLNÁ, Plné vyplnění
 70
     0
 71
     0
 91
        1
 92
        0
 93
        3
 72
     1
 10
91.59605002595369
 20
179.783974739906
 11
89.21461486816408
 21
177.8922119140625
 72
     1
 10
89.21461486816408
 20
177.8922119140625
 11
90.85377910093472
 21
180.4540746383327
 72
     1
 10
90.85377910093472
 20
180.4540746383327
 11
91.59605002595369
 21
179.783974739906
 97
        0
 75
     0
 76
     0
 52
0.0
 41
1.0
 77
     0
 78
     1
 53
45.0
 43
0.0
 44
0.0
 45
0.0
 46
0.0
 79
     0
 98
        0
  0
LINE
  5
174
330
1F
100
AcDbEntity
  8
VISIBLE
100
AcDbLine
 10
50.20415496826172
 20
57.20460486412048
 30
0.0
 11
122.5104043729102
 21
57.20460486412048
 31
0.0
  0
LINE
  5
175
330
1F
100
AcDbEntity
  8
VISIBLE
100
AcDbLine
 10
141.5162345625608
 20
61.20460486412048
 30
0.0
 11
163.7041549682617
 21
61.20460486412048
 31
0.0
  0
LINE
  5
176
330
1F
100
AcDbEntity
  8
VISIBLE
100
AcDbLine
 10
173.7041549682617
 20
65.20460486412048
 30
0.0
 11
163.7041549682617
 21
65.20460486412048
 31
0.0
  0
LINE
  5
177
330
1F
100
AcDbEntity
  8
VISIBLE
100
AcDbLine
 10
122.5104043729102
 20
65.20460486412048
 30
0.0
 11
122.5104043729102
 21
57.20460486412048
 31
0.0
  0
LINE
  5
178
330
1F
100
AcDbEntity
  8
VISIBLE
100
AcDbLine
 10
163.7041549682617
 20
61.20460486412048
 30
0.0
 11
173.7041549682617
 21
61.20460486412048
 31
0.0
  0
LINE
  5
179
330
1F
100
AcDbEntity
  8
VISIBLE
100
AcDbLine
 10
122.5104043729102
 20
57.20460486412048
 30
0.0
 11
131.5162345625608
 21
57.20460486412048
 31
0.0
  0
LINE
  5
17A
330
1F
100
AcDbEntity
  8
VISIBLE
100
AcDbLine
 10
141.5162345625608
 20
65.20460486412048
 30
0.0
 11
141.5162345625608
 21
57.20460486412048
 31
0.0
  0
LINE
  5
17B
330
1F
100
AcDbEntity
  8
VISIBLE
100
AcDbLine
 10
141.5162345625608
 20
65.20460486412048
 30
0.0
 11
131.5162345625608
 21
65.20460486412048
 31
0.0
  0
LINE
  5
17C
330
1F
100
AcDbEntity
  8
VISIBLE
100
AcDbLine
 10
141.5162345625608
 20
65.20460486412048
 30
0.0
 11
163.7041549682617
 21
65.20460486412048
 31
0.0
  0
LINE
  5
17D
330
1F
100
AcDbEntity
  8
VISIBLE
100
AcDbLine
 10
131.5162345625608
 20
57.20460486412048
 30
0.0
 11
141.5162345625608
 21
57.20460486412048
 31
0.0
  0
LINE
  5
17E
330
1F
100
AcDbEntity
  8
VISIBLE
100
AcDbLine
 10
122.5104043729102
 20
65.20460486412048
 30
0.0
 11
50.20415496826172
 21
65.20460486412048
 31
0.0
  0
LINE
  5
17F
330
1F
100
AcDbEntity
  8
VISIBLE
100
AcDbLine
 10
122.5104043729102
 20
65.20460486412048
 30
0.0
 11
131.5162345625608
 21
65.20460486412048
 31
0.0
  0
LINE
  5
180
330
1F
100
AcDbEntity
  8
VISIBLE
100
AcDbLine
 10
173.7041549682617
 20
65.20460486412048
 30
0.0
 11
173.7041549682617
 21
61.20460486412048
 31
0.0
  0
LINE
  5
181
330
1F
100
AcDbEntity
  8
VISIBLE
100
AcDbLine
 10
50.20415496826172
 20
65.20460486412048
 30
0.0
 11
50.20415496826172
 21
57.20460486412048
 31
0.0
  0
LINE
  5
183
330
1F
100
AcDbEntity
  8
TANGENT EDGES
100
AcDbLine
 10
163.7041549682617
 20
65.20460486412048
 30
0.0
 11
163.7041549682617
 21
61.20460486412048
 31
0.0
  0
LINE
  5
184
330
1F
100
AcDbEntity
  8
TANGENT EDGES
100
AcDbLine
 10
131.5162345625608
 20
65.20460486412048
 30
0.0
 11
131.5162345625608
 21
57.20460486412048
 31
0.0
  0
LINE
  5
185
330
1F
100
AcDbEntity
  8
CENTER
100
AcDbLine
 10
131.5162345625608
 20
60.70460486412048
 30
0.0
 11
131.5162345625608
 21
61.70460486412048
 31
0.0
  0
LINE
  5
186
330
1F
100
AcDbEntity
  8
CENTER
100
AcDbLine
 10
131.5162345625608
 20
60.20460486412048
 30
0.0
 11
131.5162345625608
 21
54.02960486412049
 31
0.0
  0
LINE
  5
187
330
1F
100
AcDbEntity
  8
CENTER
100
AcDbLine
 10
131.5162345625608
 20
62.20460486412048
 30
0.0
 11
131.5162345625608
 21
68.37960486412048
 31
0.0
  0
LINE
  5
188
330
1F
100
AcDbEntity
  8
CENTER
100
AcDbLine
 10
89.70415496826172
 20
60.70460486412048
 30
0.0
 11
89.70415496826172
 21
61.70460486412048
 31
0.0
  0
LINE
  5
189
330
1F
100
AcDbEntity
  8
CENTER
100
AcDbLine
 10
89.70415496826172
 20
60.20460486412048
 30
0.0
 11
89.70415496826172
 21
54.02960486412049
 31
0.0
  0
LINE
  5
18A
330
1F
100
AcDbEntity
  8
CENTER
100
AcDbLine
 10
89.70415496826172
 20
62.20460486412048
 30
0.0
 11
89.70415496826172
 21
68.37960486412048
 31
0.0
  0
LINE
  5
18B
330
1F
100
AcDbEntity
  8
CENTER
100
AcDbLine
 10
163.7041549682617
 20
62.70460486412048
 30
0.0
 11
163.7041549682617
 21
63.70460486412048
 31
0.0
  0
LINE
  5
18C
330
1F
100
AcDbEntity
  8
CENTER
100
AcDbLine
 10
163.7041549682617
 20
62.20460486412048
 30
0.0
 11
163.7041549682617
 21
58.02960486412049
 31
0.0
  0
LINE
  5
18D
330
1F
100
AcDbEntity
  8
CENTER
100
AcDbLine
 10
163.7041549682617
 20
64.20460486412048
 30
0.0
 11
163.7041549682617
 21
68.37960486412048
 31
0.0
  0
DIMENSION
  5
18E
330
1F
100
AcDbEntity
  8
DIMENSIONS
100
AcDbDimension
280
     0
  2
D13
 10
0.0
 20
0.0
 30
0.0
 11
271.0134811401367
 21
128.0388066768646
 31
0.0
 70
    32
  1
<>
 71
     5
 42
-1.0
 73
     0
 74
     0
 75
     0
 53
90.0
  3
ISO-25
100
AcDbAlignedDimension
 13
173.7041549682617
 23
61.20460486412048
 33
0.0
 14
173.7041549682617
 24
65.20460486412048
 34
0.0
 50
90.0
100
AcDbRotatedDimension
1001
ACAD
1000
DSTYLE
1002
{
1070
    76
1070
     0
1070
    75
1070
     0
1070
   282
1070
     0
1070
   281
1070
     0
1070
    77
1070
     1
1070
    79
1070
     0
1070
    78
1070
     0
1070
   272
1070
     2
1070
   271
1070
     2
1070
   179
1070
     2
1070
   140
1040
2.707850318471337
1070
    71
1070
     0
1070
    72
1070
     0
1070
    48
1040
0.002
1070
    47
1040
0.005
1002
}
  0
DIMENSION
  5
19F
330
1F
100
AcDbEntity
  8
DIMENSIONS
100
AcDbDimension
280
     0
  2
D14
 10
0.0
 20
0.0
 30
0.0
 11
134.9108276367188
 21
127.1268727779388
 31
0.0
 70
    32
  1
<>
 71
     5
 42
-1.0
 73
     0
 74
     0
 75
     0
 53
270.0
  3
ISO-25
100
AcDbAlignedDimension
 13
50.20415496826172
 23
65.20460486412048
 33
0.0
 14
50.20415496826172
 24
57.20460486412048
 34
0.0
 50
270.0
100
AcDbRotatedDimension
1001
ACAD
1000
DSTYLE
1002
{
1070
    76
1070
     0
1070
    75
1070
     0
1070
   282
1070
     0
1070
   281
1070
     0
1070
    77
1070
     1
1070
    79
1070
     0
1070
    78
1070
     0
1070
   272
1070
     2
1070
   271
1070
     2
1070
   179
1070
     2
1070
   140
1040
2.707850318471337
1070
    71
1070
     0
1070
    72
1070
     0
1070
    48
1040
0.002
1070
    47
1040
0.005
1002
}
  0
LINE
  5
1B0
330
1F
100
AcDbEntity
  8
VISIBLE
100
AcDbLine
 10
247.93430352211
 20
110.3208923339844
 30
0.0
 11
247.93430352211
 21
189.3208923339844
 31
0.0
  0
LINE
  5
1B1
330
1F
100
AcDbEntity
  8
VISIBLE
100
AcDbLine
 10
239.93430352211
 20
189.3208923339844
 30
0.0
 11
239.93430352211
 21
110.3208923339844
 31
0.0
  0
LINE
  5
1B2
330
1F
100
AcDbEntity
  8
VISIBLE
100
AcDbLine
 10
239.93430352211
 20
110.3208923339844
 30
0.0
 11
247.93430352211
 21
110.3208923339844
 31
0.0
  0
LINE
  5
1B3
330
1F
100
AcDbEntity
  8
VISIBLE
100
AcDbLine
 10
239.93430352211
 20
189.3208923339844
 30
0.0
 11
247.93430352211
 21
189.3208923339844
 31
0.0
  0
LINE
  5
1B4
330
1F
100
AcDbEntity
  8
CENTER
100
AcDbLine
 10
243.43430352211
 20
161.8208923339844
 30
0.0
 11
244.43430352211
 21
161.8208923339844
 31
0.0
  0
LINE
  5
1B5
330
1F
100
AcDbEntity
  8
CENTER
100
AcDbLine
 10
242.93430352211
 20
161.8208923339844
 30
0.0
 11
236.75930352211
 21
161.8208923339844
 31
0.0
  0
LINE
  5
1B6
330
1F
100
AcDbEntity
  8
CENTER
100
AcDbLine
 10
244.93430352211
 20
161.8208923339844
 30
0.0
 11
251.10930352211
 21
161.8208923339844
 31
0.0
  0
LINE
  5
1B7
330
1F
100
AcDbEntity
  8
CENTER
100
AcDbLine
 10
243.43430352211
 20
149.8208923339844
 30
0.0
 11
244.43430352211
 21
149.8208923339844
 31
0.0
  0
LINE
  5
1B8
330
1F
100
AcDbEntity
  8
CENTER
100
AcDbLine
 10
242.93430352211
 20
149.8208923339844
 30
0.0
 11
236.75930352211
 21
149.8208923339844
 31
0.0
  0
LINE
  5
1B9
330
1F
100
AcDbEntity
  8
CENTER
100
AcDbLine
 10
244.93430352211
 20
149.8208923339844
 30
0.0
 11
251.10930352211
 21
149.8208923339844
 31
0.0
  0
DIMENSION
  5
1BA
330
1F
100
AcDbEntity
  8
DIMENSIONS
100
AcDbDimension
280
     0
  2
D15
 10
0.0
 20
0.0
 30
0.0
 11
484.1284258365631
 21
254.269287109375
 31
0.0
 70
    32
  1
<>
 71
     5
 42
-1.0
 73
     0
 74
     0
 75
     0
  3
ISO-25
100
AcDbAlignedDimension
 13
239.93430352211
 23
110.3208923339844
 33
0.0
 14
247.93430352211
 24
110.3208923339844
 34
0.0
100
AcDbRotatedDimension
1001
ACAD
1000
DSTYLE
1002
{
1070
    76
1070
     0
1070
    75
1070
     0
1070
   282
1070
     0
1070
   281
1070
     0
1070
    77
1070
     1
1070
    79
1070
     0
1070
    78
1070
     0
1070
   272
1070
     2
1070
   271
1070
     2
1070
   179
1070
     2
1070
   140
1040
2.707850318471337
1070
    71
1070
     0
1070
    72
1070
     0
1070
    48
1040
0.002
1070
    47
1040
0.005
1002
}
  0
LINE
  5
1CB
330
1F
100
AcDbEntity
  8
VISIBLE
100
AcDbLine
 10
243.5510523962069
 20
67.46375607129272
 30
0.0
 11
243.5510523962069
 21
58.48229368108774
 31
0.0
  0
ELLIPSE
  5
1CC
330
1F
100
AcDbEntity
  8
VISIBLE
100
AcDbEllipse
 10
225.2327159819539
 20
73.14087304560148
 30
0.0
 11
9.875
 21
-17.10400172474266
 31
0.0
210
0.0
220
0.0
230
1.0
 40
0.5773502691896257
 41
0.0
 42
0.529448181837411
  0
ELLIPSE
  5
1CD
330
1F
100
AcDbEntity
  8
VISIBLE
100
AcDbEllipse
 10
225.2327159819539
 20
73.14087304560148
 30
0.0
 11
9.875
 21
-17.10400172474266
 31
0.0
210
0.0
220
0.0
230
1.0
 40
0.5773502691896257
 41
-3.141592653589793
 42
0.0
  0
ELLIPSE
  5
1CE
330
1F
100
AcDbEntity
  8
VISIBLE
100
AcDbEllipse
 10
225.2327159819539
 20
73.14087304560148
 30
0.0
 11
9.875
 21
-17.10400172474266
 31
0.0
210
0.0
220
0.0
230
1.0
 40
0.5773502691896257
 41
-4.907063688946843
 42
-3.141592653589793
  0
LINE
  5
1CF
330
1F
100
AcDbEntity
  8
VISIBLE
100
AcDbLine
 10
244.96526595858
 20
67.46375607129272
 30
0.0
 11
252.8098804482292
 21
62.9346657840049
 31
0.0
  0
SPLINE
  5
1D0
330
1F
100
AcDbEntity
  8
VISIBLE
100
AcDbSpline
210
0.0
220
0.0
230
1.0
 70
     8
 71
     3
 72
    14
 73
    10
 74
     0
 42
0.000000001
 43
0.000001
 40
0.256860652685328
 40
0.256860652685328
 40
0.256860652685328
 40
0.256860652685328
 40
0.2710902075902887
 40
0.2710902075902887
 40
0.3734050560702792
 40
0.3734050560702792
 40
0.4817129392233241
 40
0.4817129392233241
 40
0.5951719261159769
 40
0.5951719261159769
 40
0.5951719261159769
 40
0.5951719261159769
 10
233.1178759769037
 20
62.86624299172468
 30
0.0
 10
233.1158925501919
 20
62.84512723540928
 30
0.0
 10
233.1143909040168
 20
62.82374473373024
 30
0.0
 10
233.1060091928623
 20
62.64663608355908
 30
0.0
 10
233.1234835170489
 20
62.48181727032201
 30
0.0
 10
233.2029340600827
 20
62.14158038829746
 30
0.0
 10
233.2665936906185
 20
61.96963481682373
 30
0.0
 10
233.4310872398416
 20
61.64141299293409
 30
0.0
 10
233.531841035091
 20
61.48959406751251
 30
0.0
 10
233.6414563432001
 20
61.36067822794348
 30
0.0
  0
ELLIPSE
  5
1D1
330
1F
100
AcDbEntity
  8
VISIBLE
100
AcDbEllipse
 10
216.8362785775094
 20
72.4772065200292
 30
0.0
 11
0.625
 21
-1.082531754730553
 31
0.0
210
0.0
220
0.0
230
1.0
 40
0.5773502691896246
 41
-3.141592653589792
 42
-1.257205398106726
  0
ELLIPSE
  5
1D2
330
1F
100
AcDbEntity
  8
VISIBLE
100
AcDbEllipse
 10
216.8362785775094
 20
72.4772065200292
 30
0.0
 11
0.625
 21
-1.082531754730553
 31
0.0
210
0.0
220
0.0
230
1.0
 40
0.5773502691896246
 41
-3.83140974372171
 42
-3.141592653589792
  0
ELLIPSE
  5
1D3
330
1F
100
AcDbEntity
  8
VISIBLE
100
AcDbEllipse
 10
254.2240940106023
 20
59.66867946029399
 30
0.0
 11
2.499999999999972
 21
-4.330127018922191
 31
0.0
210
0.0
220
0.0
230
1.0
 40
0.5773502691896205
 41
0.0
 42
2.356194490192346
  0
LINE
  5
1D4
330
1F
100
AcDbEntity
  8
VISIBLE
100
AcDbLine
 10
239.6599038163621
 20
77.05878097967246
 30
0.0
 11
236.8314766916159
 21
75.42578781781701
 31
0.0
  0
SPLINE
  5
1D5
330
1F
100
AcDbEntity
  8
VISIBLE
100
AcDbSpline
210
0.0
220
0.0
230
1.0
 70
     8
 71
     3
 72
    10
 73
     6
 74
     0
 42
0.000000001
 43
0.000001
 40
-63.40724338828492
 40
-63.40724338828492
 40
-63.40724338828492
 40
-63.40724338828492
 40
-62.92110286309102
 40
-62.25172942837729
 40
-61.61187560016517
 40
-61.61187560016517
 40
-61.61187560016517
 40
-61.61187560016517
 10
216.4347296830382
 20
71.800332590239
 30
0.0
 10
216.3173716017434
 20
71.95519571136724
 30
0.0
 10
216.0754105274364
 20
72.38658693227096
 30
0.0
 10
215.9589302152405
 20
73.11767222404221
 30
0.0
 10
216.1356182023424
 20
73.4826157241204
 30
0.0
 10
216.2694691048631
 20
73.5875027370177
 30
0.0
  0
SPLINE
  5
1D6
330
1F
100
AcDbEntity
  8
VISIBLE
100
AcDbSpline
210
0.0
220
0.0
230
1.0
 70
     8
 71
     3
 72
    11
 73
     7
 74
     0
 42
0.000000001
 43
0.000001
 40
-58.19346547611141
 40
-58.19346547611141
 40
-58.19346547611141
 40
-58.19346547611141
 40
-57.56611538538115
 40
-56.89674195066742
 40
-56.22736851595369
 40
-55.63474216312769
 40
-55.63474216312769
 40
-55.63474216312769
 40
-55.63474216312769
 10
217.6562124169767
 20
71.5327737075805
 30
0.0
 10
217.5163800098864
 20
71.50876445851823
 30
0.0
 10
217.1580188361419
 20
71.61617268685929
 30
0.0
 10
216.6263110887927
 20
72.2221671138018
 30
0.0
 10
216.3584185330643
 20
73.01989539397857
 30
0.0
 10
216.4218964777219
 20
73.45989194629257
 30
0.0
 10
216.5001781874231
 20
73.61523117491305
 30
0.0
  0
SPLINE
  5
1D7
330
1F
100
AcDbEntity
  8
VISIBLE
100
AcDbSpline
210
0.0
220
0.0
230
1.0
 70
     8
 71
     3
 72
    10
 73
     6
 74
     0
 42
0.000000001
 43
0.000001
 40
-51.47605822387223
 40
-51.47605822387223
 40
-51.47605822387223
 40
-51.47605822387223
 40
-50.8723810382438
 40
-50.20300760353007
 40
-49.71161162726678
 40
-49.71161162726678
 40
-49.71161162726678
 40
-49.71161162726678
 10
217.7184809992441
 20
71.81372840872253
 30
0.0
 10
217.5555714833621
 20
71.88920227552833
 30
0.0
 10
217.1928911270819
 20
72.19061243754597
 30
0.0
 10
216.8366164863689
 20
72.88253230747252
 30
0.0
 10
216.786720517192
 20
73.33701967360305
 30
0.0
 10
216.8009028985172
 20
73.50760570823606
 30
0.0
  0
SPLINE
  5
1D8
330
1F
100
AcDbEntity
  8
VISIBLE
100
AcDbSpline
210
0.0
220
0.0
230
1.0
 70
     8
 71
     3
 72
     9
 73
     5
 74
     0
 42
0.000000001
 43
0.000001
 40
-44.45381972131571
 40
-44.45381972131571
 40
-44.45381972131571
 40
-44.45381972131571
 40
-44.17864669110647
 40
-44.14310779630917
 40
-44.14310779630917
 40
-44.14310779630917
 40
-44.14310779630917
 10
217.528414704725
 20
72.57675742023604
 30
0.0
 10
217.4660211982798
 20
72.67023268591844
 30
0.0
 10
217.4023280333341
 20
72.7838409010079
 30
0.0
 10
217.3497327205747
 20
72.90227722194733
 30
0.0
 10
217.3438646437068
 20
72.91587833662852
 30
0.0
  0
ELLIPSE
  5
1D9
330
1F
100
AcDbEntity
  8
VISIBLE
100
AcDbEllipse
 10
252.8098804482292
 20
58.85218287936627
 30
0.0
 11
2.5
 21
-4.330127018922184
 31
0.0
210
0.0
220
0.0
230
1.0
 40
0.577350269189621
 41
0.0
 42
2.35619449019234
  0
ELLIPSE
  5
1DA
330
1F
100
AcDbEntity
  8
VISIBLE
100
AcDbEllipse
 10
252.8098804482292
 20
58.85218287936627
 30
0.0
 11
2.5
 21
-4.330127018922184
 31
0.0
210
0.0
220
0.0
230
1.0
 40
0.577350269189621
 41
-0.7853981633974538
 42
0.0
  0
SPLINE
  5
1DB
330
1F
100
AcDbEntity
  8
VISIBLE
100
AcDbSpline
210
0.0
220
0.0
230
1.0
 70
     8
 71
     3
 72
     9
 73
     5
 74
     0
 42
0.000000001
 43
0.000001
 40
48.13882657075813
 40
48.13882657075813
 40
48.13882657075813
 40
48.13882657075813
 40
48.19488729938887
 40
48.83830245880502
 40
48.83830245880502
 40
48.83830245880502
 40
48.83830245880502
 10
234.3527534234475
 20
63.20939934059393
 30
0.0
 10
234.359358208185
 20
63.18743887979888
 30
0.0
 10
234.4469550803823
 20
62.91367164893403
 30
0.0
 10
234.5984169560609
 20
62.64799403118658
 30
0.0
 10
234.7609185367936
 20
62.45759602444599
 30
0.0
  0
SPLINE
  5
1DC
330
1F
100
AcDbEntity
  8
VISIBLE
100
AcDbSpline
210
0.0
220
0.0
230
1.0
 70
     8
 71
     3
 72
    11
 73
     7
 74
     0
 42
0.000000001
 43
0.000001
 40
53.83636237220612
 40
53.83636237220612
 40
53.83636237220612
 40
53.83636237220612
 40
54.21924821181248
 40
54.88862164652622
 40
55.55799508123995
 40
55.71121040242308
 40
55.71121040242308
 40
55.71121040242308
 40
55.71121040242308
 10
233.8998372535735
 20
63.64128967386402
 30
0.0
 10
233.8814311953402
 20
63.51306024433406
 30
0.0
 10
233.888828681369
 20
63.12073086960485
 30
0.0
 10
234.1664291143186
 20
62.41659299706885
 30
0.0
 10
234.5826082148431
 20
61.99345239598486
 30
0.0
 10
234.8062106194933
 20
61.8827950542102
 30
0.0
 10
234.8471567408122
 20
61.86648908148292
 30
0.0
  0
SPLINE
  5
1DD
330
1F
100
AcDbEntity
  8
VISIBLE
100
AcDbSpline
210
0.0
220
0.0
230
1.0
 70
     8
 71
     3
 72
    12
 73
     8
 74
     0
 42
0.000000001
 43
0.000001
 40
59.73115947105826
 40
59.73115947105826
 40
59.73115947105826
 40
59.73115947105826
 40
60.24360912423609
 40
60.91298255894982
 40
61.58235599366355
 40
62.25172942837729
 40
62.35283891336186
 40
62.35283891336186
 40
62.35283891336186
 40
62.35283891336186
 10
233.6317660698922
 20
63.7523284649157
 30
0.0
 10
233.5514980658336
 20
63.63189137935218
 30
0.0
 10
233.4449537685944
 20
63.26067527355771
 30
0.0
 10
233.6123843451631
 20
62.4977204473109
 30
0.0
 10
234.1085567782358
 20
61.7939441999314
 30
0.0
 10
234.5234964412425
 20
61.58851046457056
 30
0.0
 10
234.704659987491
 20
61.59574606354693
 30
0.0
 10
234.7276220920121
 20
61.59864684703289
 30
0.0
  0
SPLINE
  5
1DE
330
1F
100
AcDbEntity
  8
VISIBLE
100
AcDbSpline
210
0.0
220
0.0
230
1.0
 70
     8
 71
     3
 72
     9
 73
     5
 74
     0
 42
0.000000001
 43
0.000001
 40
65.47014399092936
 40
65.47014399092936
 40
65.47014399092936
 40
65.47014399092936
 40
65.59859660194596
 40
65.71164633689354
 40
65.71164633689354
 40
65.71164633689354
 40
65.71164633689354
 10
233.6017203891988
 20
63.75889636353142
 30
0.0
 10
233.5666584721451
 20
63.75357034675981
 30
0.0
 10
233.5031290975648
 20
63.73766420033881
 30
0.0
 10
233.4451539853011
 20
63.71049696689079
 30
0.0
 10
233.419348147709
 20
63.69545682329752
 30
0.0
  0
SPLINE
  5
1DF
330
1F
100
AcDbEntity
  8
VISIBLE
100
AcDbSpline
210
0.0
220
0.0
230
1.0
 70
     8
 71
     3
 72
     9
 73
     5
 74
     0
 42
0.000000001
 43
0.000001
 40
65.71164633689354
 40
65.71164633689354
 40
65.71164633689354
 40
65.71164633689354
 40
66.26797003665969
 40
66.70506041416357
 40
66.70506041416357
 40
66.70506041416357
 40
66.70506041416357
 10
233.419348147709
 20
63.69545682329752
 30
0.0
 10
233.2923562617799
 20
63.62144348454269
 30
0.0
 10
233.1232292492532
 20
63.38883055040838
 30
0.0
 10
233.1010384316597
 20
63.03184466499289
 30
0.0
 10
233.1183977528529
 20
62.86584805340656
 30
0.0
  0
ELLIPSE
  5
1E0
330
1F
100
AcDbEntity
  8
VISIBLE
100
AcDbEllipse
 10
216.6595018822127
 20
72.37514444741323
 30
0.0
 11
0.75
 21
-1.299038105676658
 31
0.0
210
0.0
220
0.0
230
1.0
 40
0.5773502691896274
 41
-3.035488870900819
 42
0.7853981633974554
  0
ELLIPSE
  5
1E1
330
1F
100
AcDbEntity
  8
VISIBLE
100
AcDbEllipse
 10
216.6595018822127
 20
72.37514444741323
 30
0.0
 11
0.75
 21
-1.299038105676658
 31
0.0
210
0.0
220
0.0
230
1.0
 40
0.5773502691896274
 41
0.7853981633974555
 42
2.356194490192347
  0
ELLIPSE
  5
1E2
330
1F
100
AcDbEntity
  8
VISIBLE
100
AcDbEllipse
 10
216.6595018822127
 20
72.37514444741323
 30
0.0
 11
0.75
 21
-1.299038105676658
 31
0.0
210
0.0
220
0.0
230
1.0
 40
0.5773502691896274
 41
-3.926990816987239
 42
-3.035488870900819
  0
SPLINE
  5
1E3
330
1F
100
AcDbEntity
  8
VISIBLE
100
AcDbSpline
210
0.0
220
0.0
230
1.0
 70
     8
 71
     3
 72
    12
 73
     8
 74
     0
 42
0.000000001
 43
0.000001
 40
0.0
 40
0.0
 40
0.0
 40
0.0
 40
0.1164544708240717
 40
0.1164544708240717
 40
0.2312583809294113
 40
0.2312583809294113
 40
0.259471685453869
 40
0.259471685453869
 40
0.259471685453869
 40
0.259471685453869
 10
215.8342910714206
 20
73.62101898968348
 30
0.0
 10
215.9294109741433
 20
73.69140541397928
 30
0.0
 10
216.0437319134851
 20
73.72936379162932
 30
0.0
 10
216.2973217104424
 20
73.73567588996208
 30
0.0
 10
216.4337989565385
 20
73.70493556680171
 30
0.0
 10
216.6080519535602
 20
73.62631764101413
 30
0.0
 10
216.6424678643514
 20
73.60892730072857
 30
0.0
 10
216.6768091641289
 20
73.58973382125372
 30
0.0
  0
SPLINE
  5
1E4
330
1F
100
AcDbEntity
  8
VISIBLE
100
AcDbSpline
210
0.0
220
0.0
230
1.0
 70
     8
 71
     3
 72
    18
 73
    14
 74
     0
 42
0.000000001
 43
0.000001
 40
0.722763386266239
 40
0.722763386266239
 40
0.722763386266239
 40
0.722763386266239
 40
0.7805037159576994
 40
0.7805037159576994
 40
0.8853947138127821
 40
0.8853947138127821
 40
0.9886319246795776
 40
0.9886319246795776
 40
1.090214868852072
 40
1.090214868852072
 40
1.190143061901102
 40
1.190143061901102
 40
1.247120777498005
 40
1.247120777498005
 40
1.247120777498005
 40
1.247120777498005
 10
217.7189595407488
 20
71.82177274041238
 30
0.0
 10
217.7155905479554
 20
71.74923961435177
 30
0.0
 10
217.7051488175659
 20
71.68159347845793
 30
0.0
 10
217.6560445964705
 20
71.50841848137344
 30
0.0
 10
217.6019006446812
 20
71.41922212822975
 30
0.0
 10
217.456059172281
 20
71.29797997898434
 30
0.0
 10
217.3663522966675
 20
71.26622537843085
 30
0.0
 10
217.1642410428198
 20
71.26438759585656
 30
0.0
 10
217.0541484369272
 20
71.29335611573944
 30
0.0
 10
216.8290348188523
 20
71.4081864123859
 30
0.0
 10
216.71627150278
 20
71.49203144796721
 30
0.0
 10
216.5480339304119
 20
71.65947739494094
 30
0.0
 10
216.4894509251863
 20
71.72701894859628
 30
0.0
 10
216.4345555558451
 20
71.80002395962948
 30
0.0
  0
LINE
  5
1E5
330
1F
100
AcDbEntity
  8
VISIBLE
100
AcDbLine
 10
244.96526595858
 20
67.46375607129272
 30
0.0
 11
244.96526595858
 21
59.29879026201547
 31
0.0
  0
SPLINE
  5
1E6
330
1F
100
AcDbEntity
  8
VISIBLE
100
AcDbSpline
210
0.0
220
0.0
230
1.0
 70
     8
 71
     3
 72
    12
 73
     8
 74
     0
 42
0.000000001
 43
0.000001
 40
0.2568606526852282
 40
0.2568606526852282
 40
0.2568606526852282
 40
0.2568606526852282
 40
0.2710902075901698
 40
0.2710902075901698
 40
0.3734050560700036
 40
0.3734050560700036
 40
0.4777175613356744
 40
0.4777175613356744
 40
0.4777175613356744
 40
0.4777175613356744
 10
225.999989027024
 20
83.57352167321538
 30
0.0
 10
226.0112642746746
 20
83.57417500285344
 30
0.0
 10
226.0223107685533
 20
83.57544288162147
 30
0.0
 10
226.1107550808049
 20
83.59081870820985
 30
0.0
 10
226.174039736835
 20
83.63549902782411
 30
0.0
 10
226.2642140968968
 20
83.77871713172874
 30
0.0
 10
226.2895141910348
 20
83.87684087529675
 30
0.0
 10
226.2929674420209
 20
83.99368164993543
 30
0.0
  0
SPLINE
  5
1E7
330
1F
100
AcDbEntity
  8
VISIBLE
100
AcDbSpline
210
0.0
220
0.0
230
1.0
 70
     8
 71
     3
 72
    22
 73
    18
 74
     0
 42
0.000000001
 43
0.000001
 40
0.0
 40
0.0
 40
0.0
 40
0.0
 40
0.1164544708240844
 40
0.1164544708240844
 40
0.2312583809294035
 40
0.2312583809294035
 40
0.3444112833712236
 40
0.3444112833712236
 40
0.4559127266074643
 40
0.4559127266074643
 40
0.5657622544616543
 40
0.5657622544616543
 40
0.6739594060905921
 40
0.6739594060905921
 40
0.7805037159576849
 40
0.7805037159576849
 40
0.8354362329207009
 40
0.8354362329207009
 40
0.8354362329207009
 40
0.8354362329207009
 10
233.6414563432001
 20
61.36067822794348
 30
0.0
 10
233.5119156256632
 20
61.47164847576896
 30
0.0
 10
233.3887494731221
 20
61.60880076958163
 30
0.0
 10
233.1715767865061
 20
61.91889049088492
 30
0.0
 10
233.079262254662
 20
62.08834018600421
 30
0.0
 10
232.9382696046702
 20
62.43743966638743
 30
0.0
 10
232.8903390741908
 20
62.61357754569642
 30
0.0
 10
232.8457063869545
 20
62.94969618606465
 30
0.0
 10
232.848704429311
 20
63.10666397517905
 30
0.0
 10
232.9057026828902
 20
63.38126240435869
 30
0.0
 10
232.9584141876556
 20
63.49681286722107
 30
0.0
 10
233.1070566042148
 20
63.67193519174002
 30
0.0
 10
233.200916840495
 20
63.73064062573043
 30
0.0
 10
233.4179006747268
 20
63.78425655435876
 30
0.0
 10
233.538491725953
 20
63.77960363806399
 30
0.0
 10
233.7313924796157
 20
63.72523309845969
 30
0.0
 10
233.7981325228519
 20
63.69862038133938
 30
0.0
 10
233.8650029315625
 20
63.66438795876125
 30
0.0
  0
SPLINE
  5
1E8
330
1F
100
AcDbEntity
  8
VISIBLE
100
AcDbSpline
210
0.0
220
0.0
230
1.0
 70
     8
 71
     3
 72
    13
 73
     9
 74
     0
 42
0.000000001
 43
0.000001
 40
-62.52642395701709
 40
-62.52642395701709
 40
-62.52642395701709
 40
-62.52642395701709
 40
-62.25172942837729
 40
-61.58235599366355
 40
-60.91298255894982
 40
-60.24360912423609
 40
-59.57423568952235
 40
-59.56333961013907
 40
-59.56333961013907
 40
-59.56333961013907
 40
-59.56333961013907
 10
234.6338816831266
 20
61.51257781833262
 30
0.0
 10
234.5799209359047
 20
61.48705095357332
 30
0.0
 10
234.369187314078
 20
61.4459279991054
 30
0.0
 10
233.904207690224
 20
61.67627621507555
 30
0.0
 10
233.4081124252351
 20
62.38015758174255
 30
0.0
 10
233.2266298975054
 20
63.20776791385875
 30
0.0
 10
233.3807645470176
 20
63.61403713821326
 30
0.0
 10
233.5152115046059
 20
63.73727305582231
 30
0.0
 10
233.5173793823076
 20
63.73922600999776
 30
0.0
  0
SPLINE
  5
1E9
330
1F
100
AcDbEntity
  8
VISIBLE
100
AcDbSpline
210
0.0
220
0.0
230
1.0
 70
     8
 71
     3
 72
    11
 73
     7
 74
     0
 42
0.000000001
 43
0.000001
 40
-55.90632394504537
 40
-55.90632394504537
 40
-55.90632394504537
 40
-55.90632394504537
 40
-55.55799508123995
 40
-54.88862164652622
 40
-54.21924821181248
 40
-53.62860246042518
 40
-53.62860246042518
 40
-53.62860246042518
 40
-53.62860246042518
 10
234.7948207810758
 20
61.70740758404843
 30
0.0
 10
234.7076259898908
 20
61.71939722452403
 30
0.0
 10
234.4326878650978
 20
61.82040477094039
 30
0.0
 10
233.9621171325315
 20
62.29900282815483
 30
0.0
 10
233.6511346498975
 20
63.08814304841396
 30
0.0
 10
233.6807351358119
 20
63.54888636226386
 30
0.0
 10
233.7443124937054
 20
63.7180263159859
 30
0.0
  0
SPLINE
  5
1EA
330
1F
100
AcDbEntity
  8
VISIBLE
100
AcDbSpline
210
0.0
220
0.0
230
1.0
 70
     8
 71
     3
 72
    10
 73
     6
 74
     0
 42
0.000000001
 43
0.000001
 40
-49.20809439499752
 40
-49.20809439499752
 40
-49.20809439499752
 40
-49.20809439499752
 40
-48.8642607341026
 40
-48.19488729938887
 40
-47.78108810410573
 40
-47.78108810410573
 40
-47.78108810410573
 40
-47.78108810410573
 10
234.8524886673884
 20
62.07049578118488
 30
0.0
 10
234.7582478380315
 20
62.13432538756372
 30
0.0
 10
234.4810402276094
 20
62.38021535197895
 30
0.0
 10
234.1672745335433
 20
62.92167012547488
 30
0.0
 10
234.0822809411635
 20
63.35200598378747
 30
0.0
 10
234.0744086406058
 20
63.50593357161263
 30
0.0
  0
ELLIPSE
  5
1EB
330
1F
100
AcDbEntity
  8
VISIBLE
100
AcDbEllipse
 10
228.0611431067001
 20
74.77386620745693
 30
0.0
 11
5.25
 21
-9.093266739736606
 31
0.0
210
0.0
220
0.0
230
1.0
 40
0.5773502691896253
 41
-2.868849696799281
 42
-0.2727429567905109
  0
LINE
  5
1EC
330
1F
100
AcDbEntity
  8
VISIBLE
100
AcDbLine
 10
236.8314766916159
 20
75.42578781781702
 30
0.0
 11
240.0155184902741
 21
73.58748042825067
 31
0.0
  0
ELLIPSE
  5
1ED
330
1F
100
AcDbEntity
  8
VISIBLE
100
AcDbEllipse
 10
240.0155184902741
 20
69.50499752361205
 30
0.0
 11
1.000000000000028
 21
-1.732050807568882
 31
0.0
210
0.0
220
0.0
230
1.0
 40
0.5773502691896268
 41
0.7853981633974343
 42
3.141592653589772
  0
ELLIPSE
  5
1EE
330
1F
100
AcDbEntity
  8
VISIBLE
100
AcDbEllipse
 10
240.0155184902741
 20
69.50499752361205
 30
0.0
 11
1.000000000000028
 21
-1.732050807568882
 31
0.0
210
0.0
220
0.0
230
1.0
 40
0.5773502691896268
 41
-3.141592653589814
 42
0.0
  0
ELLIPSE
  5
1EF
330
1F
100
AcDbEntity
  8
VISIBLE
100
AcDbEllipse
 10
240.0155184902741
 20
69.50499752361205
 30
0.0
 11
1.000000000000028
 21
-1.732050807568882
 31
0.0
210
0.0
220
0.0
230
1.0
 40
0.5773502691896268
 41
0.0
 42
0.7853981633974343
  0
SPLINE
  5
1F0
330
1F
100
AcDbEntity
  8
VISIBLE
100
AcDbSpline
210
0.0
220
0.0
230
1.0
 70
     8
 71
     3
 72
    10
 73
     6
 74
     0
 42
0.000000001
 43
0.000001
 40
49.98385376103735
 40
49.98385376103735
 40
49.98385376103735
 40
49.98385376103735
 40
50.20300760353007
 40
50.8723810382438
 40
51.18920684107258
 40
51.18920684107258
 40
51.18920684107258
 40
51.18920684107258
 10
217.0136340763692
 20
73.32526618474547
 30
0.0
 10
217.0244636279053
 20
73.24137215497039
 30
0.0
 10
217.0958372281502
 20
72.89334269165145
 30
0.0
 10
217.3392838280381
 20
72.42070697113704
 30
0.0
 10
217.6018245201668
 20
72.15275117632451
 30
0.0
 10
217.6879619080392
 20
72.08224322221557
 30
0.0
  0
SPLINE
  5
1F1
330
1F
100
AcDbEntity
  8
VISIBLE
100
AcDbSpline
210
0.0
220
0.0
230
1.0
 70
     8
 71
     3
 72
    11
 73
     7
 74
     0
 42
0.000000001
 43
0.000001
 40
55.80953541486522
 40
55.80953541486522
 40
55.80953541486522
 40
55.80953541486522
 40
56.22736851595369
 40
56.89674195066742
 40
57.56611538538115
 40
57.96524220463531
 40
57.96524220463531
 40
57.96524220463531
 40
57.96524220463531
 10
216.6477463078525
 20
73.58289081723098
 30
0.0
 10
216.6129958085285
 20
73.45406289497214
 30
0.0
 10
216.5868498792234
 20
73.06526588171738
 30
0.0
 10
216.8306109910052
 20
72.33974613503673
 30
0.0
 10
217.3006449761149
 20
71.80420913337309
 30
0.0
 10
217.5948077102045
 20
71.67341432644459
 30
0.0
 10
217.6963110512403
 20
71.6541952507317
 30
0.0
  0
SPLINE
  5
1F2
330
1F
100
AcDbEntity
  8
VISIBLE
100
AcDbSpline
210
0.0
220
0.0
230
1.0
 70
     8
 71
     3
 72
    12
 73
     8
 74
     0
 42
0.000000001
 43
0.000001
 40
61.76974070647692
 40
61.76974070647692
 40
61.76974070647692
 40
61.76974070647692
 40
62.25172942837729
 40
62.92110286309102
 40
63.59047629780476
 40
64.25984973251849
 40
64.66444878546233
 40
64.66444878546233
 40
64.66444878546233
 40
64.66444878546233
 10
216.3833117216581
 20
73.6146558705536
 30
0.0
 10
216.3008567205228
 20
73.50982742944696
 30
0.0
 10
216.1732969342397
 20
73.17097908242174
 30
0.0
 10
216.291554582968
 20
72.42953129331
 30
0.0
 10
216.7581563688689
 20
71.69071127947285
 30
0.0
 10
217.2647369331901
 20
71.38568804974943
 30
0.0
 10
217.5112545250863
 20
71.42465001776289
 30
0.0
 10
217.5873212003207
 20
71.46832846351744
 30
0.0
  0
SPLINE
  5
1F3
330
1F
100
AcDbEntity
  8
VISIBLE
100
AcDbSpline
210
0.0
220
0.0
230
1.0
 70
     8
 71
     3
 72
     8
 73
     4
 74
     0
 42
0.000000001
 43
0.000001
 40
64.66444878546233
 40
64.66444878546233
 40
64.66444878546233
 40
64.66444878546233
 40
64.7743462512425
 40
64.7743462512425
 40
64.7743462512425
 40
64.7743462512425
 10
217.5873212003207
 20
71.46832846351744
 30
0.0
 10
217.6079824816009
 20
71.48019243221118
 30
0.0
 10
217.6274039848447
 20
71.49419597541925
 30
0.0
 10
217.6454354137618
 20
71.51027499794027
 30
0.0
  0
LINE
  5
1F4
330
1F
100
AcDbEntity
  8
VISIBLE
100
AcDbLine
 10
244.96526595858
 20
59.29879026201547
 30
0.0
 11
243.5510523962069
 21
58.48229368108774
 31
0.0
  0
ELLIPSE
  5
1F5
330
1F
100
AcDbEntity
  8
VISIBLE
100
AcDbEllipse
 10
225.2327159819539
 20
73.14087304560148
 30
0.0
 11
5.25
 21
-9.093266739736606
 31
0.0
210
0.0
220
0.0
230
1.0
 40
0.5773502691896253
 41
0.7853981633974491
 42
3.141592653589794
  0
ELLIPSE
  5
1F6
330
1F
100
AcDbEntity
  8
VISIBLE
100
AcDbEllipse
 10
225.2327159819539
 20
73.14087304560148
 30
0.0
 11
5.25
 21
-9.093266739736606
 31
0.0
210
0.0
220
0.0
230
1.0
 40
0.5773502691896253
 41
-3.141592653589792
 42
0.0
  0
ELLIPSE
  5
1F7
330
1F
100
AcDbEntity
  8
VISIBLE
100
AcDbEllipse
 10
225.2327159819539
 20
73.14087304560148
 30
0.0
 11
5.25
 21
-9.093266739736606
 31
0.0
210
0.0
220
0.0
230
1.0
 40
0.5773502691896253
 41
0.0
 42
0.7853981633974491
  0
ELLIPSE
  5
1F8
330
1F
100
AcDbEntity
  8
VISIBLE
100
AcDbEllipse
 10
254.2240940106023
 20
59.668679460294
 30
0.0
 11
1.0
 21
-1.732050807568882
 31
0.0
210
0.0
220
0.0
230
1.0
 40
0.5773502691896238
 41
-2.356194490192344
 42
-0.7853981633974483
  0
SPLINE
  5
1F9
330
1F
100
AcDbEntity
  8
VISIBLE
100
AcDbSpline
210
0.0
220
0.0
230
1.0
 70
     8
 71
     3
 72
    10
 73
     6
 74
     0
 42
0.000000001
 43
0.000001
 40
51.89728326473812
 40
51.89728326473812
 40
51.89728326473812
 40
51.89728326473812
 40
52.21112790767125
 40
52.88050134238499
 40
53.47361968732167
 40
53.47361968732167
 40
53.47361968732167
 40
53.47361968732167
 10
225.4443945806236
 20
85.64975364863841
 30
0.0
 10
225.4435312032417
 20
85.53616125193486
 30
0.0
 10
225.4853092677645
 20
85.1578001750724
 30
0.0
 10
225.7727729347776
 20
84.52410508302161
 30
0.0
 10
226.1254421120015
 20
84.18915833528906
 30
0.0
 10
226.2874168667005
 20
84.09452468569475
 30
0.0
  0
SPLINE
  5
1FA
330
1F
100
AcDbEntity
  8
VISIBLE
100
AcDbSpline
210
0.0
220
0.0
230
1.0
 70
     8
 71
     3
 72
    11
 73
     7
 74
     0
 42
0.000000001
 43
0.000001
 40
57.79121362731717
 40
57.79121362731717
 40
57.79121362731717
 40
57.79121362731717
 40
58.23548882009487
 40
58.90486225480861
 40
59.57423568952234
 40
60.1448090834149
 40
60.1448090834149
 40
60.1448090834149
 40
60.1448090834149
 10
225.1249865811915
 20
85.80407293041749
 30
0.0
 10
225.0738779163829
 20
85.6798131086698
 30
0.0
 10
225.0137456515046
 20
85.3020312319563
 30
0.0
 10
225.2189933985547
 20
84.56371495244545
 30
0.0
 10
225.7150674471879
 20
83.93269272268932
 30
0.0
 10
226.0644090097479
 20
83.77679187801435
 30
0.0
 10
226.2037112741253
 20
83.76753704229182
 30
0.0
  0
SPLINE
  5
1FB
330
1F
100
AcDbEntity
  8
VISIBLE
100
AcDbSpline
210
0.0
220
0.0
230
1.0
 70
     8
 71
     3
 72
    12
 73
     8
 74
     0
 42
0.000000001
 43
0.000001
 40
63.75724808895531
 40
63.75724808895531
 40
63.75724808895531
 40
63.75724808895531
 40
64.25984973251848
 40
64.92922316723221
 40
65.59859660194596
 40
66.26797003665969
 40
66.70506041416355
 40
66.70506041416355
 40
66.70506041416355
 40
66.70506041416355
 10
224.8861366983182
 20
85.80040539385536
 30
0.0
 10
224.7870361917346
 20
85.70882787137074
 30
0.0
 10
224.6246806241074
 20
85.39526145464791
 30
0.0
 10
224.6961614303424
 20
84.65988846944526
 30
0.0
 10
225.1294134447975
 20
83.89134262781741
 30
0.0
 10
225.6455830316818
 20
83.52545077068395
 30
0.0
 10
225.912837820462
 20
83.53566338892223
 30
0.0
 10
225.9998016223302
 20
83.57419948762603
 30
0.0
  0
ELLIPSE
  5
1FC
330
1F
100
AcDbEntity
  8
VISIBLE
100
AcDbEllipse
 10
225.4094926772505
 20
84.67388725120561
 30
0.0
 11
-0.6250000000000001
 21
1.082531754730539
 31
0.0
210
0.0
220
0.0
230
1.0
 40
0.5773502691896303
 41
-0.68981709013192
 42
-0.210007846910142
  0
ELLIPSE
  5
1FD
330
1F
100
AcDbEntity
  8
VISIBLE
100
AcDbEllipse
 10
225.4094926772505
 20
84.67388725120561
 30
0.0
 11
-0.6250000000000001
 21
1.082531754730539
 31
0.0
210
0.0
220
0.0
230
1.0
 40
0.5773502691896303
 41
3.141592653589782
 42
3.831409743721685
  0
ELLIPSE
  5
1FE
330
1F
100
AcDbEntity
  8
VISIBLE
100
AcDbEllipse
 10
225.4094926772505
 20
84.67388725120561
 30
0.0
 11
-0.6250000000000001
 21
1.082531754730539
 31
0.0
210
0.0
220
0.0
230
1.0
 40
0.5773502691896303
 41
3.087809178973114
 42
3.141592653589782
  0
ELLIPSE
  5
1FF
330
1F
100
AcDbEntity
  8
VISIBLE
100
AcDbEllipse
 10
242.8439456150203
 20
71.1379906854675
 30
0.0
 11
2.5
 21
-4.330127018922198
 31
0.0
210
0.0
220
0.0
230
1.0
 40
0.5773502691896245
 41
0.7853981633974507
 42
2.356194490192345
  0
SPLINE
  5
200
330
1F
100
AcDbEntity
  8
VISIBLE
100
AcDbSpline
210
0.0
220
0.0
230
1.0
 70
     8
 71
     3
 72
    12
 73
     8
 74
     0
 42
0.000000001
 43
0.000001
 40
0.3567071295722698
 40
0.3567071295722698
 40
0.3567071295722698
 40
0.3567071295722698
 40
0.3734050560696495
 40
0.3734050560696495
 40
0.4817129392223376
 40
0.4817129392223376
 40
0.5951719261148867
 40
0.5951719261148867
 40
0.5951719261148867
 40
0.5951719261148867
 10
216.7220351950069
 20
73.5616537304342
 30
0.0
 10
216.6996017529517
 20
73.57320500071525
 30
0.0
 10
216.6770978950317
 20
73.58410441312677
 30
0.0
 10
216.508315235332
 20
73.66066715986352
 30
0.0
 10
216.3632753665479
 20
73.69742097877914
 30
0.0
 10
216.0822657852095
 20
73.70912591749786
 30
0.0
 10
215.9499033222014
 20
73.68098462851188
 30
0.0
 10
215.8342910714206
 20
73.62101898968348
 30
0.0
  0
SPLINE
  5
201
330
1F
100
AcDbEntity
  8
VISIBLE
100
AcDbSpline
210
0.0
220
0.0
230
1.0
 70
     8
 71
     3
 72
    12
 73
     8
 74
     0
 42
0.000000001
 43
0.000001
 40
-60.32229976947752
 40
-60.32229976947752
 40
-60.32229976947752
 40
-60.32229976947752
 40
-60.24360912423609
 40
-59.57423568952235
 40
-58.90486225480862
 40
-58.23548882009489
 40
-57.62447842209662
 40
-57.62447842209662
 40
-57.62447842209662
 40
-57.62447842209662
 10
226.122394378858
 20
83.65934314511928
 30
0.0
 10
226.1053575729233
 20
83.6552105875556
 30
0.0
 10
225.9382318294812
 20
83.62712711015043
 30
0.0
 10
225.5363851599774
 20
83.78235097704591
 30
0.0
 10
225.0147068834739
 20
84.44614505509072
 30
0.0
 10
224.7903977065012
 20
85.2535008364905
 30
0.0
 10
224.8920443301901
 20
85.67342004822802
 30
0.0
 10
224.9898149535759
 20
85.81440921625547
 30
0.0
  0
SPLINE
  5
202
330
1F
100
AcDbEntity
  8
VISIBLE
100
AcDbSpline
210
0.0
220
0.0
230
1.0
 70
     8
 71
     3
 72
    11
 73
     7
 74
     0
 42
0.000000001
 43
0.000001
 40
-53.69051024210666
 40
-53.69051024210666
 40
-53.69051024210666
 40
-53.69051024210666
 40
-53.54987477709874
 40
-52.880501342385
 40
-52.21112790767127
 40
-51.67101843008841
 40
-51.67101843008841
 40
-51.67101843008841
 40
-51.67101843008841
 10
226.2578284450556
 20
83.89893767751629
 30
0.0
 10
226.2209980755432
 20
83.91006676768541
 30
0.0
 10
226.0042571450189
 20
83.99545881705409
 30
0.0
 10
225.5823562915719
 20
84.3758468991009
 30
0.0
 10
225.2398316025527
 20
85.13120086112345
 30
0.0
 10
225.227458800085
 20
85.59180874527985
 30
0.0
 10
225.2643831526408
 20
85.76456368825717
 30
0.0
  0
SPLINE
  5
203
330
1F
100
AcDbEntity
  8
VISIBLE
100
AcDbSpline
210
0.0
220
0.0
230
1.0
 70
     8
 71
     3
 72
    10
 73
     6
 74
     0
 42
0.000000001
 43
0.000001
 40
-46.90492699630438
 40
-46.90492699630438
 40
-46.90492699630438
 40
-46.90492699630438
 40
-46.8561404299614
 40
-46.18676699524767
 40
-45.88732530997459
 40
-45.88732530997459
 40
-45.88732530997459
 40
-45.88732530997459
 10
226.238809497972
 20
84.37844505825773
 30
0.0
 10
226.2257969736469
 20
84.39069860136203
 30
0.0
 10
226.0354086409221
 20
84.57635012919087
 30
0.0
 10
225.7952077799999
 20
84.94674560052108
 30
0.0
 10
225.6821687846463
 20
85.33070705180752
 30
0.0
 10
225.6594645494581
 20
85.44724395227263
 30
0.0
  0
LINE
  5
204
330
1F
100
AcDbEntity
  8
VISIBLE
100
AcDbLine
 10
246.3794795209531
 20
68.28025265222045
 30
0.0
 11
254.2240940106023
 21
63.75116236493263
 31
0.0
  0
LINE
  5
205
330
1F
100
AcDbEntity
  8
VISIBLE
100
AcDbLine
 10
246.3794795209531
 20
69.09674923314819
 30
0.0
 11
246.3794795209531
 21
68.28025265222045
 31
0.0
  0
SPLINE
  5
206
330
1F
100
AcDbEntity
  8
VISIBLE
100
AcDbSpline
210
0.0
220
0.0
230
1.0
 70
     8
 71
     3
 72
    30
 73
    26
 74
     0
 42
0.000000001
 43
0.000001
 40
0.1122339736998345
 40
0.1122339736998345
 40
0.1122339736998345
 40
0.1122339736998345
 40
0.1164544708240828
 40
0.1164544708240828
 40
0.2312583809294251
 40
0.2312583809294251
 40
0.344411283371246
 40
0.344411283371246
 40
0.4559127266074727
 40
0.4559127266074727
 40
0.5657622544616504
 40
0.5657622544616504
 40
0.6739594060906132
 40
0.6739594060906132
 40
0.7805037159577244
 40
0.7805037159577244
 40
0.8853947138128084
 40
0.8853947138128084
 40
0.9886319246796087
 40
0.9886319246796087
 40
1.090214868852112
 40
1.090214868852112
 40
1.190143061901113
 40
1.190143061901113
 40
1.247120777497938
 40
1.247120777497938
 40
1.247120777497938
 40
1.247120777497938
 10
226.2933504948003
 20
83.96799111678357
 30
0.0
 10
226.2933157076293
 20
83.96249818849772
 30
0.0
 10
226.2932456157918
 20
83.95702572017827
 30
0.0
 10
226.2902715148772
 20
83.80328386216823
 30
0.0
 10
226.2612801042301
 20
83.67333364642955
 30
0.0
 10
226.1551668319819
 20
83.46723303819606
 30
0.0
 10
226.079748144212
 20
83.39231488168146
 30
0.0
 10
225.8934649266583
 20
83.30753391390442
 30
0.0
 10
225.7849064858211
 20
83.29756071048396
 30
0.0
 10
225.5499399384382
 20
83.34393963334118
 30
0.0
 10
225.4260608708026
 20
83.39888278102968
 30
0.0
 10
225.1801956793863
 20
83.56648069164429
 30
0.0
 10
225.0605577495152
 20
83.67666774098844
 30
0.0
 10
224.8420583633974
 20
83.93783196449986
 30
0.0
 10
224.7449986455828
 20
84.08567683389566
 30
0.0
 10
224.5868916596206
 20
84.39969862212044
 30
0.0
 10
224.5268268814814
 20
84.56256309193077
 30
0.0
 10
224.4521384444157
 20
84.88214538346651
 30
0.0
 10
224.4375371387766
 20
85.03586922721776
 30
0.0
 10
224.4561711575531
 20
85.31438228382899
 30
0.0
 10
224.488477665916
 20
85.43693243232406
 30
0.0
 10
224.5961534214089
 20
85.63534493930871
 30
0.0
 10
224.6697961033462
 20
85.71003255322485
 30
0.0
 10
224.8117747578455
 20
85.78322489614717
 30
0.0
 10
224.8682145920876
 20
85.80037572047112
 30
0.0
 10
224.9285158393279
 20
85.80785999789016
 30
0.0
  0
ELLIPSE
  5
207
330
1F
100
AcDbEntity
  8
VISIBLE
100
AcDbEllipse
 10
233.9827067769916
 20
62.57771158341752
 30
0.0
 11
-0.625
 21
1.082531754730546
 31
0.0
210
0.0
220
0.0
230
1.0
 40
0.5773502691896274
 41
3.141592653589793
 42
3.831409743721705
  0
ELLIPSE
  5
208
330
1F
100
AcDbEntity
  8
VISIBLE
100
AcDbEllipse
 10
233.9827067769916
 20
62.57771158341752
 30
0.0
 11
-0.625
 21
1.082531754730546
 31
0.0
210
0.0
220
0.0
230
1.0
 40
0.5773502691896274
 41
0.9934140765799576
 42
3.141592653589793
  0
ELLIPSE
  5
209
330
1F
100
AcDbEntity
  8
VISIBLE
100
AcDbEllipse
 10
240.0155184902741
 20
69.50499752361205
 30
0.0
 11
2.5
 21
-4.330127018922198
 31
0.0
210
0.0
220
0.0
230
1.0
 40
0.5773502691896245
 41
0.7853981633974507
 42
2.356194490192345
  0
ELLIPSE
  5
20A
330
1F
100
AcDbEntity
  8
VISIBLE
100
AcDbEllipse
 10
228.0611431067001
 20
74.77386620745693
 30
0.0
 11
9.875
 21
-17.10400172474267
 31
0.0
210
0.0
220
0.0
230
1.0
 40
0.5773502691896255
 41
-4.907063688946842
 42
-3.141592653589791
  0
ELLIPSE
  5
20B
330
1F
100
AcDbEntity
  8
VISIBLE
100
AcDbEllipse
 10
228.0611431067001
 20
74.77386620745693
 30
0.0
 11
9.875
 21
-17.10400172474267
 31
0.0
210
0.0
220
0.0
230
1.0
 40
0.5773502691896255
 41
0.0
 42
0.3122439746351722
  0
LINE
  5
20C
330
1F
100
AcDbEntity
  8
VISIBLE
100
AcDbLine
 10
243.5510523962069
 20
58.48229368108774
 30
0.0
 11
238.7431286329427
 21
61.2581497600515
 31
0.0
  0
ELLIPSE
  5
20D
330
1F
100
AcDbEntity
  8
VISIBLE
100
AcDbEllipse
 10
225.2327159819539
 20
84.57182517858965
 30
0.0
 11
-0.75
 21
1.299038105676658
 31
0.0
210
0.0
220
0.0
230
1.0
 40
0.5773502691896274
 41
4.294893987475282
 42
5.49778714378214
  0
ELLIPSE
  5
20E
330
1F
100
AcDbEntity
  8
VISIBLE
100
AcDbEllipse
 10
225.2327159819539
 20
84.57182517858965
 30
0.0
 11
-0.75
 21
1.299038105676658
 31
0.0
210
0.0
220
0.0
230
1.0
 40
0.5773502691896274
 41
-0.7853981633974467
 42
3.926990816987224
  0
ELLIPSE
  5
20F
330
1F
100
AcDbEntity
  8
VISIBLE
100
AcDbEllipse
 10
225.2327159819539
 20
84.57182517858965
 30
0.0
 11
-0.75
 21
1.299038105676658
 31
0.0
210
0.0
220
0.0
230
1.0
 40
0.5773502691896274
 41
3.926990816987223
 42
4.294893987475282
  0
LINE
  5
210
330
1F
100
AcDbEntity
  8
VISIBLE
100
AcDbLine
 10
246.3794795209531
 20
68.28025265222045
 30
0.0
 11
244.96526595858
 21
67.46375607129272
 31
0.0
  0
LINE
  5
211
330
1F
100
AcDbEntity
  8
VISIBLE
100
AcDbLine
 10
252.8098804482292
 20
54.76969997472764
 30
0.0
 11
244.96526595858
 21
59.29879026201547
 31
0.0
  0
ELLIPSE
  5
212
330
1F
100
AcDbEntity
  8
VISIBLE
100
AcDbEllipse
 10
233.805930081695
 20
62.47564951080156
 30
0.0
 11
-0.75
 21
1.299038105676658
 31
0.0
210
0.0
220
0.0
230
1.0
 40
0.577350269189625
 41
2.200498885082104
 42
3.926990816987245
  0
ELLIPSE
  5
213
330
1F
100
AcDbEntity
  8
VISIBLE
100
AcDbEllipse
 10
233.805930081695
 20
62.47564951080156
 30
0.0
 11
-0.75
 21
1.299038105676658
 31
0.0
210
0.0
220
0.0
230
1.0
 40
0.577350269189625
 41
3.92699081698725
 42
5.497787143782137
  0
ELLIPSE
  5
214
330
1F
100
AcDbEntity
  8
VISIBLE
100
AcDbEllipse
 10
233.805930081695
 20
62.47564951080156
 30
0.0
 11
-0.75
 21
1.299038105676658
 31
0.0
210
0.0
220
0.0
230
1.0
 40
0.577350269189625
 41
-0.7853981633974488
 42
2.200498885082104
  0
LINE
  5
215
330
1F
100
AcDbEntity
  8
VISIBLE
100
AcDbLine
 10
239.6599038163621
 20
77.05878097967248
 30
0.0
 11
242.8439456150203
 21
75.22047359010612
 31
0.0
  0
ELLIPSE
  5
216
330
1F
100
AcDbEntity
  8
VISIBLE
100
AcDbEllipse
 10
252.8098804482292
 20
58.85218287936627
 30
0.0
 11
1.0
 21
-1.732050807568875
 31
0.0
210
0.0
220
0.0
230
1.0
 40
0.5773502691896273
 41
-2.356194490192343
 42
0.0
  0
ELLIPSE
  5
217
330
1F
100
AcDbEntity
  8
VISIBLE
100
AcDbEllipse
 10
252.8098804482292
 20
58.85218287936627
 30
0.0
 11
1.0
 21
-1.732050807568875
 31
0.0
210
0.0
220
0.0
230
1.0
 40
0.5773502691896273
 41
0.0
 42
3.14159265358979
  0
ELLIPSE
  5
218
330
1F
100
AcDbEntity
  8
VISIBLE
100
AcDbEllipse
 10
252.8098804482292
 20
58.85218287936627
 30
0.0
 11
1.0
 21
-1.732050807568875
 31
0.0
210
0.0
220
0.0
230
1.0
 40
0.5773502691896273
 41
-3.141592653589796
 42
-2.356194490192343
  0
LINE
  5
219
330
1F
100
AcDbEntity
  8
VISIBLE
100
AcDbLine
 10
256.7240940106023
 20
55.3385524413718
 30
0.0
 11
255.3098804482292
 21
54.52205586044407
 31
0.0
  0
LINE
  5
21A
330
1F
100
AcDbEntity
  8
VISIBLE
100
AcDbLine
 10
237.9361431067001
 20
57.66986448271427
 30
0.0
 11
235.1077159819539
 21
56.03687132085881
 31
0.0
  0
LINE
  5
21B
330
1F
100
AcDbEntity
  8
VISIBLE
100
AcDbLine
 10
218.1861431067001
 20
91.87786793219959
 30
0.0
 11
215.3577159819539
 21
90.24487477034415
 31
0.0
  0
LINE
  5
21C
330
1F
100
AcDbEntity
  8
TANGENT EDGES
100
AcDbLine
 10
254.2240940106023
 20
63.75116236493263
 30
0.0
 11
252.8098804482292
 21
62.9346657840049
 31
0.0
  0
LINE
  5
21D
330
1F
100
AcDbEntity
  8
TANGENT EDGES
100
AcDbLine
 10
242.8439456150203
 20
75.22047359010612
 30
0.0
 11
240.0155184902741
 21
73.58748042825067
 31
0.0
  0
LINE
  5
21E
330
1F
100
AcDbEntity
  8
TANGENT EDGES
100
AcDbLine
 10
246.3794795209531
 20
69.09674923314819
 30
0.0
 11
243.5510523962069
 21
67.46375607129272
 31
0.0
  0
LINE
  5
21F
330
1F
100
AcDbEntity
  8
CENTER
100
AcDbLine
 10
253.0839745275235
 20
59.01043116983013
 30
0.0
 11
253.949999931308
 21
59.51043116983013
 31
0.0
  0
LINE
  5
220
330
1F
100
AcDbEntity
  8
CENTER
100
AcDbLine
 10
252.6509618256313
 20
58.76043116983013
 30
0.0
 11
248.6460362288405
 21
56.44818629843854
 31
0.0
  0
LINE
  5
221
330
1F
100
AcDbEntity
  8
CENTER
100
AcDbLine
 10
254.3830126332002
 20
59.76043116983013
 30
0.0
 11
258.387938229991
 21
62.07267604122172
 31
0.0
  0
LINE
  5
222
330
1F
100
AcDbEntity
  8
CENTER
100
AcDbLine
 10
240.996719350755
 20
70.07149410453977
 30
0.0
 11
241.8627447545394
 21
70.57149410453977
 31
0.0
  0
LINE
  5
223
330
1F
100
AcDbEntity
  8
CENTER
100
AcDbLine
 10
240.5637066488628
 20
69.82149410453977
 30
0.0
 11
235.8516742708855
 21
67.10100094268432
 31
0.0
  0
LINE
  5
224
330
1F
100
AcDbEntity
  8
CENTER
100
AcDbLine
 10
242.2957574564317
 20
70.82149410453977
 30
0.0
 11
247.007789834409
 21
73.54198726639522
 31
0.0
  0
LINE
  5
225
330
1F
100
AcDbEntity
  8
CENTER
100
AcDbLine
 10
226.2139168424347
 20
73.70736962652921
 30
0.0
 11
227.0799422462192
 21
74.20736962652921
 31
0.0
  0
LINE
  5
226
330
1F
100
AcDbEntity
  8
CENTER
100
AcDbLine
 10
225.7809041405425
 20
73.45736962652921
 30
0.0
 11
221.4507771216203
 21
70.95736962652921
 31
0.0
  0
LINE
  5
227
330
1F
100
AcDbEntity
  8
CENTER
100
AcDbLine
 10
227.5129549481114
 20
74.45736962652921
 30
0.0
 11
231.8430819670336
 21
76.95736962652921
 31
0.0
  0
LINE
  5
228
330
1F
100
AcDbEntity
  8
CENTER
100
AcDbLine
 10
221.0177644197281
 20
70.70736962652921
 30
0.0
 11
220.1517390159437
 21
70.20736962652921
 31
0.0
  0
LINE
  5
229
330
1F
100
AcDbEntity
  8
CENTER
100
AcDbLine
 10
232.2760946689258
 20
77.20736962652921
 30
0.0
 11
233.1421200727102
 21
77.70736962652921
 31
0.0
  0
LINE
  5
22A
330
1F
100
AcDbEntity
  8
CENTER
100
AcDbLine
 10
219.7187263140515
 20
69.95736962652921
 30
0.0
 11
215.0584641224795
 21
67.26676599573092
 31
0.0
  0
LINE
  5
22B
330
1F
100
AcDbEntity
  8
CENTER
100
AcDbLine
 10
233.5751327746025
 20
77.95736962652921
 30
0.0
 11
238.2353949661744
 21
80.6479732573275
 31
0.0
  0
INSERT
  5
22C
330
1F
100
AcDbEntity
  8
CONTINUOUS
100
AcDbBlockReference
  2
BLOCK0
 10
0.0
 20
0.0
 30
0.0
  0
MTEXT
  5
278
330
1F
100
AcDbEntity
  8
CONTINUOUS
100
AcDbMText
 10
258.4924621582031
 20
23.42948745975913
 30
0.0
 40
2.188737186504777
 41
0.0
 46
0.0
 71
     1
 72
     1
  1
{\fCE|b0|i0|c0|p0;\C7;12 050}{\fCE|b0|i0|c0|p0;\C7;}
 73
     1
 44
1.0
  0
MTEXT
  5
279
330
1F
100
AcDbEntity
  8
CONTINUOUS
100
AcDbMText
 10
195.6381072998047
 20
14.789715044598
 30
0.0
 40
2.188737186504777
 41
0.0
 46
0.0
 71
     1
 72
     1
  1
{\fCE|b0|i0|c0|p0;\C7;Zualachtie 30/35 HRC }{\fCE|b0|i0|c0|p0;\C7;}
 73
     1
 44
1.0
  0
MTEXT
  5
27A
330
1F
100
AcDbEntity
  8
CONTINUOUS
100
AcDbMText
 10
233.6531219482422
 20
13.92573570499839
 30
0.0
 40
2.188737186504777
 41
0.0
 46
0.0
 71
     1
 72
     1
  1
{\fCE|b0|i0|c0|p0;\C7;26.4.2021}{\fCE|b0|i0|c0|p0;\C7;}
 73
     1
 44
1.0
  0
MTEXT
  5
27B
330
1F
100
AcDbEntity
  8
CONTINUOUS
100
AcDbMText
 10
254.8285675048828
 20
14.40126728306235
 30
0.0
 40
2.188737186504777
 41
0.0
 46
0.0
 71
     1
 72
     1
  1
{\fCE|b0|i0|c0|p0;\C7;10ks}{\fCE|b0|i0|c0|p0;\C7;}
 73
     1
 44
1.0
  0
MTEXT
  5
27C
330
1F
100
AcDbEntity
  8
CONTINUOUS
100
AcDbMText
 10
276.2385864257812
 20
13.89946960697593
 30
0.0
 40
2.188737186504777
 41
0.0
 46
0.0
 71
     1
 72
     1
  1
{\fCE|b0|i0|c0|p0;\C7;1:1}{\fCE|b0|i0|c0|p0;\C7;}
 73
     1
 44
1.0
  0
MTEXT
  5
27D
330
1F
100
AcDbEntity
  8
CONTINUOUS
100
AcDbMText
 10
219.3681640625
 20
26.44442199955405
 30
0.0
 40
2.188737186504777
 41
0.0
 46
0.0
 71
     1
 72
     1
  1
{\fCE|b0|i0|c0|p0;\C7;Unáaa^M}{\fCE|b0|i0|c0|p0;\C7;}
 73
     1
 44
1.0
  0
ENDSEC
  0
SECTION
  2
OBJECTS
  0
DICTIONARY
  5
C
330
0
100
AcDbDictionary
281
     1
  3
ACAD_DETAILVIEWSTYLE
350
285
  3
ACAD_GROUP
350
D
  3
ACAD_LAYOUT
350
1A
  3
ACAD_MATERIAL
350
43
  3
ACAD_MLEADERSTYLE
350
6B
  3
ACAD_MLINESTYLE
350
17
  3
ACAD_PLOTSETTINGS
350
19
  3
ACAD_PLOTSTYLENAME
350
E
  3
ACAD_SCALELIST
350
47
  3
ACAD_SECTIONVIEWSTYLE
350
286
  3
ACAD_TABLESTYLE
350
69
  3
ACAD_VISUALSTYLE
350
2A
  3
ACDB_RECOMPOSE_DATA
350
282
  3
AcDbVariableDictionary
350
27E
  0
SUN
  5
6D
330
29
100
AcDbSun
 90
        1
290
     0
 63
     7
421
 16777215
 40
1.0
291
     1
 91
  2455826
 92
 54000000
292
     0
 70
     2
 71
   256
280
     1
  0
DICTIONARY
  5
285
102
{ACAD_REACTORS
330
C
102
}
330
C
100
AcDbDictionary
281
     1
  0
DICTIONARY
  5
D
102
{ACAD_REACTORS
330
C
102
}
330
C
100
AcDbDictionary
281
     1
  0
DICTIONARY
  5
1A
102
{ACAD_REACTORS
330
C
102
}
330
C
100
AcDbDictionary
281
     1
  3
Layout1
350
1E
  3
Layout2
350
26
  3
Model
350
22
  0
DICTIONARY
  5
43
102
{ACAD_REACTORS
330
C
102
}
330
C
100
AcDbDictionary
281
     1
  3
ByBlock
350
45
  3
ByLayer
350
44
  3
Global
350
46
  0
DICTIONARY
  5
6B
102
{ACAD_REACTORS
330
C
102
}
330
C
100
AcDbDictionary
281
     1
  3
Standard
350
6C
  0
DICTIONARY
  5
17
102
{ACAD_REACTORS
330
C
102
}
330
C
100
AcDbDictionary
281
     1
  3
Standard
350
18
  0
DICTIONARY
  5
19
102
{ACAD_REACTORS
330
C
102
}
330
C
100
AcDbDictionary
281
     1
  0
ACDBDICTIONARYWDFLT
  5
E
102
{ACAD_REACTORS
330
C
102
}
330
C
100
AcDbDictionary
281
     1
  3
Normal
350
F
100
AcDbDictionaryWithDefault
340
F
  0
DICTIONARY
  5
47
102
{ACAD_REACTORS
330
C
102
}
330
C
100
AcDbDictionary
281
     1
  3
A0
350
48
  3
A1
350
49
  3
A2
350
4A
  3
A3
350
4B
  3
A4
350
4C
  3
A5
350
4D
  3
A6
350
4E
  3
A7
350
4F
  3
A8
350
50
  3
A9
350
51
  3
B0
350
52
  3
B1
350
53
  3
B2
350
54
  3
B3
350
55
  3
B4
350
56
  3
B5
350
57
  3
B6
350
58
  3
B7
350
59
  3
B8
350
5A
  3
B9
350
5B
  3
C0
350
5C
  3
C1
350
5D
  3
C2
350
5E
  3
C3
350
5F
  3
C4
350
60
  3
C5
350
61
  3
C6
350
62
  3
C7
350
63
  3
C8
350
64
  3
C9
350
65
  3
D0
350
66
  3
D1
350
67
  3
D2
350
68
  0
DICTIONARY
  5
286
102
{ACAD_REACTORS
330
C
102
}
330
C
100
AcDbDictionary
281
     1
  0
DICTIONARY
  5
69
102
{ACAD_REACTORS
330
C
102
}
330
C
100
AcDbDictionary
281
     1
  3
Standard
350
6A
  0
DICTIONARY
  5
2A
102
{ACAD_REACTORS
330
C
102
}
330
C
100
AcDbDictionary
281
     1
  3
2dWireframe
350
2F
  3
Basic
350
32
  3
Brighten
350
36
  3
ColorChange
350
3A
  3
Conceptual
350
34
  3
Dim
350
35
  3
EdgeColorOff
350
3D
  3
Facepattern
350
39
  3
Flat
350
2B
  3
FlatWithEdges
350
2C
  3
Gouraud
350
2D
  3
GouraudWithEdges
350
2E
  3
Hidden
350
31
  3
JitterOff
350
3B
  3
Linepattern
350
38
  3
OverhangOff
350
3C
  3
Realistic
350
33
  3
Shaded
350
42
  3
Shaded with edges
350
41
  3
Shades of Gray
350
3E
  3
Sketchy
350
3F
  3
Thicken
350
37
  3
Wireframe
350
30
  3
X-Ray
350
40
  0
XRECORD
  5
282
102
{ACAD_REACTORS
330
C
102
}
330
C
100
AcDbXrecord
280
     1
 90
        1
330
6A
  0
DICTIONARY
  5
27E
102
{ACAD_REACTORS
330
C
102
}
330
C
100
AcDbDictionary
281
     1
  3
CANNOSCALE
350
27F
  3
CENTEREXE
350
287
  3
CENTERLTYPEFILE
350
288
  3
CMLEADERSTYLE
350
284
  3
CTABLESTYLE
350
283
  0
LAYOUT
  5
1E
102
{ACAD_REACTORS
330
1A
102
}
330
1A
100
AcDbPlotSettings
  1

  2
none_device
  4

  6

 40
0.0
 41
0.0
 42
0.0
 43
0.0
 44
0.0
 45
0.0
 46
0.0
 47
0.0
 48
0.0
 49
0.0
140
0.0
141
0.0
142
1.0
143
1.0
 70
   688
 72
     1
 73
     0
 74
     5
  7

 75
    16
 76
     0
 77
     2
 78
   300
147
1.0
148
0.0
149
0.0
100
AcDbLayout
  1
Layout1
 70
     1
 71
     1
 10
0.0
 20
0.0
 11
420.0
 21
297.0
 12
0.0
 22
0.0
 32
0.0
 14
1.000000000000000E+20
 24
1.000000000000000E+20
 34
1.000000000000000E+20
 15
-1.000000000000000E+20
 25
-1.000000000000000E+20
 35
-1.000000000000000E+20
146
0.0
 13
0.0
 23
0.0
 33
0.0
 16
1.0
 26
0.0
 36
0.0
 17
0.0
 27
1.0
 37
0.0
 76
     0
330
1B
  0
LAYOUT
  5
26
102
{ACAD_REACTORS
330
1A
102
}
330
1A
100
AcDbPlotSettings
  1

  2
none_device
  4

  6

 40
0.0
 41
0.0
 42
0.0
 43
0.0
 44
0.0
 45
0.0
 46
0.0
 47
0.0
 48
0.0
 49
0.0
140
0.0
141
0.0
142
1.0
143
1.0
 70
   688
 72
     1
 73
     0
 74
     5
  7

 75
    16
 76
     0
 77
     2
 78
   300
147
1.0
148
0.0
149
0.0
100
AcDbLayout
  1
Layout2
 70
     1
 71
     2
 10
0.0
 20
0.0
 11
0.0
 21
0.0
 12
0.0
 22
0.0
 32
0.0
 14
0.0
 24
0.0
 34
0.0
 15
0.0
 25
0.0
 35
0.0
146
0.0
 13
0.0
 23
0.0
 33
0.0
 16
1.0
 26
0.0
 36
0.0
 17
0.0
 27
1.0
 37
0.0
 76
     0
330
23
  0
LAYOUT
  5
22
102
{ACAD_REACTORS
330
1A
102
}
330
1A
100
AcDbPlotSettings
  1

  2
none_device
  4
Letter_(8.50_x_11.00_Inches)
  6

 40
6.35
 41
6.35
 42
6.35000508
 43
6.35000508
 44
215.9
 45
279.4
 46
0.0
 47
0.0
 48
0.0
 49
0.0
140
0.0
141
0.0
142
1.0
143
1.0
 70
  1712
 72
     1
 73
     0
 74
     0
  7

 75
     0
 76
     0
 77
     2
 78
   300
147
1.0
148
0.0
149
0.0
100
AcDbLayout
  1
Model
 70
     1
 71
     0
 10
0.0
 20
0.0
 11
420.0
 21
297.0
 12
0.0
 22
0.0
 32
0.0
 14
1.000000000000000E+20
 24
1.000000000000000E+20
 34
1.000000000000000E+20
 15
-1.000000000000000E+20
 25
-1.000000000000000E+20
 35
-1.000000000000000E+20
146
0.0
 13
0.0
 23
0.0
 33
0.0
 16
1.0
 26
0.0
 36
0.0
 17
0.0
 27
1.0
 37
0.0
 76
     0
330
1F
331
29
  0
MATERIAL
  5
45
102
{ACAD_REACTORS
330
43
102
}
330
43
100
AcDbMaterial
  1
ByBlock
 72
     1
 94
      127
  0
MATERIAL
  5
44
102
{ACAD_REACTORS
330
43
102
}
330
43
100
AcDbMaterial
  1
ByLayer
 72
     1
 94
      127
  0
MATERIAL
  5
46
102
{ACAD_REACTORS
330
43
102
}
330
43
100
AcDbMaterial
  1
Global
 72
     1
 94
      127
  0
MLEADERSTYLE
  5
6C
102
{ACAD_REACTORS
330
6B
102
}
330
6B
100
AcDbMLeaderStyle
179
     2
170
     2
171
     1
172
     0
 90
        2
 40
0.0
 41
0.0
173
     1
 91
-1056964608
340
14
 92
       -2
290
     1
 42
2.0
291
     1
 43
8.0
  3
Standard
341
0
 44
4.0
300

342
11
174
     1
178
     6
175
     1
176
     0
 93
-1056964608
 45
4.0
292
     0
297
     0
 46
4.0
343
0
 94
-1056964608
 47
1.0
 49
1.0
140
1.0
293
     1
141
0.0
294
     1
177
     0
142
1.0
295
     0
296
     0
143
3.75
271
     0
272
     9
273
     9
298
     0
  0
MLINESTYLE
  5
18
102
{ACAD_REACTORS
330
17
102
}
330
17
100
AcDbMlineStyle
  2
Standard
 70
     0
  3

 62
   256
 51
90.0
 52
90.0
 71
     2
 49
0.5
 62
   256
  6
BYLAYER
 49
-0.5
 62
   256
  6
BYLAYER
  0
ACDBPLACEHOLDER
  5
F
102
{ACAD_REACTORS
330
E
102
}
330
E
  0
SCALE
  5
48
102
{ACAD_REACTORS
330
47
102
}
330
47
100
AcDbScale
 70
     0
300
1:1
140
1.0
141
1.0
290
     1
  0
SCALE
  5
49
102
{ACAD_REACTORS
330
47
102
}
330
47
100
AcDbScale
 70
     0
300
1:2
140
1.0
141
2.0
290
     0
  0
SCALE
  5
4A
102
{ACAD_REACTORS
330
47
102
}
330
47
100
AcDbScale
 70
     0
300
1:4
140
1.0
141
4.0
290
     0
  0
SCALE
  5
4B
102
{ACAD_REACTORS
330
47
102
}
330
47
100
AcDbScale
 70
     0
300
1:5
140
1.0
141
5.0
290
     0
  0
SCALE
  5
4C
102
{ACAD_REACTORS
330
47
102
}
330
47
100
AcDbScale
 70
     0
300
1:8
140
1.0
141
8.0
290
     0
  0
SCALE
  5
4D
102
{ACAD_REACTORS
330
47
102
}
330
47
100
AcDbScale
 70
     0
300
1:10
140
1.0
141
10.0
290
     0
  0
SCALE
  5
4E
102
{ACAD_REACTORS
330
47
102
}
330
47
100
AcDbScale
 70
     0
300
1:16
140
1.0
141
16.0
290
     0
  0
SCALE
  5
4F
102
{ACAD_REACTORS
330
47
102
}
330
47
100
AcDbScale
 70
     0
300
1:20
140
1.0
141
20.0
290
     0
  0
SCALE
  5
50
102
{ACAD_REACTORS
330
47
102
}
330
47
100
AcDbScale
 70
     0
300
1:30
140
1.0
141
30.0
290
     0
  0
SCALE
  5
51
102
{ACAD_REACTORS
330
47
102
}
330
47
100
AcDbScale
 70
     0
300
1:40
140
1.0
141
40.0
290
     0
  0
SCALE
  5
52
102
{ACAD_REACTORS
330
47
102
}
330
47
100
AcDbScale
 70
     0
300
1:50
140
1.0
141
50.0
290
     0
  0
SCALE
  5
53
102
{ACAD_REACTORS
330
47
102
}
330
47
100
AcDbScale
 70
     0
300
1:100
140
1.0
141
100.0
290
     0
  0
SCALE
  5
54
102
{ACAD_REACTORS
330
47
102
}
330
47
100
AcDbScale
 70
     0
300
2:1
140
2.0
141
1.0
290
     0
  0
SCALE
  5
55
102
{ACAD_REACTORS
330
47
102
}
330
47
100
AcDbScale
 70
     0
300
4:1
140
4.0
141
1.0
290
     0
  0
SCALE
  5
56
102
{ACAD_REACTORS
330
47
102
}
330
47
100
AcDbScale
 70
     0
300
8:1
140
8.0
141
1.0
290
     0
  0
SCALE
  5
57
102
{ACAD_REACTORS
330
47
102
}
330
47
100
AcDbScale
 70
     0
300
10:1
140
10.0
141
1.0
290
     0
  0
SCALE
  5
58
102
{ACAD_REACTORS
330
47
102
}
330
47
100
AcDbScale
 70
     0
300
100:1
140
100.0
141
1.0
290
     0
  0
SCALE
  5
59
102
{ACAD_REACTORS
330
47
102
}
330
47
100
AcDbScale
 70
     0
300
1/128" = 1'-0"
140
0.0078125
141
12.0
290
     0
  0
SCALE
  5
5A
102
{ACAD_REACTORS
330
47
102
}
330
47
100
AcDbScale
 70
     0
300
1/64" = 1'-0"
140
0.015625
141
12.0
290
     0
  0
SCALE
  5
5B
102
{ACAD_REACTORS
330
47
102
}
330
47
100
AcDbScale
 70
     0
300
1/32" = 1'-0"
140
0.03125
141
12.0
290
     0
  0
SCALE
  5
5C
102
{ACAD_REACTORS
330
47
102
}
330
47
100
AcDbScale
 70
     0
300
1/16" = 1'-0"
140
0.0625
141
12.0
290
     0
  0
SCALE
  5
5D
102
{ACAD_REACTORS
330
47
102
}
330
47
100
AcDbScale
 70
     0
300
3/32" = 1'-0"
140
0.09375
141
12.0
290
     0
  0
SCALE
  5
5E
102
{ACAD_REACTORS
330
47
102
}
330
47
100
AcDbScale
 70
     0
300
1/8" = 1'-0"
140
0.125
141
12.0
290
     0
  0
SCALE
  5
5F
102
{ACAD_REACTORS
330
47
102
}
330
47
100
AcDbScale
 70
     0
300
3/16" = 1'-0"
140
0.1875
141
12.0
290
     0
  0
SCALE
  5
60
102
{ACAD_REACTORS
330
47
102
}
330
47
100
AcDbScale
 70
     0
300
1/4" = 1'-0"
140
0.25
141
12.0
290
     0
  0
SCALE
  5
61
102
{ACAD_REACTORS
330
47
102
}
330
47
100
AcDbScale
 70
     0
300
3/8" = 1'-0"
140
0.375
141
12.0
290
     0
  0
SCALE
  5
62
102
{ACAD_REACTORS
330
47
102
}
330
47
100
AcDbScale
 70
     0
300
1/2" = 1'-0"
140
0.5
141
12.0
290
     0
  0
SCALE
  5
63
102
{ACAD_REACTORS
330
47
102
}
330
47
100
AcDbScale
 70
     0
300
3/4" = 1'-0"
140
0.75
141
12.0
290
     0
  0
SCALE
  5
64
102
{ACAD_REACTORS
330
47
102
}
330
47
100
AcDbScale
 70
     0
300
1" = 1'-0"
140
1.0
141
12.0
290
     0
  0
SCALE
  5
65
102
{ACAD_REACTORS
330
47
102
}
330
47
100
AcDbScale
 70
     0
300
1-1/2" = 1'-0"
140
1.5
141
12.0
290
     0
  0
SCALE
  5
66
102
{ACAD_REACTORS
330
47
102
}
330
47
100
AcDbScale
 70
     0
300
3" = 1'-0"
140
3.0
141
12.0
290
     0
  0
SCALE
  5
67
102
{ACAD_REACTORS
330
47
102
}
330
47
100
AcDbScale
 70
     0
300
6" = 1'-0"
140
6.0
141
12.0
290
     0
  0
SCALE
  5
68
102
{ACAD_REACTORS
330
47
102
}
330
47
100
AcDbScale
 70
     0
300
1'-0" = 1'-0"
140
12.0
141
12.0
290
     0
  0
TABLESTYLE
  5
6A
102
{ACAD_REACTORS
330
69
102
}
102
{ACAD_XDICTIONARY
360
280
102
}
330
69
100
AcDbTableStyle
  3
Standard
 70
     0
 71
     0
 40
0.06
 41
0.06
280
     0
281
     0
  7
Standard
140
4.5
170
     2
 62
     0
 63
   257
283
     0
 90
        4
 91
        0
  1

274
    -2
284
     1
 64
     0
275
    -2
285
     1
 65
     0
276
    -2
286
     1
 66
     0
277
    -2
287
     1
 67
     0
278
    -2
288
     1
 68
     0
279
    -2
289
     1
 69
     0
  7
Standard
140
6.0
170
     5
 62
     0
 63
   257
283
     0
 90
        4
 91
        0
  1

274
    -2
284
     1
 64
     0
275
    -2
285
     1
 65
     0
276
    -2
286
     1
 66
     0
277
    -2
287
     1
 67
     0
278
    -2
288
     1
 68
     0
279
    -2
289
     1
 69
     0
  7
Standard
140
4.5
170
     5
 62
     0
 63
   257
283
     0
 90
        4
 91
        0
  1

274
    -2
284
     1
 64
     0
275
    -2
285
     1
 65
     0
276
    -2
286
     1
 66
     0
277
    -2
287
     1
 67
     0
278
    -2
288
     1
 68
     0
279
    -2
289
     1
 69
     0
  0
VISUALSTYLE
  5
2F
102
{ACAD_REACTORS
330
2A
102
}
330
2A
100
AcDbVisualStyle
  2
2dWireframe
 70
     4
177
     3
291
     0
 70
    58
 90
        0
176
     1
 90
        2
176
     1
 90
        0
176
     1
 90
        0
176
     1
 40
0.6
176
     1
 40
30.0
176
     1
 62
     7
420
 16777215
176
     1
 90
        1
176
     1
 90
        4
176
     1
 62
     7
176
     1
 62
   257
176
     1
 90
        1
176
     1
 90
        1
176
     1
 40
1.0
176
     1
 90
        0
176
     1
 62
   257
176
     1
 40
1.0
176
     1
 90
        1
176
     1
 90
        6
176
     1
 90
        2
176
     1
 62
     7
176
     1
 90
        5
176
     1
 90
        0
176
     1
 90
        0
176
     1
290
     0
176
     1
 90
        1
176
     1
 40
0.0
176
     1
 90
        0
176
     1
290
     1
176
     1
290
     1
176
     1
290
     0
176
     1
290
     0
176
     1
290
     0
176
     1
290
     0
176
     1
290
     0
176
     1
290
     0
176
     1
290
     0
176
     1
 90
       50
176
     1
 40
0.0
176
     1
 40
1.0
176
     1
 90
        0
176
     1
 62
    18
420
        0
176
     1
 90
       50
176
     1
 90
        3
176
     1
 62
     5
420
      255
176
     1
290
     0
176
     1
 90
       50
176
     1
 90
       50
176
     1
 90
       50
176
     1
290
     0
176
     1
 90
       50
176
     1
 62
   256
176
     0
 40
1.0
176
     0
 90
        2
176
     1
  1
strokes_ogs.tif
176
     1
290
     0
176
     1
 40
1.0
176
     1
 40
1.0
176
     1
  0
VISUALSTYLE
  5
32
102
{ACAD_REACTORS
330
2A
102
}
330
2A
100
AcDbVisualStyle
  2
Basic
 70
     7
177
     3
291
     1
 70
    58
 90
        1
176
     1
 90
        0
176
     1
 90
        1
176
     1
 90
        0
176
     1
 40
0.6
176
     1
 40
30.0
176
     1
 62
     7
420
 16777215
176
     1
 90
        0
176
     1
 90
        4
176
     1
 62
     7
176
     1
 62
   257
176
     1
 90
        1
176
     1
 90
        1
176
     1
 40
1.0
176
     1
 90
        8
176
     1
 62
     7
176
     1
 40
1.0
176
     1
 90
        1
176
     1
 90
        6
176
     1
 90
        2
176
     1
 62
     7
176
     1
 90
        5
176
     1
 90
        0
176
     1
 90
        0
176
     1
290
     0
176
     1
 90
        1
176
     1
 40
0.0
176
     1
 90
        0
176
     1
290
     0
176
     1
290
     1
176
     1
290
     1
176
     1
290
     0
176
     1
290
     0
176
     1
290
     0
176
     1
290
     0
176
     1
290
     0
176
     1
290
     0
176
     1
 90
       50
176
     1
 40
0.0
176
     1
 40
1.0
176
     1
 90
        0
176
     1
 62
    18
420
        0
176
     1
 90
       50
176
     1
 90
        3
176
     1
 62
     5
420
      255
176
     1
290
     0
176
     1
 90
       50
176
     1
 90
       50
176
     1
 90
       50
176
     1
290
     0
176
     1
 90
       50
176
     1
 62
   256
176
     0
 40
1.0
176
     0
 90
        2
176
     1
  1
strokes_ogs.tif
176
     1
290
     0
176
     1
 40
1.0
176
     1
 40
1.0
176
     1
  0
VISUALSTYLE
  5
36
102
{ACAD_REACTORS
330
2A
102
}
330
2A
100
AcDbVisualStyle
  2
Brighten
 70
    12
177
     3
291
     1
 70
    58
 90
        2
176
     1
 90
        2
176
     1
 90
        0
176
     1
 90
        0
176
     1
 40
0.6
176
     1
 40
30.0
176
     1
 62
     7
420
 16777215
176
     1
 90
        1
176
     1
 90
        4
176
     1
 62
     7
176
     1
 62
   257
176
     1
 90
        1
176
     1
 90
        1
176
     1
 40
1.0
176
     1
 90
        8
176
     1
 62
     7
176
     1
 40
1.0
176
     1
 90
        1
176
     1
 90
        6
176
     1
 90
        2
176
     1
 62
     7
176
     1
 90
        5
176
     1
 90
        0
176
     1
 90
        0
176
     1
290
     0
176
     1
 90
        1
176
     1
 40
50.0
176
     1
 90
        0
176
     1
290
     0
176
     1
290
     1
176
     1
290
     1
176
     1
290
     0
176
     1
290
     0
176
     1
290
     0
176
     1
290
     0
176
     1
290
     0
176
     1
290
     0
176
     1
 90
       50
176
     1
 40
0.0
176
     1
 40
1.0
176
     1
 90
        0
176
     1
 62
    18
420
        0
176
     1
 90
       50
176
     1
 90
        3
176
     1
 62
     5
420
      255
176
     1
290
     0
176
     1
 90
       50
176
     1
 90
       50
176
     1
 90
       50
176
     1
290
     0
176
     1
 90
       50
176
     1
 62
   256
176
     0
 40
1.0
176
     0
 90
        2
176
     1
  1
strokes_ogs.tif
176
     1
290
     0
176
     1
 40
1.0
176
     1
 40
1.0
176
     1
  0
VISUALSTYLE
  5
3A
102
{ACAD_REACTORS
330
2A
102
}
330
2A
100
AcDbVisualStyle
  2
ColorChange
 70
    16
177
     3
291
     1
 70
    58
 90
        2
176
     1
 90
        2
176
     1
 90
        3
176
     1
 90
        0
176
     1
 40
0.6
176
     1
 40
30.0
176
     1
 62
     8
420
  8421504
176
     1
 90
        1
176
     1
 90
        4
176
     1
 62
     7
176
     1
 62
   257
176
     1
 90
        1
176
     1
 90
        1
176
     1
 40
1.0
176
     1
 90
        8
176
     1
 62
     8
420
  8421504
176
     1
 40
1.0
176
     1
 90
        1
176
     1
 90
        6
176
     1
 90
        2
176
     1
 62
     7
176
     1
 90
        5
176
     1
 90
        0
176
     1
 90
        0
176
     1
290
     0
176
     1
 90
        1
176
     1
 40
0.0
176
     1
 90
        0
176
     1
290
     0
176
     1
290
     1
176
     1
290
     1
176
     1
290
     0
176
     1
290
     0
176
     1
290
     0
176
     1
290
     0
176
     1
290
     0
176
     1
290
     0
176
     1
 90
       50
176
     1
 40
0.0
176
     1
 40
1.0
176
     1
 90
        0
176
     1
 62
    18
420
        0
176
     1
 90
       50
176
     1
 90
        3
176
     1
 62
     5
420
      255
176
     1
290
     0
176
     1
 90
       50
176
     1
 90
       50
176
     1
 90
       50
176
     1
290
     0
176
     1
 90
       50
176
     1
 62
   256
176
     0
 40
1.0
176
     0
 90
        2
176
     1
  1
strokes_ogs.tif
176
     1
290
     0
176
     1
 40
1.0
176
     1
 40
1.0
176
     1
  0
VISUALSTYLE
  5
34
102
{ACAD_REACTORS
330
2A
102
}
330
2A
100
AcDbVisualStyle
  2
Conceptual
 70
     9
177
     3
291
     0
 70
    58
 90
        3
176
     1
 90
        2
176
     1
 90
        0
176
     1
 90
        0
176
     1
 40
0.6
176
     1
 40
30.0
176
     1
 62
     7
420
 16777215
176
     1
 90
        2
176
     1
 90
        2
176
     1
 62
     7
176
     1
 62
   257
176
     1
 90
        1
176
     1
 90
        1
176
     1
 40
179.0
176
     1
 90
        8
176
     1
 62
     7
176
     1
 40
1.0
176
     1
 90
        1
176
     1
 90
        6
176
     1
 90
        2
176
     1
 62
     7
176
     1
 90
        3
176
     1
 90
        0
176
     1
 90
        0
176
     1
290
     0
176
     1
 90
        1
176
     1
 40
0.0
176
     1
 90
        0
176
     1
290
     0
176
     1
290
     1
176
     1
290
     1
176
     1
290
     0
176
     1
290
     0
176
     1
290
     0
176
     1
290
     0
176
     1
290
     0
176
     1
290
     0
176
     1
 90
       50
176
     1
 40
0.0
176
     1
 40
1.0
176
     1
 90
        0
176
     1
 62
    18
420
        0
176
     1
 90
       50
176
     1
 90
        3
176
     1
 62
     5
420
      255
176
     1
290
     0
176
     1
 90
       50
176
     1
 90
       50
176
     1
 90
       50
176
     1
290
     0
176
     1
 90
       50
176
     1
 62
   256
176
     0
 40
1.0
176
     0
 90
        2
176
     1
  1
strokes_ogs.tif
176
     1
290
     0
176
     1
 40
1.0
176
     1
 40
1.0
176
     1
  0
VISUALSTYLE
  5
35
102
{ACAD_REACTORS
330
2A
102
}
330
2A
100
AcDbVisualStyle
  2
Dim
 70
    11
177
     3
291
     1
 70
    58
 90
        2
176
     1
 90
        2
176
     1
 90
        0
176
     1
 90
        0
176
     1
 40
0.6
176
     1
 40
30.0
176
     1
 62
     7
420
 16777215
176
     1
 90
        1
176
     1
 90
        4
176
     1
 62
     7
176
     1
 62
   257
176
     1
 90
        1
176
     1
 90
        1
176
     1
 40
1.0
176
     1
 90
        8
176
     1
 62
     7
176
     1
 40
1.0
176
     1
 90
        1
176
     1
 90
        6
176
     1
 90
        2
176
     1
 62
     7
176
     1
 90
        5
176
     1
 90
        0
176
     1
 90
        0
176
     1
290
     0
176
     1
 90
        1
176
     1
 40
-50.0
176
     1
 90
        0
176
     1
290
     0
176
     1
290
     1
176
     1
290
     1
176
     1
290
     0
176
     1
290
     0
176
     1
290
     0
176
     1
290
     0
176
     1
290
     0
176
     1
290
     0
176
     1
 90
       50
176
     1
 40
0.0
176
     1
 40
1.0
176
     1
 90
        0
176
     1
 62
    18
420
        0
176
     1
 90
       50
176
     1
 90
        3
176
     1
 62
     5
420
      255
176
     1
290
     0
176
     1
 90
       50
176
     1
 90
       50
176
     1
 90
       50
176
     1
290
     0
176
     1
 90
       50
176
     1
 62
   256
176
     0
 40
1.0
176
     0
 90
        2
176
     1
  1
strokes_ogs.tif
176
     1
290
     0
176
     1
 40
1.0
176
     1
 40
1.0
176
     1
  0
VISUALSTYLE
  5
3D
102
{ACAD_REACTORS
330
2A
102
}
330
2A
100
AcDbVisualStyle
  2
EdgeColorOff
 70
    22
177
     3
291
     1
 70
    58
 90
        2
176
     0
 90
        2
176
     0
 90
        0
176
     0
 90
        0
176
     0
 40
0.6
176
     0
 40
30.0
176
     0
 62
     7
420
 16777215
176
     0
 90
        1
176
     0
 90
        4
176
     0
 62
     7
176
     0
 62
   257
176
     0
 90
        1
176
     0
 90
        1
176
     0
 40
1.0
176
     0
 90
        8
176
     2
 62
     7
176
     0
 40
1.0
176
     0
 90
        1
176
     0
 90
        6
176
     0
 90
        2
176
     0
 62
     7
176
     0
 90
        5
176
     0
 90
        0
176
     0
 90
        0
176
     0
290
     0
176
     0
 90
        1
176
     0
 40
0.0
176
     0
 90
        0
176
     0
290
     0
176
     0
290
     1
176
     0
290
     1
176
     0
290
     0
176
     0
290
     0
176
     0
290
     0
176
     0
290
     0
176
     0
290
     0
176
     0
290
     0
176
     0
 90
       50
176
     0
 40
0.0
176
     0
 40
1.0
176
     0
 90
        0
176
     0
 62
    18
420
        0
176
     0
 90
       50
176
     0
 90
        3
176
     0
 62
     5
420
      255
176
     0
290
     0
176
     0
 90
       50
176
     0
 90
       50
176
     0
 90
       50
176
     0
290
     0
176
     0
 90
       50
176
     0
 62
   256
176
     0
 40
1.0
176
     0
 90
        2
176
     0
  1
strokes_ogs.tif
176
     0
290
     0
176
     0
 40
1.0
176
     0
 40
1.0
176
     0
  0
VISUALSTYLE
  5
39
102
{ACAD_REACTORS
330
2A
102
}
330
2A
100
AcDbVisualStyle
  2
Facepattern
 70
    15
177
     3
291
     1
 70
    58
 90
        2
176
     1
 90
        2
176
     1
 90
        0
176
     1
 90
        0
176
     1
 40
0.6
176
     1
 40
30.0
176
     1
 62
     7
420
 16777215
176
     1
 90
        1
176
     1
 90
        4
176
     1
 62
     7
176
     1
 62
   257
176
     1
 90
        1
176
     1
 90
        1
176
     1
 40
1.0
176
     1
 90
        8
176
     1
 62
     7
176
     1
 40
1.0
176
     1
 90
        1
176
     1
 90
        6
176
     1
 90
        2
176
     1
 62
     7
176
     1
 90
        5
176
     1
 90
        0
176
     1
 90
        0
176
     1
290
     0
176
     1
 90
        1
176
     1
 40
0.0
176
     1
 90
        0
176
     1
290
     0
176
     1
290
     1
176
     1
290
     1
176
     1
290
     0
176
     1
290
     0
176
     1
290
     0
176
     1
290
     0
176
     1
290
     0
176
     1
290
     0
176
     1
 90
       50
176
     1
 40
0.0
176
     1
 40
1.0
176
     1
 90
        0
176
     1
 62
    18
420
        0
176
     1
 90
       50
176
     1
 90
        3
176
     1
 62
     5
420
      255
176
     1
290
     0
176
     1
 90
       50
176
     1
 90
       50
176
     1
 90
       50
176
     1
290
     0
176
     1
 90
       50
176
     1
 62
   256
176
     0
 40
1.0
176
     0
 90
        2
176
     1
  1
strokes_ogs.tif
176
     1
290
     0
176
     1
 40
1.0
176
     1
 40
1.0
176
     1
  0
VISUALSTYLE
  5
2B
102
{ACAD_REACTORS
330
2A
102
}
330
2A
100
AcDbVisualStyle
  2
Flat
 70
     0
177
     3
291
     1
 70
    58
 90
        2
176
     1
 90
        1
176
     1
 90
        1
176
     1
 90
        2
176
     1
 40
0.6
176
     1
 40
30.0
176
     1
 62
     7
420
 16777215
176
     1
 90
        0
176
     1
 90
        0
176
     1
 62
     7
176
     1
 62
   257
176
     1
 90
        1
176
     1
 90
        1
176
     1
 40
1.0
176
     1
 90
        8
176
     1
 62
     7
176
     1
 40
1.0
176
     1
 90
        1
176
     1
 90
        6
176
     1
 90
        2
176
     1
 62
     7
176
     1
 90
        5
176
     1
 90
        0
176
     1
 90
        0
176
     1
290
     0
176
     1
 90
       13
176
     1
 40
0.0
176
     1
 90
        0
176
     1
290
     0
176
     1
290
     1
176
     1
290
     1
176
     1
290
     0
176
     1
290
     0
176
     1
290
     0
176
     1
290
     0
176
     1
290
     0
176
     1
290
     0
176
     1
 90
       50
176
     1
 40
0.0
176
     1
 40
1.0
176
     1
 90
        0
176
     1
 62
    18
420
        0
176
     1
 90
       50
176
     1
 90
        3
176
     1
 62
     5
420
      255
176
     1
290
     0
176
     1
 90
       50
176
     1
 90
       50
176
     1
 90
       50
176
     1
290
     0
176
     1
 90
       50
176
     1
 62
   256
176
     0
 40
1.0
176
     0
 90
        2
176
     1
  1
strokes_ogs.tif
176
     1
290
     0
176
     1
 40
1.0
176
     1
 40
1.0
176
     1
  0
VISUALSTYLE
  5
2C
102
{ACAD_REACTORS
330
2A
102
}
330
2A
100
AcDbVisualStyle
  2
FlatWithEdges
 70
     1
177
     3
291
     1
 70
    58
 90
        2
176
     1
 90
        1
176
     1
 90
        1
176
     1
 90
        2
176
     1
 40
0.6
176
     1
 40
30.0
176
     1
 62
     7
420
 16777215
176
     1
 90
        1
176
     1
 90
        0
176
     1
 62
     7
176
     1
 62
   257
176
     1
 90
        1
176
     1
 90
        1
176
     1
 40
1.0
176
     1
 90
        0
176
     1
 62
   257
176
     1
 40
1.0
176
     1
 90
        1
176
     1
 90
        6
176
     1
 90
        2
176
     1
 62
     7
176
     1
 90
        5
176
     1
 90
        0
176
     1
 90
        0
176
     1
290
     0
176
     1
 90
       13
176
     1
 40
0.0
176
     1
 90
        0
176
     1
290
     0
176
     1
290
     1
176
     1
290
     1
176
     1
290
     0
176
     1
290
     0
176
     1
290
     0
176
     1
290
     0
176
     1
290
     0
176
     1
290
     0
176
     1
 90
       50
176
     1
 40
0.0
176
     1
 40
1.0
176
     1
 90
        0
176
     1
 62
    18
420
        0
176
     1
 90
       50
176
     1
 90
        3
176
     1
 62
     5
420
      255
176
     1
290
     0
176
     1
 90
       50
176
     1
 90
       50
176
     1
 90
       50
176
     1
290
     0
176
     1
 90
       50
176
     1
 62
   256
176
     0
 40
1.0
176
     0
 90
        2
176
     1
  1
strokes_ogs.tif
176
     1
290
     0
176
     1
 40
1.0
176
     1
 40
1.0
176
     1
  0
VISUALSTYLE
  5
2D
102
{ACAD_REACTORS
330
2A
102
}
330
2A
100
AcDbVisualStyle
  2
Gouraud
 70
     2
177
     3
291
     1
 70
    58
 90
        2
176
     1
 90
        2
176
     1
 90
        1
176
     1
 90
        2
176
     1
 40
0.6
176
     1
 40
30.0
176
     1
 62
     7
420
 16777215
176
     1
 90
        0
176
     1
 90
        0
176
     1
 62
     7
176
     1
 62
   257
176
     1
 90
        1
176
     1
 90
        1
176
     1
 40
1.0
176
     1
 90
        0
176
     1
 62
     7
176
     1
 40
1.0
176
     1
 90
        1
176
     1
 90
        6
176
     1
 90
        2
176
     1
 62
     7
176
     1
 90
        5
176
     1
 90
        0
176
     1
 90
        0
176
     1
290
     0
176
     1
 90
       13
176
     1
 40
0.0
176
     1
 90
        0
176
     1
290
     0
176
     1
290
     1
176
     1
290
     1
176
     1
290
     0
176
     1
290
     0
176
     1
290
     0
176
     1
290
     0
176
     1
290
     0
176
     1
290
     0
176
     1
 90
       50
176
     1
 40
0.0
176
     1
 40
1.0
176
     1
 90
        0
176
     1
 62
    18
420
        0
176
     1
 90
       50
176
     1
 90
        3
176
     1
 62
     5
420
      255
176
     1
290
     0
176
     1
 90
       50
176
     1
 90
       50
176
     1
 90
       50
176
     1
290
     0
176
     1
 90
       50
176
     1
 62
   256
176
     0
 40
1.0
176
     0
 90
        2
176
     1
  1
strokes_ogs.tif
176
     1
290
     0
176
     1
 40
1.0
176
     1
 40
1.0
176
     1
  0
VISUALSTYLE
  5
2E
102
{ACAD_REACTORS
330
2A
102
}
330
2A
100
AcDbVisualStyle
  2
GouraudWithEdges
 70
     3
177
     3
291
     1
 70
    58
 90
        2
176
     1
 90
        2
176
     1
 90
        1
176
     1
 90
        2
176
     1
 40
0.6
176
     1
 40
30.0
176
     1
 62
     7
420
 16777215
176
     1
 90
        1
176
     1
 90
        0
176
     1
 62
     7
176
     1
 62
   257
176
     1
 90
        1
176
     1
 90
        1
176
     1
 40
1.0
176
     1
 90
        0
176
     1
 62
   257
176
     1
 40
1.0
176
     1
 90
        1
176
     1
 90
        6
176
     1
 90
        2
176
     1
 62
     7
176
     1
 90
        5
176
     1
 90
        0
176
     1
 90
        0
176
     1
290
     0
176
     1
 90
       13
176
     1
 40
0.0
176
     1
 90
        0
176
     1
290
     0
176
     1
290
     1
176
     1
290
     1
176
     1
290
     0
176
     1
290
     0
176
     1
290
     0
176
     1
290
     0
176
     1
290
     0
176
     1
290
     0
176
     1
 90
       50
176
     1
 40
0.0
176
     1
 40
1.0
176
     1
 90
        0
176
     1
 62
    18
420
        0
176
     1
 90
       50
176
     1
 90
        3
176
     1
 62
     5
420
      255
176
     1
290
     0
176
     1
 90
       50
176
     1
 90
       50
176
     1
 90
       50
176
     1
290
     0
176
     1
 90
       50
176
     1
 62
   256
176
     0
 40
1.0
176
     0
 90
        2
176
     1
  1
strokes_ogs.tif
176
     1
290
     0
176
     1
 40
1.0
176
     1
 40
1.0
176
     1
  0
VISUALSTYLE
  5
31
102
{ACAD_REACTORS
330
2A
102
}
330
2A
100
AcDbVisualStyle
  2
Hidden
 70
     6
177
     3
291
     0
 70
    58
 90
        1
176
     1
 90
        2
176
     1
 90
        2
176
     1
 90
        0
176
     1
 40
0.6
176
     1
 40
30.0
176
     1
 62
     7
420
 16777215
176
     1
 90
        2
176
     1
 90
        2
176
     1
 62
     7
176
     1
 62
   257
176
     1
 90
        2
176
     1
 90
        1
176
     1
 40
40.0
176
     1
 90
        0
176
     1
 62
   257
176
     1
 40
1.0
176
     1
 90
        1
176
     1
 90
        6
176
     1
 90
        2
176
     1
 62
     7
176
     1
 90
        3
176
     1
 90
        0
176
     1
 90
        0
176
     1
290
     0
176
     1
 90
        1
176
     1
 40
0.0
176
     1
 90
        0
176
     1
290
     0
176
     1
290
     1
176
     1
290
     1
176
     1
290
     0
176
     1
290
     0
176
     1
290
     0
176
     1
290
     0
176
     1
290
     0
176
     1
290
     0
176
     1
 90
       50
176
     1
 40
0.0
176
     1
 40
1.0
176
     1
 90
        0
176
     1
 62
    18
420
        0
176
     1
 90
       50
176
     1
 90
        3
176
     1
 62
     5
420
      255
176
     1
290
     0
176
     1
 90
       50
176
     1
 90
       50
176
     1
 90
       50
176
     1
290
     0
176
     1
 90
       50
176
     1
 62
   256
176
     0
 40
1.0
176
     0
 90
        2
176
     1
  1
strokes_ogs.tif
176
     1
290
     0
176
     1
 40
1.0
176
     1
 40
1.0
176
     1
  0
VISUALSTYLE
  5
3B
102
{ACAD_REACTORS
330
2A
102
}
330
2A
100
AcDbVisualStyle
  2
JitterOff
 70
    20
177
     3
291
     1
 70
    58
 90
        2
176
     0
 90
        2
176
     0
 90
        0
176
     0
 90
        0
176
     0
 40
0.6
176
     0
 40
30.0
176
     0
 62
     7
420
 16777215
176
     0
 90
        1
176
     0
 90
        4
176
     0
 62
     7
176
     0
 62
   257
176
     0
 90
        1
176
     0
 90
        1
176
     0
 40
1.0
176
     0
 90
       10
176
     2
 62
     7
176
     0
 40
1.0
176
     0
 90
        1
176
     0
 90
        6
176
     0
 90
        2
176
     0
 62
     7
176
     0
 90
        5
176
     0
 90
        0
176
     0
 90
        0
176
     0
290
     0
176
     0
 90
        1
176
     0
 40
0.0
176
     0
 90
        0
176
     0
290
     0
176
     0
290
     1
176
     0
290
     1
176
     0
290
     0
176
     0
290
     0
176
     0
290
     0
176
     0
290
     0
176
     0
290
     0
176
     0
290
     0
176
     0
 90
       50
176
     0
 40
0.0
176
     0
 40
1.0
176
     0
 90
        0
176
     0
 62
    18
420
        0
176
     0
 90
       50
176
     0
 90
        3
176
     0
 62
     5
420
      255
176
     0
290
     0
176
     0
 90
       50
176
     0
 90
       50
176
     0
 90
       50
176
     0
290
     0
176
     0
 90
       50
176
     0
 62
   256
176
     0
 40
1.0
176
     0
 90
        2
176
     0
  1
strokes_ogs.tif
176
     0
290
     0
176
     0
 40
1.0
176
     0
 40
1.0
176
     0
  0
VISUALSTYLE
  5
38
102
{ACAD_REACTORS
330
2A
102
}
330
2A
100
AcDbVisualStyle
  2
Linepattern
 70
    14
177
     3
291
     1
 70
    58
 90
        2
176
     1
 90
        2
176
     1
 90
        0
176
     1
 90
        0
176
     1
 40
0.6
176
     1
 40
30.0
176
     1
 62
     7
420
 16777215
176
     1
 90
        1
176
     1
 90
        4
176
     1
 62
     7
176
     1
 62
   257
176
     1
 90
        7
176
     1
 90
        7
176
     1
 40
1.0
176
     1
 90
        8
176
     1
 62
     7
176
     1
 40
1.0
176
     1
 90
        1
176
     1
 90
        6
176
     1
 90
        2
176
     1
 62
     7
176
     1
 90
        5
176
     1
 90
        0
176
     1
 90
        0
176
     1
290
     0
176
     1
 90
        1
176
     1
 40
0.0
176
     1
 90
        0
176
     1
290
     0
176
     1
290
     1
176
     1
290
     1
176
     1
290
     0
176
     1
290
     0
176
     1
290
     0
176
     1
290
     0
176
     1
290
     0
176
     1
290
     0
176
     1
 90
       50
176
     1
 40
0.0
176
     1
 40
1.0
176
     1
 90
        0
176
     1
 62
    18
420
        0
176
     1
 90
       50
176
     1
 90
        3
176
     1
 62
     5
420
      255
176
     1
290
     0
176
     1
 90
       50
176
     1
 90
       50
176
     1
 90
       50
176
     1
290
     0
176
     1
 90
       50
176
     1
 62
   256
176
     0
 40
1.0
176
     0
 90
        2
176
     1
  1
strokes_ogs.tif
176
     1
290
     0
176
     1
 40
1.0
176
     1
 40
1.0
176
     1
  0
VISUALSTYLE
  5
3C
102
{ACAD_REACTORS
330
2A
102
}
330
2A
100
AcDbVisualStyle
  2
OverhangOff
 70
    21
177
     3
291
     1
 70
    58
 90
        2
176
     0
 90
        2
176
     0
 90
        0
176
     0
 90
        0
176
     0
 40
0.6
176
     0
 40
30.0
176
     0
 62
     7
420
 16777215
176
     0
 90
        1
176
     0
 90
        4
176
     0
 62
     7
176
     0
 62
   257
176
     0
 90
        1
176
     0
 90
        1
176
     0
 40
1.0
176
     0
 90
        9
176
     2
 62
     7
176
     0
 40
1.0
176
     0
 90
        1
176
     0
 90
        6
176
     0
 90
        2
176
     0
 62
     7
176
     0
 90
        5
176
     0
 90
        0
176
     0
 90
        0
176
     0
290
     0
176
     0
 90
        1
176
     0
 40
0.0
176
     0
 90
        0
176
     0
290
     0
176
     0
290
     1
176
     0
290
     1
176
     0
290
     0
176
     0
290
     0
176
     0
290
     0
176
     0
290
     0
176
     0
290
     0
176
     0
290
     0
176
     0
 90
       50
176
     0
 40
0.0
176
     0
 40
1.0
176
     0
 90
        0
176
     0
 62
    18
420
        0
176
     0
 90
       50
176
     0
 90
        3
176
     0
 62
     5
420
      255
176
     0
290
     0
176
     0
 90
       50
176
     0
 90
       50
176
     0
 90
       50
176
     0
290
     0
176
     0
 90
       50
176
     0
 62
   256
176
     0
 40
1.0
176
     0
 90
        2
176
     0
  1
strokes_ogs.tif
176
     0
290
     0
176
     0
 40
1.0
176
     0
 40
1.0
176
     0
  0
VISUALSTYLE
  5
33
102
{ACAD_REACTORS
330
2A
102
}
330
2A
100
AcDbVisualStyle
  2
Realistic
 70
     8
177
     3
291
     0
 70
    58
 90
        2
176
     1
 90
        3
176
     1
 90
        0
176
     1
 90
        2
176
     1
 40
0.6
176
     1
 40
30.0
176
     1
 62
     7
420
 16777215
176
     1
 90
        0
176
     1
 90
        0
176
     1
 62
     7
176
     1
 62
   257
176
     1
 90
        1
176
     1
 90
        1
176
     1
 40
1.0
176
     1
 90
        8
176
     1
 62
   257
176
     1
 40
1.0
176
     1
 90
        1
176
     1
 90
        6
176
     1
 90
        2
176
     1
 62
     7
176
     1
 90
        3
176
     1
 90
        0
176
     1
 90
        0
176
     1
290
     0
176
     1
 90
       13
176
     1
 40
0.0
176
     1
 90
        0
176
     1
290
     0
176
     1
290
     1
176
     1
290
     1
176
     1
290
     0
176
     1
290
     0
176
     1
290
     0
176
     1
290
     0
176
     1
290
     0
176
     1
290
     0
176
     1
 90
       50
176
     1
 40
0.0
176
     1
 40
1.0
176
     1
 90
        0
176
     1
 62
    18
420
        0
176
     1
 90
       50
176
     1
 90
        3
176
     1
 62
     5
420
      255
176
     1
290
     0
176
     1
 90
       50
176
     1
 90
       50
176
     1
 90
       50
176
     1
290
     0
176
     1
 90
       50
176
     1
 62
   256
176
     0
 40
1.0
176
     0
 90
        2
176
     1
  1
strokes_ogs.tif
176
     1
290
     0
176
     1
 40
1.0
176
     1
 40
1.0
176
     1
  0
VISUALSTYLE
  5
42
102
{ACAD_REACTORS
330
2A
102
}
330
2A
100
AcDbVisualStyle
  2
Shaded
 70
    27
177
     3
291
     0
 70
    58
 90
        2
176
     1
 90
        2
176
     1
 90
        1
176
     1
 90
        2
176
     1
 40
0.6
176
     1
 40
30.0
176
     1
 62
     7
420
 16777215
176
     1
 90
        0
176
     1
 90
        4
176
     1
 62
     7
176
     1
 62
   257
176
     1
 90
        1
176
     1
 90
        1
176
     1
 40
1.0
176
     1
 90
        8
176
     1
 62
   257
176
     1
 40
1.0
176
     1
 90
        1
176
     1
 90
        6
176
     1
 90
        2
176
     1
 62
     8
420
  7895160
176
     1
 90
        3
176
     1
 90
        0
176
     1
 90
        0
176
     1
290
     0
176
     1
 90
        5
176
     1
 40
0.0
176
     1
 90
        0
176
     1
290
     0
176
     1
290
     1
176
     1
290
     1
176
     1
290
     0
176
     1
290
     0
176
     1
290
     0
176
     1
290
     0
176
     1
290
     0
176
     1
290
     0
176
     1
 90
       50
176
     1
 40
0.0
176
     1
 40
1.0
176
     1
 90
        0
176
     1
 62
    18
420
        0
176
     1
 90
       50
176
     1
 90
        3
176
     1
 62
     5
420
      255
176
     1
290
     0
176
     1
 90
       50
176
     1
 90
       50
176
     1
 90
       50
176
     1
290
     0
176
     1
 90
       50
176
     1
 62
   256
176
     0
 40
1.0
176
     0
 90
        2
176
     1
  1
strokes_ogs.tif
176
     1
290
     0
176
     1
 40
1.0
176
     1
 40
1.0
176
     1
  0
VISUALSTYLE
  5
41
102
{ACAD_REACTORS
330
2A
102
}
330
2A
100
AcDbVisualStyle
  2
Shaded with edges
 70
    26
177
     3
291
     0
 70
    58
 90
        2
176
     1
 90
        2
176
     1
 90
        1
176
     1
 90
        2
176
     1
 40
0.6
176
     1
 40
30.0
176
     1
 62
     7
420
 16777215
176
     1
 90
        1
176
     1
 90
       10
176
     1
 62
     7
176
     1
 62
   257
176
     1
 90
        2
176
     1
 90
        1
176
     1
 40
1.0
176
     1
 90
        8
176
     1
 62
   257
176
     1
 40
1.0
176
     1
 90
        1
176
     1
 90
        6
176
     1
 90
        2
176
     1
 62
     7
176
     1
 90
        3
176
     1
 90
        0
176
     1
 90
        0
176
     1
290
     0
176
     1
 90
        5
176
     1
 40
0.0
176
     1
 90
        0
176
     1
290
     0
176
     1
290
     1
176
     1
290
     1
176
     1
290
     0
176
     1
290
     0
176
     1
290
     0
176
     1
290
     0
176
     1
290
     0
176
     1
290
     0
176
     1
 90
       50
176
     1
 40
0.0
176
     1
 40
1.0
176
     1
 90
        0
176
     1
 62
    18
420
        0
176
     1
 90
       50
176
     1
 90
        3
176
     1
 62
     5
420
      255
176
     1
290
     0
176
     1
 90
       50
176
     1
 90
       50
176
     1
 90
       50
176
     1
290
     0
176
     1
 90
       50
176
     1
 62
   256
176
     0
 40
1.0
176
     0
 90
        2
176
     1
  1
strokes_ogs.tif
176
     1
290
     0
176
     1
 40
1.0
176
     1
 40
1.0
176
     1
  0
VISUALSTYLE
  5
3E
102
{ACAD_REACTORS
330
2A
102
}
330
2A
100
AcDbVisualStyle
  2
Shades of Gray
 70
    23
177
     3
291
     0
 70
    58
 90
        2
176
     1
 90
        2
176
     1
 90
        3
176
     1
 90
        0
176
     1
 40
0.6
176
     1
 40
30.0
176
     1
 62
     7
420
 16777215
176
     1
 90
        2
176
     1
 90
        2
176
     1
 62
     7
176
     1
 62
     7
176
     1
 90
        1
176
     1
 90
        1
176
     1
 40
40.0
176
     1
 90
        8
176
     1
 62
     7
176
     1
 40
1.0
176
     1
 90
        1
176
     1
 90
        6
176
     1
 90
        2
176
     1
 62
     7
176
     1
 90
        3
176
     1
 90
        0
176
     1
 90
        0
176
     1
290
     0
176
     1
 90
        1
176
     1
 40
0.0
176
     1
 90
        0
176
     1
290
     0
176
     1
290
     1
176
     1
290
     1
176
     1
290
     0
176
     1
290
     0
176
     1
290
     0
176
     1
290
     0
176
     1
290
     0
176
     1
290
     0
176
     1
 90
       50
176
     1
 40
0.0
176
     1
 40
1.0
176
     1
 90
        0
176
     1
 62
    18
420
        0
176
     1
 90
       50
176
     1
 90
        3
176
     1
 62
     5
420
      255
176
     1
290
     0
176
     1
 90
       50
176
     1
 90
       50
176
     1
 90
       50
176
     1
290
     0
176
     1
 90
       50
176
     1
 62
   256
176
     0
 40
1.0
176
     0
 90
        2
176
     1
  1
strokes_ogs.tif
176
     1
290
     0
176
     1
 40
1.0
176
     1
 40
1.0
176
     1
  0
VISUALSTYLE
  5
3F
102
{ACAD_REACTORS
330
2A
102
}
330
2A
100
AcDbVisualStyle
  2
Sketchy
 70
    24
177
     3
291
     0
 70
    58
 90
        1
176
     1
 90
        2
176
     1
 90
        2
176
     1
 90
        0
176
     1
 40
0.6
176
     1
 40
30.0
176
     1
 62
     7
420
 16777215
176
     1
 90
        2
176
     1
 90
        2
176
     1
 62
     7
176
     1
 62
     7
176
     1
 90
        1
176
     1
 90
        1
176
     1
 40
40.0
176
     1
 90
       11
176
     1
 62
     7
176
     1
 40
1.0
176
     1
 90
        1
176
     1
 90
        6
176
     1
 90
        2
176
     1
 62
     7
176
     1
 90
        6
176
     1
 90
        0
176
     1
 90
        0
176
     1
290
     0
176
     1
 90
        1
176
     1
 40
0.0
176
     1
 90
        0
176
     1
290
     0
176
     1
290
     1
176
     1
290
     1
176
     1
290
     0
176
     1
290
     0
176
     1
290
     0
176
     1
290
     0
176
     1
290
     0
176
     1
290
     0
176
     1
 90
       50
176
     1
 40
0.0
176
     1
 40
1.0
176
     1
 90
        0
176
     1
 62
    18
420
        0
176
     1
 90
       50
176
     1
 90
        3
176
     1
 62
     5
420
      255
176
     1
290
     0
176
     1
 90
       50
176
     1
 90
       50
176
     1
 90
       50
176
     1
290
     0
176
     1
 90
       50
176
     1
 62
   256
176
     0
 40
1.0
176
     0
 90
        2
176
     1
  1
strokes_ogs.tif
176
     1
290
     0
176
     1
 40
1.0
176
     1
 40
1.0
176
     1
  0
VISUALSTYLE
  5
37
102
{ACAD_REACTORS
330
2A
102
}
330
2A
100
AcDbVisualStyle
  2
Thicken
 70
    13
177
     3
291
     1
 70
    58
 90
        2
176
     1
 90
        2
176
     1
 90
        0
176
     1
 90
        0
176
     1
 40
0.6
176
     1
 40
30.0
176
     1
 62
     7
420
 16777215
176
     1
 90
        1
176
     1
 90
        4
176
     1
 62
     7
176
     1
 62
   257
176
     1
 90
        1
176
     1
 90
        1
176
     1
 40
1.0
176
     1
 90
       12
176
     1
 62
     7
176
     1
 40
1.0
176
     1
 90
        1
176
     1
 90
        6
176
     1
 90
        2
176
     1
 62
     7
176
     1
 90
        5
176
     1
 90
        0
176
     1
 90
        0
176
     1
290
     0
176
     1
 90
        1
176
     1
 40
0.0
176
     1
 90
        0
176
     1
290
     0
176
     1
290
     1
176
     1
290
     1
176
     1
290
     0
176
     1
290
     0
176
     1
290
     0
176
     1
290
     0
176
     1
290
     0
176
     1
290
     0
176
     1
 90
       50
176
     1
 40
0.0
176
     1
 40
1.0
176
     1
 90
        0
176
     1
 62
    18
420
        0
176
     1
 90
       50
176
     1
 90
        3
176
     1
 62
     5
420
      255
176
     1
290
     0
176
     1
 90
       50
176
     1
 90
       50
176
     1
 90
       50
176
     1
290
     0
176
     1
 90
       50
176
     1
 62
   256
176
     0
 40
1.0
176
     0
 90
        2
176
     1
  1
strokes_ogs.tif
176
     1
290
     0
176
     1
 40
1.0
176
     1
 40
1.0
176
     1
  0
VISUALSTYLE
  5
30
102
{ACAD_REACTORS
330
2A
102
}
330
2A
100
AcDbVisualStyle
  2
Wireframe
 70
     5
177
     3
291
     0
 70
    58
 90
        0
176
     1
 90
        2
176
     1
 90
        0
176
     1
 90
        0
176
     1
 40
0.6
176
     1
 40
30.0
176
     1
 62
     7
420
 16777215
176
     1
 90
        1
176
     1
 90
        4
176
     1
 62
     7
176
     1
 62
   257
176
     1
 90
        1
176
     1
 90
        1
176
     1
 40
1.0
176
     1
 90
        0
176
     1
 62
   257
176
     1
 40
1.0
176
     1
 90
        1
176
     1
 90
        6
176
     1
 90
        2
176
     1
 62
     7
176
     1
 90
        3
176
     1
 90
        0
176
     1
 90
        0
176
     1
290
     0
176
     1
 90
        1
176
     1
 40
0.0
176
     1
 90
        0
176
     1
290
     0
176
     1
290
     1
176
     1
290
     1
176
     1
290
     0
176
     1
290
     0
176
     1
290
     0
176
     1
290
     0
176
     1
290
     0
176
     1
290
     0
176
     1
 90
       50
176
     1
 40
0.0
176
     1
 40
1.0
176
     1
 90
        0
176
     1
 62
    18
420
        0
176
     1
 90
       50
176
     1
 90
        3
176
     1
 62
     5
420
      255
176
     1
290
     0
176
     1
 90
       50
176
     1
 90
       50
176
     1
 90
       50
176
     1
290
     0
176
     1
 90
       50
176
     1
 62
   256
176
     0
 40
1.0
176
     0
 90
        2
176
     1
  1
strokes_ogs.tif
176
     1
290
     0
176
     1
 40
1.0
176
     1
 40
1.0
176
     1
  0
VISUALSTYLE
  5
40
102
{ACAD_REACTORS
330
2A
102
}
330
2A
100
AcDbVisualStyle
  2
X-Ray
 70
    25
177
     3
291
     0
 70
    58
 90
        2
176
     1
 90
        2
176
     1
 90
        1
176
     1
 90
        1
176
     1
 40
0.5
176
     1
 40
30.0
176
     1
 62
     7
420
 16777215
176
     1
 90
        1
176
     1
 90
        0
176
     1
 62
     7
176
     1
 62
   257
176
     1
 90
        1
176
     1
 90
        1
176
     1
 40
1.0
176
     1
 90
        8
176
     1
 62
     7
176
     1
 40
1.0
176
     1
 90
        1
176
     1
 90
        6
176
     1
 90
        2
176
     1
 62
     7
176
     1
 90
        3
176
     1
 90
        0
176
     1
 90
        0
176
     1
290
     0
176
     1
 90
       13
176
     1
 40
0.0
176
     1
 90
        0
176
     1
290
     0
176
     1
290
     1
176
     1
290
     1
176
     1
290
     0
176
     1
290
     0
176
     1
290
     0
176
     1
290
     0
176
     1
290
     0
176
     1
290
     0
176
     1
 90
       50
176
     1
 40
0.0
176
     1
 40
1.0
176
     1
 90
        0
176
     1
 62
    18
420
        0
176
     1
 90
       50
176
     1
 90
        3
176
     1
 62
     5
420
      255
176
     1
290
     0
176
     1
 90
       50
176
     1
 90
       50
176
     1
 90
       50
176
     1
290
     0
176
     1
 90
       50
176
     1
 62
   256
176
     0
 40
1.0
176
     0
 90
        2
176
     1
  1
strokes_ogs.tif
176
     1
290
     0
176
     1
 40
1.0
176
     1
 40
1.0
176
     1
  0
DICTIONARYVAR
  5
27F
102
{ACAD_REACTORS
330
27E
102
}
330
27E
100
DictionaryVariables
280
     0
  1
1:1
  0
DICTIONARYVAR
  5
287
102
{ACAD_REACTORS
330
27E
102
}
330
27E
100
DictionaryVariables
280
     0
  1
3.500000
  0
DICTIONARYVAR
  5
288
102
{ACAD_REACTORS
330
27E
102
}
330
27E
100
DictionaryVariables
280
     0
  1
acadiso.lin
  0
DICTIONARYVAR
  5
284
102
{ACAD_REACTORS
330
27E
102
}
330
27E
100
DictionaryVariables
280
     0
  1
Standard
  0
DICTIONARYVAR
  5
283
102
{ACAD_REACTORS
330
27E
102
}
330
27E
100
DictionaryVariables
280
     0
  1
Standard
  0
DICTIONARY
  5
280
330
6A
100
AcDbDictionary
280
     1
281
     1
  3
ACAD_ROUNDTRIP_2008_TABLESTYLE_CELLSTYLEMAP
360
281
  0
CELLSTYLEMAP
  5
281
102
{ACAD_REACTORS
330
280
102
}
330
280
100
AcDbCellStyleMap
 90
        3
300
CELLSTYLE
  1
TABLEFORMAT_BEGIN
 90
        5
170
     1
 91
        0
 92
    32768
 62
   257
 93
        1
300
CONTENTFORMAT
  1
CONTENTFORMAT_BEGIN
 90
        0
 91
        0
 92
        4
 93
        0
300

 40
0.0
140
1.0
 94
        5
 62
     0
340
11
144
6.0
309
CONTENTFORMAT_END
171
     1
301
MARGIN
  1
CELLMARGIN_BEGIN
 40
1.5
 40
1.5
 40
1.5
 40
1.5
 40
1.5
 40
1.5
309
CELLMARGIN_END
 94
        6
 95
        1
302
GRIDFORMAT
  1
GRIDFORMAT_BEGIN
 90
        0
 91
        1
 62
     0
 92
       -2
340
14
 93
        0
 40
0.045
309
GRIDFORMAT_END
 95
        2
302
GRIDFORMAT
  1
GRIDFORMAT_BEGIN
 90
        0
 91
        1
 62
     0
 92
       -2
340
14
 93
        0
 40
0.045
309
GRIDFORMAT_END
 95
        4
302
GRIDFORMAT
  1
GRIDFORMAT_BEGIN
 90
        0
 91
        1
 62
     0
 92
       -2
340
14
 93
        0
 40
0.045
309
GRIDFORMAT_END
 95
        8
302
GRIDFORMAT
  1
GRIDFORMAT_BEGIN
 90
        0
 91
        1
 62
     0
 92
       -2
340
14
 93
        0
 40
0.045
309
GRIDFORMAT_END
 95
       16
302
GRIDFORMAT
  1
GRIDFORMAT_BEGIN
 90
        0
 91
        1
 62
     0
 92
       -2
340
14
 93
        0
 40
0.045
309
GRIDFORMAT_END
 95
       32
302
GRIDFORMAT
  1
GRIDFORMAT_BEGIN
 90
        0
 91
        1
 62
     0
 92
       -2
340
14
 93
        0
 40
0.045
309
GRIDFORMAT_END
309
TABLEFORMAT_END
  1
CELLSTYLE_BEGIN
 90
        1
 91
        1
300
_TITLE
309
CELLSTYLE_END
300
CELLSTYLE
  1
TABLEFORMAT_BEGIN
 90
        5
170
     1
 91
        0
 92
        0
 62
   257
 93
        1
300
CONTENTFORMAT
  1
CONTENTFORMAT_BEGIN
 90
        0
 91
        0
 92
        4
 93
        0
300

 40
0.0
140
1.0
 94
        5
 62
     0
340
11
144
4.5
309
CONTENTFORMAT_END
171
     1
301
MARGIN
  1
CELLMARGIN_BEGIN
 40
1.5
 40
1.5
 40
1.5
 40
1.5
 40
1.5
 40
1.5
309
CELLMARGIN_END
 94
        6
 95
        1
302
GRIDFORMAT
  1
GRIDFORMAT_BEGIN
 90
        0
 91
        1
 62
     0
 92
       -2
340
14
 93
        0
 40
0.045
309
GRIDFORMAT_END
 95
        2
302
GRIDFORMAT
  1
GRIDFORMAT_BEGIN
 90
        0
 91
        1
 62
     0
 92
       -2
340
14
 93
        0
 40
0.045
309
GRIDFORMAT_END
 95
        4
302
GRIDFORMAT
  1
GRIDFORMAT_BEGIN
 90
        0
 91
        1
 62
     0
 92
       -2
340
14
 93
        0
 40
0.045
309
GRIDFORMAT_END
 95
        8
302
GRIDFORMAT
  1
GRIDFORMAT_BEGIN
 90
        0
 91
        1
 62
     0
 92
       -2
340
14
 93
        0
 40
0.045
309
GRIDFORMAT_END
 95
       16
302
GRIDFORMAT
  1
GRIDFORMAT_BEGIN
 90
        0
 91
        1
 62
     0
 92
       -2
340
14
 93
        0
 40
0.045
309
GRIDFORMAT_END
 95
       32
302
GRIDFORMAT
  1
GRIDFORMAT_BEGIN
 90
        0
 91
        1
 62
     0
 92
       -2
340
14
 93
        0
 40
0.045
309
GRIDFORMAT_END
309
TABLEFORMAT_END
  1
CELLSTYLE_BEGIN
 90
        2
 91
        1
300
_HEADER
309
CELLSTYLE_END
300
CELLSTYLE
  1
TABLEFORMAT_BEGIN
 90
        5
170
     1
 91
        0
 92
        0
 62
   257
 93
        1
300
CONTENTFORMAT
  1
CONTENTFORMAT_BEGIN
 90
        0
 91
        0
 92
        4
 93
        0
300

 40
0.0
140
1.0
 94
        2
 62
     0
340
11
144
4.5
309
CONTENTFORMAT_END
171
     1
301
MARGIN
  1
CELLMARGIN_BEGIN
 40
1.5
 40
1.5
 40
1.5
 40
1.5
 40
1.5
 40
1.5
309
CELLMARGIN_END
 94
        6
 95
        1
302
GRIDFORMAT
  1
GRIDFORMAT_BEGIN
 90
        0
 91
        1
 62
     0
 92
       -2
340
14
 93
        0
 40
0.045
309
GRIDFORMAT_END
 95
        2
302
GRIDFORMAT
  1
GRIDFORMAT_BEGIN
 90
        0
 91
        1
 62
     0
 92
       -2
340
14
 93
        0
 40
0.045
309
GRIDFORMAT_END
 95
        4
302
GRIDFORMAT
  1
GRIDFORMAT_BEGIN
 90
        0
 91
        1
 62
     0
 92
       -2
340
14
 93
        0
 40
0.045
309
GRIDFORMAT_END
 95
        8
302
GRIDFORMAT
  1
GRIDFORMAT_BEGIN
 90
        0
 91
        1
 62
     0
 92
       -2
340
14
 93
        0
 40
0.045
309
GRIDFORMAT_END
 95
       16
302
GRIDFORMAT
  1
GRIDFORMAT_BEGIN
 90
        0
 91
        1
 62
     0
 92
       -2
340
14
 93
        0
 40
0.045
309
GRIDFORMAT_END
 95
       32
302
GRIDFORMAT
  1
GRIDFORMAT_BEGIN
 90
        0
 91
        1
 62
     0
 92
       -2
340
14
 93
        0
 40
0.045
309
GRIDFORMAT_END
309
TABLEFORMAT_END
  1
CELLSTYLE_BEGIN
 90
        3
 91
        2
300
_DATA
309
CELLSTYLE_END
  0
ENDSEC
  0
EOF
