  0
SECTION
  2
HEADER
  9
$ACADVER
  1
AC1032
  9
$ACADMAINTVER
 90
        4
  9
$DWGCODEPAGE
  3
ANSI_1250
  9
$REQUIREDVERSIONS
160
                 0
  9
$INSBASE
 10
0.0
 20
0.0
 30
0.0
  9
$EXTMIN
 10
1.000000000000000E+20
 20
1.000000000000000E+20
 30
1.000000000000000E+20
  9
$EXTMAX
 10
-1.000000000000000E+20
 20
-1.000000000000000E+20
 30
-1.000000000000000E+20
  9
$LIMMIN
 10
0.0
 20
0.0
  9
$LIMMAX
 10
420.0
 20
297.0
  9
$ORTHOMODE
 70
     0
  9
$REGENMODE
 70
     1
  9
$FILLMODE
 70
     1
  9
$QTEXTMODE
 70
     0
  9
$MIRRTEXT
 70
     1
  9
$LTSCALE
 40
1.0
  9
$ATTMODE
 70
     1
  9
$TEXTSIZE
 40
2.5
  9
$TRACEWID
 40
1.0
  9
$TEXTSTYLE
  7
Standard
  9
$CLAYER
  8
0
  9
$CELTYPE
  6
ByLayer
  9
$CECOLOR
 62
   256
  9
$CELTSCALE
 40
1.0
  9
$DISPSILH
 70
     0
  9
$DIMSCALE
 40
1.0
  9
$DIMASZ
 40
3.0
  9
$DIMEXO
 40
0.625
  9
$DIMDLI
 40
3.75
  9
$DIMRND
 40
0.0
  9
$DIMDLE
 40
0.0
  9
$DIMEXE
 40
1.25
  9
$DIMTP
 40
0.0
  9
$DIMTM
 40
0.0
  9
$DIMTXT
 40
1.336918010447422
  9
$DIMCEN
 40
2.5
  9
$DIMTSZ
 40
0.0
  9
$DIMTOL
 70
     0
  9
$DIMLIM
 70
     0
  9
$DIMTIH
 70
     0
  9
$DIMTOH
 70
     0
  9
$DIMSE1
 70
     0
  9
$DIMSE2
 70
     0
  9
$DIMTAD
 70
     1
  9
$DIMZIN
 70
     8
  9
$DIMBLK
  1

  9
$DIMASO
 70
     1
  9
$DIMSHO
 70
     1
  9
$DIMPOST
  1

  9
$DIMAPOST
  1

  9
$DIMALT
 70
     0
  9
$DIMALTD
 70
     3
  9
$DIMALTF
 40
0.03937007874016
  9
$DIMLFAC
 40
1.0
  9
$DIMTOFL
 70
     1
  9
$DIMTVP
 40
0.0
  9
$DIMTIX
 70
     0
  9
$DIMSOXD
 70
     0
  9
$DIMSAH
 70
     0
  9
$DIMBLK1
  1

  9
$DIMBLK2
  1

  9
$DIMSTYLE
  2
ISO-25
  9
$DIMCLRD
 70
     0
  9
$DIMCLRE
 70
     0
  9
$DIMCLRT
 70
     0
  9
$DIMTFAC
 40
1.0
  9
$DIMGAP
 40
0.625
  9
$DIMJUST
 70
     0
  9
$DIMSD1
 70
     0
  9
$DIMSD2
 70
     0
  9
$DIMTOLJ
 70
     0
  9
$DIMTZIN
 70
     8
  9
$DIMALTZ
 70
     0
  9
$DIMALTTZ
 70
     0
  9
$DIMUPT
 70
     0
  9
$DIMDEC
 70
     2
  9
$DIMTDEC
 70
     2
  9
$DIMALTU
 70
     2
  9
$DIMALTTD
 70
     3
  9
$DIMTXSTY
  7
Standard
  9
$DIMAUNIT
 70
     0
  9
$DIMADEC
 70
     0
  9
$DIMALTRND
 40
0.0
  9
$DIMAZIN
 70
     0
  9
$DIMDSEP
 70
    44
  9
$DIMATFIT
 70
     3
  9
$DIMFRAC
 70
     0
  9
$DIMLDRBLK
  1

  9
$DIMLUNIT
 70
     2
  9
$DIMLWD
 70
    -2
  9
$DIMLWE
 70
    -2
  9
$DIMTMOVE
 70
     0
  9
$DIMFXL
 40
1.0
  9
$DIMFXLON
 70
     0
  9
$DIMJOGANG
 40
0.7853981633974483
  9
$DIMTFILL
 70
     0
  9
$DIMTFILLCLR
 70
     0
  9
$DIMARCSYM
 70
     0
  9
$DIMLTYPE
  6

  9
$DIMLTEX1
  6

  9
$DIMLTEX2
  6

  9
$DIMTXTDIRECTION
 70
     0
  9
$LUNITS
 70
     2
  9
$LUPREC
 70
     4
  9
$SKETCHINC
 40
1.0
  9
$FILLETRAD
 40
10.0
  9
$AUNITS
 70
     0
  9
$AUPREC
 70
     0
  9
$MENU
  1
.
  9
$ELEVATION
 40
0.0
  9
$PELEVATION
 40
0.0
  9
$THICKNESS
 40
0.0
  9
$LIMCHECK
 70
     0
  9
$CHAMFERA
 40
0.0
  9
$CHAMFERB
 40
0.0
  9
$CHAMFERC
 40
0.0
  9
$CHAMFERD
 40
0.0
  9
$SKPOLY
 70
     0
  9
$TDCREATE
 40
2458869.363997685
  9
$TDUCREATE
 40
2458869.322331019
  9
$TDUPDATE
 40
2458869.364003079
  9
$TDUUPDATE
 40
2458869.322336412
  9
$TDINDWG
 40
0.0000000116
  9
$TDUSRTIMER
 40
0.0000000116
  9
$USRTIMER
 70
     1
  9
$ANGBASE
 50
0.0
  9
$ANGDIR
 70
     0
  9
$PDMODE
 70
     0
  9
$PDSIZE
 40
0.0
  9
$PLINEWID
 40
0.0
  9
$SPLFRAME
 70
     0
  9
$SPLINETYPE
 70
     6
  9
$SPLINESEGS
 70
     8
  9
$HANDSEED
  5
28A
  9
$SURFTAB1
 70
     6
  9
$SURFTAB2
 70
     6
  9
$SURFTYPE
 70
     6
  9
$SURFU
 70
     6
  9
$SURFV
 70
     6
  9
$UCSBASE
  2

  9
$UCSNAME
  2

  9
$UCSORG
 10
0.0
 20
0.0
 30
0.0
  9
$UCSXDIR
 10
1.0
 20
0.0
 30
0.0
  9
$UCSYDIR
 10
0.0
 20
1.0
 30
0.0
  9
$UCSORTHOREF
  2

  9
$UCSORTHOVIEW
 70
     0
  9
$UCSORGTOP
 10
0.0
 20
0.0
 30
0.0
  9
$UCSORGBOTTOM
 10
0.0
 20
0.0
 30
0.0
  9
$UCSORGLEFT
 10
0.0
 20
0.0
 30
0.0
  9
$UCSORGRIGHT
 10
0.0
 20
0.0
 30
0.0
  9
$UCSORGFRONT
 10
0.0
 20
0.0
 30
0.0
  9
$UCSORGBACK
 10
0.0
 20
0.0
 30
0.0
  9
$PUCSBASE
  2

  9
$PUCSNAME
  2

  9
$PUCSORG
 10
0.0
 20
0.0
 30
0.0
  9
$PUCSXDIR
 10
1.0
 20
0.0
 30
0.0
  9
$PUCSYDIR
 10
0.0
 20
1.0
 30
0.0
  9
$PUCSORTHOREF
  2

  9
$PUCSORTHOVIEW
 70
     0
  9
$PUCSORGTOP
 10
0.0
 20
0.0
 30
0.0
  9
$PUCSORGBOTTOM
 10
0.0
 20
0.0
 30
0.0
  9
$PUCSORGLEFT
 10
0.0
 20
0.0
 30
0.0
  9
$PUCSORGRIGHT
 10
0.0
 20
0.0
 30
0.0
  9
$PUCSORGFRONT
 10
0.0
 20
0.0
 30
0.0
  9
$PUCSORGBACK
 10
0.0
 20
0.0
 30
0.0
  9
$USERI1
 70
     0
  9
$USERI2
 70
     0
  9
$USERI3
 70
     0
  9
$USERI4
 70
     0
  9
$USERI5
 70
     0
  9
$USERR1
 40
0.0
  9
$USERR2
 40
0.0
  9
$USERR3
 40
0.0
  9
$USERR4
 40
0.0
  9
$USERR5
 40
0.0
  9
$WORLDVIEW
 70
     1
  9
$SHADEDGE
 70
     3
  9
$SHADEDIF
 70
    70
  9
$TILEMODE
 70
     1
  9
$MAXACTVP
 70
    64
  9
$PINSBASE
 10
0.0
 20
0.0
 30
0.0
  9
$PLIMCHECK
 70
     0
  9
$PEXTMIN
 10
1.000000000000000E+20
 20
1.000000000000000E+20
 30
1.000000000000000E+20
  9
$PEXTMAX
 10
-1.000000000000000E+20
 20
-1.000000000000000E+20
 30
-1.000000000000000E+20
  9
$PLIMMIN
 10
0.0
 20
0.0
  9
$PLIMMAX
 10
420.0
 20
297.0
  9
$UNITMODE
 70
     0
  9
$VISRETAIN
 70
     1
  9
$PLINEGEN
 70
     0
  9
$PSLTSCALE
 70
     1
  9
$TREEDEPTH
 70
  3020
  9
$CMLSTYLE
  2
Standard
  9
$CMLJUST
 70
     0
  9
$CMLSCALE
 40
20.0
  9
$PROXYGRAPHICS
 70
     1
  9
$MEASUREMENT
 70
     1
  9
$CELWEIGHT
370
    -1
  9
$ENDCAPS
280
     0
  9
$JOINSTYLE
280
     0
  9
$LWDISPLAY
290
     0
  9
$INSUNITS
 70
     4
  9
$HYPERLINKBASE
  1

  9
$STYLESHEET
  1

  9
$XEDIT
290
     1
  9
$CEPSNTYPE
380
     0
  9
$PSTYLEMODE
290
     1
  9
$FINGERPRINTGUID
  2
{a433bbf4-8c40-4936-9cf9-48108b704ef3}
  9
$VERSIONGUID
  2
{FAEB1C32-E019-11D5-929B-00C0DF256EC4}
  9
$EXTNAMES
290
     1
  9
$PSVPSCALE
 40
0.0
  9
$OLESTARTUP
290
     0
  9
$SORTENTS
280
   127
  9
$INDEXCTL
280
     0
  9
$HIDETEXT
280
     1
  9
$XCLIPFRAME
280
     2
  9
$HALOGAP
280
     0
  9
$OBSCOLOR
 70
   257
  9
$OBSLTYPE
280
     0
  9
$INTERSECTIONDISPLAY
280
     0
  9
$INTERSECTIONCOLOR
 70
   257
  9
$DIMASSOC
280
     2
  9
$PROJECTNAME
  1

  9
$CAMERADISPLAY
290
     0
  9
$LENSLENGTH
 40
50.0
  9
$CAMERAHEIGHT
 40
0.0
  9
$STEPSPERSEC
 40
2.0
  9
$STEPSIZE
 40
6.0
  9
$3DDWFPREC
 40
2.0
  9
$PSOLWIDTH
 40
5.0
  9
$PSOLHEIGHT
 40
80.0
  9
$LOFTANG1
 40
1.570796326794897
  9
$LOFTANG2
 40
1.570796326794897
  9
$LOFTMAG1
 40
0.0
  9
$LOFTMAG2
 40
0.0
  9
$LOFTPARAM
 70
     7
  9
$LOFTNORMALS
280
     1
  9
$LATITUDE
 40
37.795
  9
$LONGITUDE
 40
-122.394
  9
$NORTHDIRECTION
 40
0.0
  9
$TIMEZONE
 70
 -8000
  9
$LIGHTGLYPHDISPLAY
280
     1
  9
$TILEMODELIGHTSYNCH
280
     1
  9
$CMATERIAL
347
44
  9
$SOLIDHIST
280
     0
  9
$SHOWHIST
280
     1
  9
$DWFFRAME
280
     2
  9
$DGNFRAME
280
     2
  9
$REALWORLDSCALE
290
     1
  9
$INTERFERECOLOR
 62
   256
  9
$CSHADOW
280
     0
  9
$SHADOWPLANELOCATION
 40
0.0
  0
ENDSEC
  0
SECTION
  2
CLASSES
  0
CLASS
  1
ACDBDICTIONARYWDFLT
  2
AcDbDictionaryWithDefault
  3
ObjectDBX Classes
 90
        0
 91
        3
280
     0
281
     0
  0
CLASS
  1
VISUALSTYLE
  2
AcDbVisualStyle
  3
ObjectDBX Classes
 90
     4095
 91
        3
280
     0
281
     0
  0
CLASS
  1
MATERIAL
  2
AcDbMaterial
  3
ObjectDBX Classes
 90
     1153
 91
        3
280
     0
281
     0
  0
CLASS
  1
SCALE
  2
AcDbScale
  3
ObjectDBX Classes
 90
     1153
 91
        3
280
     0
281
     0
  0
CLASS
  1
TABLESTYLE
  2
AcDbTableStyle
  3
ObjectDBX Classes
 90
     4095
 91
        3
280
     0
281
     0
  0
CLASS
  1
MLEADERSTYLE
  2
AcDbMLeaderStyle
  3
ACDB_MLEADERSTYLE_CLASS
 90
     4095
 91
        3
280
     0
281
     0
  0
CLASS
  1
SUN
  2
AcDbSun
  3
SCENEOE
 90
     1153
 91
        3
280
     0
281
     0
  0
CLASS
  1
DICTIONARYVAR
  2
AcDbDictionaryVar
  3
ObjectDBX Classes
 90
        0
 91
        3
280
     0
281
     0
  0
CLASS
  1
CELLSTYLEMAP
  2
AcDbCellStyleMap
  3
ObjectDBX Classes
 90
     1152
 91
        3
280
     0
281
     0
  0
ENDSEC
  0
SECTION
  2
TABLES
  0
TABLE
  2
VPORT
  5
8
330
0
100
AcDbSymbolTable
 70
     1
  0
VPORT
  5
29
330
8
100
AcDbSymbolTableRecord
100
AcDbViewportTableRecord
  2
*Active
 70
     0
 10
0.0
 20
0.0
 11
1.0
 21
1.0
 12
344.1869158878504
 22
148.5
 13
0.0
 23
0.0
 14
10.0
 24
10.0
 15
10.0
 25
10.0
 16
0.0
 26
0.0
 36
1.0
 17
0.0
 27
0.0
 37
0.0
 40
297.0
 41
1.972972972850329
 42
50.0
 43
0.0
 44
0.0
 50
0.0
 51
0.0
 71
     0
 72
   100
 73
     1
 74
     3
 75
     0
 76
     0
 77
     0
 78
     0
281
     0
 65
     1
110
0.0
120
0.0
130
0.0
111
1.0
121
0.0
131
0.0
112
0.0
122
1.0
132
0.0
 79
     0
146
0.0
348
2F
 60
     3
 61
     5
292
     1
282
     1
141
0.0
142
0.0
 63
   250
361
6D
  0
ENDTAB
  0
TABLE
  2
LTYPE
  5
5
330
0
100
AcDbSymbolTable
 70
     1
  0
LTYPE
  5
14
330
5
100
AcDbSymbolTableRecord
100
AcDbLinetypeTableRecord
  2
ByBlock
 70
     0
  3

 72
    65
 73
     0
 40
0.0
  0
LTYPE
  5
15
330
5
100
AcDbSymbolTableRecord
100
AcDbLinetypeTableRecord
  2
ByLayer
 70
     0
  3

 72
    65
 73
     0
 40
0.0
  0
LTYPE
  5
16
330
5
100
AcDbSymbolTableRecord
100
AcDbLinetypeTableRecord
  2
Continuous
 70
     0
  3
Solid line
 72
    65
 73
     0
 40
0.0
  0
ENDTAB
  0
TABLE
  2
LAYER
  5
2
330
0
100
AcDbSymbolTable
 70
     5
  0
LAYER
  5
10
330
2
100
AcDbSymbolTableRecord
100
AcDbLayerTableRecord
  2
0
 70
     0
 62
     7
  6
Continuous
370
    -3
390
F
347
46
348
0
  0
LAYER
  5
6E
330
2
100
AcDbSymbolTableRecord
100
AcDbLayerTableRecord
  2
VISIBLE
 70
     0
 62
     7
  6
Continuous
370
     0
390
F
347
46
348
0
  0
LAYER
  5
99
330
2
100
AcDbSymbolTableRecord
100
AcDbLayerTableRecord
  2
CENTER
 70
     0
 62
   204
  6
Continuous
370
     0
390
F
347
46
348
0
  0
LAYER
  5
B8
330
2
100
AcDbSymbolTableRecord
100
AcDbLayerTableRecord
  2
DIMENSIONS
 70
     0
 62
     7
  6
Continuous
370
     0
390
F
347
46
348
0
  0
LAYER
  5
ED
330
2
100
AcDbSymbolTableRecord
100
AcDbLayerTableRecord
  2
CONTINUOUS
 70
     0
 62
     7
  6
Continuous
370
     0
390
F
347
46
348
0
  0
ENDTAB
  0
TABLE
  2
STYLE
  5
3
330
0
100
AcDbSymbolTable
 70
     1
  0
STYLE
  5
11
330
3
100
AcDbSymbolTableRecord
100
AcDbTextStyleTableRecord
  2
Standard
 70
     0
 40
0.0
 41
1.0
 50
0.0
 71
     0
 42
2.5
  3
txt
  4

  0
ENDTAB
  0
TABLE
  2
VIEW
  5
6
330
0
100
AcDbSymbolTable
 70
     0
  0
ENDTAB
  0
TABLE
  2
UCS
  5
7
330
0
100
AcDbSymbolTable
 70
     0
  0
ENDTAB
  0
TABLE
  2
APPID
  5
9
330
0
100
AcDbSymbolTable
 70
     1
  0
APPID
  5
12
330
9
100
AcDbSymbolTableRecord
100
AcDbRegAppTableRecord
  2
ACAD
 70
     0
  0
ENDTAB
  0
TABLE
  2
DIMSTYLE
  5
A
330
0
100
AcDbSymbolTable
 70
     1
100
AcDbDimStyleTable
  0
DIMSTYLE
105
27
102
{ACAD_REACTORS
330
B9
330
CB
330
DC
330
1E8
330
1F9
330
20A
330
21B
102
}
330
A
100
AcDbSymbolTableRecord
100
AcDbDimStyleTableRecord
  2
ISO-25
 70
     0
 41
2.5
 42
0.625
 43
3.75
 44
1.25
 73
     0
 74
     0
 77
     1
 78
     8
140
2.5
141
2.5
143
0.03937007874016
147
0.625
171
     3
172
     1
178
     0
271
     2
272
     2
274
     3
278
    44
283
     0
284
     8
340
11
  0
ENDTAB
  0
TABLE
  2
BLOCK_RECORD
  5
1
330
0
100
AcDbSymbolTable
 70
     9
  0
BLOCK_RECORD
  5
1F
330
1
100
AcDbSymbolTableRecord
100
AcDbBlockTableRecord
  2
*Model_Space
340
22
 70
     0
280
     1
281
     0
  0
BLOCK_RECORD
  5
1B
330
1
100
AcDbSymbolTableRecord
100
AcDbBlockTableRecord
  2
*Paper_Space
340
1E
 70
     0
280
     1
281
     0
  0
BLOCK_RECORD
  5
23
330
1
100
AcDbSymbolTableRecord
100
AcDbBlockTableRecord
  2
*Paper_Space0
340
26
 70
     0
280
     1
281
     0
  0
BLOCK_RECORD
  5
BA
330
1
100
AcDbSymbolTableRecord
100
AcDbBlockTableRecord
  2
D1
340
0
 70
     0
280
     1
281
     0
  0
BLOCK_RECORD
  5
CC
330
1
100
AcDbSymbolTableRecord
100
AcDbBlockTableRecord
  2
D2
340
0
 70
     0
280
     1
281
     0
  0
BLOCK_RECORD
  5
DD
330
1
100
AcDbSymbolTableRecord
100
AcDbBlockTableRecord
  2
D3
340
0
 70
     0
280
     1
281
     0
  0
BLOCK_RECORD
  5
1E9
330
1
100
AcDbSymbolTableRecord
100
AcDbBlockTableRecord
  2
D4
340
0
 70
     0
280
     1
281
     0
  0
BLOCK_RECORD
  5
1FA
330
1
100
AcDbSymbolTableRecord
100
AcDbBlockTableRecord
  2
D5
340
0
 70
     0
280
     1
281
     0
  0
BLOCK_RECORD
  5
20B
330
1
100
AcDbSymbolTableRecord
100
AcDbBlockTableRecord
  2
D6
340
0
 70
     0
280
     1
281
     0
  0
BLOCK_RECORD
  5
21C
330
1
100
AcDbSymbolTableRecord
100
AcDbBlockTableRecord
  2
D7
340
0
 70
     0
280
     1
281
     0
  0
BLOCK_RECORD
  5
22E
330
1
100
AcDbSymbolTableRecord
100
AcDbBlockTableRecord
  2
BLOCK0
340
0
102
{BLKREFS
331
22D
102
}
 70
     0
280
     1
281
     0
  0
ENDTAB
  0
ENDSEC
  0
SECTION
  2
BLOCKS
  0
BLOCK
  5
20
330
1F
100
AcDbEntity
  8
0
100
AcDbBlockBegin
  2
*Model_Space
 70
     0
 10
0.0
 20
0.0
 30
0.0
  3
*Model_Space
  1

  0
ENDBLK
  5
21
330
1F
100
AcDbEntity
  8
0
100
AcDbBlockEnd
  0
BLOCK
  5
1C
330
1B
100
AcDbEntity
 67
     1
  8
0
100
AcDbBlockBegin
  2
*Paper_Space
 70
     0
 10
0.0
 20
0.0
 30
0.0
  3
*Paper_Space
  1

  0
ENDBLK
  5
1D
330
1B
100
AcDbEntity
 67
     1
  8
0
100
AcDbBlockEnd
  0
BLOCK
  5
24
330
23
100
AcDbEntity
  8
0
100
AcDbBlockBegin
  2
*Paper_Space0
 70
     0
 10
0.0
 20
0.0
 30
0.0
  3
*Paper_Space0
  1

  0
ENDBLK
  5
25
330
23
100
AcDbEntity
  8
0
100
AcDbBlockEnd
  0
BLOCK
  5
BB
330
BA
100
AcDbEntity
  8
0
100
AcDbBlockBegin
  2
D1
 70
     0
 10
0.0
 20
0.0
 30
0.0
  3
D1
  1

  0
MTEXT
  5
BD
330
BA
100
AcDbEntity
  8
DIMENSIONS
100
AcDbMText
 10
89.33958062065969
 20
106.1423339843751
 30
0.0
 40
2.134018756842158
 41
0.0
 46
0.0
 71
     5
 72
     1
  1
{\fAlibre Symbols|b0|i0|c0|p0;n}{\fCE|b0|i0|c0|p0;\H0.95x;48}{\fMicrosoft Sans Serif|b0|i0|c0|p0;\H0.8x;}
 73
     1
 44
1.0
  0
MTEXT
  5
BE
330
BA
100
AcDbEntity
  8
DIMENSIONS
100
AcDbMText
 10
89.33958062065969
 20
106.1423339843751
 30
0.0
 40
2.134018756842158
 41
0.0
 46
0.0
 71
     5
 72
     1
  1
{\fCE|b0|i0|c0|p0;}
 73
     1
 44
1.0
  0
MTEXT
  5
BF
330
BA
100
AcDbEntity
  8
DIMENSIONS
100
AcDbMText
 10
89.33958062065969
 20
106.1423339843751
 30
0.0
 40
2.134018756842158
 41
0.0
 46
0.0
 71
     5
 72
     1
  1
{\fCE|b0|i0|c0|p0;}
 73
     1
 44
1.0
  0
MTEXT
  5
C0
330
BA
100
AcDbEntity
  8
DIMENSIONS
100
AcDbMText
 10
85.63541395399302
 20
106.1423339843751
 30
0.0
 40
2.134018756842158
 41
0.0
 46
0.0
 71
     5
 72
     1
  1
{\fCE|b0|i0|c0|p0;}
 73
     1
 44
1.0
  0
MTEXT
  5
C1
330
BA
100
AcDbEntity
  8
DIMENSIONS
100
AcDbMText
 10
93.04374728732635
 20
106.1423339843751
 30
0.0
 40
2.134018756842158
 41
0.0
 46
0.0
 71
     5
 72
     1
  1
{\fCE|b0|i0|c0|p0;}
 73
     1
 44
1.0
  0
LINE
  5
C2
330
BA
100
AcDbEntity
  8
DIMENSIONS
100
AcDbLine
 10
113.5351638793945
 20
151.483253479004
 30
0.0
 11
113.5351638793945
 21
101.6728895399307
 31
0.0
  0
LINE
  5
C3
330
BA
100
AcDbEntity
  8
DIMENSIONS
100
AcDbLine
 10
65.5351638793945
 20
151.483253479004
 30
0.0
 11
65.5351638793945
 21
101.6728895399307
 31
0.0
  0
LWPOLYLINE
  5
C4
330
BA
100
AcDbEntity
  8
DIMENSIONS
100
AcDbPolyline
 90
        4
 70
     0
 43
0.0
 10
113.5351638793945
 20
103.6728895399307
 10
110.5351638793945
 20
103.1728895399307
 10
110.5351638793945
 20
104.1728895399307
 10
113.5351638793945
 20
103.6728895399307
  0
LINE
  5
C5
330
BA
100
AcDbEntity
  8
DIMENSIONS
100
AcDbLine
 10
110.5351638793945
 20
103.6728895399307
 30
0.0
 11
89.33958062065969
 21
103.6728895399307
 31
0.0
  0
LWPOLYLINE
  5
C6
330
BA
100
AcDbEntity
  8
DIMENSIONS
100
AcDbPolyline
 90
        4
 70
     0
 43
0.0
 10
65.5351638793945
 20
103.6728895399306
 10
68.5351638793945
 20
104.1728895399306
 10
68.5351638793945
 20
103.1728895399306
 10
65.5351638793945
 20
103.6728895399306
  0
LINE
  5
C7
330
BA
100
AcDbEntity
  8
DIMENSIONS
100
AcDbLine
 10
68.5351638793945
 20
103.6728895399307
 30
0.0
 11
89.33958062065969
 21
103.6728895399307
 31
0.0
  0
LINE
  5
C8
330
BA
100
AcDbEntity
  8
DIMENSIONS
100
AcDbLine
 10
95.04374748468396
 20
103.6728895399307
 30
0.0
 11
82.92985838651654
 21
103.6728895399307
 31
0.0
  0
LWPOLYLINE
  5
C9
330
BA
100
AcDbEntity
  8
DIMENSIONS
100
AcDbPolyline
 90
        5
 70
     0
 43
0.0
 10
89.5351638793945
 20
153.483253479004
 10
89.5351638793945
 20
153.483253479004
 10
89.5351638793945
 20
153.483253479004
 10
89.5351638793945
 20
153.483253479004
 10
89.5351638793945
 20
153.483253479004
  0
HATCH
  5
CA
330
BA
100
AcDbEntity
  8
0
 62
     7
100
AcDbHatch
 10
0.0
 20
0.0
 30
0.0
210
0.0
220
0.0
230
1.0
  2
PLNÁ, Plné vyplnění
 70
     0
 71
     0
 91
        2
 92
        0
 93
        3
 72
     1
 10
110.5351638793945
 20
104.1728895399307
 11
113.5351638793945
 21
103.6728895399307
 72
     1
 10
113.5351638793945
 20
103.6728895399307
 11
110.5351638793945
 21
103.1728895399307
 72
     1
 10
110.5351638793945
 20
103.1728895399307
 11
110.5351638793945
 21
104.1728895399307
 97
        0
 92
        0
 93
        3
 72
     1
 10
68.5351638793945
 20
103.1728895399306
 11
65.5351638793945
 21
103.6728895399306
 72
     1
 10
65.5351638793945
 20
103.6728895399306
 11
68.5351638793945
 21
104.1728895399306
 72
     1
 10
68.5351638793945
 20
104.1728895399306
 11
68.5351638793945
 21
103.1728895399306
 97
        0
 75
     0
 76
     0
 52
0.0
 41
1.0
 77
     0
 78
     1
 53
45.0
 43
0.0
 44
0.0
 45
0.0
 46
0.0
 79
     0
 98
        0
  0
ENDBLK
  5
BC
330
BA
100
AcDbEntity
  8
0
100
AcDbBlockEnd
  0
BLOCK
  5
CD
330
CC
100
AcDbEntity
  8
0
100
AcDbBlockBegin
  2
D2
 70
     0
 10
0.0
 20
0.0
 30
0.0
  3
D2
  1

  0
MTEXT
  5
CF
330
CC
100
AcDbEntity
  8
DIMENSIONS
100
AcDbMText
 10
89.33958062065967
 20
114.6075286865235
 30
0.0
 40
2.134018756842158
 41
0.0
 46
0.0
 71
     5
 72
     1
  1
{\fCE|b0|i0|c0|p0;20}{\fCE|b0|i0|c0|p0;}
 73
     1
 44
1.0
  0
MTEXT
  5
D0
330
CC
100
AcDbEntity
  8
DIMENSIONS
100
AcDbMText
 10
89.33958062065967
 20
114.6075286865235
 30
0.0
 40
2.134018756842158
 41
0.0
 46
0.0
 71
     5
 72
     1
  1
{\fCE|b0|i0|c0|p0;}
 73
     1
 44
1.0
  0
MTEXT
  5
D1
330
CC
100
AcDbEntity
  8
DIMENSIONS
100
AcDbMText
 10
89.33958062065967
 20
114.6075286865235
 30
0.0
 40
2.134018756842158
 41
0.0
 46
0.0
 71
     5
 72
     1
  1
{\fCE|b0|i0|c0|p0;}
 73
     1
 44
1.0
  0
MTEXT
  5
D2
330
CC
100
AcDbEntity
  8
DIMENSIONS
100
AcDbMText
 10
86.87013617621523
 20
114.6075286865235
 30
0.0
 40
2.134018756842158
 41
0.0
 46
0.0
 71
     5
 72
     1
  1
{\fCE|b0|i0|c0|p0;}
 73
     1
 44
1.0
  0
MTEXT
  5
D3
330
CC
100
AcDbEntity
  8
DIMENSIONS
100
AcDbMText
 10
91.80902506510412
 20
114.6075286865235
 30
0.0
 40
2.134018756842158
 41
0.0
 46
0.0
 71
     5
 72
     1
  1
{\fCE|b0|i0|c0|p0;}
 73
     1
 44
1.0
  0
LINE
  5
D4
330
CC
100
AcDbEntity
  8
DIMENSIONS
100
AcDbLine
 10
99.5351638793945
 20
130.395753479004
 30
0.0
 11
99.5351638793945
 21
110.8436397976346
 31
0.0
  0
LINE
  5
D5
330
CC
100
AcDbEntity
  8
DIMENSIONS
100
AcDbLine
 10
79.5351638793945
 20
130.395753479004
 30
0.0
 11
79.5351638793945
 21
110.8436397976346
 31
0.0
  0
LWPOLYLINE
  5
D6
330
CC
100
AcDbEntity
  8
DIMENSIONS
100
AcDbPolyline
 90
        4
 70
     0
 43
0.0
 10
99.5351638793945
 20
112.8436397976346
 10
96.5351638793945
 20
112.3436397976346
 10
96.5351638793945
 20
113.3436397976346
 10
99.5351638793945
 20
112.8436397976346
  0
LINE
  5
D7
330
CC
100
AcDbEntity
  8
DIMENSIONS
100
AcDbLine
 10
96.5351638793945
 20
112.8436397976346
 30
0.0
 11
89.33958062065967
 21
112.8436397976346
 31
0.0
  0
LWPOLYLINE
  5
D8
330
CC
100
AcDbEntity
  8
DIMENSIONS
100
AcDbPolyline
 90
        4
 70
     0
 43
0.0
 10
79.5351638793945
 20
112.8436397976346
 10
82.5351638793945
 20
113.3436397976346
 10
82.5351638793945
 20
112.3436397976346
 10
79.5351638793945
 20
112.8436397976346
  0
LINE
  5
D9
330
CC
100
AcDbEntity
  8
DIMENSIONS
100
AcDbLine
 10
82.5351638793945
 20
112.8436397976346
 30
0.0
 11
89.33958062065967
 21
112.8436397976346
 31
0.0
  0
LINE
  5
DA
330
CC
100
AcDbEntity
  8
DIMENSIONS
100
AcDbLine
 10
84.16458052396771
 20
112.8436397976346
 30
0.0
 11
93.80902475118634
 21
112.8436397976346
 31
0.0
  0
HATCH
  5
DB
330
CC
100
AcDbEntity
  8
0
 62
     7
100
AcDbHatch
 10
0.0
 20
0.0
 30
0.0
210
0.0
220
0.0
230
1.0
  2
PLNÁ, Plné vyplnění
 70
     0
 71
     0
 91
        2
 92
        0
 93
        3
 72
     1
 10
96.5351638793945
 20
113.3436397976346
 11
99.5351638793945
 21
112.8436397976346
 72
     1
 10
99.5351638793945
 20
112.8436397976346
 11
96.5351638793945
 21
112.3436397976346
 72
     1
 10
96.5351638793945
 20
112.3436397976346
 11
96.5351638793945
 21
113.3436397976346
 97
        0
 92
        0
 93
        3
 72
     1
 10
82.5351638793945
 20
112.3436397976346
 11
79.5351638793945
 21
112.8436397976346
 72
     1
 10
79.5351638793945
 20
112.8436397976346
 11
82.5351638793945
 21
113.3436397976346
 72
     1
 10
82.5351638793945
 20
113.3436397976346
 11
82.5351638793945
 21
112.3436397976346
 97
        0
 75
     0
 76
     0
 52
0.0
 41
1.0
 77
     0
 78
     1
 53
45.0
 43
0.0
 44
0.0
 45
0.0
 46
0.0
 79
     0
 98
        0
  0
ENDBLK
  5
CE
330
CC
100
AcDbEntity
  8
0
100
AcDbBlockEnd
  0
BLOCK
  5
DE
330
DD
100
AcDbEntity
  8
0
100
AcDbBlockBegin
  2
D3
 70
     0
 10
0.0
 20
0.0
 30
0.0
  3
D3
  1

  0
MTEXT
  5
E0
330
DD
100
AcDbEntity
  8
DIMENSIONS
100
AcDbMText
 10
122.4908676147461
 20
153.392547607422
 30
0.0
 40
2.134018756842158
 41
0.0
 46
0.0
 71
     5
 72
     1
  1
{\fCE|b0|i0|c0|p0;28}{\fCE|b0|i0|c0|p0;}
 11
6.123031769111886E-17
 21
1.0
 31
0.0
 73
     1
 44
1.0
  0
MTEXT
  5
E1
330
DD
100
AcDbEntity
  8
DIMENSIONS
100
AcDbMText
 10
122.4908676147461
 20
153.392547607422
 30
0.0
 40
2.134018756842158
 41
0.0
 46
0.0
 71
     5
 72
     1
  1
{\fCE|b0|i0|c0|p0;}
 11
6.123031769111886E-17
 21
1.0
 31
0.0
 73
     1
 44
1.0
  0
MTEXT
  5
E2
330
DD
100
AcDbEntity
  8
DIMENSIONS
100
AcDbMText
 10
122.4908676147461
 20
153.392547607422
 30
0.0
 40
2.134018756842158
 41
0.0
 46
0.0
 71
     5
 72
     1
  1
{\fCE|b0|i0|c0|p0;}
 11
6.123031769111886E-17
 21
1.0
 31
0.0
 73
     1
 44
1.0
  0
MTEXT
  5
E3
330
DD
100
AcDbEntity
  8
DIMENSIONS
100
AcDbMText
 10
122.4908676147461
 20
150.9231031629775
 30
0.0
 40
2.134018756842158
 41
0.0
 46
0.0
 71
     5
 72
     1
  1
{\fCE|b0|i0|c0|p0;}
 11
6.123031769111886E-17
 21
1.0
 31
0.0
 73
     1
 44
1.0
  0
MTEXT
  5
E4
330
DD
100
AcDbEntity
  8
DIMENSIONS
100
AcDbMText
 10
122.4908676147461
 20
155.8619920518664
 30
0.0
 40
2.134018756842158
 41
0.0
 46
0.0
 71
     5
 72
     1
  1
{\fCE|b0|i0|c0|p0;}
 11
6.123031769111886E-17
 21
1.0
 31
0.0
 73
     1
 44
1.0
  0
LINE
  5
E5
330
DD
100
AcDbEntity
  8
DIMENSIONS
100
AcDbLine
 10
108.6226638793945
 20
139.483253479004
 30
0.0
 11
126.254756503635
 21
139.483253479004
 31
0.0
  0
LINE
  5
E6
330
DD
100
AcDbEntity
  8
DIMENSIONS
100
AcDbLine
 10
108.6226638793945
 20
167.483253479004
 30
0.0
 11
126.254756503635
 21
167.483253479004
 31
0.0
  0
LWPOLYLINE
  5
E7
330
DD
100
AcDbEntity
  8
DIMENSIONS
100
AcDbPolyline
 90
        4
 70
     0
 43
0.0
 10
124.254756503635
 20
139.483253479004
 10
123.754756503635
 20
142.483253479004
 10
124.754756503635
 20
142.483253479004
 10
124.254756503635
 20
139.483253479004
  0
LINE
  5
E8
330
DD
100
AcDbEntity
  8
DIMENSIONS
100
AcDbLine
 10
124.254756503635
 20
142.483253479004
 30
0.0
 11
124.254756503635
 21
153.392547607422
 31
0.0
  0
LWPOLYLINE
  5
E9
330
DD
100
AcDbEntity
  8
DIMENSIONS
100
AcDbPolyline
 90
        4
 70
     0
 43
0.0
 10
124.254756503635
 20
167.483253479004
 10
124.754756503635
 20
164.483253479004
 10
123.754756503635
 20
164.483253479004
 10
124.254756503635
 20
167.483253479004
  0
LINE
  5
EA
330
DD
100
AcDbEntity
  8
DIMENSIONS
100
AcDbLine
 10
124.254756503635
 20
164.483253479004
 30
0.0
 11
124.254756503635
 21
153.392547607422
 31
0.0
  0
LINE
  5
EB
330
DD
100
AcDbEntity
  8
DIMENSIONS
100
AcDbLine
 10
124.254756503635
 20
158.2147702872754
 30
0.0
 11
124.254756503635
 21
148.5703248679639
 31
0.0
  0
HATCH
  5
EC
330
DD
100
AcDbEntity
  8
0
 62
     7
100
AcDbHatch
 10
0.0
 20
0.0
 30
0.0
210
0.0
220
0.0
230
1.0
  2
PLNÁ, Plné vyplnění
 70
     0
 71
     0
 91
        2
 92
        0
 93
        3
 72
     1
 10
124.754756503635
 20
142.483253479004
 11
124.254756503635
 21
139.483253479004
 72
     1
 10
124.254756503635
 20
139.483253479004
 11
123.754756503635
 21
142.483253479004
 72
     1
 10
123.754756503635
 20
142.483253479004
 11
124.754756503635
 21
142.483253479004
 97
        0
 92
        0
 93
        3
 72
     1
 10
123.754756503635
 20
164.483253479004
 11
124.254756503635
 21
167.483253479004
 72
     1
 10
124.254756503635
 20
167.483253479004
 11
124.754756503635
 21
164.483253479004
 72
     1
 10
124.754756503635
 20
164.483253479004
 11
123.754756503635
 21
164.483253479004
 97
        0
 75
     0
 76
     0
 52
0.0
 41
1.0
 77
     0
 78
     1
 53
45.0
 43
0.0
 44
0.0
 45
0.0
 46
0.0
 79
     0
 98
        0
  0
ENDBLK
  5
DF
330
DD
100
AcDbEntity
  8
0
100
AcDbBlockEnd
  0
BLOCK
  5
1EA
330
1E9
100
AcDbEntity
  8
0
100
AcDbBlockBegin
  2
D4
 70
     0
 10
0.0
 20
0.0
 30
0.0
  3
D4
  1

  0
MTEXT
  5
1EC
330
1E9
100
AcDbEntity
  8
DIMENSIONS
100
AcDbMText
 10
183.8611145019535
 20
142.1407800292956
 30
0.0
 40
2.134018756842158
 41
0.0
 46
0.0
 71
     5
 72
     1
  1
{\fCE|b0|i0|c0|p0;8}{\fCE|b0|i0|c0|p0;}
 73
     1
 44
1.0
  0
MTEXT
  5
1ED
330
1E9
100
AcDbEntity
  8
DIMENSIONS
100
AcDbMText
 10
183.8611145019535
 20
142.1407800292956
 30
0.0
 40
2.134018756842158
 41
0.0
 46
0.0
 71
     5
 72
     1
  1
{\fCE|b0|i0|c0|p0;}
 73
     1
 44
1.0
  0
MTEXT
  5
1EE
330
1E9
100
AcDbEntity
  8
DIMENSIONS
100
AcDbMText
 10
183.8611145019535
 20
142.1407800292956
 30
0.0
 40
2.134018756842158
 41
0.0
 46
0.0
 71
     5
 72
     1
  1
{\fCE|b0|i0|c0|p0;}
 73
     1
 44
1.0
  0
MTEXT
  5
1EF
330
1E9
100
AcDbEntity
  8
DIMENSIONS
100
AcDbMText
 10
182.2736145019535
 20
142.1407800292956
 30
0.0
 40
2.134018756842158
 41
0.0
 46
0.0
 71
     5
 72
     1
  1
{\fCE|b0|i0|c0|p0;}
 73
     1
 44
1.0
  0
MTEXT
  5
1F0
330
1E9
100
AcDbEntity
  8
DIMENSIONS
100
AcDbMText
 10
185.4486145019535
 20
142.1407800292956
 30
0.0
 40
2.134018756842158
 41
0.0
 46
0.0
 71
     5
 72
     1
  1
{\fCE|b0|i0|c0|p0;}
 73
     1
 44
1.0
  0
LINE
  5
1F1
330
1E9
100
AcDbEntity
  8
DIMENSIONS
100
AcDbLine
 10
187.520221472136
 20
150.4432534790041
 30
0.0
 11
187.520221472136
 21
138.3768911404067
 31
0.0
  0
LINE
  5
1F2
330
1E9
100
AcDbEntity
  8
DIMENSIONS
100
AcDbLine
 10
179.520221472136
 20
150.4432534790041
 30
0.0
 11
179.520221472136
 21
138.3768911404067
 31
0.0
  0
LWPOLYLINE
  5
1F3
330
1E9
100
AcDbEntity
  8
DIMENSIONS
100
AcDbPolyline
 90
        4
 70
     0
 43
0.0
 10
187.520221472136
 20
140.3768911404067
 10
184.520221472136
 20
139.8768911404067
 10
184.520221472136
 20
140.8768911404067
 10
187.520221472136
 20
140.3768911404067
  0
LINE
  5
1F4
330
1E9
100
AcDbEntity
  8
DIMENSIONS
100
AcDbLine
 10
184.520221472136
 20
140.3768911404067
 30
0.0
 11
183.8611145019535
 21
140.3768911404067
 31
0.0
  0
LWPOLYLINE
  5
1F5
330
1E9
100
AcDbEntity
  8
DIMENSIONS
100
AcDbPolyline
 90
        4
 70
     0
 43
0.0
 10
179.520221472136
 20
140.3768911404067
 10
182.520221472136
 20
140.8768911404067
 10
182.520221472136
 20
139.8768911404067
 10
179.520221472136
 20
140.3768911404067
  0
LINE
  5
1F6
330
1E9
100
AcDbEntity
  8
DIMENSIONS
100
AcDbLine
 10
182.520221472136
 20
140.3768911404067
 30
0.0
 11
183.8611145019535
 21
140.3768911404067
 31
0.0
  0
LINE
  5
1F7
330
1E9
100
AcDbEntity
  8
DIMENSIONS
100
AcDbLine
 10
179.5680606368699
 20
140.3768911404067
 30
0.0
 11
187.4486138824143
 21
140.3768911404067
 31
0.0
  0
HATCH
  5
1F8
330
1E9
100
AcDbEntity
  8
0
 62
     7
100
AcDbHatch
 10
0.0
 20
0.0
 30
0.0
210
0.0
220
0.0
230
1.0
  2
PLNÁ, Plné vyplnění
 70
     0
 71
     0
 91
        2
 92
        0
 93
        3
 72
     1
 10
184.520221472136
 20
140.8768911404067
 11
187.520221472136
 21
140.3768911404067
 72
     1
 10
187.520221472136
 20
140.3768911404067
 11
184.520221472136
 21
139.8768911404067
 72
     1
 10
184.520221472136
 20
139.8768911404067
 11
184.520221472136
 21
140.8768911404067
 97
        0
 92
        0
 93
        3
 72
     1
 10
182.520221472136
 20
139.8768911404067
 11
179.520221472136
 21
140.3768911404067
 72
     1
 10
179.520221472136
 20
140.3768911404067
 11
182.520221472136
 21
140.8768911404067
 72
     1
 10
182.520221472136
 20
140.8768911404067
 11
182.520221472136
 21
139.8768911404067
 97
        0
 75
     0
 76
     0
 52
0.0
 41
1.0
 77
     0
 78
     1
 53
45.0
 43
0.0
 44
0.0
 45
0.0
 46
0.0
 79
     0
 98
        0
  0
ENDBLK
  5
1EB
330
1E9
100
AcDbEntity
  8
0
100
AcDbBlockEnd
  0
BLOCK
  5
1FB
330
1FA
100
AcDbEntity
  8
0
100
AcDbBlockBegin
  2
D5
 70
     0
 10
0.0
 20
0.0
 30
0.0
  3
D5
  1

  0
MTEXT
  5
1FD
330
1FA
100
AcDbEntity
  8
DIMENSIONS
100
AcDbMText
 10
181.9122924804691
 20
116.8879852294923
 30
0.0
 40
2.134018756842158
 41
0.0
 46
0.0
 71
     5
 72
     1
  1
{\fCE|b0|i0|c0|p0;13}{\fCE|b0|i0|c0|p0;}
 73
     1
 44
1.0
  0
MTEXT
  5
1FE
330
1FA
100
AcDbEntity
  8
DIMENSIONS
100
AcDbMText
 10
181.9122924804691
 20
116.8879852294923
 30
0.0
 40
2.134018756842158
 41
0.0
 46
0.0
 71
     5
 72
     1
  1
{\fCE|b0|i0|c0|p0;}
 73
     1
 44
1.0
  0
MTEXT
  5
1FF
330
1FA
100
AcDbEntity
  8
DIMENSIONS
100
AcDbMText
 10
181.9122924804691
 20
116.8879852294923
 30
0.0
 40
2.134018756842158
 41
0.0
 46
0.0
 71
     5
 72
     1
  1
{\fCE|b0|i0|c0|p0;}
 73
     1
 44
1.0
  0
MTEXT
  5
200
330
1FA
100
AcDbEntity
  8
DIMENSIONS
100
AcDbMText
 10
179.4428480360247
 20
116.8879852294923
 30
0.0
 40
2.134018756842158
 41
0.0
 46
0.0
 71
     5
 72
     1
  1
{\fCE|b0|i0|c0|p0;}
 73
     1
 44
1.0
  0
MTEXT
  5
201
330
1FA
100
AcDbEntity
  8
DIMENSIONS
100
AcDbMText
 10
184.3817369249135
 20
116.8879852294923
 30
0.0
 40
2.134018756842158
 41
0.0
 46
0.0
 71
     5
 72
     1
  1
{\fCE|b0|i0|c0|p0;}
 73
     1
 44
1.0
  0
LINE
  5
202
330
1FA
100
AcDbEntity
  8
DIMENSIONS
100
AcDbLine
 10
187.520221472136
 20
127.733253479004
 30
0.0
 11
187.520221472136
 21
113.1240963406034
 31
0.0
  0
LINE
  5
203
330
1FA
100
AcDbEntity
  8
DIMENSIONS
100
AcDbLine
 10
174.520221472136
 20
127.483253479004
 30
0.0
 11
174.520221472136
 21
113.1240963406034
 31
0.0
  0
LWPOLYLINE
  5
204
330
1FA
100
AcDbEntity
  8
DIMENSIONS
100
AcDbPolyline
 90
        4
 70
     0
 43
0.0
 10
187.520221472136
 20
115.1240963406034
 10
184.520221472136
 20
114.6240963406034
 10
184.520221472136
 20
115.6240963406034
 10
187.520221472136
 20
115.1240963406034
  0
LINE
  5
205
330
1FA
100
AcDbEntity
  8
DIMENSIONS
100
AcDbLine
 10
184.520221472136
 20
115.1240963406034
 30
0.0
 11
181.9122924804691
 21
115.1240963406034
 31
0.0
  0
LWPOLYLINE
  5
206
330
1FA
100
AcDbEntity
  8
DIMENSIONS
100
AcDbPolyline
 90
        4
 70
     0
 43
0.0
 10
174.520221472136
 20
115.1240963406034
 10
177.520221472136
 20
115.6240963406034
 10
177.520221472136
 20
114.6240963406034
 10
174.520221472136
 20
115.1240963406034
  0
LINE
  5
207
330
1FA
100
AcDbEntity
  8
DIMENSIONS
100
AcDbLine
 10
177.520221472136
 20
115.1240963406034
 30
0.0
 11
181.9122924804691
 21
115.1240963406034
 31
0.0
  0
LINE
  5
208
330
1FA
100
AcDbEntity
  8
DIMENSIONS
100
AcDbLine
 10
176.7372930053391
 20
115.1240963406034
 30
0.0
 11
186.3817384246506
 21
115.1240963406034
 31
0.0
  0
HATCH
  5
209
330
1FA
100
AcDbEntity
  8
0
 62
     7
100
AcDbHatch
 10
0.0
 20
0.0
 30
0.0
210
0.0
220
0.0
230
1.0
  2
PLNÁ, Plné vyplnění
 70
     0
 71
     0
 91
        2
 92
        0
 93
        3
 72
     1
 10
184.520221472136
 20
115.6240963406034
 11
187.520221472136
 21
115.1240963406034
 72
     1
 10
187.520221472136
 20
115.1240963406034
 11
184.520221472136
 21
114.6240963406034
 72
     1
 10
184.520221472136
 20
114.6240963406034
 11
184.520221472136
 21
115.6240963406034
 97
        0
 92
        0
 93
        3
 72
     1
 10
177.520221472136
 20
114.6240963406034
 11
174.520221472136
 21
115.1240963406034
 72
     1
 10
174.520221472136
 20
115.1240963406034
 11
177.520221472136
 21
115.6240963406034
 72
     1
 10
177.520221472136
 20
115.6240963406034
 11
177.520221472136
 21
114.6240963406034
 97
        0
 75
     0
 76
     0
 52
0.0
 41
1.0
 77
     0
 78
     1
 53
45.0
 43
0.0
 44
0.0
 45
0.0
 46
0.0
 79
     0
 98
        0
  0
ENDBLK
  5
1FC
330
1FA
100
AcDbEntity
  8
0
100
AcDbBlockEnd
  0
BLOCK
  5
20C
330
20B
100
AcDbEntity
  8
0
100
AcDbBlockBegin
  2
D6
 70
     0
 10
0.0
 20
0.0
 30
0.0
  3
D6
  1

  0
MTEXT
  5
20E
330
20B
100
AcDbEntity
  8
DIMENSIONS
100
AcDbMText
 10
196.7913208007816
 20
182.5147552490235
 30
0.0
 40
2.134018756842158
 41
0.0
 46
0.0
 71
     5
 72
     1
  1
{\fCE|b0|i0|c0|p0;0,25}{\fCE|b0|i0|c0|p0;}
 73
     1
 44
1.0
  0
MTEXT
  5
20F
330
20B
100
AcDbEntity
  8
DIMENSIONS
100
AcDbMText
 10
196.7913208007816
 20
182.5147552490235
 30
0.0
 40
2.134018756842158
 41
0.0
 46
0.0
 71
     5
 72
     1
  1
{\fCE|b0|i0|c0|p0;}
 73
     1
 44
1.0
  0
MTEXT
  5
210
330
20B
100
AcDbEntity
  8
DIMENSIONS
100
AcDbMText
 10
196.7913208007816
 20
182.5147552490235
 30
0.0
 40
2.134018756842158
 41
0.0
 46
0.0
 71
     5
 72
     1
  1
{\fCE|b0|i0|c0|p0;}
 73
     1
 44
1.0
  0
MTEXT
  5
211
330
20B
100
AcDbEntity
  8
DIMENSIONS
100
AcDbMText
 10
192.910765245226
 20
182.5147552490235
 30
0.0
 40
2.134018756842158
 41
0.0
 46
0.0
 71
     5
 72
     1
  1
{\fCE|b0|i0|c0|p0;}
 73
     1
 44
1.0
  0
MTEXT
  5
212
330
20B
100
AcDbEntity
  8
DIMENSIONS
100
AcDbMText
 10
200.6718763563372
 20
182.5147552490235
 30
0.0
 40
2.134018756842158
 41
0.0
 46
0.0
 71
     5
 72
     1
  1
{\fCE|b0|i0|c0|p0;x45}{\fAlibre Symbols|b0|i0|c0|p0;\H1.052632x;_}{\fCE|b0|i0|c0|p0;}
 73
     1
 44
1.0
  0
LINE
  5
213
330
20B
100
AcDbEntity
  8
DIMENSIONS
100
AcDbLine
 10
187.520221472136
 20
179.233253479004
 30
0.0
 11
187.520221472136
 21
182.0453108045791
 31
0.0
  0
LINE
  5
214
330
20B
100
AcDbEntity
  8
DIMENSIONS
100
AcDbLine
 10
187.270221472136
 20
179.483253479004
 30
0.0
 11
187.270221472136
 21
182.0453108045791
 31
0.0
  0
LWPOLYLINE
  5
215
330
20B
100
AcDbEntity
  8
DIMENSIONS
100
AcDbPolyline
 90
        4
 70
     0
 43
0.0
 10
187.520221472136
 20
180.0453108045791
 10
190.520221472136
 20
180.5453108045791
 10
190.520221472136
 20
179.5453108045791
 10
187.520221472136
 20
180.0453108045791
  0
LINE
  5
216
330
20B
100
AcDbEntity
  8
DIMENSIONS
100
AcDbLine
 10
190.520221472136
 20
180.0453108045791
 30
0.0
 11
196.7913208007816
 21
180.0453108045791
 31
0.0
  0
LWPOLYLINE
  5
217
330
20B
100
AcDbEntity
  8
DIMENSIONS
100
AcDbPolyline
 90
        4
 70
     0
 43
0.0
 10
187.270221472136
 20
180.0453108045791
 10
184.270221472136
 20
179.5453108045791
 10
184.270221472136
 20
180.5453108045791
 10
187.270221472136
 20
180.0453108045791
  0
LINE
  5
218
330
20B
100
AcDbEntity
  8
DIMENSIONS
100
AcDbLine
 10
184.270221472136
 20
180.0453108045791
 30
0.0
 11
183.670221472136
 21
180.0453108045791
 31
0.0
  0
LINE
  5
219
330
20B
100
AcDbEntity
  8
DIMENSIONS
100
AcDbLine
 10
190.2052104476609
 20
180.0453108045791
 30
0.0
 11
208.6690976623215
 21
180.0453108045791
 31
0.0
  0
HATCH
  5
21A
330
20B
100
AcDbEntity
  8
0
 62
     7
100
AcDbHatch
 10
0.0
 20
0.0
 30
0.0
210
0.0
220
0.0
230
1.0
  2
PLNÁ, Plné vyplnění
 70
     0
 71
     0
 91
        2
 92
        0
 93
        3
 72
     1
 10
190.520221472136
 20
179.5453108045791
 11
187.520221472136
 21
180.0453108045791
 72
     1
 10
187.520221472136
 20
180.0453108045791
 11
190.520221472136
 21
180.5453108045791
 72
     1
 10
190.520221472136
 20
180.5453108045791
 11
190.520221472136
 21
179.5453108045791
 97
        0
 92
        0
 93
        3
 72
     1
 10
184.270221472136
 20
180.5453108045791
 11
187.270221472136
 21
180.0453108045791
 72
     1
 10
187.270221472136
 20
180.0453108045791
 11
184.270221472136
 21
179.5453108045791
 72
     1
 10
184.270221472136
 20
179.5453108045791
 11
184.270221472136
 21
180.5453108045791
 97
        0
 75
     0
 76
     0
 52
0.0
 41
1.0
 77
     0
 78
     1
 53
45.0
 43
0.0
 44
0.0
 45
0.0
 46
0.0
 79
     0
 98
        0
  0
ENDBLK
  5
20D
330
20B
100
AcDbEntity
  8
0
100
AcDbBlockEnd
  0
BLOCK
  5
21D
330
21C
100
AcDbEntity
  8
0
100
AcDbBlockBegin
  2
D7
 70
     0
 10
0.0
 20
0.0
 30
0.0
  3
D7
  1

  0
MTEXT
  5
21F
330
21C
100
AcDbEntity
  8
DIMENSIONS
100
AcDbMText
 10
167.3135223388672
 20
153.4167022705078
 30
0.0
 40
2.134018756842158
 41
0.0
 46
0.0
 71
     5
 72
     1
  1
{\fCE|b0|i0|c0|p0;20 °}{\fCE|b0|i0|c0|p0;}
 11
0.001907246842790808
 21
0.9999981812030864
 31
0.0
 73
     1
 44
1.0
  0
MTEXT
  5
220
330
21C
100
AcDbEntity
  8
DIMENSIONS
100
AcDbMText
 10
167.3135223388672
 20
153.4167022705078
 30
0.0
 40
2.134018756842158
 41
0.0
 46
0.0
 71
     5
 72
     1
  1
{\fCE|b0|i0|c0|p0;}
 11
0.001907246842790808
 21
0.9999981812030864
 31
0.0
 73
     1
 44
1.0
  0
MTEXT
  5
221
330
21C
100
AcDbEntity
  8
DIMENSIONS
100
AcDbMText
 10
167.3135223388672
 20
153.4167022705078
 30
0.0
 40
2.134018756842158
 41
0.0
 46
0.0
 71
     5
 72
     1
  1
{\fCE|b0|i0|c0|p0;}
 11
0.001907246842790808
 21
0.9999981812030864
 31
0.0
 73
     1
 44
1.0
  0
MTEXT
  5
222
330
21C
100
AcDbEntity
  8
DIMENSIONS
100
AcDbMText
 10
167.3067939958385
 20
149.8889309090414
 30
0.0
 40
2.134018756842158
 41
0.0
 46
0.0
 71
     5
 72
     1
  1
{\fCE|b0|i0|c0|p0;(}{\fCE|b0|i0|c0|p0;}
 11
0.001907246842790808
 21
0.9999981812030864
 31
0.0
 73
     1
 44
1.0
  0
MTEXT
  5
223
330
21C
100
AcDbEntity
  8
DIMENSIONS
100
AcDbMText
 10
167.3202506818959
 20
156.9444736319743
 30
0.0
 40
2.134018756842158
 41
0.0
 46
0.0
 71
     5
 72
     1
  1
{\fCE|b0|i0|c0|p0; )}{\fCE|b0|i0|c0|p0;}
 11
0.001907246842790808
 21
0.9999981812030864
 31
0.0
 73
     1
 44
1.0
  0
LWPOLYLINE
  5
224
330
21C
100
AcDbEntity
  8
DIMENSIONS
100
AcDbPolyline
 90
        4
 70
     0
 43
0.0
 10
169.3170195105438
 20
156.1223532744503
 10
169.6616943254071
 20
159.1441407044326
 10
170.6231024208141
 20
158.8690144169103
 10
169.3170195105438
 20
156.1223532744503
  0
ARC
  5
225
330
21C
100
AcDbEntity
  8
DIMENSIONS
100
AcDbCircle
 10
184.8512263825766
 20
153.3832534790041
 30
0.0
 40
15.72310034590123
100
AcDbArc
 50
156.9142992735684
 51
159.1175051067474
  0
LWPOLYLINE
  5
226
330
21C
100
AcDbEntity
  8
DIMENSIONS
100
AcDbPolyline
 90
        4
 70
     0
 43
0.0
 10
169.3170195105438
 20
150.6441536835579
 10
170.623102307421
 20
147.8974924871775
 10
169.6616942006557
 20
147.622366239346
 10
169.3170195105438
 20
150.6441536835579
  0
ARC
  5
227
330
21C
100
AcDbEntity
  8
DIMENSIONS
100
AcDbCircle
 10
184.8512263825766
 20
153.3832534790041
 30
0.0
 40
15.74616279333811
100
AcDbArc
 50
200.8824950210818
 51
203.0857005737789
  0
LINE
  5
228
330
21C
100
AcDbEntity
  8
DIMENSIONS
100
AcDbLine
 10
172.5506059661116
 20
151.2143222201279
 30
0.0
 11
167.3474040045194
 21
150.296857328224
 31
0.0
  0
LINE
  5
229
330
21C
100
AcDbEntity
  8
DIMENSIONS
100
AcDbLine
 10
172.5506059661116
 20
155.5521847378803
 30
0.0
 11
167.3474040045194
 21
156.4696496297842
 31
0.0
  0
HATCH
  5
22A
330
21C
100
AcDbEntity
  8
0
 62
     7
100
AcDbHatch
 10
0.0
 20
0.0
 30
0.0
210
0.0
220
0.0
230
1.0
  2
PLNÁ, Plné vyplnění
 70
     0
 71
     0
 91
        2
 92
        0
 93
        3
 72
     1
 10
170.6231024208141
 20
158.8690144169103
 11
169.3170195105438
 21
156.1223532744503
 72
     1
 10
169.3170195105438
 20
156.1223532744503
 11
169.6616943254071
 21
159.1441407044326
 72
     1
 10
169.6616943254071
 20
159.1441407044326
 11
170.6231024208141
 21
158.8690144169103
 97
        0
 92
        0
 93
        3
 72
     1
 10
169.6616942006557
 20
147.622366239346
 11
169.3170195105438
 21
150.6441536835579
 72
     1
 10
169.3170195105438
 20
150.6441536835579
 11
170.623102307421
 21
147.8974924871775
 72
     1
 10
170.623102307421
 20
147.8974924871775
 11
169.6616942006557
 21
147.622366239346
 97
        0
 75
     0
 76
     0
 52
0.0
 41
1.0
 77
     0
 78
     1
 53
45.0
 43
0.0
 44
0.0
 45
0.0
 46
0.0
 79
     0
 98
        0
  0
ENDBLK
  5
21E
330
21C
100
AcDbEntity
  8
0
100
AcDbBlockEnd
  0
BLOCK
  5
22F
330
22E
100
AcDbEntity
  8
0
100
AcDbBlockBegin
  2
BLOCK0
 70
     0
 10
0.0
 20
0.0
 30
0.0
  3
BLOCK0
  1

  0
LINE
  5
231
330
22E
100
AcDbEntity
  8
CONTINUOUS
100
AcDbLine
 10
9.99999999999998
 20
9.99999999999995
 30
0.0
 11
287.0
 21
10.0
 31
0.0
  0
LINE
  5
232
330
22E
100
AcDbEntity
  8
CONTINUOUS
100
AcDbLine
 10
141.942321777344
 20
5.0
 30
0.0
 11
241.942321777344
 21
5.0
 31
0.0
  0
LINE
  5
233
330
22E
100
AcDbEntity
  8
CONTINUOUS
100
AcDbLine
 10
0.0
 20
0.0
 30
0.0
 11
-0.0000000000000012
 21
10.0
 31
0.0
  0
LINE
  5
234
330
22E
100
AcDbEntity
  8
CONTINUOUS
100
AcDbLine
 10
0.0
 20
0.0
 30
0.0
 11
10.0
 21
0.0000000000000018
 31
0.0
  0
LINE
  5
235
330
22E
100
AcDbEntity
  8
CONTINUOUS
100
AcDbLine
 10
141.942321777344
 20
5.0
 30
0.0
 11
141.942321777344
 21
10.0
 31
0.0
  0
LINE
  5
236
330
22E
100
AcDbEntity
  8
CONTINUOUS
100
AcDbLine
 10
151.942321777344
 20
5.0
 30
0.0
 11
151.942321777344
 21
10.0
 31
0.0
  0
LINE
  5
237
330
22E
100
AcDbEntity
  8
CONTINUOUS
100
AcDbLine
 10
161.942321777344
 20
5.0
 30
0.0
 11
161.942321777344
 21
10.0
 31
0.0
  0
LINE
  5
238
330
22E
100
AcDbEntity
  8
CONTINUOUS
100
AcDbLine
 10
10.0
 20
57.5
 30
0.0
 11
5.0
 21
57.5
 31
0.0
  0
LINE
  5
239
330
22E
100
AcDbEntity
  8
CONTINUOUS
100
AcDbLine
 10
10.0
 20
105.0
 30
0.0
 11
5.0
 21
105.0
 31
0.0
  0
LINE
  5
23A
330
22E
100
AcDbEntity
  8
CONTINUOUS
100
AcDbLine
 10
191.942321777344
 20
10.0
 30
0.0
 11
191.942321777344
 21
5.0
 31
0.0
  0
LINE
  5
23B
330
22E
100
AcDbEntity
  8
CONTINUOUS
100
AcDbLine
 10
171.942321777344
 20
5.0
 30
0.0
 11
171.942321777344
 21
10.0
 31
0.0
  0
LINE
  5
23C
330
22E
100
AcDbEntity
  8
CONTINUOUS
100
AcDbLine
 10
181.942321777344
 20
5.0
 30
0.0
 11
181.942321777344
 21
10.0
 31
0.0
  0
LINE
  5
23D
330
22E
100
AcDbEntity
  8
CONTINUOUS
100
AcDbLine
 10
201.942321777344
 20
5.0
 30
0.0
 11
201.942321777344
 21
10.0
 31
0.0
  0
LINE
  5
23E
330
22E
100
AcDbEntity
  8
CONTINUOUS
100
AcDbLine
 10
211.942321777344
 20
5.0
 30
0.0
 11
211.942321777344
 21
10.0
 31
0.0
  0
LINE
  5
23F
330
22E
100
AcDbEntity
  8
CONTINUOUS
100
AcDbLine
 10
221.942321777344
 20
5.0
 30
0.0
 11
221.942321777344
 21
10.0
 31
0.0
  0
LINE
  5
240
330
22E
100
AcDbEntity
  8
CONTINUOUS
100
AcDbLine
 10
297.0
 20
0.0
 30
0.0
 11
297.0
 21
10.0
 31
0.0
  0
LINE
  5
241
330
22E
100
AcDbEntity
  8
CONTINUOUS
100
AcDbLine
 10
241.942321777344
 20
5.0
 30
0.0
 11
241.942321777344
 21
10.0
 31
0.0
  0
LINE
  5
242
330
22E
100
AcDbEntity
  8
CONTINUOUS
100
AcDbLine
 10
231.942321777344
 20
5.0
 30
0.0
 11
231.942321777344
 21
10.0
 31
0.0
  0
LINE
  5
243
330
22E
100
AcDbEntity
  8
CONTINUOUS
100
AcDbLine
 10
296.942321777344
 20
0.0
 30
0.0
 11
286.942321777344
 21
0.0
 31
0.0
  0
LINE
  5
244
330
22E
100
AcDbEntity
  8
CONTINUOUS
100
AcDbLine
 10
291.942321777344
 20
57.5
 30
0.0
 11
286.942321777344
 21
57.5
 31
0.0
  0
LINE
  5
245
330
22E
100
AcDbEntity
  8
CONTINUOUS
100
AcDbLine
 10
291.942321777344
 20
105.0
 30
0.0
 11
286.942321777344
 21
105.0
 31
0.0
  0
LINE
  5
246
330
22E
100
AcDbEntity
  8
CONTINUOUS
100
AcDbLine
 10
-0.0000000000000249
 20
209.989334106445
 30
0.0
 11
-0.0000000000000249
 21
199.989334106445
 31
0.0
  0
LINE
  5
247
330
22E
100
AcDbEntity
  8
CONTINUOUS
100
AcDbLine
 10
10.0165710449219
 20
209.989334106445
 30
0.0
 11
0.016571044921875
 21
209.989334106445
 31
0.0
  0
LINE
  5
248
330
22E
100
AcDbEntity
  8
CONTINUOUS
100
AcDbLine
 10
194.666666666667
 20
199.989334106445
 30
0.0
 11
194.666666666667
 21
204.989334106445
 31
0.0
  0
LINE
  5
249
330
22E
100
AcDbEntity
  8
CONTINUOUS
100
AcDbLine
 10
297.0
 20
199.989334106445
 30
0.0
 11
297.0
 21
209.989334106445
 31
0.0
  0
LINE
  5
24A
330
22E
100
AcDbEntity
  8
CONTINUOUS
100
AcDbLine
 10
240.833333333333
 20
199.989334106445
 30
0.0
 11
240.833333333333
 21
204.989334106445
 31
0.0
  0
LINE
  5
24B
330
22E
100
AcDbEntity
  8
CONTINUOUS
100
AcDbLine
 10
296.958892822266
 20
209.989334106445
 30
0.0
 11
286.958892822266
 21
209.989334106445
 31
0.0
  0
LINE
  5
24C
330
22E
100
AcDbEntity
  8
CONTINUOUS
100
AcDbLine
 10
286.942321777344
 20
152.5
 30
0.0
 11
291.942321777344
 21
152.5
 31
0.0
  0
LINE
  5
24D
330
22E
100
AcDbEntity
  8
CONTINUOUS
100
AcDbLine
 10
5.0
 20
152.5
 30
0.0
 11
10.0
 21
152.5
 31
0.0
  0
LINE
  5
24E
330
22E
100
AcDbEntity
  8
CONTINUOUS
100
AcDbLine
 10
287.0
 20
200.0
 30
0.0
 11
9.99999999999998
 21
200.0
 31
0.0
  0
LINE
  5
24F
330
22E
100
AcDbEntity
  8
CONTINUOUS
100
AcDbLine
 10
287.0
 20
10.0
 30
0.0
 11
287.0
 21
200.0
 31
0.0
  0
LINE
  5
250
330
22E
100
AcDbEntity
  8
CONTINUOUS
100
AcDbLine
 10
9.99999999999998
 20
200.0
 30
0.0
 11
9.99999999999998
 21
9.99999999999995
 31
0.0
  0
LINE
  5
251
330
22E
100
AcDbEntity
  8
CONTINUOUS
100
AcDbLine
 10
56.1666666666666
 20
200.0
 30
0.0
 11
56.1666666666666
 21
205.0
 31
0.0
  0
LINE
  5
252
330
22E
100
AcDbEntity
  8
CONTINUOUS
100
AcDbLine
 10
102.333333333333
 20
200.0
 30
0.0
 11
102.333333333333
 21
205.0
 31
0.0
  0
LINE
  5
253
330
22E
100
AcDbEntity
  8
CONTINUOUS
100
AcDbLine
 10
148.5
 20
200.0
 30
0.0
 11
148.5
 21
205.0
 31
0.0
  0
LINE
  5
254
330
22E
100
AcDbEntity
  8
CONTINUOUS
100
AcDbLine
 10
56.1666679382324
 20
10.0
 30
0.0
 11
56.1666679382324
 21
5.0
 31
0.0
  0
LINE
  5
255
330
22E
100
AcDbEntity
  8
CONTINUOUS
100
AcDbLine
 10
102.333335876465
 20
10.0
 30
0.0
 11
102.333335876465
 21
5.0
 31
0.0
  0
LINE
  5
256
330
22E
100
AcDbEntity
  8
CONTINUOUS
100
AcDbLine
 10
194.0
 20
10.0
 30
0.0
 11
194.0
 21
48.0
 31
0.0
  0
LINE
  5
257
330
22E
100
AcDbEntity
  8
CONTINUOUS
100
AcDbLine
 10
251.0
 20
10.0
 30
0.0
 11
251.0
 21
20.0
 31
0.0
  0
LINE
  5
258
330
22E
100
AcDbEntity
  8
CONTINUOUS
100
AcDbLine
 10
269.0
 20
10.0
 30
0.0
 11
269.0
 21
20.0
 31
0.0
  0
LINE
  5
259
330
22E
100
AcDbEntity
  8
CONTINUOUS
100
AcDbLine
 10
229.0
 20
9.99999999999999
 30
0.0
 11
229.0
 21
20.0
 31
0.0
  0
LINE
  5
25A
330
22E
100
AcDbEntity
  8
CONTINUOUS
100
AcDbLine
 10
241.559921264648
 20
30.0
 30
0.0
 11
241.559921264648
 21
20.0
 31
0.0
  0
LINE
  5
25B
330
22E
100
AcDbEntity
  8
CONTINUOUS
100
AcDbLine
 10
269.0
 20
10.0
 30
0.0
 11
287.0
 21
10.0
 31
0.0
  0
LINE
  5
25C
330
22E
100
AcDbEntity
  8
CONTINUOUS
100
AcDbLine
 10
194.0
 20
48.0
 30
0.0
 11
287.0
 21
48.0
 31
0.0
  0
LINE
  5
25D
330
22E
100
AcDbEntity
  8
CONTINUOUS
100
AcDbLine
 10
194.059921264648
 20
30.0
 30
0.0
 11
287.059921264648
 21
30.0
 31
0.0
  0
LINE
  5
25E
330
22E
100
AcDbEntity
  8
CONTINUOUS
100
AcDbLine
 10
194.059921264648
 20
20.0
 30
0.0
 11
287.059921264648
 21
20.0
 31
0.0
  0
LINE
  5
25F
330
22E
100
AcDbEntity
  8
CONTINUOUS
100
AcDbLine
 10
216.0
 20
30.0
 30
0.0
 11
216.0
 21
48.0
 31
0.0
  0
MTEXT
  5
260
330
22E
100
AcDbEntity
  8
CONTINUOUS
100
AcDbMText
 10
121.245655822681
 20
204.355103698803
 30
0.0
 40
3.720853217058121
 41
0.0
 46
0.0
 71
     4
 72
     1
  1
{\fArial|b0|i0|c0|p0;\C7;3}{\fArial|b0|i0|c0|p0;\C7;}
 73
     1
 44
1.0
  0
MTEXT
  5
261
330
22E
100
AcDbEntity
  8
CONTINUOUS
100
AcDbMText
 10
229.187939453125
 20
17.546260986328
 30
0.0
 40
2.251496730059653
 41
0.0
 46
0.0
 71
     4
 72
     1
  1
{\fMonotype Corsiva|b0|i1|c0|p0;\C7;Date}{\fArial|b0|i0|c0|p0;\C7;\H0.7692308x;}
 73
     1
 44
1.0
  0
MTEXT
  5
262
330
22E
100
AcDbEntity
  8
CONTINUOUS
100
AcDbMText
 10
5.6160912703474
 20
125.886
 30
0.0
 40
3.720853217058121
 41
0.0
 46
0.0
 71
     4
 72
     1
  1
{\fArial|b0|i0|c0|p0;\C7;B}{\fArial|b0|i0|c0|p0;\C7;}
 73
     1
 44
1.0
  0
MTEXT
  5
263
330
22E
100
AcDbEntity
  8
CONTINUOUS
100
AcDbMText
 10
288.710822753907
 20
79.4667495117188
 30
0.0
 40
3.720853217058121
 41
0.0
 46
0.0
 71
     4
 72
     1
  1
{\fArial|b0|i0|c0|p0;\C7;C}{\fArial|b0|i0|c0|p0;\C7;}
 73
     1
 44
1.0
  0
MTEXT
  5
264
330
22E
100
AcDbEntity
  8
CONTINUOUS
100
AcDbMText
 10
126.092175294703
 20
6.61010619923708
 30
0.0
 40
3.720853217058121
 41
0.0
 46
0.0
 71
     4
 72
     1
  1
{\fArial|b0|i0|c0|p0;\C7;3}{\fArial|b0|i0|c0|p0;\C7;}
 73
     1
 44
1.0
  0
MTEXT
  5
265
330
22E
100
AcDbEntity
  8
CONTINUOUS
100
AcDbMText
 10
194.738236236572
 20
17.6612302398682
 30
0.0
 40
2.251496730059653
 41
0.0
 46
0.0
 71
     4
 72
     1
  1
{\fMonotype Corsiva|b0|i1|c0|p0;\C7;Treatment  }{\fArial|b0|i0|c0|p0;\C7;\H0.7692308x;}
 73
     1
 44
1.0
  0
MTEXT
  5
266
330
22E
100
AcDbEntity
  8
CONTINUOUS
100
AcDbMText
 10
4.984780712209
 20
172.034376464844
 30
0.0
 40
3.720853217058121
 41
0.0
 46
0.0
 71
     4
 72
     1
  1
{\fArial|b0|i0|c0|p0;\C7;A}{\fArial|b0|i0|c0|p0;\C7;}
 73
     1
 44
1.0
  0
MTEXT
  5
267
330
22E
100
AcDbEntity
  8
CONTINUOUS
100
AcDbMText
 10
288.920463256836
 20
33.4667418823242
 30
0.0
 40
3.720853217058121
 41
0.0
 46
0.0
 71
     4
 72
     1
  1
{\fArial|b0|i0|c0|p0;\C7;D}{\fArial|b0|i0|c0|p0;\C7;}
 73
     1
 44
1.0
  0
MTEXT
  5
268
330
22E
100
AcDbEntity
  8
CONTINUOUS
100
AcDbMText
 10
269.000775146485
 20
17.4468976593018
 30
0.0
 40
2.251496730059653
 41
0.0
 46
0.0
 71
     4
 72
     1
  1
{\fMonotype Corsiva|b0|i1|c0|p0;\C7;Scale }{\fArial|b0|i0|c0|p0;\C7;\H0.7692308x;}
 73
     1
 44
1.0
  0
MTEXT
  5
269
330
22E
100
AcDbEntity
  8
CONTINUOUS
100
AcDbMText
 10
77.9621860149715
 20
204.250404272846
 30
0.0
 40
3.720853217058121
 41
0.0
 46
0.0
 71
     4
 72
     1
  1
{\fArial|b0|i0|c0|p0;\C7;2}{\fArial|b0|i0|c0|p0;\C7;}
 73
     1
 44
1.0
  0
MTEXT
  5
26A
330
22E
100
AcDbEntity
  8
CONTINUOUS
100
AcDbMText
 10
5.18862550735474
 20
80.0342772827149
 30
0.0
 40
3.720853217058121
 41
0.0
 46
0.0
 71
     4
 72
     1
  1
{\fArial|b0|i0|c0|p0;\C7;C}{\fArial|b0|i0|c0|p0;\C7;}
 73
     1
 44
1.0
  0
MTEXT
  5
26B
330
22E
100
AcDbEntity
  8
CONTINUOUS
100
AcDbMText
 10
262.082233886719
 20
6.73998626327514
 30
0.0
 40
3.720853217058121
 41
0.0
 46
0.0
 71
     4
 72
     1
  1
{\fArial|b0|i0|c0|p0;\C7;6}{\fArial|b0|i0|c0|p0;\C7;}
 73
     1
 44
1.0
  0
MTEXT
  5
26C
330
22E
100
AcDbEntity
  8
CONTINUOUS
100
AcDbMText
 10
81.36409489129
 20
6.84505931157936
 30
0.0
 40
3.720853217058121
 41
0.0
 46
0.0
 71
     4
 72
     1
  1
{\fArial|b0|i0|c0|p0;\C7;2}{\fArial|b0|i0|c0|p0;\C7;}
 73
     1
 44
1.0
  0
MTEXT
  5
26D
330
22E
100
AcDbEntity
  8
CONTINUOUS
100
AcDbMText
 10
241.827730760921
 20
26.8954164123535
 30
0.0
 40
2.251496730059653
 41
0.0
 46
0.0
 71
     4
 72
     1
  1
{\fMonotype Corsiva|b0|i1|c0|p0;\C7;Material }{\fArial|b0|i0|c0|p0;\C7;\H0.7692308x;}
 73
     1
 44
1.0
  0
MTEXT
  5
26E
330
22E
100
AcDbEntity
  8
CONTINUOUS
100
AcDbMText
 10
288.594410820089
 20
171.67635949707
 30
0.0
 40
3.720853217058121
 41
0.0
 46
0.0
 71
     4
 72
     1
  1
{\fArial|b0|i0|c0|p0;\C7;A}{\fArial|b0|i0|c0|p0;\C7;}
 73
     1
 44
1.0
  0
MTEXT
  5
26F
330
22E
100
AcDbEntity
  8
CONTINUOUS
100
AcDbMText
 10
5.33690040588379
 20
33.886
 30
0.0
 40
3.720853217058121
 41
0.0
 46
0.0
 71
     4
 72
     1
  1
{\fArial|b0|i0|c0|p0;\C7;D}{\fArial|b0|i0|c0|p0;\C7;}
 73
     1
 44
1.0
  0
MTEXT
  5
270
330
22E
100
AcDbEntity
  8
CONTINUOUS
100
AcDbMText
 10
171.459843139648
 20
204.242353759765
 30
0.0
 40
3.720853217058121
 41
0.0
 46
0.0
 71
     4
 72
     1
  1
{\fArial|b0|i0|c0|p0;\C7;4}{\fArial|b0|i0|c0|p0;\C7;}
 73
     1
 44
1.0
  0
MTEXT
  5
271
330
22E
100
AcDbEntity
  8
CONTINUOUS
100
AcDbMText
 10
251.201002341357
 20
20.0034076309204
 30
0.0
 40
2.251496730059653
 41
0.0
 46
0.0
 71
     1
 72
     1
  1
{\fMonotype Corsiva|b0|i1|c0|p0;\C7;Quantity}{\fArial|b0|i0|c0|p0;\C7;\H0.7692308x;}
 73
     1
 44
1.0
  0
MTEXT
  5
272
330
22E
100
AcDbEntity
  8
CONTINUOUS
100
AcDbMText
 10
216.858890991211
 20
204.29698022461
 30
0.0
 40
3.720853217058121
 41
0.0
 46
0.0
 71
     4
 72
     1
  1
{\fArial|b0|i0|c0|p0;\C7;5}{\fArial|b0|i0|c0|p0;\C7;}
 73
     1
 44
1.0
  0
MTEXT
  5
273
330
22E
100
AcDbEntity
  8
CONTINUOUS
100
AcDbMText
 10
194.206589508057
 20
27.6925756072998
 30
0.0
 40
2.251496730059653
 41
0.0
 46
0.0
 71
     4
 72
     1
  1
{\fMonotype Corsiva|b0|i1|c0|p0;\C7;Name }{\fArial|b0|i0|c0|p0;\C7;\H0.7692308x;}
 73
     1
 44
1.0
  0
MTEXT
  5
274
330
22E
100
AcDbEntity
  8
CONTINUOUS
100
AcDbMText
 10
289.025805015464
 20
125.886
 30
0.0
 40
3.720853217058121
 41
0.0
 46
0.0
 71
     4
 72
     1
  1
{\fArial|b0|i0|c0|p0;\C7;B}{\fArial|b0|i0|c0|p0;\C7;}
 73
     1
 44
1.0
  0
MTEXT
  5
275
330
22E
100
AcDbEntity
  8
CONTINUOUS
100
AcDbMText
 10
32.2742214965821
 20
204.252439819336
 30
0.0
 40
3.720853217058121
 41
0.0
 46
0.0
 71
     4
 72
     1
  1
{\fArial|b0|i0|c0|p0;\C7;1}{\fArial|b0|i0|c0|p0;\C7;}
 73
     1
 44
1.0
  0
MTEXT
  5
276
330
22E
100
AcDbEntity
  8
CONTINUOUS
100
AcDbMText
 10
27.3887158203126
 20
6.7864282951355
 30
0.0
 40
3.720853217058121
 41
0.0
 46
0.0
 71
     4
 72
     1
  1
{\fArial|b0|i0|c0|p0;\C7;1}{\fArial|b0|i0|c0|p0;\C7;}
 73
     1
 44
1.0
  0
MTEXT
  5
277
330
22E
100
AcDbEntity
  8
CONTINUOUS
100
AcDbMText
 10
265.171810609717
 20
204.240896547217
 30
0.0
 40
3.720853217058121
 41
0.0
 46
0.0
 71
     4
 72
     1
  1
{\fArial|b0|i0|c0|p0;\C7;6}{\fArial|b0|i0|c0|p0;\C7;}
 73
     1
 44
1.0
  0
MTEXT
  5
278
330
22E
100
AcDbEntity
  8
CONTINUOUS
100
AcDbMText
 10
244.748741149902
 20
7.15205116271974
 30
0.0
 40
1.969863467854299
 41
0.0
 46
0.0
 71
     4
 72
     1
  1
{\fArial|b0|i0|c0|p0;\C7;}
 73
     1
 44
1.0
  0
ENDBLK
  5
230
330
22E
100
AcDbEntity
  8
0
100
AcDbBlockEnd
  0
ENDSEC
  0
SECTION
  2
ENTITIES
  0
CIRCLE
  5
6F
330
1F
100
AcDbEntity
  8
VISIBLE
100
AcDbCircle
 10
89.5351638793945
 20
153.483253479004
 30
0.0
 40
23.75
  0
ARC
  5
70
330
1F
100
AcDbEntity
  8
VISIBLE
100
AcDbCircle
 10
89.53516387939533
 20
199.0799678341688
 30
0.0
 40
44.7567143551647
100
AcDbArc
 50
271.1775311504392
 51
271.7238444658329
  0
ARC
  5
71
330
1F
100
AcDbEntity
  8
VISIBLE
100
AcDbCircle
 10
95.6851638793945
 20
154.6976831406356
 30
0.0
 40
0.3500000000000105
100
AcDbArc
 50
16.26498139876421
 51
179.5133572894545
  0
CIRCLE
  5
72
330
1F
100
AcDbEntity
  8
VISIBLE
100
AcDbCircle
 10
79.5351638793945
 20
139.483253479004
 30
0.0
 40
5.0
  0
CIRCLE
  5
73
330
1F
100
AcDbEntity
  8
VISIBLE
100
AcDbCircle
 10
99.5351638793945
 20
167.483253479004
 30
0.0
 40
5.0
  0
ARC
  5
74
330
1F
100
AcDbEntity
  8
VISIBLE
100
AcDbCircle
 10
89.5351638793979
 20
199.0799678342434
 30
0.0
 40
44.75671435523947
100
AcDbArc
 50
265.4551396661862
 51
266.0008879790113
  0
ARC
  5
75
330
1F
100
AcDbEntity
  8
VISIBLE
100
AcDbCircle
 10
91.22887263025258
 20
154.3003379966201
 30
0.0
 40
0.3500000000000102
100
AcDbArc
 50
11.41740989879782
 51
172.9147441230204
  0
ARC
  5
76
330
1F
100
AcDbEntity
  8
VISIBLE
100
AcDbCircle
 10
86.75524020460092
 20
154.3553632708994
 30
0.0
 40
0.3500000000000108
100
AcDbArc
 50
5.573247863218359
 51
167.3132963490588
  0
ARC
  5
77
330
1F
100
AcDbEntity
  8
VISIBLE
100
AcDbCircle
 10
87.87276778261538
 20
154.2991487684452
 30
0.0
 40
0.3500000000000011
100
AcDbArc
 50
7.127944048155697
 51
168.6200318020522
  0
ARC
  5
78
330
1F
100
AcDbEntity
  8
VISIBLE
100
AcDbCircle
 10
93.46204718972345
 20
154.4426102352539
 30
0.0
 40
0.3499999999999983
100
AcDbArc
 50
13.96517044733134
 51
176.0899091880395
  0
ARC
  5
79
330
1F
100
AcDbEntity
  8
VISIBLE
100
AcDbCircle
 10
89.53516387939453
 20
199.0799678342112
 30
0.0
 40
44.75671435520707
100
AcDbArc
 50
269.7468376397746
 51
270.2932258564283
  0
CIRCLE
  5
7A
330
1F
100
AcDbEntity
  8
VISIBLE
100
AcDbCircle
 10
99.5351638793945
 20
167.483253479004
 30
0.0
 40
3.0
  0
ARC
  5
7B
330
1F
100
AcDbEntity
  8
VISIBLE
100
AcDbCircle
 10
89.53516387944654
 20
199.0799678345423
 30
0.0
 40
44.75671435554217
100
AcDbArc
 50
261.3422133270919
 51
261.7076295433524
  0
ARC
  5
7C
330
1F
100
AcDbEntity
  8
VISIBLE
100
AcDbCircle
 10
89.53516387939487
 20
199.0799678341934
 30
0.0
 40
44.7567143551893
100
AcDbArc
 50
274.0391830417913
 51
274.5849195063375
  0
ARC
  5
7D
330
1F
100
AcDbEntity
  8
VISIBLE
100
AcDbCircle
 10
84.52624058887314
 20
154.5525198483681
 30
0.0
 40
0.3500000000000011
100
AcDbArc
 50
2.277193410554412
 51
164.8862867896679
  0
ARC
  5
7E
330
1F
100
AcDbEntity
  8
VISIBLE
100
AcDbCircle
 10
83.41619605588403
 20
154.6933356595898
 30
0.0
 40
0.3500000000000058
100
AcDbArc
 50
0.5362817369335877
 51
163.7655187455873
  0
CIRCLE
  5
7F
330
1F
100
AcDbEntity
  8
VISIBLE
100
AcDbCircle
 10
79.5351638793945
 20
139.483253479004
 30
0.0
 40
5.5
  0
CIRCLE
  5
80
330
1F
100
AcDbEntity
  8
VISIBLE
100
AcDbCircle
 10
79.5351638793945
 20
167.483253479004
 30
0.0
 40
5.0
  0
CIRCLE
  5
81
330
1F
100
AcDbEntity
  8
VISIBLE
100
AcDbCircle
 10
99.5351638793945
 20
139.483253479004
 30
0.0
 40
5.5
  0
CIRCLE
  5
82
330
1F
100
AcDbEntity
  8
VISIBLE
100
AcDbCircle
 10
79.5351638793945
 20
139.483253479004
 30
0.0
 40
3.0
  0
ARC
  5
83
330
1F
100
AcDbEntity
  8
VISIBLE
100
AcDbCircle
 10
89.5351638793948
 20
199.0799678342101
 30
0.0
 40
44.756714355206
100
AcDbArc
 50
268.3162171717025
 51
268.8625345602977
  0
ARC
  5
84
330
1F
100
AcDbEntity
  8
VISIBLE
100
AcDbCircle
 10
89.53516387939446
 20
107.6865391238135
 30
0.0
 40
44.75671435519064
100
AcDbArc
 50
81.34221332709076
 51
98.65778667290907
  0
ARC
  5
85
330
1F
100
AcDbEntity
  8
VISIBLE
100
AcDbCircle
 10
89.5351638793952
 20
199.079967834185
 30
0.0
 40
44.75671435518086
100
AcDbArc
 50
272.6083095559893
 51
273.1544039477846
  0
CIRCLE
  5
86
330
1F
100
AcDbEntity
  8
VISIBLE
100
AcDbCircle
 10
89.5351638793945
 20
153.483253479004
 30
0.0
 40
24.0
  0
CIRCLE
  5
87
330
1F
100
AcDbEntity
  8
VISIBLE
100
AcDbCircle
 10
99.5351638793945
 20
167.483253479004
 30
0.0
 40
5.5
  0
ARC
  5
88
330
1F
100
AcDbEntity
  8
VISIBLE
100
AcDbCircle
 10
88.99135999889398
 20
154.2712308245748
 30
0.0
 40
0.3499999999999969
100
AcDbArc
 50
8.620229563450007
 51
169.9891426366216
  0
ARC
  5
89
330
1F
100
AcDbEntity
  8
VISIBLE
100
AcDbCircle
 10
92.34636008866933
 20
154.357344471606
 30
0.0
 40
0.350000000000005
100
AcDbArc
 50
12.72240045346273
 51
174.4711865361117
  0
ARC
  5
8A
330
1F
100
AcDbEntity
  8
VISIBLE
100
AcDbCircle
 10
85.63949295626922
 20
154.4398383308241
 30
0.0
 40
0.3500000000000024
100
AcDbArc
 50
3.956266945112269
 51
166.0687866152039
  0
CIRCLE
  5
8B
330
1F
100
AcDbEntity
  8
VISIBLE
100
AcDbCircle
 10
79.5351638793945
 20
167.483253479004
 30
0.0
 40
3.0
  0
CIRCLE
  5
8C
330
1F
100
AcDbEntity
  8
VISIBLE
100
AcDbCircle
 10
99.5351638793945
 20
139.483253479004
 30
0.0
 40
5.0
  0
ARC
  5
8D
330
1F
100
AcDbEntity
  8
VISIBLE
100
AcDbCircle
 10
89.53516387930698
 20
199.0799678347813
 30
0.0
 40
44.75671435578373
100
AcDbArc
 50
278.332450949188
 51
278.6577866729069
  0
ARC
  5
8E
330
1F
100
AcDbEntity
  8
VISIBLE
100
AcDbCircle
 10
90.11030048019828
 20
154.2716273186079
 30
0.0
 40
0.3500000000000171
100
AcDbArc
 50
10.05004722722146
 51
171.4207097796488
  0
CIRCLE
  5
8F
330
1F
100
AcDbEntity
  8
VISIBLE
100
AcDbCircle
 10
99.5351638793945
 20
139.483253479004
 30
0.0
 40
3.0
  0
ARC
  5
90
330
1F
100
AcDbEntity
  8
VISIBLE
100
AcDbCircle
 10
124.4073799507975
 20
153.383253479004
 30
0.0
 40
28.17221607140305
100
AcDbArc
 50
177.0497314013334
 51
182.9502685986664
  0
ARC
  5
91
330
1F
100
AcDbEntity
  8
VISIBLE
100
AcDbCircle
 10
94.57521942068186
 20
154.5560806813273
 30
0.0
 40
0.350000000000002
100
AcDbArc
 50
15.14593749404612
 51
177.7707181581959
  0
CIRCLE
  5
92
330
1F
100
AcDbEntity
  8
VISIBLE
100
AcDbCircle
 10
79.5351638793945
 20
167.483253479004
 30
0.0
 40
5.5
  0
ARC
  5
93
330
1F
100
AcDbEntity
  8
VISIBLE
100
AcDbCircle
 10
89.53516387941042
 20
199.0799678340386
 30
0.0
 40
44.75671435503375
100
AcDbArc
 50
275.4701601290325
 51
276.0154079659721
  0
ARC
  5
94
330
1F
100
AcDbEntity
  8
VISIBLE
100
AcDbCircle
 10
89.5351638793827
 20
199.0799678340749
 30
0.0
 40
44.75671435507029
100
AcDbArc
 50
264.0246506909496
 51
264.569913894133
  0
ARC
  5
95
330
1F
100
AcDbEntity
  8
VISIBLE
100
AcDbCircle
 10
54.6629478079914
 20
153.383253479004
 30
0.0
 40
28.17221607140311
100
AcDbArc
 50
357.0497314013336
 51
2.950268598666644
  0
ARC
  5
96
330
1F
100
AcDbEntity
  8
VISIBLE
100
AcDbCircle
 10
89.53516387935974
 20
199.0799678344763
 30
0.0
 40
44.75671435547442
100
AcDbArc
 50
276.901247686273
 51
277.4458877390308
  0
ARC
  5
97
330
1F
100
AcDbEntity
  8
VISIBLE
100
AcDbCircle
 10
89.53516387939801
 20
199.079967834233
 30
0.0
 40
44.75671435522911
100
AcDbArc
 50
262.594170939171
 51
263.1388295092717
  0
ARC
  5
98
330
1F
100
AcDbEntity
  8
VISIBLE
100
AcDbCircle
 10
89.53516387939496
 20
199.0799678342086
 30
0.0
 40
44.75671435520449
100
AcDbArc
 50
266.8856562332658
 51
267.4317586785061
  0
LINE
  5
9A
330
1F
100
AcDbEntity
  8
CENTER
100
AcDbLine
 10
90.0351638793945
 20
153.483253479004
 30
0.0
 11
89.0351638793945
 21
153.483253479004
 31
0.0
  0
LINE
  5
9B
330
1F
100
AcDbEntity
  8
CENTER
100
AcDbLine
 10
89.5351638793945
 20
153.983253479004
 30
0.0
 11
89.5351638793945
 21
152.983253479004
 31
0.0
  0
LINE
  5
9C
330
1F
100
AcDbEntity
  8
CENTER
100
AcDbLine
 10
90.5351638793945
 20
153.483253479004
 30
0.0
 11
115.1226638793945
 21
153.483253479004
 31
0.0
  0
LINE
  5
9D
330
1F
100
AcDbEntity
  8
CENTER
100
AcDbLine
 10
88.5351638793945
 20
153.483253479004
 30
0.0
 11
63.9476638793945
 21
153.483253479004
 31
0.0
  0
LINE
  5
9E
330
1F
100
AcDbEntity
  8
CENTER
100
AcDbLine
 10
89.5351638793945
 20
154.483253479004
 30
0.0
 11
89.5351638793945
 21
179.070753479004
 31
0.0
  0
LINE
  5
9F
330
1F
100
AcDbEntity
  8
CENTER
100
AcDbLine
 10
89.5351638793945
 20
152.483253479004
 30
0.0
 11
89.5351638793945
 21
127.895753479004
 31
0.0
  0
LINE
  5
A0
330
1F
100
AcDbEntity
  8
CENTER
100
AcDbLine
 10
80.0351638793945
 20
139.483253479004
 30
0.0
 11
79.0351638793945
 21
139.483253479004
 31
0.0
  0
LINE
  5
A1
330
1F
100
AcDbEntity
  8
CENTER
100
AcDbLine
 10
79.5351638793945
 20
139.983253479004
 30
0.0
 11
79.5351638793945
 21
138.983253479004
 31
0.0
  0
LINE
  5
A2
330
1F
100
AcDbEntity
  8
CENTER
100
AcDbLine
 10
80.5351638793945
 20
139.483253479004
 30
0.0
 11
86.62266387939451
 21
139.483253479004
 31
0.0
  0
LINE
  5
A3
330
1F
100
AcDbEntity
  8
CENTER
100
AcDbLine
 10
78.5351638793945
 20
139.483253479004
 30
0.0
 11
72.4476638793945
 21
139.483253479004
 31
0.0
  0
LINE
  5
A4
330
1F
100
AcDbEntity
  8
CENTER
100
AcDbLine
 10
79.5351638793945
 20
140.483253479004
 30
0.0
 11
79.5351638793945
 21
146.570753479004
 31
0.0
  0
LINE
  5
A5
330
1F
100
AcDbEntity
  8
CENTER
100
AcDbLine
 10
79.5351638793945
 20
138.483253479004
 30
0.0
 11
79.5351638793945
 21
132.395753479004
 31
0.0
  0
LINE
  5
A6
330
1F
100
AcDbEntity
  8
CENTER
100
AcDbLine
 10
100.0351638793945
 20
139.483253479004
 30
0.0
 11
99.0351638793945
 21
139.483253479004
 31
0.0
  0
LINE
  5
A7
330
1F
100
AcDbEntity
  8
CENTER
100
AcDbLine
 10
99.5351638793945
 20
139.983253479004
 30
0.0
 11
99.5351638793945
 21
138.983253479004
 31
0.0
  0
LINE
  5
A8
330
1F
100
AcDbEntity
  8
CENTER
100
AcDbLine
 10
100.5351638793945
 20
139.483253479004
 30
0.0
 11
106.6226638793945
 21
139.483253479004
 31
0.0
  0
LINE
  5
A9
330
1F
100
AcDbEntity
  8
CENTER
100
AcDbLine
 10
98.5351638793945
 20
139.483253479004
 30
0.0
 11
92.4476638793945
 21
139.483253479004
 31
0.0
  0
LINE
  5
AA
330
1F
100
AcDbEntity
  8
CENTER
100
AcDbLine
 10
99.5351638793945
 20
140.483253479004
 30
0.0
 11
99.5351638793945
 21
146.570753479004
 31
0.0
  0
LINE
  5
AB
330
1F
100
AcDbEntity
  8
CENTER
100
AcDbLine
 10
99.5351638793945
 20
138.483253479004
 30
0.0
 11
99.5351638793945
 21
132.395753479004
 31
0.0
  0
LINE
  5
AC
330
1F
100
AcDbEntity
  8
CENTER
100
AcDbLine
 10
80.0351638793945
 20
167.483253479004
 30
0.0
 11
79.0351638793945
 21
167.483253479004
 31
0.0
  0
LINE
  5
AD
330
1F
100
AcDbEntity
  8
CENTER
100
AcDbLine
 10
79.5351638793945
 20
167.983253479004
 30
0.0
 11
79.5351638793945
 21
166.983253479004
 31
0.0
  0
LINE
  5
AE
330
1F
100
AcDbEntity
  8
CENTER
100
AcDbLine
 10
80.5351638793945
 20
167.483253479004
 30
0.0
 11
86.62266387939451
 21
167.483253479004
 31
0.0
  0
LINE
  5
AF
330
1F
100
AcDbEntity
  8
CENTER
100
AcDbLine
 10
78.5351638793945
 20
167.483253479004
 30
0.0
 11
72.4476638793945
 21
167.483253479004
 31
0.0
  0
LINE
  5
B0
330
1F
100
AcDbEntity
  8
CENTER
100
AcDbLine
 10
79.5351638793945
 20
168.483253479004
 30
0.0
 11
79.5351638793945
 21
174.570753479004
 31
0.0
  0
LINE
  5
B1
330
1F
100
AcDbEntity
  8
CENTER
100
AcDbLine
 10
79.5351638793945
 20
166.483253479004
 30
0.0
 11
79.5351638793945
 21
160.395753479004
 31
0.0
  0
LINE
  5
B2
330
1F
100
AcDbEntity
  8
CENTER
100
AcDbLine
 10
100.0351638793945
 20
167.483253479004
 30
0.0
 11
99.0351638793945
 21
167.483253479004
 31
0.0
  0
LINE
  5
B3
330
1F
100
AcDbEntity
  8
CENTER
100
AcDbLine
 10
99.5351638793945
 20
167.983253479004
 30
0.0
 11
99.5351638793945
 21
166.983253479004
 31
0.0
  0
LINE
  5
B4
330
1F
100
AcDbEntity
  8
CENTER
100
AcDbLine
 10
100.5351638793945
 20
167.483253479004
 30
0.0
 11
106.6226638793945
 21
167.483253479004
 31
0.0
  0
LINE
  5
B5
330
1F
100
AcDbEntity
  8
CENTER
100
AcDbLine
 10
98.5351638793945
 20
167.483253479004
 30
0.0
 11
92.4476638793945
 21
167.483253479004
 31
0.0
  0
LINE
  5
B6
330
1F
100
AcDbEntity
  8
CENTER
100
AcDbLine
 10
99.5351638793945
 20
168.483253479004
 30
0.0
 11
99.5351638793945
 21
174.570753479004
 31
0.0
  0
LINE
  5
B7
330
1F
100
AcDbEntity
  8
CENTER
100
AcDbLine
 10
99.5351638793945
 20
166.483253479004
 30
0.0
 11
99.5351638793945
 21
160.395753479004
 31
0.0
  0
DIMENSION
  5
B9
330
1F
100
AcDbEntity
  8
DIMENSIONS
100
AcDbDimension
280
     0
  2
D1
 10
0.0
 20
0.0
 30
0.0
 11
178.8747445000542
 21
259.6255874633791
 31
0.0
 70
    32
  1
<>
 71
     5
 42
-1.0
 73
     0
 74
     0
 75
     0
  3
ISO-25
100
AcDbAlignedDimension
 13
113.5351638793945
 23
153.483253479004
 33
0.0
 14
65.5351638793945
 24
153.483253479004
 34
0.0
100
AcDbRotatedDimension
1001
ACAD
1000
DSTYLE
1002
{
1070
    76
1070
     0
1070
    75
1070
     0
1070
   282
1070
     0
1070
   281
1070
     0
1070
    77
1070
     1
1070
    79
1070
     0
1070
    78
1070
     0
1070
   272
1070
     2
1070
   271
1070
     2
1070
   179
1070
     2
1070
   140
1040
2.707850318471337
1070
    71
1070
     0
1070
    72
1070
     0
1070
    48
1040
0.002
1070
    47
1040
0.005
1002
}
  0
DIMENSION
  5
CB
330
1F
100
AcDbEntity
  8
DIMENSIONS
100
AcDbDimension
280
     0
  2
D2
 10
0.0
 20
0.0
 30
0.0
 11
178.8747445000542
 21
268.0907821655275
 31
0.0
 70
    32
  1
<>
 71
     5
 42
-1.0
 73
     0
 74
     0
 75
     0
 53
180.0
  3
ISO-25
100
AcDbAlignedDimension
 13
99.5351638793945
 23
132.395753479004
 33
0.0
 14
79.5351638793945
 24
132.395753479004
 34
0.0
 50
180.0
100
AcDbRotatedDimension
1001
ACAD
1000
DSTYLE
1002
{
1070
    76
1070
     0
1070
    75
1070
     0
1070
   282
1070
     0
1070
   281
1070
     0
1070
    77
1070
     1
1070
    79
1070
     0
1070
    78
1070
     0
1070
   272
1070
     2
1070
   271
1070
     2
1070
   179
1070
     2
1070
   140
1040
2.707850318471337
1070
    71
1070
     0
1070
    72
1070
     0
1070
    48
1040
0.002
1070
    47
1040
0.005
1002
}
  0
DIMENSION
  5
DC
330
1F
100
AcDbEntity
  8
DIMENSIONS
100
AcDbDimension
280
     0
  2
D3
 10
0.0
 20
0.0
 30
0.0
 11
212.0260314941406
 21
306.875801086426
 31
0.0
 70
    32
  1
<>
 71
     5
 42
-1.0
 73
     0
 74
     0
 75
     0
 53
90.0
  3
ISO-25
100
AcDbAlignedDimension
 13
106.6226638793945
 23
139.483253479004
 33
0.0
 14
106.6226638793945
 24
167.483253479004
 34
0.0
 50
90.0
100
AcDbRotatedDimension
1001
ACAD
1000
DSTYLE
1002
{
1070
    76
1070
     0
1070
    75
1070
     0
1070
   282
1070
     0
1070
   281
1070
     0
1070
    77
1070
     1
1070
    79
1070
     0
1070
    78
1070
     0
1070
   272
1070
     2
1070
   271
1070
     2
1070
   179
1070
     2
1070
   140
1040
2.707850318471337
1070
    71
1070
     0
1070
    72
1070
     0
1070
    48
1040
0.002
1070
    47
1040
0.005
1002
}
  0
LINE
  5
EE
330
1F
100
AcDbEntity
  8
CONTINUOUS
100
AcDbLine
 10
89.53516387939449
 20
181.728973388672
 30
0.0
 11
89.53516387939449
 21
125.9271392822267
 31
0.0
  0
LWPOLYLINE
  5
EF
330
1F
100
AcDbEntity
  8
CONTINUOUS
100
AcDbPolyline
 90
        4
 70
     0
 43
0.0
 10
89.53516387939449
 20
181.728973388672
 10
82.27711387939449
 20
180.216879638672
 10
82.27711387939449
 20
183.241067138672
 10
89.53516387939449
 20
181.728973388672
  0
LWPOLYLINE
  5
F0
330
1F
100
AcDbEntity
  8
CONTINUOUS
100
AcDbPolyline
 90
        4
 70
     0
 43
0.0
 10
89.53516387939449
 20
125.9271392822267
 10
82.27711387939449
 20
124.4150455322267
 10
82.27711387939449
 20
127.4392330322267
 10
89.53516387939449
 20
125.9271392822267
  0
LINE
  5
F1
330
1F
100
AcDbEntity
  8
CONTINUOUS
100
AcDbLine
 10
82.27711387939449
 20
181.728973388672
 30
0.0
 11
75.2476638793945
 21
181.728973388672
 31
0.0
  0
LINE
  5
F2
330
1F
100
AcDbEntity
  8
CONTINUOUS
100
AcDbLine
 10
82.27711387939449
 20
125.9271392822267
 30
0.0
 11
75.2476638793945
 21
125.9271392822267
 31
0.0
  0
MTEXT
  5
F3
330
1F
100
AcDbEntity
  8
CONTINUOUS
100
AcDbMText
 10
67.48961387939448
 20
181.728973388672
 30
0.0
 40
2.954795201781449
 41
0.0
 46
0.0
 71
     5
 72
     1
  1
{\fCE|b0|i0|c0|p0;\C7;A}{\fCE|b0|i0|c0|p0;\C7;}
 73
     1
 44
1.0
  0
MTEXT
  5
F4
330
1F
100
AcDbEntity
  8
CONTINUOUS
100
AcDbMText
 10
67.48961387939448
 20
125.9271392822267
 30
0.0
 40
2.954795201781449
 41
0.0
 46
0.0
 71
     5
 72
     1
  1
{\fCE|b0|i0|c0|p0;\C7;A}{\fCE|b0|i0|c0|p0;\C7;}
 73
     1
 44
1.0
  0
HATCH
  5
F5
330
1F
100
AcDbEntity
  8
0
 62
     7
100
AcDbHatch
 10
0.0
 20
0.0
 30
0.0
210
0.0
220
0.0
230
1.0
  2
PLNÁ, Plné vyplnění
 70
     0
 71
     0
 91
        2
 92
        0
 93
        3
 72
     1
 10
89.53516387939449
 20
181.728973388672
 11
82.27711387939449
 21
180.216879638672
 72
     1
 10
82.27711387939449
 20
180.216879638672
 11
82.27711387939449
 21
183.241067138672
 72
     1
 10
82.27711387939449
 20
183.241067138672
 11
89.53516387939449
 21
181.728973388672
 97
        0
 92
        0
 93
        3
 72
     1
 10
89.53516387939449
 20
125.9271392822267
 11
82.27711387939449
 21
124.4150455322267
 72
     1
 10
82.27711387939449
 20
124.4150455322267
 11
82.27711387939449
 21
127.4392330322267
 72
     1
 10
82.27711387939449
 20
127.4392330322267
 11
89.53516387939449
 21
125.9271392822267
 97
        0
 75
     0
 76
     0
 52
0.0
 41
1.0
 77
     0
 78
     1
 53
45.0
 43
0.0
 44
0.0
 45
0.0
 46
0.0
 79
     0
 98
        0
  0
MTEXT
  5
F6
330
1F
100
AcDbEntity
  8
CONTINUOUS
100
AcDbMText
 10
46.6031494140625
 20
177.9718398384802
 30
0.0
 40
2.079300327179538
 41
0.0
 46
0.0
 71
     1
 72
     1
  1
{\fAlibre Symbols|b0|i0|c0|p0;\C7;n}{\fCE|b0|i0|c0|p0;\C7;10,2}{\fAlibre Symbols|b0|i0|c0|p0;\C7;vx}{\fCE|b0|i0|c0|p0;\C7;6}{\fCE|b0|i0|c0|p0;\C7;\P}{\fAlibre Symbols|b0|i0|c0|p0;\C7;n}{\fCE|b0|i0|c0|p0;\C7;6,2 Durch}{\fCE|b0|i0|c0|p0;\C7;}
 73
     1
 44
1.0
  0
LINE
  5
F7
330
1F
100
AcDbEntity
  8
CONTINUOUS
100
AcDbLine
 10
71.0041910807292
 20
173.730035739475
 30
0.0
 11
65.8448160807292
 21
173.730035739475
 31
0.0
  0
LINE
  5
F8
330
1F
100
AcDbEntity
  8
CONTINUOUS
100
AcDbLine
 10
75.9788396575984
 20
169.203479513067
 30
0.0
 11
75.9788396575984
 21
169.203479513067
 31
0.0
  0
LINE
  5
F9
330
1F
100
AcDbEntity
  8
CONTINUOUS
100
AcDbLine
 10
75.9788396575984
 20
169.203479513067
 30
0.0
 11
71.0041910807292
 21
173.730035739475
 31
0.0
  0
LWPOLYLINE
  5
FA
330
1F
100
AcDbEntity
  8
CONTINUOUS
100
AcDbPolyline
 90
        4
 70
     0
 43
0.0
 10
78.19773864746088
 20
167.184448242188
 10
75.6423344457852
 20
168.8336630147565
 10
76.31534486941149
 20
169.5732960113774
 10
78.19773864746088
 20
167.184448242188
  0
HATCH
  5
FB
330
1F
100
AcDbEntity
  8
0
 62
     7
100
AcDbHatch
 10
0.0
 20
0.0
 30
0.0
210
0.0
220
0.0
230
1.0
  2
PLNÁ, Plné vyplnění
 70
     0
 71
     0
 91
        1
 92
        0
 93
        3
 72
     1
 10
76.31534486941149
 20
169.5732960113774
 11
78.19773864746088
 21
167.184448242188
 72
     1
 10
78.19773864746088
 20
167.184448242188
 11
75.6423344457852
 21
168.8336630147565
 72
     1
 10
75.6423344457852
 20
168.8336630147565
 11
76.31534486941149
 21
169.5732960113774
 97
        0
 75
     0
 76
     0
 52
0.0
 41
1.0
 77
     0
 78
     1
 53
45.0
 43
0.0
 44
0.0
 45
0.0
 46
0.0
 79
     0
 98
        0
  0
LINE
  5
FC
330
1F
100
AcDbEntity
  8
VISIBLE
100
AcDbLine
 10
65.7851638793945
 20
68.48240900039701
 30
0.0
 11
113.2851638793945
 21
68.48240900039701
 31
0.0
  0
LINE
  5
FD
330
1F
100
AcDbEntity
  8
VISIBLE
100
AcDbLine
 10
113.5351638793945
 20
81.48240900039701
 30
0.0
 11
65.5351638793945
 21
81.48240900039701
 31
0.0
  0
LINE
  5
FE
330
1F
100
AcDbEntity
  8
VISIBLE
100
AcDbLine
 10
113.5351638793945
 20
68.73240900039701
 30
0.0
 11
65.5351638793945
 21
68.73240900039701
 31
0.0
  0
LINE
  5
FF
330
1F
100
AcDbEntity
  8
VISIBLE
100
AcDbLine
 10
65.5351638793945
 20
81.48240900039701
 30
0.0
 11
65.5351638793945
 21
68.73240900039701
 31
0.0
  0
LINE
  5
100
330
1F
100
AcDbEntity
  8
VISIBLE
100
AcDbLine
 10
113.2851638793945
 20
68.48240900039701
 30
0.0
 11
113.5351638793945
 21
68.73240900039701
 31
0.0
  0
LINE
  5
101
330
1F
100
AcDbEntity
  8
VISIBLE
100
AcDbLine
 10
65.7851638793945
 20
68.48240900039701
 30
0.0
 11
65.5351638793945
 21
68.73240900039701
 31
0.0
  0
LINE
  5
102
330
1F
100
AcDbEntity
  8
VISIBLE
100
AcDbLine
 10
113.5351638793945
 20
81.48240900039701
 30
0.0
 11
113.5351638793945
 21
68.73240900039701
 31
0.0
  0
LINE
  5
103
330
1F
100
AcDbEntity
  8
CENTER
100
AcDbLine
 10
79.5351638793945
 20
77.98240900039701
 30
0.0
 11
79.5351638793945
 21
78.98240900039701
 31
0.0
  0
LINE
  5
104
330
1F
100
AcDbEntity
  8
CENTER
100
AcDbLine
 10
79.5351638793945
 20
77.48240900039701
 30
0.0
 11
79.5351638793945
 21
72.307409000397
 31
0.0
  0
LINE
  5
105
330
1F
100
AcDbEntity
  8
CENTER
100
AcDbLine
 10
79.5351638793945
 20
79.48240900039701
 30
0.0
 11
79.5351638793945
 21
84.65740900039702
 31
0.0
  0
LINE
  5
106
330
1F
100
AcDbEntity
  8
CENTER
100
AcDbLine
 10
99.5351638793945
 20
77.98240900039701
 30
0.0
 11
99.5351638793945
 21
78.98240900039701
 31
0.0
  0
LINE
  5
107
330
1F
100
AcDbEntity
  8
CENTER
100
AcDbLine
 10
99.5351638793945
 20
77.48240900039701
 30
0.0
 11
99.5351638793945
 21
72.307409000397
 31
0.0
  0
LINE
  5
108
330
1F
100
AcDbEntity
  8
CENTER
100
AcDbLine
 10
99.5351638793945
 20
79.48240900039701
 30
0.0
 11
99.5351638793945
 21
84.65740900039702
 31
0.0
  0
LINE
  5
109
330
1F
100
AcDbEntity
  8
CENTER
100
AcDbLine
 10
79.5351638793945
 20
68.23240900039701
 30
0.0
 11
79.5351638793945
 21
69.23240900039701
 31
0.0
  0
LINE
  5
10A
330
1F
100
AcDbEntity
  8
CENTER
100
AcDbLine
 10
79.5351638793945
 20
67.73240900039701
 30
0.0
 11
79.5351638793945
 21
65.307409000397
 31
0.0
  0
LINE
  5
10B
330
1F
100
AcDbEntity
  8
CENTER
100
AcDbLine
 10
79.5351638793945
 20
69.73240900039701
 30
0.0
 11
79.5351638793945
 21
72.15740900039702
 31
0.0
  0
LINE
  5
10C
330
1F
100
AcDbEntity
  8
CENTER
100
AcDbLine
 10
79.5351638793945
 20
71.73240900039701
 30
0.0
 11
79.5351638793945
 21
72.73240900039701
 31
0.0
  0
LINE
  5
10D
330
1F
100
AcDbEntity
  8
CENTER
100
AcDbLine
 10
79.5351638793945
 20
71.23240900039701
 30
0.0
 11
79.5351638793945
 21
65.807409000397
 31
0.0
  0
LINE
  5
10E
330
1F
100
AcDbEntity
  8
CENTER
100
AcDbLine
 10
79.5351638793945
 20
73.23240900039701
 30
0.0
 11
79.5351638793945
 21
78.65740900039702
 31
0.0
  0
LINE
  5
10F
330
1F
100
AcDbEntity
  8
CENTER
100
AcDbLine
 10
99.5351638793945
 20
71.73240900039701
 30
0.0
 11
99.5351638793945
 21
72.73240900039701
 31
0.0
  0
LINE
  5
110
330
1F
100
AcDbEntity
  8
CENTER
100
AcDbLine
 10
99.5351638793945
 20
71.23240900039701
 30
0.0
 11
99.5351638793945
 21
65.807409000397
 31
0.0
  0
LINE
  5
111
330
1F
100
AcDbEntity
  8
CENTER
100
AcDbLine
 10
99.5351638793945
 20
73.23240900039701
 30
0.0
 11
99.5351638793945
 21
78.65740900039702
 31
0.0
  0
LINE
  5
112
330
1F
100
AcDbEntity
  8
CENTER
100
AcDbLine
 10
89.5351638793945
 20
74.60740900039701
 30
0.0
 11
89.5351638793945
 21
75.60740900039701
 31
0.0
  0
LINE
  5
113
330
1F
100
AcDbEntity
  8
CENTER
100
AcDbLine
 10
89.5351638793945
 20
74.10740900039701
 30
0.0
 11
89.5351638793945
 21
69.10740900039701
 31
0.0
  0
LINE
  5
114
330
1F
100
AcDbEntity
  8
CENTER
100
AcDbLine
 10
89.5351638793945
 20
76.10740900039701
 30
0.0
 11
89.5351638793945
 21
81.10740900039701
 31
0.0
  0
LINE
  5
115
330
1F
100
AcDbEntity
  8
CENTER
100
AcDbLine
 10
89.5351638793945
 20
68.60740900039701
 30
0.0
 11
89.5351638793945
 21
67.60740900039701
 31
0.0
  0
LINE
  5
116
330
1F
100
AcDbEntity
  8
CENTER
100
AcDbLine
 10
89.5351638793945
 20
81.60740900039701
 30
0.0
 11
89.5351638793945
 21
82.607409000397
 31
0.0
  0
LINE
  5
117
330
1F
100
AcDbEntity
  8
CENTER
100
AcDbLine
 10
89.5351638793945
 20
67.10740900039703
 30
0.0
 11
89.5351638793945
 21
65.557409000397
 31
0.0
  0
LINE
  5
118
330
1F
100
AcDbEntity
  8
CENTER
100
AcDbLine
 10
89.5351638793945
 20
83.107409000397
 30
0.0
 11
89.5351638793945
 21
84.65740900039702
 31
0.0
  0
LINE
  5
119
330
1F
100
AcDbEntity
  8
CENTER
100
AcDbLine
 10
99.5351638793945
 20
68.23240900039701
 30
0.0
 11
99.5351638793945
 21
69.23240900039701
 31
0.0
  0
LINE
  5
11A
330
1F
100
AcDbEntity
  8
CENTER
100
AcDbLine
 10
99.5351638793945
 20
67.73240900039701
 30
0.0
 11
99.5351638793945
 21
65.307409000397
 31
0.0
  0
LINE
  5
11B
330
1F
100
AcDbEntity
  8
CENTER
100
AcDbLine
 10
99.5351638793945
 20
69.73240900039701
 30
0.0
 11
99.5351638793945
 21
72.15740900039702
 31
0.0
  0
LINE
  5
11C
330
1F
100
AcDbEntity
  8
CENTER
100
AcDbLine
 10
89.5351638793945
 20
68.10740900039701
 30
0.0
 11
89.5351638793945
 21
69.10740900039701
 31
0.0
  0
LINE
  5
11D
330
1F
100
AcDbEntity
  8
CENTER
100
AcDbLine
 10
89.5351638793945
 20
67.60740900039701
 30
0.0
 11
89.5351638793945
 21
65.307409000397
 31
0.0
  0
LINE
  5
11E
330
1F
100
AcDbEntity
  8
CENTER
100
AcDbLine
 10
89.5351638793945
 20
69.60740900039701
 30
0.0
 11
89.5351638793945
 21
71.90740900039702
 31
0.0
  0
ELLIPSE
  5
11F
330
1F
100
AcDbEntity
  8
VISIBLE
100
AcDbEllipse
 10
239.4388975020569
 20
86.44153916758019
 30
0.0
 11
11.87499999999986
 21
-20.56810333988024
 31
0.0
210
0.0
220
0.0
230
1.0
 40
0.5773502691896281
 41
-0.7853981633974445
 42
0.7853981633974516
  0
ELLIPSE
  5
120
330
1F
100
AcDbEntity
  8
VISIBLE
100
AcDbEllipse
 10
239.4388975020567
 20
86.44153916758033
 30
0.0
 11
11.87499999999991
 21
-20.56810333988032
 31
0.0
210
0.0
220
0.0
230
1.0
 40
0.5773502691896228
 41
-2.356194490192345
 42
-0.7853981633974492
  0
ELLIPSE
  5
121
330
1F
100
AcDbEntity
  8
VISIBLE
100
AcDbEllipse
 10
239.4388975020568
 20
86.44153916758032
 30
0.0
 11
-11.875
 21
20.56810333988042
 31
0.0
210
0.0
220
0.0
230
1.0
 40
0.5773502691896284
 41
3.92699081698724
 42
7.06858347057703
  0
ELLIPSE
  5
122
330
1F
100
AcDbEntity
  8
VISIBLE
100
AcDbEllipse
 10
237.3175771584978
 20
104.8127122384548
 30
0.0
 11
2.500000000000455
 21
-4.330127018923221
 31
0.0
210
0.0
220
0.0
230
1.0
 40
0.5773502691896849
 41
-1.927890596687909
 42
-1.213702056901784
  0
LINE
  5
123
330
1F
100
AcDbEntity
  8
VISIBLE
100
AcDbLine
 10
243.7855021932704
 20
85.2093669410949
 30
0.0
 11
243.5401257597349
 21
85.06769879114037
 31
0.0
  0
LINE
  5
124
330
1F
100
AcDbEntity
  8
VISIBLE
100
AcDbLine
 10
240.6060038397626
 20
86.7184482765061
 30
0.0
 11
240.3909329566304
 21
86.59427704423489
 31
0.0
  0
ELLIPSE
  5
125
330
1F
100
AcDbEntity
  8
VISIBLE
100
AcDbEllipse
 10
239.4388740936195
 20
123.672181810136
 30
0.0
 11
22.3783660724682
 21
-38.76159847678382
 31
0.0
210
0.0
220
0.0
230
1.0
 40
0.5773498421680376
 41
-0.7648317031737736
 42
-0.7552968764137974
  0
ELLIPSE
  5
126
330
1F
100
AcDbEntity
  8
VISIBLE
100
AcDbEllipse
 10
243.7876042063508
 20
84.92238984773039
 30
0.0
 11
0.1749999999976808
 21
-0.303108891320619
 31
0.0
210
0.0
220
0.0
230
1.0
 40
0.5773502691928504
 41
-3.141592653594643
 42
-2.364688007769508
  0
ELLIPSE
  5
127
330
1F
100
AcDbEntity
  8
VISIBLE
100
AcDbEllipse
 10
243.787604206354
 20
84.92238984772696
 30
0.0
 11
-0.1750000000000398
 21
0.303108891324527
 31
0.0
210
0.0
220
0.0
230
1.0
 40
0.5773502691898046
 41
4.210868295171357
 42
6.283185307179586
  0
LINE
  5
128
330
1F
100
AcDbEntity
  8
VISIBLE
100
AcDbLine
 10
237.4188414902689
 20
88.59869050221789
 30
0.0
 11
237.2317495185079
 21
88.49067290195848
 31
0.0
  0
ELLIPSE
  5
129
330
1F
100
AcDbEntity
  8
VISIBLE
100
AcDbEllipse
 10
232.7213830807858
 20
79.29719408446049
 30
0.0
 11
-2.499999999998352
 21
4.330127018920038
 31
0.0
210
0.0
220
0.0
230
1.0
 40
0.5773502691897818
 41
3.141592653589911
 42
3.878163246413593
  0
ELLIPSE
  5
12A
330
1F
100
AcDbEntity
  8
VISIBLE
100
AcDbEllipse
 10
232.7213830807845
 20
79.29719408446269
 30
0.0
 11
2.499999999999886
 21
-4.330127018922255
 31
0.0
210
0.0
220
0.0
230
1.0
 40
0.5773502691896182
 41
-3.141592653589744
 42
0.0
  0
ELLIPSE
  5
12B
330
1F
100
AcDbEntity
  8
VISIBLE
100
AcDbEllipse
 10
232.7213830807846
 20
79.2971940844628
 30
0.0
 11
-2.500000000000057
 21
4.330127018922127
 31
0.0
210
0.0
220
0.0
230
1.0
 40
0.5773502691896149
 41
-0.7365705928235248
 42
0.0
  0
ELLIPSE
  5
12C
330
1F
100
AcDbEntity
  8
VISIBLE
100
AcDbEllipse
 10
246.8635187045164
 20
93.9941325411611
 30
0.0
 11
-2.499999999999375
 21
4.330127018921331
 31
0.0
210
0.0
220
0.0
230
1.0
 40
0.5773502691896626
 41
3.141592653589687
 42
3.878163246413334
  0
ELLIPSE
  5
12D
330
1F
100
AcDbEntity
  8
VISIBLE
100
AcDbEllipse
 10
246.8635187045155
 20
93.99413254116179
 30
0.0
 11
2.500000000000057
 21
-4.33012701892217
 31
0.0
210
0.0
220
0.0
230
1.0
 40
0.5773502691896346
 41
-3.141592653589814
 42
0.0
  0
ELLIPSE
  5
12E
330
1F
100
AcDbEntity
  8
VISIBLE
100
AcDbEllipse
 10
246.8635187045153
 20
93.99413254116227
 30
0.0
 11
-2.499999999999915
 21
4.330127018921672
 31
0.0
210
0.0
220
0.0
230
1.0
 40
0.5773502691896695
 41
-0.7365705928235569
 42
0.0
  0
ELLIPSE
  5
12F
330
1F
100
AcDbEntity
  8
VISIBLE
100
AcDbEllipse
 10
251.4597127822254
 20
73.78584216319894
 30
0.0
 11
2.499999999998693
 21
-4.330127018919768
 31
0.0
210
0.0
220
0.0
230
1.0
 40
0.5773502691893134
 41
-1.927890596688275
 42
-1.213702056901579
  0
LINE
  5
130
330
1F
100
AcDbEntity
  8
VISIBLE
100
AcDbLine
 10
235.0429440698223
 20
90.2419507758566
 30
0.0
 11
234.8745148943881
 21
90.14470814608026
 31
0.0
  0
ELLIPSE
  5
131
330
1F
100
AcDbEntity
  8
VISIBLE
100
AcDbEllipse
 10
251.4597127822246
 20
96.64774642917477
 30
0.0
 11
2.499999999998295
 21
-4.3301270189191
 31
0.0
210
0.0
220
0.0
230
1.0
 40
0.5773502691892185
 41
-1.927890596688333
 42
-1.213702056901513
  0
ELLIPSE
  5
132
330
1F
100
AcDbEntity
  8
VISIBLE
100
AcDbEllipse
 10
239.4389647394667
 20
123.6721005215538
 30
0.0
 11
22.37833877655908
 21
-38.76151238080303
 31
0.0
210
0.0
220
0.0
230
1.0
 40
0.5773514922666929
 41
-0.8647067785938563
 42
-0.8551818094042821
  0
ELLIPSE
  5
133
330
1F
100
AcDbEntity
  8
VISIBLE
100
AcDbEllipse
 10
240.63653044515
 20
86.41723218045342
 30
0.0
 11
0.1750000000050136
 21
-0.3031088913332951
 31
0.0
210
0.0
220
0.0
230
1.0
 40
0.5773502691821906
 41
-3.14159265358142
 42
-2.479855533597031
  0
ELLIPSE
  5
134
330
1F
100
AcDbEntity
  8
VISIBLE
100
AcDbEllipse
 10
240.6365304451435
 20
86.41723218046135
 30
0.0
 11
-0.1749999999999546
 21
0.3031088913245697
 31
0.0
210
0.0
220
0.0
230
1.0
 40
0.5773502691897126
 41
4.126262211771195
 42
6.283185307179586
  0
ELLIPSE
  5
135
330
1F
100
AcDbEntity
  8
VISIBLE
100
AcDbEllipse
 10
237.4731946204118
 20
88.28851291873224
 30
0.0
 11
0.1749999999862837
 21
-0.3031088913012638
 31
0.0
210
0.0
220
0.0
230
1.0
 40
0.5773502692099259
 41
-3.141592653610553
 42
-2.577619240118196
  0
ELLIPSE
  5
136
330
1F
100
AcDbEntity
  8
VISIBLE
100
AcDbEllipse
 10
237.4731946204292
 20
88.28851291871106
 30
0.0
 11
-0.1749999999999545
 21
0.303108891324527
 31
0.0
210
0.0
220
0.0
230
1.0
 40
0.5773502691898141
 41
4.02426234223009
 42
6.283185307179586
  0
ELLIPSE
  5
137
330
1F
100
AcDbEntity
  8
VISIBLE
100
AcDbEllipse
 10
238.2634059490048
 20
87.78638524638913
 30
0.0
 11
0.1749999999989882
 21
-0.3031088913232338
 31
0.0
210
0.0
220
0.0
230
1.0
 40
0.5773502691902211
 41
-3.14159265359206
 42
-2.554812404018317
  0
ELLIPSE
  5
138
330
1F
100
AcDbEntity
  8
VISIBLE
100
AcDbEllipse
 10
238.2634059490061
 20
87.78638524638798
 30
0.0
 11
-0.1749999999999261
 21
0.3031088913246265
 31
0.0
210
0.0
220
0.0
230
1.0
 40
0.5773502691896142
 41
4.051396909525721
 42
6.283185307179586
  0
ELLIPSE
  5
139
330
1F
100
AcDbEntity
  8
VISIBLE
100
AcDbEllipse
 10
242.2156233197177
 20
85.6217072806568
 30
0.0
 11
0.1749999999992724
 21
-0.3031088913230775
 31
0.0
210
0.0
220
0.0
230
1.0
 40
0.577350269190988
 41
-3.141592653590805
 42
-2.424438448912012
  0
ELLIPSE
  5
13A
330
1F
100
AcDbEntity
  8
VISIBLE
100
AcDbEllipse
 10
242.2156233197186
 20
85.62170728065549
 30
0.0
 11
-0.1750000000000682
 21
0.3031088913244844
 31
0.0
210
0.0
220
0.0
230
1.0
 40
0.5773502691897014
 41
4.170729021895054
 42
6.283185307179586
  0
ELLIPSE
  5
13B
330
1F
100
AcDbEntity
  8
VISIBLE
100
AcDbEllipse
 10
239.4388975957972
 20
123.6708758634393
 30
0.0
 11
22.3783571447992
 21
-38.76021331585127
 31
0.0
210
0.0
220
0.0
230
1.0
 40
0.5773502708942609
 41
-0.7898197685503684
 42
-0.7802834658672028
  0
LINE
  5
13C
330
1F
100
AcDbEntity
  8
VISIBLE
100
AcDbLine
 10
234.6748787866078
 20
87.9264769549313
 30
0.0
 11
236.6945735695894
 21
89.09254828156662
 31
0.0
  0
ELLIPSE
  5
13D
330
1F
100
AcDbEntity
  8
VISIBLE
100
AcDbEllipse
 10
239.4403766049699
 20
123.6817093041314
 30
0.0
 11
22.37807018952341
 21
-38.77171465713874
 31
0.0
210
0.0
220
0.0
230
1.0
 40
0.5773769410035714
 41
-0.9363528717598598
 42
-0.9299761667029494
  0
ELLIPSE
  5
13E
330
1F
100
AcDbEntity
  8
VISIBLE
100
AcDbEllipse
 10
239.4388136223685
 20
123.6724334010261
 30
0.0
 11
22.37839343248282
 21
-38.76186519298166
 31
0.0
210
0.0
220
0.0
230
1.0
 40
0.5773487431534099
 41
-0.7148836120003615
 42
-0.7053588817072408
  0
LINE
  5
13F
330
1F
100
AcDbEntity
  8
VISIBLE
100
AcDbLine
 10
238.2145730756745
 20
88.09473447212889
 30
0.0
 11
238.0207841229431
 21
87.98285036810344
 31
0.0
  0
ELLIPSE
  5
140
330
1F
100
AcDbEntity
  8
VISIBLE
100
AcDbEllipse
 10
235.8970538768954
 20
89.3594758726766
 30
0.0
 11
0.1750000000070031
 21
-0.3031088913365209
 31
0.0
210
0.0
220
0.0
230
1.0
 40
0.5773502691796286
 41
-3.141592653575558
 42
-2.619978547914577
  0
ELLIPSE
  5
141
330
1F
100
AcDbEntity
  8
VISIBLE
100
AcDbEllipse
 10
235.8970538768859
 20
89.35947587268717
 30
0.0
 11
-0.1750000000000113
 21
0.3031088913245269
 31
0.0
210
0.0
220
0.0
230
1.0
 40
0.5773502691893546
 41
3.966735339706074
 42
6.283185307179586
  0
ELLIPSE
  5
142
330
1F
100
AcDbEntity
  8
VISIBLE
100
AcDbEllipse
 10
235.1121338601899
 20
89.92762528402304
 30
0.0
 11
0.1749999999995566
 21
-0.3031088913233475
 31
0.0
210
0.0
220
0.0
230
1.0
 40
0.5773502691915974
 41
-3.141592653588729
 42
-2.639539640433894
  0
ELLIPSE
  5
143
330
1F
100
AcDbEntity
  8
VISIBLE
100
AcDbEllipse
 10
235.1121338601902
 20
89.92762528402176
 30
0.0
 11
-0.1750000000000114
 21
0.3031088913245412
 31
0.0
210
0.0
220
0.0
230
1.0
 40
0.5773502691896765
 41
3.936350699014914
 42
6.283185307179586
  0
LINE
  5
144
330
1F
100
AcDbEntity
  8
VISIBLE
100
AcDbLine
 10
236.6246578995128
 20
89.124757320904
 30
0.0
 11
236.444034527144
 21
89.02047436824495
 31
0.0
  0
ELLIPSE
  5
145
330
1F
100
AcDbEntity
  8
VISIBLE
100
AcDbEllipse
 10
232.3678296901912
 20
79.09306993923072
 30
0.0
 11
-2.750000000000028
 21
4.763139720814493
 31
0.0
210
0.0
220
0.0
230
1.0
 40
0.5773502691896514
 41
3.92699081698726
 42
5.497787143782164
  0
ELLIPSE
  5
146
330
1F
100
AcDbEntity
  8
VISIBLE
100
AcDbEllipse
 10
232.3678296901913
 20
79.09306993923077
 30
0.0
 11
-2.750000000000028
 21
4.763139720814422
 31
0.0
210
0.0
220
0.0
230
1.0
 40
0.5773502691896304
 41
-0.7853981633974487
 42
3.926990816987239
  0
LINE
  5
147
330
1F
100
AcDbEntity
  8
VISIBLE
100
AcDbLine
 10
239.8086608350887
 20
87.1543368514718
 30
0.0
 11
239.6008624121629
 21
87.03436437605845
 31
0.0
  0
ELLIPSE
  5
148
330
1F
100
AcDbEntity
  8
VISIBLE
100
AcDbEllipse
 10
248.6312856574819
 20
91.74876694361052
 30
0.0
 11
-11.99999999999997
 21
20.78460969082656
 31
0.0
210
0.0
220
0.0
230
1.0
 40
0.5773502691896264
 41
3.926990816987242
 42
6.283185307179586
  0
ELLIPSE
  5
149
330
1F
100
AcDbEntity
  8
VISIBLE
100
AcDbEllipse
 10
248.6312856574822
 20
91.74876694361029
 30
0.0
 11
-11.99999999999991
 21
20.78460969082623
 31
0.0
210
0.0
220
0.0
230
1.0
 40
0.5773502691896258
 41
3.141592653589781
 42
3.926990816987241
  0
ELLIPSE
  5
14A
330
1F
100
AcDbEntity
  8
VISIBLE
100
AcDbEllipse
 10
232.7213830807855
 20
102.159098350438
 30
0.0
 11
-2.499999999999233
 21
4.330127018921004
 31
0.0
210
0.0
220
0.0
230
1.0
 40
0.5773502691896655
 41
3.141592653589738
 42
3.878163246413409
  0
ELLIPSE
  5
14B
330
1F
100
AcDbEntity
  8
VISIBLE
100
AcDbEllipse
 10
232.7213830807846
 20
102.1590983504391
 30
0.0
 11
2.499999999999943
 21
-4.330127018922241
 31
0.0
210
0.0
220
0.0
230
1.0
 40
0.577350269189646
 41
-3.141592653589768
 42
0.0
  0
ELLIPSE
  5
14C
330
1F
100
AcDbEntity
  8
VISIBLE
100
AcDbEllipse
 10
232.721383080784
 20
102.1590983504405
 30
0.0
 11
-2.499999999999517
 21
4.330127018920734
 31
0.0
210
0.0
220
0.0
230
1.0
 40
0.5773502691896952
 41
-0.7365705928236599
 42
0.0
  0
ELLIPSE
  5
14D
330
1F
100
AcDbEntity
  8
VISIBLE
100
AcDbEllipse
 10
246.5099653139221
 20
70.92810412995345
 30
0.0
 11
-2.749999999999972
 21
4.763139720814436
 31
0.0
210
0.0
220
0.0
230
1.0
 40
0.5773502691896352
 41
3.926990816987265
 42
5.497787143782154
  0
ELLIPSE
  5
14E
330
1F
100
AcDbEntity
  8
VISIBLE
100
AcDbEllipse
 10
246.5099653139222
 20
70.92810412995354
 30
0.0
 11
-2.75
 21
4.763139720814365
 31
0.0
210
0.0
220
0.0
230
1.0
 40
0.5773502691896312
 41
-0.7853981633974485
 42
3.926990816987229
  0
ELLIPSE
  5
14F
330
1F
100
AcDbEntity
  8
VISIBLE
100
AcDbEllipse
 10
239.4389055765193
 20
123.6714773852733
 30
0.0
 11
22.37835453068431
 21
-38.76085132775069
 31
0.0
210
0.0
220
0.0
230
1.0
 40
0.5773504164325863
 41
-0.8147804765666743
 42
-0.805245489160973
  0
LINE
  5
150
330
1F
100
AcDbEntity
  8
VISIBLE
100
AcDbLine
 10
241.4028689084461
 20
86.30577640149819
 30
0.0
 11
241.1803773742443
 21
86.1773208543344
 31
0.0
  0
ELLIPSE
  5
151
330
1F
100
AcDbEntity
  8
VISIBLE
100
AcDbEllipse
 10
239.4388975020568
 20
49.04867847877833
 30
0.0
 11
-22.37835717759484
 21
38.76045162158785
 31
0.0
210
0.0
220
0.0
230
1.0
 40
0.5773502691896245
 41
-0.9365050467739633
 42
-0.6342912800191312
  0
ELLIPSE
  5
152
330
1F
100
AcDbEntity
  8
VISIBLE
100
AcDbEllipse
 10
239.4389443798265
 20
123.6699963938693
 30
0.0
 11
22.37833812692699
 21
-38.75928053215674
 31
0.0
210
0.0
220
0.0
230
1.0
 40
0.5773511231935479
 41
-0.7398893243784949
 42
-0.7303580385744342
  0
ELLIPSE
  5
153
330
1F
100
AcDbEntity
  8
VISIBLE
100
AcDbEllipse
 10
239.6156741973533
 20
86.54360124019628
 30
0.0
 11
-11.99999999999989
 21
20.78460969082656
 31
0.0
210
0.0
220
0.0
230
1.0
 40
0.5773502691896262
 41
3.926990816987249
 42
6.283185307179586
  0
ELLIPSE
  5
154
330
1F
100
AcDbEntity
  8
VISIBLE
100
AcDbEllipse
 10
239.6156741973561
 20
86.54360124019318
 30
0.0
 11
12.0000000000021
 21
-20.78460969083004
 31
0.0
210
0.0
220
0.0
230
1.0
 40
0.5773502691895803
 41
-3.14159265358974
 42
-2.356194490192389
  0
ELLIPSE
  5
155
330
1F
100
AcDbEntity
  8
VISIBLE
100
AcDbEllipse
 10
239.6156741973529
 20
86.543601240199
 30
0.0
 11
12.00000000000014
 21
-20.78460969082938
 31
0.0
210
0.0
220
0.0
230
1.0
 40
0.5773502691896081
 41
-0.7853981633974014
 42
0.0
  0
ELLIPSE
  5
156
330
1F
100
AcDbEntity
  8
VISIBLE
100
AcDbEllipse
 10
239.6156741973549
 20
86.54360124019473
 30
0.0
 11
-11.99999999999901
 21
20.78460969082464
 31
0.0
210
0.0
220
0.0
230
1.0
 40
0.5773502691896442
 41
3.141592653589746
 42
3.926990816987255
  0
ELLIPSE
  5
157
330
1F
100
AcDbEntity
  8
VISIBLE
100
AcDbEllipse
 10
246.5099653139222
 20
93.79000839592987
 30
0.0
 11
-2.75
 21
4.763139720814479
 31
0.0
210
0.0
220
0.0
230
1.0
 40
0.5773502691896241
 41
3.926990816987245
 42
5.497787143782143
  0
ELLIPSE
  5
158
330
1F
100
AcDbEntity
  8
VISIBLE
100
AcDbEllipse
 10
246.5099653139222
 20
93.79000839592987
 30
0.0
 11
-2.749999999999972
 21
4.763139720814422
 31
0.0
210
0.0
220
0.0
230
1.0
 40
0.5773502691896365
 41
-0.7853981633974326
 42
3.926990816987234
  0
ELLIPSE
  5
159
330
1F
100
AcDbEntity
  8
VISIBLE
100
AcDbEllipse
 10
239.0543700905234
 20
87.30692698064564
 30
0.0
 11
0.1750000000024841
 21
-0.3031088913292166
 31
0.0
210
0.0
220
0.0
230
1.0
 40
0.5773502691862143
 41
-3.141592653580338
 42
-2.530916912129101
  0
ELLIPSE
  5
15A
330
1F
100
AcDbEntity
  8
VISIBLE
100
AcDbEllipse
 10
239.0543700905193
 20
87.30692698064937
 30
0.0
 11
-0.1750000000000113
 21
0.3031088913245269
 31
0.0
210
0.0
220
0.0
230
1.0
 40
0.5773502691895156
 41
4.077442205146964
 42
6.283185307179586
  0
ELLIPSE
  5
15B
330
1F
100
AcDbEntity
  8
VISIBLE
100
AcDbEllipse
 10
241.4267134048791
 20
86.00756542786665
 30
0.0
 11
0.1749999999987893
 21
-0.3031088913221964
 31
0.0
210
0.0
220
0.0
230
1.0
 40
0.5773502691918092
 41
-3.141592653593317
 42
-2.452690488865453
  0
ELLIPSE
  5
15C
330
1F
100
AcDbEntity
  8
VISIBLE
100
AcDbEllipse
 10
241.4267134048809
 20
86.00756542786466
 30
0.0
 11
-0.174999999999983
 21
0.3031088913245271
 31
0.0
210
0.0
220
0.0
230
1.0
 40
0.5773502691896296
 41
4.149038593657291
 42
6.283185307179586
  0
ELLIPSE
  5
15D
330
1F
100
AcDbEntity
  8
VISIBLE
100
AcDbEllipse
 10
236.6842421750492
 20
88.81298842302667
 30
0.0
 11
0.1750000000048715
 21
-0.3031088913326982
 31
0.0
210
0.0
220
0.0
230
1.0
 40
0.577350269182215
 41
-3.141592653585344
 42
-2.599340032559468
  0
ELLIPSE
  5
15E
330
1F
100
AcDbEntity
  8
VISIBLE
100
AcDbEllipse
 10
236.6842421750436
 20
88.81298842303434
 30
0.0
 11
-0.1750000000000114
 21
0.3031088913245412
 31
0.0
210
0.0
220
0.0
230
1.0
 40
0.5773502691896765
 41
3.996040701267212
 42
6.283185307179586
  0
LINE
  5
15F
330
1F
100
AcDbEntity
  8
VISIBLE
100
AcDbLine
 10
239.0113481743386
 20
87.61318854400119
 30
0.0
 11
238.8106507545442
 21
87.49731583465724
 31
0.0
  0
LINE
  5
160
330
1F
100
AcDbEntity
  8
VISIBLE
100
AcDbLine
 10
242.1987469083215
 20
85.91655948457549
 30
0.0
 11
241.9687120264606
 21
85.7837487836101
 31
0.0
  0
LINE
  5
161
330
1F
100
AcDbEntity
  8
VISIBLE
100
AcDbLine
 10
235.8325251135192
 20
89.6726205316138
 30
0.0
 11
235.6581270288793
 21
89.57193175050081
 31
0.0
  0
ELLIPSE
  5
162
330
1F
100
AcDbEntity
  8
VISIBLE
100
AcDbEllipse
 10
246.8635187045194
 20
71.13222827518148
 30
0.0
 11
-2.499999999997215
 21
4.330127018917537
 31
0.0
210
0.0
220
0.0
230
1.0
 40
0.5773502691898791
 41
3.14159265358933
 42
3.878163246413479
  0
ELLIPSE
  5
163
330
1F
100
AcDbEntity
  8
VISIBLE
100
AcDbEllipse
 10
246.8635187045155
 20
71.1322282751855
 30
0.0
 11
2.500000000000057
 21
-4.330127018922184
 31
0.0
210
0.0
220
0.0
230
1.0
 40
0.5773502691896333
 41
-3.141592653589813
 42
0.0
  0
ELLIPSE
  5
164
330
1F
100
AcDbEntity
  8
VISIBLE
100
AcDbEllipse
 10
246.8635187045159
 20
71.13222827518383
 30
0.0
 11
-2.500000000000199
 21
4.33012701892396
 31
0.0
210
0.0
220
0.0
230
1.0
 40
0.5773502691895415
 41
-0.7365705928233174
 42
0.0
  0
ELLIPSE
  5
165
330
1F
100
AcDbEntity
  8
VISIBLE
100
AcDbEllipse
 10
239.4389299001682
 20
123.6708315924114
 30
0.0
 11
22.3783407669072
 21
-38.76016656094163
 31
0.0
210
0.0
220
0.0
230
1.0
 40
0.5773508537235144
 41
-0.6399727804102866
 42
-0.6342945811991818
  0
ELLIPSE
  5
166
330
1F
100
AcDbEntity
  8
VISIBLE
100
AcDbEllipse
 10
239.8455804925958
 20
86.85044517804602
 30
0.0
 11
0.1750000000018872
 21
-0.3031088913271134
 31
0.0
210
0.0
220
0.0
230
1.0
 40
0.5773502691879828
 41
-3.141592653588259
 42
-2.505931352024339
  0
ELLIPSE
  5
167
330
1F
100
AcDbEntity
  8
VISIBLE
100
AcDbEllipse
 10
239.8455804925937
 20
86.85044517804846
 30
0.0
 11
-0.174999999999983
 21
0.3031088913245413
 31
0.0
210
0.0
220
0.0
230
1.0
 40
0.5773502691895891
 41
4.102397231083007
 42
6.283185307179586
  0
ELLIPSE
  5
168
330
1F
100
AcDbEntity
  8
VISIBLE
100
AcDbEllipse
 10
264.0972779541532
 20
72.12336691769205
 30
0.0
 11
14.08610802827729
 21
-24.39785479445835
 31
0.0
210
0.0
220
0.0
230
1.0
 40
0.5773502691897219
 41
-2.407686390890486
 42
-2.304702589142548
  0
ELLIPSE
  5
169
330
1F
100
AcDbEntity
  8
VISIBLE
100
AcDbEllipse
 10
237.3175771584992
 20
81.95080797247903
 30
0.0
 11
2.500000000001307
 21
-4.330127018924145
 31
0.0
210
0.0
220
0.0
230
1.0
 40
0.5773502691898381
 41
-1.927890596687887
 42
-1.213702056901961
  0
ELLIPSE
  5
16A
330
1F
100
AcDbEntity
  8
VISIBLE
100
AcDbEllipse
 10
243.0027549528548
 20
85.25990485163298
 30
0.0
 11
0.1749999999979082
 21
-0.3031088913210311
 31
0.0
210
0.0
220
0.0
230
1.0
 40
0.5773502691920538
 41
-3.141592653595619
 42
-2.39510279828508
  0
ELLIPSE
  5
16B
330
1F
100
AcDbEntity
  8
VISIBLE
100
AcDbEllipse
 10
243.0027549528579
 20
85.25990485163005
 30
0.0
 11
-0.1749999999999829
 21
0.3031088913245554
 31
0.0
210
0.0
220
0.0
230
1.0
 40
0.5773502691896594
 41
4.191337294559872
 42
6.283185307179586
  0
ELLIPSE
  5
16C
330
1F
100
AcDbEntity
  8
VISIBLE
100
AcDbEllipse
 10
232.3678296901913
 20
101.9549742052072
 30
0.0
 11
-2.749999999999943
 21
4.76313972081438
 31
0.0
210
0.0
220
0.0
230
1.0
 40
0.5773502691896117
 41
3.926990816987245
 42
5.497787143782133
  0
ELLIPSE
  5
16D
330
1F
100
AcDbEntity
  8
VISIBLE
100
AcDbEllipse
 10
232.3678296901913
 20
101.9549742052072
 30
0.0
 11
-2.75
 21
4.763139720814408
 31
0.0
210
0.0
220
0.0
230
1.0
 40
0.577350269189626
 41
-0.7853981633974484
 42
3.926990816987235
  0
ELLIPSE
  5
16E
330
1F
100
AcDbEntity
  8
VISIBLE
100
AcDbEllipse
 10
239.4389087305649
 20
123.6709652796392
 30
0.0
 11
22.37835203547854
 21
-38.76030818876025
 31
0.0
210
0.0
220
0.0
230
1.0
 40
0.5773504730021525
 41
-0.689927602521477
 42
-0.6804112156752644
  0
ELLIPSE
  5
16F
330
1F
100
AcDbEntity
  8
VISIBLE
100
AcDbEllipse
 10
239.4389479568318
 20
123.6716551743085
 30
0.0
 11
22.37834473941484
 21
-38.76104006033125
 31
0.0
210
0.0
220
0.0
230
1.0
 40
0.5773511850440334
 41
-0.8896797755968786
 42
-0.8801632137999622
  0
ELLIPSE
  5
170
330
1F
100
AcDbEntity
  8
VISIBLE
100
AcDbEllipse
 10
214.7805170516152
 20
100.5964121003373
 30
0.0
 11
-14.08610802652134
 21
24.3978547934617
 31
0.0
210
0.0
220
0.0
230
1.0
 40
0.5773502691894465
 41
3.875498916328702
 42
3.978482718080881
  0
LINE
  5
171
330
1F
100
AcDbEntity
  8
VISIBLE
100
AcDbLine
 10
242.9931280672664
 20
85.55102045697359
 30
0.0
 11
242.7554548859881
 21
85.41379978178344
 31
0.0
  0
ELLIPSE
  5
172
330
1F
100
AcDbEntity
  8
VISIBLE
100
AcDbEllipse
 10
239.4388515707397
 20
123.6715488070089
 30
0.0
 11
22.37837936688274
 21
-38.76092687439838
 31
0.0
210
0.0
220
0.0
230
1.0
 40
0.5773494377951259
 41
-0.664943006925359
 42
-0.6554373000507681
  0
ELLIPSE
  5
173
330
1F
100
AcDbEntity
  8
VISIBLE
100
AcDbEllipse
 10
239.4389772132021
 20
123.6717900683119
 30
0.0
 11
22.37833970580959
 21
-38.76118337786437
 31
0.0
210
0.0
220
0.0
230
1.0
 40
0.5773517120432716
 41
-0.9146443862815217
 42
-0.9051383973480172
  0
ELLIPSE
  5
174
330
1F
100
AcDbEntity
  8
VISIBLE
100
AcDbEllipse
 10
239.4389325225112
 20
123.6718958232792
 30
0.0
 11
22.37834664366426
 21
-38.76129517376872
 31
0.0
210
0.0
220
0.0
230
1.0
 40
0.5773509072101745
 41
-0.8397425456519049
 42
-0.830211366407343
  0
LINE
  5
175
330
1F
100
AcDbEntity
  8
VISIBLE
100
AcDbLine
 10
236.6312856574819
 20
112.5333766344371
 30
0.0
 11
227.6156741973534
 21
107.3282109310228
 31
0.0
  0
LINE
  5
176
330
1F
100
AcDbEntity
  8
VISIBLE
100
AcDbLine
 10
260.6312856574819
 20
70.96415725278399
 30
0.0
 11
251.6156741973534
 21
65.75899154936975
 31
0.0
  0
LINE
  5
177
330
1F
100
AcDbEntity
  8
VISIBLE
100
AcDbLine
 10
222.6451114488763
 20
96.1374360660971
 30
0.0
 11
222.6451114488763
 21
96.34156021132902
 31
0.0
  0
LINE
  5
178
330
1F
100
AcDbEntity
  8
VISIBLE
100
AcDbLine
 10
239.4388975020567
 20
67.04974537054679
 30
0.0
 11
239.6156741973533
 21
66.94768329793084
 31
0.0
  0
LINE
  5
179
330
1F
100
AcDbEntity
  8
CENTER
100
AcDbLine
 10
248.7286030414796
 20
72.20903521919307
 30
0.0
 11
249.594628445264
 21
72.70903521919307
 31
0.0
  0
LINE
  5
17A
330
1F
100
AcDbEntity
  8
CENTER
100
AcDbLine
 10
248.2955903395874
 20
71.95903521919305
 30
0.0
 11
243.9654633206652
 21
69.45903521919305
 31
0.0
  0
LINE
  5
17B
330
1F
100
AcDbEntity
  8
CENTER
100
AcDbLine
 10
250.0276411471563
 20
72.95903521919308
 30
0.0
 11
254.3577681660784
 21
75.45903521919308
 31
0.0
  0
LINE
  5
17C
330
1F
100
AcDbEntity
  8
CENTER
100
AcDbLine
 10
243.5324506187729
 20
69.20903521919305
 30
0.0
 11
242.6664252149885
 21
68.70903521919305
 31
0.0
  0
LINE
  5
17D
330
1F
100
AcDbEntity
  8
CENTER
100
AcDbLine
 10
254.7907808679707
 20
75.70903521919308
 30
0.0
 11
255.6568062717551
 21
76.20903521919308
 31
0.0
  0
LINE
  5
17E
330
1F
100
AcDbEntity
  8
CENTER
100
AcDbLine
 10
242.2334125130963
 20
68.45903521919305
 30
0.0
 11
240.5783541415672
 21
67.5034868228662
 31
0.0
  0
LINE
  5
17F
330
1F
100
AcDbEntity
  8
CENTER
100
AcDbLine
 10
256.0898189736473
 20
76.45903521919307
 30
0.0
 11
257.7448773451764
 21
77.41458361551994
 31
0.0
  0
LINE
  5
180
330
1F
100
AcDbEntity
  8
CENTER
100
AcDbLine
 10
248.7286030414796
 20
95.07093948516936
 30
0.0
 11
249.594628445264
 21
95.57093948516936
 31
0.0
  0
LINE
  5
181
330
1F
100
AcDbEntity
  8
CENTER
100
AcDbLine
 10
248.2955903395874
 20
94.82093948516936
 30
0.0
 11
243.9654633206652
 21
92.32093948516938
 31
0.0
  0
LINE
  5
182
330
1F
100
AcDbEntity
  8
CENTER
100
AcDbLine
 10
250.0276411471563
 20
95.82093948516936
 30
0.0
 11
254.3577681660784
 21
98.32093948516936
 31
0.0
  0
LINE
  5
183
330
1F
100
AcDbEntity
  8
CENTER
100
AcDbLine
 10
243.5324506187729
 20
92.07093948516938
 30
0.0
 11
242.6664252149885
 21
91.57093948516938
 31
0.0
  0
LINE
  5
184
330
1F
100
AcDbEntity
  8
CENTER
100
AcDbLine
 10
254.7907808679707
 20
98.57093948516936
 30
0.0
 11
255.6568062717551
 21
99.07093948516936
 31
0.0
  0
LINE
  5
185
330
1F
100
AcDbEntity
  8
CENTER
100
AcDbLine
 10
242.2334125130963
 20
91.32093948516938
 30
0.0
 11
240.5783541415672
 21
90.3653910888425
 31
0.0
  0
LINE
  5
186
330
1F
100
AcDbEntity
  8
CENTER
100
AcDbLine
 10
256.0898189736473
 20
99.32093948516936
 30
0.0
 11
257.7448773451764
 21
100.2764878814962
 31
0.0
  0
LINE
  5
187
330
1F
100
AcDbEntity
  8
CENTER
100
AcDbLine
 10
234.5864674177486
 20
80.37400102847027
 30
0.0
 11
235.452492821533
 21
80.87400102847027
 31
0.0
  0
LINE
  5
188
330
1F
100
AcDbEntity
  8
CENTER
100
AcDbLine
 10
234.1534547158564
 20
80.12400102847027
 30
0.0
 11
229.8233276969342
 21
77.62400102847027
 31
0.0
  0
LINE
  5
189
330
1F
100
AcDbEntity
  8
CENTER
100
AcDbLine
 10
235.8855055234253
 20
81.12400102847027
 30
0.0
 11
240.2156325423475
 21
83.62400102847027
 31
0.0
  0
LINE
  5
18A
330
1F
100
AcDbEntity
  8
CENTER
100
AcDbLine
 10
229.390314995042
 20
77.37400102847027
 30
0.0
 11
228.5242895912575
 21
76.87400102847027
 31
0.0
  0
LINE
  5
18B
330
1F
100
AcDbEntity
  8
CENTER
100
AcDbLine
 10
240.6486452442397
 20
83.87400102847027
 30
0.0
 11
241.5146706480241
 21
84.37400102847026
 31
0.0
  0
LINE
  5
18C
330
1F
100
AcDbEntity
  8
CENTER
100
AcDbLine
 10
228.0912768893653
 20
76.62400102847027
 30
0.0
 11
226.4362185178362
 21
75.66845263214339
 31
0.0
  0
LINE
  5
18D
330
1F
100
AcDbEntity
  8
CENTER
100
AcDbLine
 10
241.9476833499163
 20
84.62400102847026
 30
0.0
 11
243.6027417214454
 21
85.57954942479715
 31
0.0
  0
LINE
  5
18E
330
1F
100
AcDbEntity
  8
CENTER
100
AcDbLine
 10
239.0942731478128
 20
86.24257020388828
 30
0.0
 11
239.9602985515973
 21
86.74257020388828
 31
0.0
  0
LINE
  5
18F
330
1F
100
AcDbEntity
  8
CENTER
100
AcDbLine
 10
238.6612604459206
 20
85.99257020388828
 30
0.0
 11
234.3311334269984
 21
83.49257020388828
 31
0.0
  0
LINE
  5
190
330
1F
100
AcDbEntity
  8
CENTER
100
AcDbLine
 10
240.3933112534895
 20
86.99257020388828
 30
0.0
 11
244.7234382724117
 21
89.49257020388826
 31
0.0
  0
LINE
  5
191
330
1F
100
AcDbEntity
  8
CENTER
100
AcDbLine
 10
233.8981207251062
 20
83.24257020388828
 30
0.0
 11
233.0320953213218
 21
82.74257020388828
 31
0.0
  0
LINE
  5
192
330
1F
100
AcDbEntity
  8
CENTER
100
AcDbLine
 10
245.1564509743039
 20
89.74257020388826
 30
0.0
 11
246.0224763780884
 21
90.24257020388826
 31
0.0
  0
LINE
  5
193
330
1F
100
AcDbEntity
  8
CENTER
100
AcDbLine
 10
232.5990826194295
 20
82.49257020388828
 30
0.0
 11
228.2689556005074
 21
79.99257020388828
 31
0.0
  0
LINE
  5
194
330
1F
100
AcDbEntity
  8
CENTER
100
AcDbLine
 10
246.4554890799806
 20
90.49257020388826
 30
0.0
 11
250.7856160989028
 21
92.99257020388826
 31
0.0
  0
LINE
  5
195
330
1F
100
AcDbEntity
  8
CENTER
100
AcDbLine
 10
227.8359428986151
 20
79.74257020388829
 30
0.0
 11
226.9699174948307
 21
79.24257020388829
 31
0.0
  0
LINE
  5
196
330
1F
100
AcDbEntity
  8
CENTER
100
AcDbLine
 10
251.218628800795
 20
93.24257020388825
 30
0.0
 11
252.0846542045794
 21
93.74257020388825
 31
0.0
  0
LINE
  5
197
330
1F
100
AcDbEntity
  8
CENTER
100
AcDbLine
 10
226.5369047929385
 20
78.99257020388829
 30
0.0
 11
222.2067777740163
 21
76.49257020388829
 31
0.0
  0
LINE
  5
198
330
1F
100
AcDbEntity
  8
CENTER
100
AcDbLine
 10
252.5176669064716
 20
93.99257020388825
 30
0.0
 11
256.8477939253938
 21
96.49257020388825
 31
0.0
  0
LINE
  5
199
330
1F
100
AcDbEntity
  8
CENTER
100
AcDbLine
 10
221.7737650721241
 20
76.2425702038883
 30
0.0
 11
219.718704096564
 21
75.0560801964476
 31
0.0
  0
LINE
  5
19A
330
1F
100
AcDbEntity
  8
CENTER
100
AcDbLine
 10
257.280806627286
 20
96.74257020388825
 30
0.0
 11
259.3358676028461
 21
97.92906021132895
 31
0.0
  0
LINE
  5
19B
330
1F
100
AcDbEntity
  8
CENTER
100
AcDbLine
 10
234.5864674177486
 20
103.2359052944467
 30
0.0
 11
235.452492821533
 21
103.7359052944467
 31
0.0
  0
LINE
  5
19C
330
1F
100
AcDbEntity
  8
CENTER
100
AcDbLine
 10
234.1534547158564
 20
102.9859052944467
 30
0.0
 11
229.8233276969342
 21
100.4859052944467
 31
0.0
  0
LINE
  5
19D
330
1F
100
AcDbEntity
  8
CENTER
100
AcDbLine
 10
235.8855055234253
 20
103.9859052944467
 30
0.0
 11
240.2156325423475
 21
106.4859052944467
 31
0.0
  0
LINE
  5
19E
330
1F
100
AcDbEntity
  8
CENTER
100
AcDbLine
 10
229.390314995042
 20
100.2359052944467
 30
0.0
 11
228.5242895912575
 21
99.73590529444667
 31
0.0
  0
LINE
  5
19F
330
1F
100
AcDbEntity
  8
CENTER
100
AcDbLine
 10
240.6486452442397
 20
106.7359052944467
 30
0.0
 11
241.5146706480241
 21
107.2359052944467
 31
0.0
  0
LINE
  5
1A0
330
1F
100
AcDbEntity
  8
CENTER
100
AcDbLine
 10
228.0912768893653
 20
99.48590529444668
 30
0.0
 11
226.4362185178362
 21
98.5303568981198
 31
0.0
  0
LINE
  5
1A1
330
1F
100
AcDbEntity
  8
CENTER
100
AcDbLine
 10
241.9476833499163
 20
107.4859052944467
 30
0.0
 11
243.6027417214454
 21
108.4414536907735
 31
0.0
  0
LINE
  5
1A2
330
1F
100
AcDbEntity
  8
CENTER
100
AcDbLine
 10
243.6904672255254
 20
88.8961840919034
 30
0.0
 11
244.5564926293099
 21
89.3961840919034
 31
0.0
  0
LINE
  5
1A3
330
1F
100
AcDbEntity
  8
CENTER
100
AcDbLine
 10
243.2574545236332
 20
88.6461840919034
 30
0.0
 11
238.927327504711
 21
86.1461840919034
 31
0.0
  0
LINE
  5
1A4
330
1F
100
AcDbEntity
  8
CENTER
100
AcDbLine
 10
244.9895053312021
 20
89.6461840919034
 30
0.0
 11
249.3196323501243
 21
92.1461840919034
 31
0.0
  0
LINE
  5
1A5
330
1F
100
AcDbEntity
  8
CENTER
100
AcDbLine
 10
238.4943148028188
 20
85.89618409190341
 30
0.0
 11
237.6282893990344
 21
85.39618409190341
 31
0.0
  0
LINE
  5
1A6
330
1F
100
AcDbEntity
  8
CENTER
100
AcDbLine
 10
249.7526450520165
 20
92.3961840919034
 30
0.0
 11
250.618670455801
 21
92.8961840919034
 31
0.0
  0
LINE
  5
1A7
330
1F
100
AcDbEntity
  8
CENTER
100
AcDbLine
 10
237.1952766971421
 20
85.14618409190341
 30
0.0
 11
232.86514967822
 21
82.64618409190341
 31
0.0
  0
LINE
  5
1A8
330
1F
100
AcDbEntity
  8
CENTER
100
AcDbLine
 10
251.0516831576932
 20
93.1461840919034
 30
0.0
 11
255.3818101766153
 21
95.64618409190338
 31
0.0
  0
LINE
  5
1A9
330
1F
100
AcDbEntity
  8
CENTER
100
AcDbLine
 10
232.4321369763277
 20
82.39618409190341
 30
0.0
 11
231.5661115725433
 21
81.89618409190342
 31
0.0
  0
LINE
  5
1AA
330
1F
100
AcDbEntity
  8
CENTER
100
AcDbLine
 10
255.8148228785076
 20
95.89618409190338
 30
0.0
 11
256.680848282292
 21
96.39618409190338
 31
0.0
  0
LINE
  5
1AB
330
1F
100
AcDbEntity
  8
CENTER
100
AcDbLine
 10
231.1330988706511
 20
81.64618409190342
 30
0.0
 11
226.8029718517289
 21
79.14618409190342
 31
0.0
  0
LINE
  5
1AC
330
1F
100
AcDbEntity
  8
CENTER
100
AcDbLine
 10
257.1138609841842
 20
96.64618409190338
 30
0.0
 11
261.4439880031064
 21
99.14618409190338
 31
0.0
  0
LINE
  5
1AD
330
1F
100
AcDbEntity
  8
CENTER
100
AcDbLine
 10
226.3699591498367
 20
78.89618409190342
 30
0.0
 11
225.5039337460522
 21
78.39618409190342
 31
0.0
  0
LINE
  5
1AE
330
1F
100
AcDbEntity
  8
CENTER
100
AcDbLine
 10
261.8770007049986
 20
99.39618409190336
 30
0.0
 11
262.7430261087831
 21
99.89618409190336
 31
0.0
  0
LINE
  5
1AF
330
1F
100
AcDbEntity
  8
CENTER
100
AcDbLine
 10
225.07092104416
 20
78.14618409190342
 30
0.0
 11
219.8954807918607
 21
75.1581422690636
 31
0.0
  0
LINE
  5
1B0
330
1F
100
AcDbEntity
  8
CENTER
100
AcDbLine
 10
263.1760388106753
 20
100.1461840919034
 30
0.0
 11
268.3514790629746
 21
103.1342259147432
 31
0.0
  0
LINE
  5
1B1
330
1F
100
AcDbEntity
  8
CENTER
100
AcDbLine
 10
253.1480204238954
 20
97.62249130056847
 30
0.0
 11
254.0140458276799
 21
98.12249130056847
 31
0.0
  0
LINE
  5
1B2
330
1F
100
AcDbEntity
  8
CENTER
100
AcDbLine
 10
252.7150077220032
 20
97.37249130056847
 30
0.0
 11
248.384880703081
 21
94.87249130056847
 31
0.0
  0
LINE
  5
1B3
330
1F
100
AcDbEntity
  8
CENTER
100
AcDbLine
 10
254.4470585295721
 20
98.37249130056847
 30
0.0
 11
258.7771855484943
 21
100.8724913005685
 31
0.0
  0
LINE
  5
1B4
330
1F
100
AcDbEntity
  8
CENTER
100
AcDbLine
 10
247.9518680011888
 20
94.62249130056847
 30
0.0
 11
246.5887617816528
 21
93.8355015577853
 31
0.0
  0
LINE
  5
1B5
330
1F
100
AcDbEntity
  8
CENTER
100
AcDbLine
 10
259.2101982503866
 20
101.1224913005685
 30
0.0
 11
260.5733044699226
 21
101.9094810433516
 31
0.0
  0
LINE
  5
1B6
330
1F
100
AcDbEntity
  8
CENTER
100
AcDbLine
 10
239.0058848001646
 20
105.7874571098458
 30
0.0
 11
239.871910203949
 21
106.2874571098458
 31
0.0
  0
LINE
  5
1B7
330
1F
100
AcDbEntity
  8
CENTER
100
AcDbLine
 10
238.5728720982723
 20
105.5374571098458
 30
0.0
 11
234.2427450793501
 21
103.0374571098458
 31
0.0
  0
LINE
  5
1B8
330
1F
100
AcDbEntity
  8
CENTER
100
AcDbLine
 10
240.3049229058412
 20
106.5374571098458
 30
0.0
 11
244.6350499247634
 21
109.0374571098458
 31
0.0
  0
LINE
  5
1B9
330
1F
100
AcDbEntity
  8
CENTER
100
AcDbLine
 10
233.8097323774579
 20
102.7874571098458
 30
0.0
 11
232.4466261579219
 21
102.0004673670626
 31
0.0
  0
LINE
  5
1BA
330
1F
100
AcDbEntity
  8
CENTER
100
AcDbLine
 10
245.0680626266556
 20
109.2874571098458
 30
0.0
 11
246.4311688461917
 21
110.0744468526289
 31
0.0
  0
LINE
  5
1BB
330
1F
100
AcDbEntity
  8
CENTER
100
AcDbLine
 10
246.2537293073266
 20
93.6420704685458
 30
0.0
 11
247.1197547111111
 21
94.1420704685458
 31
0.0
  0
LINE
  5
1BC
330
1F
100
AcDbEntity
  8
CENTER
100
AcDbLine
 10
245.8207166054344
 20
93.3920704685458
 30
0.0
 11
241.4905895865122
 21
90.89207046854581
 31
0.0
  0
LINE
  5
1BD
330
1F
100
AcDbEntity
  8
CENTER
100
AcDbLine
 10
247.5527674130033
 20
94.3920704685458
 30
0.0
 11
251.8828944319255
 21
96.8920704685458
 31
0.0
  0
LINE
  5
1BE
330
1F
100
AcDbEntity
  8
CENTER
100
AcDbLine
 10
241.05757688462
 20
90.64207046854581
 30
0.0
 11
239.8712473603806
 21
89.9571427983786
 31
0.0
  0
LINE
  5
1BF
330
1F
100
AcDbEntity
  8
CENTER
100
AcDbLine
 10
252.3159071338177
 20
97.1420704685458
 30
0.0
 11
253.5022366580571
 21
97.82699813871301
 31
0.0
  0
LINE
  5
1C0
330
1F
100
AcDbEntity
  8
CENTER
100
AcDbLine
 10
253.1480204238954
 20
74.76058703459218
 30
0.0
 11
254.0140458276799
 21
75.26058703459216
 31
0.0
  0
LINE
  5
1C1
330
1F
100
AcDbEntity
  8
CENTER
100
AcDbLine
 10
252.7150077220032
 20
74.51058703459218
 30
0.0
 11
248.384880703081
 21
72.01058703459218
 31
0.0
  0
LINE
  5
1C2
330
1F
100
AcDbEntity
  8
CENTER
100
AcDbLine
 10
254.4470585295721
 20
75.51058703459216
 30
0.0
 11
258.7771855484943
 21
78.01058703459216
 31
0.0
  0
LINE
  5
1C3
330
1F
100
AcDbEntity
  8
CENTER
100
AcDbLine
 10
247.9518680011888
 20
71.76058703459216
 30
0.0
 11
246.5887617816528
 21
70.973597291809
 31
0.0
  0
LINE
  5
1C4
330
1F
100
AcDbEntity
  8
CENTER
100
AcDbLine
 10
259.2101982503866
 20
78.26058703459216
 30
0.0
 11
260.5733044699226
 21
79.04757677737534
 31
0.0
  0
LINE
  5
1C5
330
1F
100
AcDbEntity
  8
CENTER
100
AcDbLine
 10
232.1115936835957
 20
78.94513201184681
 30
0.0
 11
232.9776190873802
 21
79.4451320118468
 31
0.0
  0
LINE
  5
1C6
330
1F
100
AcDbEntity
  8
CENTER
100
AcDbLine
 10
231.6785809817035
 20
78.69513201184681
 30
0.0
 11
227.3484539627813
 21
76.19513201184681
 31
0.0
  0
LINE
  5
1C7
330
1F
100
AcDbEntity
  8
CENTER
100
AcDbLine
 10
233.4106317892724
 20
79.6951320118468
 30
0.0
 11
237.7407588081946
 21
82.1951320118468
 31
0.0
  0
LINE
  5
1C8
330
1F
100
AcDbEntity
  8
CENTER
100
AcDbLine
 10
226.9154412608891
 20
75.94513201184681
 30
0.0
 11
225.7291117366497
 21
75.2602043416796
 31
0.0
  0
LINE
  5
1C9
330
1F
100
AcDbEntity
  8
CENTER
100
AcDbLine
 10
238.1737715100868
 20
82.4451320118468
 30
0.0
 11
239.3601010343262
 21
83.13005968201401
 31
0.0
  0
LINE
  5
1CA
330
1F
100
AcDbEntity
  8
CENTER
100
AcDbLine
 10
232.1115936835957
 20
101.8070362778231
 30
0.0
 11
232.9776190873801
 21
102.3070362778231
 31
0.0
  0
LINE
  5
1CB
330
1F
100
AcDbEntity
  8
CENTER
100
AcDbLine
 10
231.6785809817035
 20
101.5570362778231
 30
0.0
 11
227.3484539627813
 21
99.0570362778231
 31
0.0
  0
LINE
  5
1CC
330
1F
100
AcDbEntity
  8
CENTER
100
AcDbLine
 10
233.4106317892724
 20
102.5570362778231
 30
0.0
 11
237.7407588081946
 21
105.0570362778231
 31
0.0
  0
LINE
  5
1CD
330
1F
100
AcDbEntity
  8
CENTER
100
AcDbLine
 10
226.9154412608891
 20
98.8070362778231
 30
0.0
 11
225.7291117366497
 21
98.12210860765589
 31
0.0
  0
LINE
  5
1CE
330
1F
100
AcDbEntity
  8
CENTER
100
AcDbLine
 10
238.1737715100868
 20
105.3070362778231
 30
0.0
 11
239.3601010343262
 21
105.9919639479903
 31
0.0
  0
LINE
  5
1CF
330
1F
100
AcDbEntity
  8
CENTER
100
AcDbLine
 10
239.0058848001646
 20
82.92555284386947
 30
0.0
 11
239.871910203949
 21
83.42555284386947
 31
0.0
  0
LINE
  5
1D0
330
1F
100
AcDbEntity
  8
CENTER
100
AcDbLine
 10
238.5728720982723
 20
82.67555284386947
 30
0.0
 11
234.2427450793501
 21
80.17555284386947
 31
0.0
  0
LINE
  5
1D1
330
1F
100
AcDbEntity
  8
CENTER
100
AcDbLine
 10
240.3049229058412
 20
83.67555284386947
 30
0.0
 11
244.6350499247634
 21
86.17555284386947
 31
0.0
  0
LINE
  5
1D2
330
1F
100
AcDbEntity
  8
CENTER
100
AcDbLine
 10
233.8097323774579
 20
79.92555284386948
 30
0.0
 11
232.4466261579219
 21
79.1385631010863
 31
0.0
  0
LINE
  5
1D3
330
1F
100
AcDbEntity
  8
CENTER
100
AcDbLine
 10
245.0680626266556
 20
86.42555284386947
 30
0.0
 11
246.4311688461917
 21
87.21254258665265
 31
0.0
  0
LINE
  5
1D4
330
1F
100
AcDbEntity
  8
CENTER
100
AcDbLine
 10
246.2537293073266
 20
70.7801662025695
 30
0.0
 11
247.1197547111111
 21
71.28016620256952
 31
0.0
  0
LINE
  5
1D5
330
1F
100
AcDbEntity
  8
CENTER
100
AcDbLine
 10
245.8207166054344
 20
70.5301662025695
 30
0.0
 11
241.4905895865122
 21
68.0301662025695
 31
0.0
  0
LINE
  5
1D6
330
1F
100
AcDbEntity
  8
CENTER
100
AcDbLine
 10
247.5527674130033
 20
71.53016620256952
 30
0.0
 11
251.8828944319255
 21
74.03016620256952
 31
0.0
  0
LINE
  5
1D7
330
1F
100
AcDbEntity
  8
CENTER
100
AcDbLine
 10
241.05757688462
 20
67.78016620256949
 30
0.0
 11
239.8712473603806
 21
67.0952385324023
 31
0.0
  0
LINE
  5
1D8
330
1F
100
AcDbEntity
  8
CENTER
100
AcDbLine
 10
252.3159071338177
 20
74.28016620256952
 30
0.0
 11
253.5022366580571
 21
74.96509387273672
 31
0.0
  0
LINE
  5
1D9
330
1F
100
AcDbEntity
  8
VISIBLE
100
AcDbLine
 10
174.520221472136
 20
155.2048883825464
 30
0.0
 11
179.520221472136
 21
154.3232534790041
 31
0.0
  0
LINE
  5
1DA
330
1F
100
AcDbEntity
  8
VISIBLE
100
AcDbLine
 10
187.520221472136
 20
154.3232534790041
 30
0.0
 11
187.520221472136
 21
152.4432534790041
 31
0.0
  0
LINE
  5
1DB
330
1F
100
AcDbEntity
  8
VISIBLE
100
AcDbLine
 10
179.520221472136
 20
152.4432534790041
 30
0.0
 11
174.520221472136
 21
151.5616185754618
 31
0.0
  0
LINE
  5
1DC
330
1F
100
AcDbEntity
  8
VISIBLE
100
AcDbLine
 10
179.520221472136
 20
154.3232534790041
 30
0.0
 11
187.520221472136
 21
154.3232534790041
 31
0.0
  0
LINE
  5
1DD
330
1F
100
AcDbEntity
  8
VISIBLE
100
AcDbLine
 10
187.520221472136
 20
129.733253479004
 30
0.0
 11
187.520221472136
 21
152.4432534790041
 31
0.0
  0
LINE
  5
1DE
330
1F
100
AcDbEntity
  8
VISIBLE
100
AcDbLine
 10
174.520221472136
 20
151.5616185754618
 30
0.0
 11
174.520221472136
 21
129.483253479004
 31
0.0
  0
LINE
  5
1DF
330
1F
100
AcDbEntity
  8
VISIBLE
100
AcDbLine
 10
187.270221472136
 20
177.483253479004
 30
0.0
 11
174.520221472136
 21
177.483253479004
 31
0.0
  0
LINE
  5
1E0
330
1F
100
AcDbEntity
  8
VISIBLE
100
AcDbLine
 10
187.520221472136
 20
152.4432534790041
 30
0.0
 11
179.520221472136
 21
152.4432534790041
 31
0.0
  0
LINE
  5
1E1
330
1F
100
AcDbEntity
  8
VISIBLE
100
AcDbLine
 10
174.520221472136
 20
151.5616185754618
 30
0.0
 11
174.520221472136
 21
155.2048883825464
 31
0.0
  0
LINE
  5
1E2
330
1F
100
AcDbEntity
  8
VISIBLE
100
AcDbLine
 10
187.520221472136
 20
154.3232534790041
 30
0.0
 11
187.520221472136
 21
177.233253479004
 31
0.0
  0
LINE
  5
1E3
330
1F
100
AcDbEntity
  8
VISIBLE
100
AcDbLine
 10
187.520221472136
 20
177.233253479004
 30
0.0
 11
187.270221472136
 21
177.483253479004
 31
0.0
  0
LINE
  5
1E4
330
1F
100
AcDbEntity
  8
VISIBLE
100
AcDbLine
 10
174.520221472136
 20
177.483253479004
 30
0.0
 11
174.520221472136
 21
155.2048883825464
 31
0.0
  0
LINE
  5
1E5
330
1F
100
AcDbEntity
  8
VISIBLE
100
AcDbLine
 10
187.270221472136
 20
129.483253479004
 30
0.0
 11
187.520221472136
 21
129.733253479004
 31
0.0
  0
LINE
  5
1E6
330
1F
100
AcDbEntity
  8
VISIBLE
100
AcDbLine
 10
174.520221472136
 20
129.483253479004
 30
0.0
 11
187.270221472136
 21
129.483253479004
 31
0.0
  0
LINE
  5
1E7
330
1F
100
AcDbEntity
  8
VISIBLE
100
AcDbLine
 10
179.520221472136
 20
152.4432534790041
 30
0.0
 11
179.520221472136
 21
154.3232534790041
 31
0.0
  0
DIMENSION
  5
1E8
330
1F
100
AcDbEntity
  8
DIMENSIONS
100
AcDbDimension
280
     0
  2
D4
 10
0.0
 20
0.0
 30
0.0
 11
303.3813359740895
 21
295.6240335082996
 31
0.0
 70
    32
  1
<>
 71
     5
 42
-1.0
 73
     0
 74
     0
 75
     0
 53
180.0
  3
ISO-25
100
AcDbAlignedDimension
 13
187.520221472136
 23
152.4432534790041
 33
0.0
 14
179.520221472136
 24
152.4432534790041
 34
0.0
 50
180.0
100
AcDbRotatedDimension
1001
ACAD
1000
DSTYLE
1002
{
1070
    76
1070
     0
1070
    75
1070
     0
1070
   282
1070
     0
1070
   281
1070
     0
1070
    77
1070
     1
1070
    79
1070
     0
1070
    78
1070
     0
1070
   272
1070
     2
1070
   271
1070
     2
1070
   179
1070
     2
1070
   140
1040
2.707850318471337
1070
    71
1070
     0
1070
    72
1070
     0
1070
    48
1040
0.002
1070
    47
1040
0.005
1002
}
  0
DIMENSION
  5
1F9
330
1F
100
AcDbEntity
  8
DIMENSIONS
100
AcDbDimension
280
     0
  2
D5
 10
0.0
 20
0.0
 30
0.0
 11
301.4325139526051
 21
270.3712387084963
 31
0.0
 70
    32
  1
<>
 71
     5
 42
-1.0
 73
     0
 74
     0
 75
     0
 53
180.0
  3
ISO-25
100
AcDbAlignedDimension
 13
187.520221472136
 23
129.733253479004
 33
0.0
 14
174.520221472136
 24
129.483253479004
 34
0.0
 50
180.0
100
AcDbRotatedDimension
1001
ACAD
1000
DSTYLE
1002
{
1070
    76
1070
     0
1070
    75
1070
     0
1070
   282
1070
     0
1070
   281
1070
     0
1070
    77
1070
     1
1070
    79
1070
     0
1070
    78
1070
     0
1070
   272
1070
     2
1070
   271
1070
     2
1070
   179
1070
     2
1070
   140
1040
2.707850318471337
1070
    71
1070
     0
1070
    72
1070
     0
1070
    48
1040
0.002
1070
    47
1040
0.005
1002
}
  0
DIMENSION
  5
20A
330
1F
100
AcDbEntity
  8
DIMENSIONS
100
AcDbDimension
280
     0
  2
D6
 10
0.0
 20
0.0
 30
0.0
 11
316.3115422729176
 21
335.9980087280275
 31
0.0
 70
    32
  1
<>x45_
 71
     5
 42
-1.0
 73
     0
 74
     0
 75
     0
  3
ISO-25
100
AcDbAlignedDimension
 13
187.520221472136
 23
177.233253479004
 33
0.0
 14
187.270221472136
 24
177.483253479004
 34
0.0
100
AcDbRotatedDimension
1001
ACAD
1000
DSTYLE
1002
{
1070
    76
1070
     0
1070
    75
1070
     0
1070
   282
1070
     0
1070
   281
1070
     0
1070
    77
1070
     1
1070
    79
1070
     0
1070
    78
1070
     0
1070
   272
1070
     2
1070
   271
1070
     2
1070
   179
1070
     2
1070
   140
1040
2.707850318471337
1070
    71
1070
     0
1070
    72
1070
     0
1070
    48
1040
0.002
1070
    47
1040
0.005
1002
}
  0
DIMENSION
  5
21B
330
1F
100
AcDbEntity
  8
DIMENSIONS
100
AcDbDimension
280
     0
  2
D7
 10
169.3170195105438
 20
156.1223532744503
 30
0.0
 11
286.8337438110032
 21
306.8999557495118
 31
0.0
 70
    34
  1
(<> )
 71
     5
 42
-1.0
 73
     0
 74
     0
 75
     0
  3
ISO-25
100
AcDb2LineAngularDimension
 13
174.520221472136
 23
151.5616185754618
 33
0.0
 14
169.3170195105438
 24
150.6441536835579
 34
0.0
 15
174.520221472136
 25
155.2048883825464
 35
0.0
 16
286.8337438110032
 26
306.8999557495118
 36
0.0
1001
ACAD
1000
DSTYLE
1002
{
1070
    76
1070
     0
1070
    75
1070
     0
1070
   282
1070
     0
1070
   281
1070
     0
1070
    77
1070
     1
1070
    79
1070
     0
1070
    78
1070
     0
1070
   272
1070
     2
1070
   271
1070
     2
1070
   179
1070
     2
1070
   140
1040
2.707850318471337
1070
    71
1070
     0
1070
    72
1070
     0
1070
    48
1040
0.0174527778
1070
    47
1040
0.0174527778
1002
}
  0
MTEXT
  5
22B
330
1F
100
AcDbEntity
  8
CONTINUOUS
100
AcDbMText
 10
179.742773591013
 20
191.934204101563
 30
0.0
 40
2.626484623805732
 41
0.0
 46
0.0
 71
     5
 72
     1
  1
{\fCE|b0|i0|c0|p0;\C7;Section A-A}{\fCE|b0|i0|c0|p0;\C7;}
 73
     1
 44
1.0
  0
HATCH
  5
22C
330
1F
100
AcDbEntity
  8
0
 62
     7
100
AcDbHatch
 10
0.0
 20
0.0
 30
0.0
210
0.0
220
0.0
230
1.0
  2
ISO (Steel)
 70
     0
 71
     0
 91
        2
 92
        0
 93
        6
 72
     1
 10
187.270221472136
 20
129.483253479004
 11
187.520221472136
 21
129.733253479004
 72
     1
 10
187.520221472136
 20
129.733253479004
 11
187.520221472136
 21
152.4432534790041
 72
     1
 10
187.520221472136
 20
152.4432534790041
 11
179.520221472136
 21
152.4432534790041
 72
     1
 10
179.520221472136
 20
152.4432534790041
 11
174.520221472136
 21
151.5616185754618
 72
     1
 10
174.520221472136
 20
151.5616185754618
 11
174.520221472136
 21
129.483253479004
 72
     1
 10
174.520221472136
 20
129.483253479004
 11
187.270221472136
 21
129.483253479004
 97
        0
 92
        0
 93
        6
 72
     1
 10
174.520221472136
 20
155.2048883825464
 11
179.520221472136
 21
154.3232534790041
 72
     1
 10
179.520221472136
 20
154.3232534790041
 11
187.520221472136
 21
154.3232534790041
 72
     1
 10
187.520221472136
 20
154.3232534790041
 11
187.520221472136
 21
177.233253479004
 72
     1
 10
187.520221472136
 20
177.233253479004
 11
187.270221472136
 21
177.483253479004
 72
     1
 10
187.270221472136
 20
177.483253479004
 11
174.520221472136
 21
177.483253479004
 72
     1
 10
174.520221472136
 20
177.483253479004
 11
174.520221472136
 21
155.2048883825464
 97
        0
 75
     0
 76
     1
 52
0.0
 41
1.0
 77
     0
 78
     1
 53
44.99999999999998
 43
119.520221472136
 44
153.483253479004
 45
-2.245064030267288
 46
2.245064030267289
 79
     0
 98
        0
  0
INSERT
  5
22D
330
1F
100
AcDbEntity
  8
CONTINUOUS
100
AcDbBlockReference
  2
BLOCK0
 10
0.0
 20
0.0
 30
0.0
  0
MTEXT
  5
279
330
1F
100
AcDbEntity
  8
CONTINUOUS
100
AcDbMText
 10
262.571197509766
 20
24.86185639426632
 30
0.0
 40
2.079300327179538
 41
0.0
 46
0.0
 71
     1
 72
     1
  1
{\fCE|b0|i0|c0|p0;\C7;1.4301}{\fCE|b0|i0|c0|p0;\C7;}
 73
     1
 44
1.0
  0
MTEXT
  5
27A
330
1F
100
AcDbEntity
  8
CONTINUOUS
100
AcDbMText
 10
260.978546142578
 20
13.48574441001332
 30
0.0
 40
2.079300327179538
 41
0.0
 46
0.0
 71
     1
 72
     1
  1
{\fCE|b0|i0|c0|p0;\C7;1x}{\fCE|b0|i0|c0|p0;\C7;}
 73
     1
 44
1.0
  0
MTEXT
  5
27B
330
1F
100
AcDbEntity
  8
CONTINUOUS
100
AcDbMText
 10
199.669616699219
 20
15.53162091300412
 30
0.0
 40
2.079300327179538
 41
0.0
 46
0.0
 71
     1
 72
     1
  1
{\fCE|b0|i0|c0|p0;\C7;------------------}{\fCE|b0|i0|c0|p0;\C7;}
 73
     1
 44
1.0
  0
MTEXT
  5
27C
330
1F
100
AcDbEntity
  8
CONTINUOUS
100
AcDbMText
 10
276.596923828125
 20
13.70261948630732
 30
0.0
 40
2.079300327179538
 41
0.0
 46
0.0
 71
     1
 72
     1
  1
{\fCE|b0|i0|c0|p0;\C7;1:1}{\fCE|b0|i0|c0|p0;\C7;}
 73
     1
 44
1.0
  0
MTEXT
  5
27D
330
1F
100
AcDbEntity
  8
CONTINUOUS
100
AcDbMText
 10
212.355514526367
 20
25.92701905295772
 30
0.0
 40
2.079300327179538
 41
0.0
 46
0.0
 71
     1
 72
     1
  1
{\fCE|b0|i0|c0|p0;\C7;12x2,5}{\fCE|b0|i0|c0|p0;\C7;}
 73
     1
 44
1.0
  0
MTEXT
  5
27E
330
1F
100
AcDbEntity
  8
CONTINUOUS
100
AcDbMText
 10
233.85107421875
 20
14.29826443717402
 30
0.0
 40
2.079300327179538
 41
0.0
 46
0.0
 71
     1
 72
     1
  1
{\fCE|b0|i0|c0|p0;\C7;20.01.2020}{\fCE|b0|i0|c0|p0;\C7;}
 73
     1
 44
1.0
  0
ENDSEC
  0
SECTION
  2
OBJECTS
  0
DICTIONARY
  5
C
330
0
100
AcDbDictionary
281
     1
  3
ACAD_DETAILVIEWSTYLE
350
286
  3
ACAD_GROUP
350
D
  3
ACAD_LAYOUT
350
1A
  3
ACAD_MATERIAL
350
43
  3
ACAD_MLEADERSTYLE
350
6B
  3
ACAD_MLINESTYLE
350
17
  3
ACAD_PLOTSETTINGS
350
19
  3
ACAD_PLOTSTYLENAME
350
E
  3
ACAD_SCALELIST
350
47
  3
ACAD_SECTIONVIEWSTYLE
350
287
  3
ACAD_TABLESTYLE
350
69
  3
ACAD_VISUALSTYLE
350
2A
  3
ACDB_RECOMPOSE_DATA
350
283
  3
AcDbVariableDictionary
350
27F
  0
SUN
  5
6D
330
29
100
AcDbSun
 90
        1
290
     0
 63
     7
421
 16777215
 40
1.0
291
     1
 91
  2455826
 92
 54000000
292
     0
 70
     2
 71
   256
280
     1
  0
DICTIONARY
  5
286
102
{ACAD_REACTORS
330
C
102
}
330
C
100
AcDbDictionary
281
     1
  0
DICTIONARY
  5
D
102
{ACAD_REACTORS
330
C
102
}
330
C
100
AcDbDictionary
281
     1
  0
DICTIONARY
  5
1A
102
{ACAD_REACTORS
330
C
102
}
330
C
100
AcDbDictionary
281
     1
  3
Layout1
350
1E
  3
Layout2
350
26
  3
Model
350
22
  0
DICTIONARY
  5
43
102
{ACAD_REACTORS
330
C
102
}
330
C
100
AcDbDictionary
281
     1
  3
ByBlock
350
45
  3
ByLayer
350
44
  3
Global
350
46
  0
DICTIONARY
  5
6B
102
{ACAD_REACTORS
330
C
102
}
330
C
100
AcDbDictionary
281
     1
  3
Standard
350
6C
  0
DICTIONARY
  5
17
102
{ACAD_REACTORS
330
C
102
}
330
C
100
AcDbDictionary
281
     1
  3
Standard
350
18
  0
DICTIONARY
  5
19
102
{ACAD_REACTORS
330
C
102
}
330
C
100
AcDbDictionary
281
     1
  0
ACDBDICTIONARYWDFLT
  5
E
102
{ACAD_REACTORS
330
C
102
}
330
C
100
AcDbDictionary
281
     1
  3
Normal
350
F
100
AcDbDictionaryWithDefault
340
F
  0
DICTIONARY
  5
47
102
{ACAD_REACTORS
330
C
102
}
330
C
100
AcDbDictionary
281
     1
  3
A0
350
48
  3
A1
350
49
  3
A2
350
4A
  3
A3
350
4B
  3
A4
350
4C
  3
A5
350
4D
  3
A6
350
4E
  3
A7
350
4F
  3
A8
350
50
  3
A9
350
51
  3
B0
350
52
  3
B1
350
53
  3
B2
350
54
  3
B3
350
55
  3
B4
350
56
  3
B5
350
57
  3
B6
350
58
  3
B7
350
59
  3
B8
350
5A
  3
B9
350
5B
  3
C0
350
5C
  3
C1
350
5D
  3
C2
350
5E
  3
C3
350
5F
  3
C4
350
60
  3
C5
350
61
  3
C6
350
62
  3
C7
350
63
  3
C8
350
64
  3
C9
350
65
  3
D0
350
66
  3
D1
350
67
  3
D2
350
68
  0
DICTIONARY
  5
287
102
{ACAD_REACTORS
330
C
102
}
330
C
100
AcDbDictionary
281
     1
  0
DICTIONARY
  5
69
102
{ACAD_REACTORS
330
C
102
}
330
C
100
AcDbDictionary
281
     1
  3
Standard
350
6A
  0
DICTIONARY
  5
2A
102
{ACAD_REACTORS
330
C
102
}
330
C
100
AcDbDictionary
281
     1
  3
2dWireframe
350
2F
  3
Basic
350
32
  3
Brighten
350
36
  3
ColorChange
350
3A
  3
Conceptual
350
34
  3
Dim
350
35
  3
EdgeColorOff
350
3D
  3
Facepattern
350
39
  3
Flat
350
2B
  3
FlatWithEdges
350
2C
  3
Gouraud
350
2D
  3
GouraudWithEdges
350
2E
  3
Hidden
350
31
  3
JitterOff
350
3B
  3
Linepattern
350
38
  3
OverhangOff
350
3C
  3
Realistic
350
33
  3
Shaded
350
42
  3
Shaded with edges
350
41
  3
Shades of Gray
350
3E
  3
Sketchy
350
3F
  3
Thicken
350
37
  3
Wireframe
350
30
  3
X-Ray
350
40
  0
XRECORD
  5
283
102
{ACAD_REACTORS
330
C
102
}
330
C
100
AcDbXrecord
280
     1
 90
        1
330
6A
  0
DICTIONARY
  5
27F
102
{ACAD_REACTORS
330
C
102
}
330
C
100
AcDbDictionary
281
     1
  3
CANNOSCALE
350
280
  3
CENTEREXE
350
288
  3
CENTERLTYPEFILE
350
289
  3
CMLEADERSTYLE
350
285
  3
CTABLESTYLE
350
284
  0
LAYOUT
  5
1E
102
{ACAD_REACTORS
330
1A
102
}
330
1A
100
AcDbPlotSettings
  1

  2
none_device
  4

  6

 40
0.0
 41
0.0
 42
0.0
 43
0.0
 44
0.0
 45
0.0
 46
0.0
 47
0.0
 48
0.0
 49
0.0
140
0.0
141
0.0
142
1.0
143
1.0
 70
   688
 72
     1
 73
     0
 74
     5
  7

 75
    16
 76
     0
 77
     2
 78
   300
147
1.0
148
0.0
149
0.0
100
AcDbLayout
  1
Layout1
 70
     1
 71
     1
 10
0.0
 20
0.0
 11
420.0
 21
297.0
 12
0.0
 22
0.0
 32
0.0
 14
1.000000000000000E+20
 24
1.000000000000000E+20
 34
1.000000000000000E+20
 15
-1.000000000000000E+20
 25
-1.000000000000000E+20
 35
-1.000000000000000E+20
146
0.0
 13
0.0
 23
0.0
 33
0.0
 16
1.0
 26
0.0
 36
0.0
 17
0.0
 27
1.0
 37
0.0
 76
     0
330
1B
  0
LAYOUT
  5
26
102
{ACAD_REACTORS
330
1A
102
}
330
1A
100
AcDbPlotSettings
  1

  2
none_device
  4

  6

 40
0.0
 41
0.0
 42
0.0
 43
0.0
 44
0.0
 45
0.0
 46
0.0
 47
0.0
 48
0.0
 49
0.0
140
0.0
141
0.0
142
1.0
143
1.0
 70
   688
 72
     1
 73
     0
 74
     5
  7

 75
    16
 76
     0
 77
     2
 78
   300
147
1.0
148
0.0
149
0.0
100
AcDbLayout
  1
Layout2
 70
     1
 71
     2
 10
0.0
 20
0.0
 11
0.0
 21
0.0
 12
0.0
 22
0.0
 32
0.0
 14
0.0
 24
0.0
 34
0.0
 15
0.0
 25
0.0
 35
0.0
146
0.0
 13
0.0
 23
0.0
 33
0.0
 16
1.0
 26
0.0
 36
0.0
 17
0.0
 27
1.0
 37
0.0
 76
     0
330
23
  0
LAYOUT
  5
22
102
{ACAD_REACTORS
330
1A
102
}
330
1A
100
AcDbPlotSettings
  1

  2
none_device
  4
Letter_(8.50_x_11.00_Inches)
  6

 40
6.35
 41
6.35
 42
6.35000508
 43
6.35000508
 44
215.9
 45
279.4
 46
0.0
 47
0.0
 48
0.0
 49
0.0
140
0.0
141
0.0
142
1.0
143
1.0
 70
  1712
 72
     1
 73
     0
 74
     0
  7

 75
     0
 76
     0
 77
     2
 78
   300
147
1.0
148
0.0
149
0.0
100
AcDbLayout
  1
Model
 70
     1
 71
     0
 10
0.0
 20
0.0
 11
420.0
 21
297.0
 12
0.0
 22
0.0
 32
0.0
 14
1.000000000000000E+20
 24
1.000000000000000E+20
 34
1.000000000000000E+20
 15
-1.000000000000000E+20
 25
-1.000000000000000E+20
 35
-1.000000000000000E+20
146
0.0
 13
0.0
 23
0.0
 33
0.0
 16
1.0
 26
0.0
 36
0.0
 17
0.0
 27
1.0
 37
0.0
 76
     0
330
1F
331
29
  0
MATERIAL
  5
45
102
{ACAD_REACTORS
330
43
102
}
330
43
100
AcDbMaterial
  1
ByBlock
 72
     1
 94
      127
  0
MATERIAL
  5
44
102
{ACAD_REACTORS
330
43
102
}
330
43
100
AcDbMaterial
  1
ByLayer
 72
     1
 94
      127
  0
MATERIAL
  5
46
102
{ACAD_REACTORS
330
43
102
}
330
43
100
AcDbMaterial
  1
Global
 72
     1
 94
      127
  0
MLEADERSTYLE
  5
6C
102
{ACAD_REACTORS
330
6B
102
}
330
6B
100
AcDbMLeaderStyle
179
     2
170
     2
171
     1
172
     0
 90
        2
 40
0.0
 41
0.0
173
     1
 91
-1056964608
340
14
 92
       -2
290
     1
 42
2.0
291
     1
 43
8.0
  3
Standard
341
0
 44
4.0
300

342
11
174
     1
178
     6
175
     1
176
     0
 93
-1056964608
 45
4.0
292
     0
297
     0
 46
4.0
343
0
 94
-1056964608
 47
1.0
 49
1.0
140
1.0
293
     1
141
0.0
294
     1
177
     0
142
1.0
295
     0
296
     0
143
3.75
271
     0
272
     9
273
     9
298
     0
  0
MLINESTYLE
  5
18
102
{ACAD_REACTORS
330
17
102
}
330
17
100
AcDbMlineStyle
  2
Standard
 70
     0
  3

 62
   256
 51
90.0
 52
90.0
 71
     2
 49
0.5
 62
   256
  6
BYLAYER
 49
-0.5
 62
   256
  6
BYLAYER
  0
ACDBPLACEHOLDER
  5
F
102
{ACAD_REACTORS
330
E
102
}
330
E
  0
SCALE
  5
48
102
{ACAD_REACTORS
330
47
102
}
330
47
100
AcDbScale
 70
     0
300
1:1
140
1.0
141
1.0
290
     1
  0
SCALE
  5
49
102
{ACAD_REACTORS
330
47
102
}
330
47
100
AcDbScale
 70
     0
300
1:2
140
1.0
141
2.0
290
     0
  0
SCALE
  5
4A
102
{ACAD_REACTORS
330
47
102
}
330
47
100
AcDbScale
 70
     0
300
1:4
140
1.0
141
4.0
290
     0
  0
SCALE
  5
4B
102
{ACAD_REACTORS
330
47
102
}
330
47
100
AcDbScale
 70
     0
300
1:5
140
1.0
141
5.0
290
     0
  0
SCALE
  5
4C
102
{ACAD_REACTORS
330
47
102
}
330
47
100
AcDbScale
 70
     0
300
1:8
140
1.0
141
8.0
290
     0
  0
SCALE
  5
4D
102
{ACAD_REACTORS
330
47
102
}
330
47
100
AcDbScale
 70
     0
300
1:10
140
1.0
141
10.0
290
     0
  0
SCALE
  5
4E
102
{ACAD_REACTORS
330
47
102
}
330
47
100
AcDbScale
 70
     0
300
1:16
140
1.0
141
16.0
290
     0
  0
SCALE
  5
4F
102
{ACAD_REACTORS
330
47
102
}
330
47
100
AcDbScale
 70
     0
300
1:20
140
1.0
141
20.0
290
     0
  0
SCALE
  5
50
102
{ACAD_REACTORS
330
47
102
}
330
47
100
AcDbScale
 70
     0
300
1:30
140
1.0
141
30.0
290
     0
  0
SCALE
  5
51
102
{ACAD_REACTORS
330
47
102
}
330
47
100
AcDbScale
 70
     0
300
1:40
140
1.0
141
40.0
290
     0
  0
SCALE
  5
52
102
{ACAD_REACTORS
330
47
102
}
330
47
100
AcDbScale
 70
     0
300
1:50
140
1.0
141
50.0
290
     0
  0
SCALE
  5
53
102
{ACAD_REACTORS
330
47
102
}
330
47
100
AcDbScale
 70
     0
300
1:100
140
1.0
141
100.0
290
     0
  0
SCALE
  5
54
102
{ACAD_REACTORS
330
47
102
}
330
47
100
AcDbScale
 70
     0
300
2:1
140
2.0
141
1.0
290
     0
  0
SCALE
  5
55
102
{ACAD_REACTORS
330
47
102
}
330
47
100
AcDbScale
 70
     0
300
4:1
140
4.0
141
1.0
290
     0
  0
SCALE
  5
56
102
{ACAD_REACTORS
330
47
102
}
330
47
100
AcDbScale
 70
     0
300
8:1
140
8.0
141
1.0
290
     0
  0
SCALE
  5
57
102
{ACAD_REACTORS
330
47
102
}
330
47
100
AcDbScale
 70
     0
300
10:1
140
10.0
141
1.0
290
     0
  0
SCALE
  5
58
102
{ACAD_REACTORS
330
47
102
}
330
47
100
AcDbScale
 70
     0
300
100:1
140
100.0
141
1.0
290
     0
  0
SCALE
  5
59
102
{ACAD_REACTORS
330
47
102
}
330
47
100
AcDbScale
 70
     0
300
1/128" = 1'-0"
140
0.0078125
141
12.0
290
     0
  0
SCALE
  5
5A
102
{ACAD_REACTORS
330
47
102
}
330
47
100
AcDbScale
 70
     0
300
1/64" = 1'-0"
140
0.015625
141
12.0
290
     0
  0
SCALE
  5
5B
102
{ACAD_REACTORS
330
47
102
}
330
47
100
AcDbScale
 70
     0
300
1/32" = 1'-0"
140
0.03125
141
12.0
290
     0
  0
SCALE
  5
5C
102
{ACAD_REACTORS
330
47
102
}
330
47
100
AcDbScale
 70
     0
300
1/16" = 1'-0"
140
0.0625
141
12.0
290
     0
  0
SCALE
  5
5D
102
{ACAD_REACTORS
330
47
102
}
330
47
100
AcDbScale
 70
     0
300
3/32" = 1'-0"
140
0.09375
141
12.0
290
     0
  0
SCALE
  5
5E
102
{ACAD_REACTORS
330
47
102
}
330
47
100
AcDbScale
 70
     0
300
1/8" = 1'-0"
140
0.125
141
12.0
290
     0
  0
SCALE
  5
5F
102
{ACAD_REACTORS
330
47
102
}
330
47
100
AcDbScale
 70
     0
300
3/16" = 1'-0"
140
0.1875
141
12.0
290
     0
  0
SCALE
  5
60
102
{ACAD_REACTORS
330
47
102
}
330
47
100
AcDbScale
 70
     0
300
1/4" = 1'-0"
140
0.25
141
12.0
290
     0
  0
SCALE
  5
61
102
{ACAD_REACTORS
330
47
102
}
330
47
100
AcDbScale
 70
     0
300
3/8" = 1'-0"
140
0.375
141
12.0
290
     0
  0
SCALE
  5
62
102
{ACAD_REACTORS
330
47
102
}
330
47
100
AcDbScale
 70
     0
300
1/2" = 1'-0"
140
0.5
141
12.0
290
     0
  0
SCALE
  5
63
102
{ACAD_REACTORS
330
47
102
}
330
47
100
AcDbScale
 70
     0
300
3/4" = 1'-0"
140
0.75
141
12.0
290
     0
  0
SCALE
  5
64
102
{ACAD_REACTORS
330
47
102
}
330
47
100
AcDbScale
 70
     0
300
1" = 1'-0"
140
1.0
141
12.0
290
     0
  0
SCALE
  5
65
102
{ACAD_REACTORS
330
47
102
}
330
47
100
AcDbScale
 70
     0
300
1-1/2" = 1'-0"
140
1.5
141
12.0
290
     0
  0
SCALE
  5
66
102
{ACAD_REACTORS
330
47
102
}
330
47
100
AcDbScale
 70
     0
300
3" = 1'-0"
140
3.0
141
12.0
290
     0
  0
SCALE
  5
67
102
{ACAD_REACTORS
330
47
102
}
330
47
100
AcDbScale
 70
     0
300
6" = 1'-0"
140
6.0
141
12.0
290
     0
  0
SCALE
  5
68
102
{ACAD_REACTORS
330
47
102
}
330
47
100
AcDbScale
 70
     0
300
1'-0" = 1'-0"
140
12.0
141
12.0
290
     0
  0
TABLESTYLE
  5
6A
102
{ACAD_REACTORS
330
69
102
}
102
{ACAD_XDICTIONARY
360
281
102
}
330
69
100
AcDbTableStyle
  3
Standard
 70
     0
 71
     0
 40
0.06
 41
0.06
280
     0
281
     0
  7
Standard
140
4.5
170
     2
 62
     0
 63
   257
283
     0
 90
        4
 91
        0
  1

274
    -2
284
     1
 64
     0
275
    -2
285
     1
 65
     0
276
    -2
286
     1
 66
     0
277
    -2
287
     1
 67
     0
278
    -2
288
     1
 68
     0
279
    -2
289
     1
 69
     0
  7
Standard
140
6.0
170
     5
 62
     0
 63
   257
283
     0
 90
        4
 91
        0
  1

274
    -2
284
     1
 64
     0
275
    -2
285
     1
 65
     0
276
    -2
286
     1
 66
     0
277
    -2
287
     1
 67
     0
278
    -2
288
     1
 68
     0
279
    -2
289
     1
 69
     0
  7
Standard
140
4.5
170
     5
 62
     0
 63
   257
283
     0
 90
        4
 91
        0
  1

274
    -2
284
     1
 64
     0
275
    -2
285
     1
 65
     0
276
    -2
286
     1
 66
     0
277
    -2
287
     1
 67
     0
278
    -2
288
     1
 68
     0
279
    -2
289
     1
 69
     0
  0
VISUALSTYLE
  5
2F
102
{ACAD_REACTORS
330
2A
102
}
330
2A
100
AcDbVisualStyle
  2
2dWireframe
 70
     4
177
     3
291
     0
 70
    58
 90
        0
176
     1
 90
        2
176
     1
 90
        0
176
     1
 90
        0
176
     1
 40
0.6
176
     1
 40
30.0
176
     1
 62
     7
420
 16777215
176
     1
 90
        1
176
     1
 90
        4
176
     1
 62
     7
176
     1
 62
   257
176
     1
 90
        1
176
     1
 90
        1
176
     1
 40
1.0
176
     1
 90
        0
176
     1
 62
   257
176
     1
 40
1.0
176
     1
 90
        1
176
     1
 90
        6
176
     1
 90
        2
176
     1
 62
     7
176
     1
 90
        5
176
     1
 90
        0
176
     1
 90
        0
176
     1
290
     0
176
     1
 90
        1
176
     1
 40
0.0
176
     1
 90
        0
176
     1
290
     1
176
     1
290
     1
176
     1
290
     0
176
     1
290
     0
176
     1
290
     0
176
     1
290
     0
176
     1
290
     0
176
     1
290
     0
176
     1
290
     0
176
     1
 90
       50
176
     1
 40
0.0
176
     1
 40
1.0
176
     1
 90
        0
176
     1
 62
    18
420
        0
176
     1
 90
       50
176
     1
 90
        3
176
     1
 62
     5
420
      255
176
     1
290
     0
176
     1
 90
       50
176
     1
 90
       50
176
     1
 90
       50
176
     1
290
     0
176
     1
 90
       50
176
     1
 62
   256
176
     0
 40
1.0
176
     0
 90
        2
176
     1
  1
strokes_ogs.tif
176
     1
290
     0
176
     1
 40
1.0
176
     1
 40
1.0
176
     1
  0
VISUALSTYLE
  5
32
102
{ACAD_REACTORS
330
2A
102
}
330
2A
100
AcDbVisualStyle
  2
Basic
 70
     7
177
     3
291
     1
 70
    58
 90
        1
176
     1
 90
        0
176
     1
 90
        1
176
     1
 90
        0
176
     1
 40
0.6
176
     1
 40
30.0
176
     1
 62
     7
420
 16777215
176
     1
 90
        0
176
     1
 90
        4
176
     1
 62
     7
176
     1
 62
   257
176
     1
 90
        1
176
     1
 90
        1
176
     1
 40
1.0
176
     1
 90
        8
176
     1
 62
     7
176
     1
 40
1.0
176
     1
 90
        1
176
     1
 90
        6
176
     1
 90
        2
176
     1
 62
     7
176
     1
 90
        5
176
     1
 90
        0
176
     1
 90
        0
176
     1
290
     0
176
     1
 90
        1
176
     1
 40
0.0
176
     1
 90
        0
176
     1
290
     0
176
     1
290
     1
176
     1
290
     1
176
     1
290
     0
176
     1
290
     0
176
     1
290
     0
176
     1
290
     0
176
     1
290
     0
176
     1
290
     0
176
     1
 90
       50
176
     1
 40
0.0
176
     1
 40
1.0
176
     1
 90
        0
176
     1
 62
    18
420
        0
176
     1
 90
       50
176
     1
 90
        3
176
     1
 62
     5
420
      255
176
     1
290
     0
176
     1
 90
       50
176
     1
 90
       50
176
     1
 90
       50
176
     1
290
     0
176
     1
 90
       50
176
     1
 62
   256
176
     0
 40
1.0
176
     0
 90
        2
176
     1
  1
strokes_ogs.tif
176
     1
290
     0
176
     1
 40
1.0
176
     1
 40
1.0
176
     1
  0
VISUALSTYLE
  5
36
102
{ACAD_REACTORS
330
2A
102
}
330
2A
100
AcDbVisualStyle
  2
Brighten
 70
    12
177
     3
291
     1
 70
    58
 90
        2
176
     1
 90
        2
176
     1
 90
        0
176
     1
 90
        0
176
     1
 40
0.6
176
     1
 40
30.0
176
     1
 62
     7
420
 16777215
176
     1
 90
        1
176
     1
 90
        4
176
     1
 62
     7
176
     1
 62
   257
176
     1
 90
        1
176
     1
 90
        1
176
     1
 40
1.0
176
     1
 90
        8
176
     1
 62
     7
176
     1
 40
1.0
176
     1
 90
        1
176
     1
 90
        6
176
     1
 90
        2
176
     1
 62
     7
176
     1
 90
        5
176
     1
 90
        0
176
     1
 90
        0
176
     1
290
     0
176
     1
 90
        1
176
     1
 40
50.0
176
     1
 90
        0
176
     1
290
     0
176
     1
290
     1
176
     1
290
     1
176
     1
290
     0
176
     1
290
     0
176
     1
290
     0
176
     1
290
     0
176
     1
290
     0
176
     1
290
     0
176
     1
 90
       50
176
     1
 40
0.0
176
     1
 40
1.0
176
     1
 90
        0
176
     1
 62
    18
420
        0
176
     1
 90
       50
176
     1
 90
        3
176
     1
 62
     5
420
      255
176
     1
290
     0
176
     1
 90
       50
176
     1
 90
       50
176
     1
 90
       50
176
     1
290
     0
176
     1
 90
       50
176
     1
 62
   256
176
     0
 40
1.0
176
     0
 90
        2
176
     1
  1
strokes_ogs.tif
176
     1
290
     0
176
     1
 40
1.0
176
     1
 40
1.0
176
     1
  0
VISUALSTYLE
  5
3A
102
{ACAD_REACTORS
330
2A
102
}
330
2A
100
AcDbVisualStyle
  2
ColorChange
 70
    16
177
     3
291
     1
 70
    58
 90
        2
176
     1
 90
        2
176
     1
 90
        3
176
     1
 90
        0
176
     1
 40
0.6
176
     1
 40
30.0
176
     1
 62
     8
420
  8421504
176
     1
 90
        1
176
     1
 90
        4
176
     1
 62
     7
176
     1
 62
   257
176
     1
 90
        1
176
     1
 90
        1
176
     1
 40
1.0
176
     1
 90
        8
176
     1
 62
     8
420
  8421504
176
     1
 40
1.0
176
     1
 90
        1
176
     1
 90
        6
176
     1
 90
        2
176
     1
 62
     7
176
     1
 90
        5
176
     1
 90
        0
176
     1
 90
        0
176
     1
290
     0
176
     1
 90
        1
176
     1
 40
0.0
176
     1
 90
        0
176
     1
290
     0
176
     1
290
     1
176
     1
290
     1
176
     1
290
     0
176
     1
290
     0
176
     1
290
     0
176
     1
290
     0
176
     1
290
     0
176
     1
290
     0
176
     1
 90
       50
176
     1
 40
0.0
176
     1
 40
1.0
176
     1
 90
        0
176
     1
 62
    18
420
        0
176
     1
 90
       50
176
     1
 90
        3
176
     1
 62
     5
420
      255
176
     1
290
     0
176
     1
 90
       50
176
     1
 90
       50
176
     1
 90
       50
176
     1
290
     0
176
     1
 90
       50
176
     1
 62
   256
176
     0
 40
1.0
176
     0
 90
        2
176
     1
  1
strokes_ogs.tif
176
     1
290
     0
176
     1
 40
1.0
176
     1
 40
1.0
176
     1
  0
VISUALSTYLE
  5
34
102
{ACAD_REACTORS
330
2A
102
}
330
2A
100
AcDbVisualStyle
  2
Conceptual
 70
     9
177
     3
291
     0
 70
    58
 90
        3
176
     1
 90
        2
176
     1
 90
        0
176
     1
 90
        0
176
     1
 40
0.6
176
     1
 40
30.0
176
     1
 62
     7
420
 16777215
176
     1
 90
        2
176
     1
 90
        2
176
     1
 62
     7
176
     1
 62
   257
176
     1
 90
        1
176
     1
 90
        1
176
     1
 40
179.0
176
     1
 90
        8
176
     1
 62
     7
176
     1
 40
1.0
176
     1
 90
        1
176
     1
 90
        6
176
     1
 90
        2
176
     1
 62
     7
176
     1
 90
        3
176
     1
 90
        0
176
     1
 90
        0
176
     1
290
     0
176
     1
 90
        1
176
     1
 40
0.0
176
     1
 90
        0
176
     1
290
     0
176
     1
290
     1
176
     1
290
     1
176
     1
290
     0
176
     1
290
     0
176
     1
290
     0
176
     1
290
     0
176
     1
290
     0
176
     1
290
     0
176
     1
 90
       50
176
     1
 40
0.0
176
     1
 40
1.0
176
     1
 90
        0
176
     1
 62
    18
420
        0
176
     1
 90
       50
176
     1
 90
        3
176
     1
 62
     5
420
      255
176
     1
290
     0
176
     1
 90
       50
176
     1
 90
       50
176
     1
 90
       50
176
     1
290
     0
176
     1
 90
       50
176
     1
 62
   256
176
     0
 40
1.0
176
     0
 90
        2
176
     1
  1
strokes_ogs.tif
176
     1
290
     0
176
     1
 40
1.0
176
     1
 40
1.0
176
     1
  0
VISUALSTYLE
  5
35
102
{ACAD_REACTORS
330
2A
102
}
330
2A
100
AcDbVisualStyle
  2
Dim
 70
    11
177
     3
291
     1
 70
    58
 90
        2
176
     1
 90
        2
176
     1
 90
        0
176
     1
 90
        0
176
     1
 40
0.6
176
     1
 40
30.0
176
     1
 62
     7
420
 16777215
176
     1
 90
        1
176
     1
 90
        4
176
     1
 62
     7
176
     1
 62
   257
176
     1
 90
        1
176
     1
 90
        1
176
     1
 40
1.0
176
     1
 90
        8
176
     1
 62
     7
176
     1
 40
1.0
176
     1
 90
        1
176
     1
 90
        6
176
     1
 90
        2
176
     1
 62
     7
176
     1
 90
        5
176
     1
 90
        0
176
     1
 90
        0
176
     1
290
     0
176
     1
 90
        1
176
     1
 40
-50.0
176
     1
 90
        0
176
     1
290
     0
176
     1
290
     1
176
     1
290
     1
176
     1
290
     0
176
     1
290
     0
176
     1
290
     0
176
     1
290
     0
176
     1
290
     0
176
     1
290
     0
176
     1
 90
       50
176
     1
 40
0.0
176
     1
 40
1.0
176
     1
 90
        0
176
     1
 62
    18
420
        0
176
     1
 90
       50
176
     1
 90
        3
176
     1
 62
     5
420
      255
176
     1
290
     0
176
     1
 90
       50
176
     1
 90
       50
176
     1
 90
       50
176
     1
290
     0
176
     1
 90
       50
176
     1
 62
   256
176
     0
 40
1.0
176
     0
 90
        2
176
     1
  1
strokes_ogs.tif
176
     1
290
     0
176
     1
 40
1.0
176
     1
 40
1.0
176
     1
  0
VISUALSTYLE
  5
3D
102
{ACAD_REACTORS
330
2A
102
}
330
2A
100
AcDbVisualStyle
  2
EdgeColorOff
 70
    22
177
     3
291
     1
 70
    58
 90
        2
176
     0
 90
        2
176
     0
 90
        0
176
     0
 90
        0
176
     0
 40
0.6
176
     0
 40
30.0
176
     0
 62
     7
420
 16777215
176
     0
 90
        1
176
     0
 90
        4
176
     0
 62
     7
176
     0
 62
   257
176
     0
 90
        1
176
     0
 90
        1
176
     0
 40
1.0
176
     0
 90
        8
176
     2
 62
     7
176
     0
 40
1.0
176
     0
 90
        1
176
     0
 90
        6
176
     0
 90
        2
176
     0
 62
     7
176
     0
 90
        5
176
     0
 90
        0
176
     0
 90
        0
176
     0
290
     0
176
     0
 90
        1
176
     0
 40
0.0
176
     0
 90
        0
176
     0
290
     0
176
     0
290
     1
176
     0
290
     1
176
     0
290
     0
176
     0
290
     0
176
     0
290
     0
176
     0
290
     0
176
     0
290
     0
176
     0
290
     0
176
     0
 90
       50
176
     0
 40
0.0
176
     0
 40
1.0
176
     0
 90
        0
176
     0
 62
    18
420
        0
176
     0
 90
       50
176
     0
 90
        3
176
     0
 62
     5
420
      255
176
     0
290
     0
176
     0
 90
       50
176
     0
 90
       50
176
     0
 90
       50
176
     0
290
     0
176
     0
 90
       50
176
     0
 62
   256
176
     0
 40
1.0
176
     0
 90
        2
176
     0
  1
strokes_ogs.tif
176
     0
290
     0
176
     0
 40
1.0
176
     0
 40
1.0
176
     0
  0
VISUALSTYLE
  5
39
102
{ACAD_REACTORS
330
2A
102
}
330
2A
100
AcDbVisualStyle
  2
Facepattern
 70
    15
177
     3
291
     1
 70
    58
 90
        2
176
     1
 90
        2
176
     1
 90
        0
176
     1
 90
        0
176
     1
 40
0.6
176
     1
 40
30.0
176
     1
 62
     7
420
 16777215
176
     1
 90
        1
176
     1
 90
        4
176
     1
 62
     7
176
     1
 62
   257
176
     1
 90
        1
176
     1
 90
        1
176
     1
 40
1.0
176
     1
 90
        8
176
     1
 62
     7
176
     1
 40
1.0
176
     1
 90
        1
176
     1
 90
        6
176
     1
 90
        2
176
     1
 62
     7
176
     1
 90
        5
176
     1
 90
        0
176
     1
 90
        0
176
     1
290
     0
176
     1
 90
        1
176
     1
 40
0.0
176
     1
 90
        0
176
     1
290
     0
176
     1
290
     1
176
     1
290
     1
176
     1
290
     0
176
     1
290
     0
176
     1
290
     0
176
     1
290
     0
176
     1
290
     0
176
     1
290
     0
176
     1
 90
       50
176
     1
 40
0.0
176
     1
 40
1.0
176
     1
 90
        0
176
     1
 62
    18
420
        0
176
     1
 90
       50
176
     1
 90
        3
176
     1
 62
     5
420
      255
176
     1
290
     0
176
     1
 90
       50
176
     1
 90
       50
176
     1
 90
       50
176
     1
290
     0
176
     1
 90
       50
176
     1
 62
   256
176
     0
 40
1.0
176
     0
 90
        2
176
     1
  1
strokes_ogs.tif
176
     1
290
     0
176
     1
 40
1.0
176
     1
 40
1.0
176
     1
  0
VISUALSTYLE
  5
2B
102
{ACAD_REACTORS
330
2A
102
}
330
2A
100
AcDbVisualStyle
  2
Flat
 70
     0
177
     3
291
     1
 70
    58
 90
        2
176
     1
 90
        1
176
     1
 90
        1
176
     1
 90
        2
176
     1
 40
0.6
176
     1
 40
30.0
176
     1
 62
     7
420
 16777215
176
     1
 90
        0
176
     1
 90
        0
176
     1
 62
     7
176
     1
 62
   257
176
     1
 90
        1
176
     1
 90
        1
176
     1
 40
1.0
176
     1
 90
        8
176
     1
 62
     7
176
     1
 40
1.0
176
     1
 90
        1
176
     1
 90
        6
176
     1
 90
        2
176
     1
 62
     7
176
     1
 90
        5
176
     1
 90
        0
176
     1
 90
        0
176
     1
290
     0
176
     1
 90
       13
176
     1
 40
0.0
176
     1
 90
        0
176
     1
290
     0
176
     1
290
     1
176
     1
290
     1
176
     1
290
     0
176
     1
290
     0
176
     1
290
     0
176
     1
290
     0
176
     1
290
     0
176
     1
290
     0
176
     1
 90
       50
176
     1
 40
0.0
176
     1
 40
1.0
176
     1
 90
        0
176
     1
 62
    18
420
        0
176
     1
 90
       50
176
     1
 90
        3
176
     1
 62
     5
420
      255
176
     1
290
     0
176
     1
 90
       50
176
     1
 90
       50
176
     1
 90
       50
176
     1
290
     0
176
     1
 90
       50
176
     1
 62
   256
176
     0
 40
1.0
176
     0
 90
        2
176
     1
  1
strokes_ogs.tif
176
     1
290
     0
176
     1
 40
1.0
176
     1
 40
1.0
176
     1
  0
VISUALSTYLE
  5
2C
102
{ACAD_REACTORS
330
2A
102
}
330
2A
100
AcDbVisualStyle
  2
FlatWithEdges
 70
     1
177
     3
291
     1
 70
    58
 90
        2
176
     1
 90
        1
176
     1
 90
        1
176
     1
 90
        2
176
     1
 40
0.6
176
     1
 40
30.0
176
     1
 62
     7
420
 16777215
176
     1
 90
        1
176
     1
 90
        0
176
     1
 62
     7
176
     1
 62
   257
176
     1
 90
        1
176
     1
 90
        1
176
     1
 40
1.0
176
     1
 90
        0
176
     1
 62
   257
176
     1
 40
1.0
176
     1
 90
        1
176
     1
 90
        6
176
     1
 90
        2
176
     1
 62
     7
176
     1
 90
        5
176
     1
 90
        0
176
     1
 90
        0
176
     1
290
     0
176
     1
 90
       13
176
     1
 40
0.0
176
     1
 90
        0
176
     1
290
     0
176
     1
290
     1
176
     1
290
     1
176
     1
290
     0
176
     1
290
     0
176
     1
290
     0
176
     1
290
     0
176
     1
290
     0
176
     1
290
     0
176
     1
 90
       50
176
     1
 40
0.0
176
     1
 40
1.0
176
     1
 90
        0
176
     1
 62
    18
420
        0
176
     1
 90
       50
176
     1
 90
        3
176
     1
 62
     5
420
      255
176
     1
290
     0
176
     1
 90
       50
176
     1
 90
       50
176
     1
 90
       50
176
     1
290
     0
176
     1
 90
       50
176
     1
 62
   256
176
     0
 40
1.0
176
     0
 90
        2
176
     1
  1
strokes_ogs.tif
176
     1
290
     0
176
     1
 40
1.0
176
     1
 40
1.0
176
     1
  0
VISUALSTYLE
  5
2D
102
{ACAD_REACTORS
330
2A
102
}
330
2A
100
AcDbVisualStyle
  2
Gouraud
 70
     2
177
     3
291
     1
 70
    58
 90
        2
176
     1
 90
        2
176
     1
 90
        1
176
     1
 90
        2
176
     1
 40
0.6
176
     1
 40
30.0
176
     1
 62
     7
420
 16777215
176
     1
 90
        0
176
     1
 90
        0
176
     1
 62
     7
176
     1
 62
   257
176
     1
 90
        1
176
     1
 90
        1
176
     1
 40
1.0
176
     1
 90
        0
176
     1
 62
     7
176
     1
 40
1.0
176
     1
 90
        1
176
     1
 90
        6
176
     1
 90
        2
176
     1
 62
     7
176
     1
 90
        5
176
     1
 90
        0
176
     1
 90
        0
176
     1
290
     0
176
     1
 90
       13
176
     1
 40
0.0
176
     1
 90
        0
176
     1
290
     0
176
     1
290
     1
176
     1
290
     1
176
     1
290
     0
176
     1
290
     0
176
     1
290
     0
176
     1
290
     0
176
     1
290
     0
176
     1
290
     0
176
     1
 90
       50
176
     1
 40
0.0
176
     1
 40
1.0
176
     1
 90
        0
176
     1
 62
    18
420
        0
176
     1
 90
       50
176
     1
 90
        3
176
     1
 62
     5
420
      255
176
     1
290
     0
176
     1
 90
       50
176
     1
 90
       50
176
     1
 90
       50
176
     1
290
     0
176
     1
 90
       50
176
     1
 62
   256
176
     0
 40
1.0
176
     0
 90
        2
176
     1
  1
strokes_ogs.tif
176
     1
290
     0
176
     1
 40
1.0
176
     1
 40
1.0
176
     1
  0
VISUALSTYLE
  5
2E
102
{ACAD_REACTORS
330
2A
102
}
330
2A
100
AcDbVisualStyle
  2
GouraudWithEdges
 70
     3
177
     3
291
     1
 70
    58
 90
        2
176
     1
 90
        2
176
     1
 90
        1
176
     1
 90
        2
176
     1
 40
0.6
176
     1
 40
30.0
176
     1
 62
     7
420
 16777215
176
     1
 90
        1
176
     1
 90
        0
176
     1
 62
     7
176
     1
 62
   257
176
     1
 90
        1
176
     1
 90
        1
176
     1
 40
1.0
176
     1
 90
        0
176
     1
 62
   257
176
     1
 40
1.0
176
     1
 90
        1
176
     1
 90
        6
176
     1
 90
        2
176
     1
 62
     7
176
     1
 90
        5
176
     1
 90
        0
176
     1
 90
        0
176
     1
290
     0
176
     1
 90
       13
176
     1
 40
0.0
176
     1
 90
        0
176
     1
290
     0
176
     1
290
     1
176
     1
290
     1
176
     1
290
     0
176
     1
290
     0
176
     1
290
     0
176
     1
290
     0
176
     1
290
     0
176
     1
290
     0
176
     1
 90
       50
176
     1
 40
0.0
176
     1
 40
1.0
176
     1
 90
        0
176
     1
 62
    18
420
        0
176
     1
 90
       50
176
     1
 90
        3
176
     1
 62
     5
420
      255
176
     1
290
     0
176
     1
 90
       50
176
     1
 90
       50
176
     1
 90
       50
176
     1
290
     0
176
     1
 90
       50
176
     1
 62
   256
176
     0
 40
1.0
176
     0
 90
        2
176
     1
  1
strokes_ogs.tif
176
     1
290
     0
176
     1
 40
1.0
176
     1
 40
1.0
176
     1
  0
VISUALSTYLE
  5
31
102
{ACAD_REACTORS
330
2A
102
}
330
2A
100
AcDbVisualStyle
  2
Hidden
 70
     6
177
     3
291
     0
 70
    58
 90
        1
176
     1
 90
        2
176
     1
 90
        2
176
     1
 90
        0
176
     1
 40
0.6
176
     1
 40
30.0
176
     1
 62
     7
420
 16777215
176
     1
 90
        2
176
     1
 90
        2
176
     1
 62
     7
176
     1
 62
   257
176
     1
 90
        2
176
     1
 90
        1
176
     1
 40
40.0
176
     1
 90
        0
176
     1
 62
   257
176
     1
 40
1.0
176
     1
 90
        1
176
     1
 90
        6
176
     1
 90
        2
176
     1
 62
     7
176
     1
 90
        3
176
     1
 90
        0
176
     1
 90
        0
176
     1
290
     0
176
     1
 90
        1
176
     1
 40
0.0
176
     1
 90
        0
176
     1
290
     0
176
     1
290
     1
176
     1
290
     1
176
     1
290
     0
176
     1
290
     0
176
     1
290
     0
176
     1
290
     0
176
     1
290
     0
176
     1
290
     0
176
     1
 90
       50
176
     1
 40
0.0
176
     1
 40
1.0
176
     1
 90
        0
176
     1
 62
    18
420
        0
176
     1
 90
       50
176
     1
 90
        3
176
     1
 62
     5
420
      255
176
     1
290
     0
176
     1
 90
       50
176
     1
 90
       50
176
     1
 90
       50
176
     1
290
     0
176
     1
 90
       50
176
     1
 62
   256
176
     0
 40
1.0
176
     0
 90
        2
176
     1
  1
strokes_ogs.tif
176
     1
290
     0
176
     1
 40
1.0
176
     1
 40
1.0
176
     1
  0
VISUALSTYLE
  5
3B
102
{ACAD_REACTORS
330
2A
102
}
330
2A
100
AcDbVisualStyle
  2
JitterOff
 70
    20
177
     3
291
     1
 70
    58
 90
        2
176
     0
 90
        2
176
     0
 90
        0
176
     0
 90
        0
176
     0
 40
0.6
176
     0
 40
30.0
176
     0
 62
     7
420
 16777215
176
     0
 90
        1
176
     0
 90
        4
176
     0
 62
     7
176
     0
 62
   257
176
     0
 90
        1
176
     0
 90
        1
176
     0
 40
1.0
176
     0
 90
       10
176
     2
 62
     7
176
     0
 40
1.0
176
     0
 90
        1
176
     0
 90
        6
176
     0
 90
        2
176
     0
 62
     7
176
     0
 90
        5
176
     0
 90
        0
176
     0
 90
        0
176
     0
290
     0
176
     0
 90
        1
176
     0
 40
0.0
176
     0
 90
        0
176
     0
290
     0
176
     0
290
     1
176
     0
290
     1
176
     0
290
     0
176
     0
290
     0
176
     0
290
     0
176
     0
290
     0
176
     0
290
     0
176
     0
290
     0
176
     0
 90
       50
176
     0
 40
0.0
176
     0
 40
1.0
176
     0
 90
        0
176
     0
 62
    18
420
        0
176
     0
 90
       50
176
     0
 90
        3
176
     0
 62
     5
420
      255
176
     0
290
     0
176
     0
 90
       50
176
     0
 90
       50
176
     0
 90
       50
176
     0
290
     0
176
     0
 90
       50
176
     0
 62
   256
176
     0
 40
1.0
176
     0
 90
        2
176
     0
  1
strokes_ogs.tif
176
     0
290
     0
176
     0
 40
1.0
176
     0
 40
1.0
176
     0
  0
VISUALSTYLE
  5
38
102
{ACAD_REACTORS
330
2A
102
}
330
2A
100
AcDbVisualStyle
  2
Linepattern
 70
    14
177
     3
291
     1
 70
    58
 90
        2
176
     1
 90
        2
176
     1
 90
        0
176
     1
 90
        0
176
     1
 40
0.6
176
     1
 40
30.0
176
     1
 62
     7
420
 16777215
176
     1
 90
        1
176
     1
 90
        4
176
     1
 62
     7
176
     1
 62
   257
176
     1
 90
        7
176
     1
 90
        7
176
     1
 40
1.0
176
     1
 90
        8
176
     1
 62
     7
176
     1
 40
1.0
176
     1
 90
        1
176
     1
 90
        6
176
     1
 90
        2
176
     1
 62
     7
176
     1
 90
        5
176
     1
 90
        0
176
     1
 90
        0
176
     1
290
     0
176
     1
 90
        1
176
     1
 40
0.0
176
     1
 90
        0
176
     1
290
     0
176
     1
290
     1
176
     1
290
     1
176
     1
290
     0
176
     1
290
     0
176
     1
290
     0
176
     1
290
     0
176
     1
290
     0
176
     1
290
     0
176
     1
 90
       50
176
     1
 40
0.0
176
     1
 40
1.0
176
     1
 90
        0
176
     1
 62
    18
420
        0
176
     1
 90
       50
176
     1
 90
        3
176
     1
 62
     5
420
      255
176
     1
290
     0
176
     1
 90
       50
176
     1
 90
       50
176
     1
 90
       50
176
     1
290
     0
176
     1
 90
       50
176
     1
 62
   256
176
     0
 40
1.0
176
     0
 90
        2
176
     1
  1
strokes_ogs.tif
176
     1
290
     0
176
     1
 40
1.0
176
     1
 40
1.0
176
     1
  0
VISUALSTYLE
  5
3C
102
{ACAD_REACTORS
330
2A
102
}
330
2A
100
AcDbVisualStyle
  2
OverhangOff
 70
    21
177
     3
291
     1
 70
    58
 90
        2
176
     0
 90
        2
176
     0
 90
        0
176
     0
 90
        0
176
     0
 40
0.6
176
     0
 40
30.0
176
     0
 62
     7
420
 16777215
176
     0
 90
        1
176
     0
 90
        4
176
     0
 62
     7
176
     0
 62
   257
176
     0
 90
        1
176
     0
 90
        1
176
     0
 40
1.0
176
     0
 90
        9
176
     2
 62
     7
176
     0
 40
1.0
176
     0
 90
        1
176
     0
 90
        6
176
     0
 90
        2
176
     0
 62
     7
176
     0
 90
        5
176
     0
 90
        0
176
     0
 90
        0
176
     0
290
     0
176
     0
 90
        1
176
     0
 40
0.0
176
     0
 90
        0
176
     0
290
     0
176
     0
290
     1
176
     0
290
     1
176
     0
290
     0
176
     0
290
     0
176
     0
290
     0
176
     0
290
     0
176
     0
290
     0
176
     0
290
     0
176
     0
 90
       50
176
     0
 40
0.0
176
     0
 40
1.0
176
     0
 90
        0
176
     0
 62
    18
420
        0
176
     0
 90
       50
176
     0
 90
        3
176
     0
 62
     5
420
      255
176
     0
290
     0
176
     0
 90
       50
176
     0
 90
       50
176
     0
 90
       50
176
     0
290
     0
176
     0
 90
       50
176
     0
 62
   256
176
     0
 40
1.0
176
     0
 90
        2
176
     0
  1
strokes_ogs.tif
176
     0
290
     0
176
     0
 40
1.0
176
     0
 40
1.0
176
     0
  0
VISUALSTYLE
  5
33
102
{ACAD_REACTORS
330
2A
102
}
330
2A
100
AcDbVisualStyle
  2
Realistic
 70
     8
177
     3
291
     0
 70
    58
 90
        2
176
     1
 90
        3
176
     1
 90
        0
176
     1
 90
        2
176
     1
 40
0.6
176
     1
 40
30.0
176
     1
 62
     7
420
 16777215
176
     1
 90
        0
176
     1
 90
        0
176
     1
 62
     7
176
     1
 62
   257
176
     1
 90
        1
176
     1
 90
        1
176
     1
 40
1.0
176
     1
 90
        8
176
     1
 62
   257
176
     1
 40
1.0
176
     1
 90
        1
176
     1
 90
        6
176
     1
 90
        2
176
     1
 62
     7
176
     1
 90
        3
176
     1
 90
        0
176
     1
 90
        0
176
     1
290
     0
176
     1
 90
       13
176
     1
 40
0.0
176
     1
 90
        0
176
     1
290
     0
176
     1
290
     1
176
     1
290
     1
176
     1
290
     0
176
     1
290
     0
176
     1
290
     0
176
     1
290
     0
176
     1
290
     0
176
     1
290
     0
176
     1
 90
       50
176
     1
 40
0.0
176
     1
 40
1.0
176
     1
 90
        0
176
     1
 62
    18
420
        0
176
     1
 90
       50
176
     1
 90
        3
176
     1
 62
     5
420
      255
176
     1
290
     0
176
     1
 90
       50
176
     1
 90
       50
176
     1
 90
       50
176
     1
290
     0
176
     1
 90
       50
176
     1
 62
   256
176
     0
 40
1.0
176
     0
 90
        2
176
     1
  1
strokes_ogs.tif
176
     1
290
     0
176
     1
 40
1.0
176
     1
 40
1.0
176
     1
  0
VISUALSTYLE
  5
42
102
{ACAD_REACTORS
330
2A
102
}
330
2A
100
AcDbVisualStyle
  2
Shaded
 70
    27
177
     3
291
     0
 70
    58
 90
        2
176
     1
 90
        2
176
     1
 90
        1
176
     1
 90
        2
176
     1
 40
0.6
176
     1
 40
30.0
176
     1
 62
     7
420
 16777215
176
     1
 90
        0
176
     1
 90
        4
176
     1
 62
     7
176
     1
 62
   257
176
     1
 90
        1
176
     1
 90
        1
176
     1
 40
1.0
176
     1
 90
        8
176
     1
 62
   257
176
     1
 40
1.0
176
     1
 90
        1
176
     1
 90
        6
176
     1
 90
        2
176
     1
 62
     8
420
  7895160
176
     1
 90
        3
176
     1
 90
        0
176
     1
 90
        0
176
     1
290
     0
176
     1
 90
        5
176
     1
 40
0.0
176
     1
 90
        0
176
     1
290
     0
176
     1
290
     1
176
     1
290
     1
176
     1
290
     0
176
     1
290
     0
176
     1
290
     0
176
     1
290
     0
176
     1
290
     0
176
     1
290
     0
176
     1
 90
       50
176
     1
 40
0.0
176
     1
 40
1.0
176
     1
 90
        0
176
     1
 62
    18
420
        0
176
     1
 90
       50
176
     1
 90
        3
176
     1
 62
     5
420
      255
176
     1
290
     0
176
     1
 90
       50
176
     1
 90
       50
176
     1
 90
       50
176
     1
290
     0
176
     1
 90
       50
176
     1
 62
   256
176
     0
 40
1.0
176
     0
 90
        2
176
     1
  1
strokes_ogs.tif
176
     1
290
     0
176
     1
 40
1.0
176
     1
 40
1.0
176
     1
  0
VISUALSTYLE
  5
41
102
{ACAD_REACTORS
330
2A
102
}
330
2A
100
AcDbVisualStyle
  2
Shaded with edges
 70
    26
177
     3
291
     0
 70
    58
 90
        2
176
     1
 90
        2
176
     1
 90
        1
176
     1
 90
        2
176
     1
 40
0.6
176
     1
 40
30.0
176
     1
 62
     7
420
 16777215
176
     1
 90
        1
176
     1
 90
       10
176
     1
 62
     7
176
     1
 62
   257
176
     1
 90
        2
176
     1
 90
        1
176
     1
 40
1.0
176
     1
 90
        8
176
     1
 62
   257
176
     1
 40
1.0
176
     1
 90
        1
176
     1
 90
        6
176
     1
 90
        2
176
     1
 62
     7
176
     1
 90
        3
176
     1
 90
        0
176
     1
 90
        0
176
     1
290
     0
176
     1
 90
        5
176
     1
 40
0.0
176
     1
 90
        0
176
     1
290
     0
176
     1
290
     1
176
     1
290
     1
176
     1
290
     0
176
     1
290
     0
176
     1
290
     0
176
     1
290
     0
176
     1
290
     0
176
     1
290
     0
176
     1
 90
       50
176
     1
 40
0.0
176
     1
 40
1.0
176
     1
 90
        0
176
     1
 62
    18
420
        0
176
     1
 90
       50
176
     1
 90
        3
176
     1
 62
     5
420
      255
176
     1
290
     0
176
     1
 90
       50
176
     1
 90
       50
176
     1
 90
       50
176
     1
290
     0
176
     1
 90
       50
176
     1
 62
   256
176
     0
 40
1.0
176
     0
 90
        2
176
     1
  1
strokes_ogs.tif
176
     1
290
     0
176
     1
 40
1.0
176
     1
 40
1.0
176
     1
  0
VISUALSTYLE
  5
3E
102
{ACAD_REACTORS
330
2A
102
}
330
2A
100
AcDbVisualStyle
  2
Shades of Gray
 70
    23
177
     3
291
     0
 70
    58
 90
        2
176
     1
 90
        2
176
     1
 90
        3
176
     1
 90
        0
176
     1
 40
0.6
176
     1
 40
30.0
176
     1
 62
     7
420
 16777215
176
     1
 90
        2
176
     1
 90
        2
176
     1
 62
     7
176
     1
 62
     7
176
     1
 90
        1
176
     1
 90
        1
176
     1
 40
40.0
176
     1
 90
        8
176
     1
 62
     7
176
     1
 40
1.0
176
     1
 90
        1
176
     1
 90
        6
176
     1
 90
        2
176
     1
 62
     7
176
     1
 90
        3
176
     1
 90
        0
176
     1
 90
        0
176
     1
290
     0
176
     1
 90
        1
176
     1
 40
0.0
176
     1
 90
        0
176
     1
290
     0
176
     1
290
     1
176
     1
290
     1
176
     1
290
     0
176
     1
290
     0
176
     1
290
     0
176
     1
290
     0
176
     1
290
     0
176
     1
290
     0
176
     1
 90
       50
176
     1
 40
0.0
176
     1
 40
1.0
176
     1
 90
        0
176
     1
 62
    18
420
        0
176
     1
 90
       50
176
     1
 90
        3
176
     1
 62
     5
420
      255
176
     1
290
     0
176
     1
 90
       50
176
     1
 90
       50
176
     1
 90
       50
176
     1
290
     0
176
     1
 90
       50
176
     1
 62
   256
176
     0
 40
1.0
176
     0
 90
        2
176
     1
  1
strokes_ogs.tif
176
     1
290
     0
176
     1
 40
1.0
176
     1
 40
1.0
176
     1
  0
VISUALSTYLE
  5
3F
102
{ACAD_REACTORS
330
2A
102
}
330
2A
100
AcDbVisualStyle
  2
Sketchy
 70
    24
177
     3
291
     0
 70
    58
 90
        1
176
     1
 90
        2
176
     1
 90
        2
176
     1
 90
        0
176
     1
 40
0.6
176
     1
 40
30.0
176
     1
 62
     7
420
 16777215
176
     1
 90
        2
176
     1
 90
        2
176
     1
 62
     7
176
     1
 62
     7
176
     1
 90
        1
176
     1
 90
        1
176
     1
 40
40.0
176
     1
 90
       11
176
     1
 62
     7
176
     1
 40
1.0
176
     1
 90
        1
176
     1
 90
        6
176
     1
 90
        2
176
     1
 62
     7
176
     1
 90
        6
176
     1
 90
        0
176
     1
 90
        0
176
     1
290
     0
176
     1
 90
        1
176
     1
 40
0.0
176
     1
 90
        0
176
     1
290
     0
176
     1
290
     1
176
     1
290
     1
176
     1
290
     0
176
     1
290
     0
176
     1
290
     0
176
     1
290
     0
176
     1
290
     0
176
     1
290
     0
176
     1
 90
       50
176
     1
 40
0.0
176
     1
 40
1.0
176
     1
 90
        0
176
     1
 62
    18
420
        0
176
     1
 90
       50
176
     1
 90
        3
176
     1
 62
     5
420
      255
176
     1
290
     0
176
     1
 90
       50
176
     1
 90
       50
176
     1
 90
       50
176
     1
290
     0
176
     1
 90
       50
176
     1
 62
   256
176
     0
 40
1.0
176
     0
 90
        2
176
     1
  1
strokes_ogs.tif
176
     1
290
     0
176
     1
 40
1.0
176
     1
 40
1.0
176
     1
  0
VISUALSTYLE
  5
37
102
{ACAD_REACTORS
330
2A
102
}
330
2A
100
AcDbVisualStyle
  2
Thicken
 70
    13
177
     3
291
     1
 70
    58
 90
        2
176
     1
 90
        2
176
     1
 90
        0
176
     1
 90
        0
176
     1
 40
0.6
176
     1
 40
30.0
176
     1
 62
     7
420
 16777215
176
     1
 90
        1
176
     1
 90
        4
176
     1
 62
     7
176
     1
 62
   257
176
     1
 90
        1
176
     1
 90
        1
176
     1
 40
1.0
176
     1
 90
       12
176
     1
 62
     7
176
     1
 40
1.0
176
     1
 90
        1
176
     1
 90
        6
176
     1
 90
        2
176
     1
 62
     7
176
     1
 90
        5
176
     1
 90
        0
176
     1
 90
        0
176
     1
290
     0
176
     1
 90
        1
176
     1
 40
0.0
176
     1
 90
        0
176
     1
290
     0
176
     1
290
     1
176
     1
290
     1
176
     1
290
     0
176
     1
290
     0
176
     1
290
     0
176
     1
290
     0
176
     1
290
     0
176
     1
290
     0
176
     1
 90
       50
176
     1
 40
0.0
176
     1
 40
1.0
176
     1
 90
        0
176
     1
 62
    18
420
        0
176
     1
 90
       50
176
     1
 90
        3
176
     1
 62
     5
420
      255
176
     1
290
     0
176
     1
 90
       50
176
     1
 90
       50
176
     1
 90
       50
176
     1
290
     0
176
     1
 90
       50
176
     1
 62
   256
176
     0
 40
1.0
176
     0
 90
        2
176
     1
  1
strokes_ogs.tif
176
     1
290
     0
176
     1
 40
1.0
176
     1
 40
1.0
176
     1
  0
VISUALSTYLE
  5
30
102
{ACAD_REACTORS
330
2A
102
}
330
2A
100
AcDbVisualStyle
  2
Wireframe
 70
     5
177
     3
291
     0
 70
    58
 90
        0
176
     1
 90
        2
176
     1
 90
        0
176
     1
 90
        0
176
     1
 40
0.6
176
     1
 40
30.0
176
     1
 62
     7
420
 16777215
176
     1
 90
        1
176
     1
 90
        4
176
     1
 62
     7
176
     1
 62
   257
176
     1
 90
        1
176
     1
 90
        1
176
     1
 40
1.0
176
     1
 90
        0
176
     1
 62
   257
176
     1
 40
1.0
176
     1
 90
        1
176
     1
 90
        6
176
     1
 90
        2
176
     1
 62
     7
176
     1
 90
        3
176
     1
 90
        0
176
     1
 90
        0
176
     1
290
     0
176
     1
 90
        1
176
     1
 40
0.0
176
     1
 90
        0
176
     1
290
     0
176
     1
290
     1
176
     1
290
     1
176
     1
290
     0
176
     1
290
     0
176
     1
290
     0
176
     1
290
     0
176
     1
290
     0
176
     1
290
     0
176
     1
 90
       50
176
     1
 40
0.0
176
     1
 40
1.0
176
     1
 90
        0
176
     1
 62
    18
420
        0
176
     1
 90
       50
176
     1
 90
        3
176
     1
 62
     5
420
      255
176
     1
290
     0
176
     1
 90
       50
176
     1
 90
       50
176
     1
 90
       50
176
     1
290
     0
176
     1
 90
       50
176
     1
 62
   256
176
     0
 40
1.0
176
     0
 90
        2
176
     1
  1
strokes_ogs.tif
176
     1
290
     0
176
     1
 40
1.0
176
     1
 40
1.0
176
     1
  0
VISUALSTYLE
  5
40
102
{ACAD_REACTORS
330
2A
102
}
330
2A
100
AcDbVisualStyle
  2
X-Ray
 70
    25
177
     3
291
     0
 70
    58
 90
        2
176
     1
 90
        2
176
     1
 90
        1
176
     1
 90
        1
176
     1
 40
0.5
176
     1
 40
30.0
176
     1
 62
     7
420
 16777215
176
     1
 90
        1
176
     1
 90
        0
176
     1
 62
     7
176
     1
 62
   257
176
     1
 90
        1
176
     1
 90
        1
176
     1
 40
1.0
176
     1
 90
        8
176
     1
 62
     7
176
     1
 40
1.0
176
     1
 90
        1
176
     1
 90
        6
176
     1
 90
        2
176
     1
 62
     7
176
     1
 90
        3
176
     1
 90
        0
176
     1
 90
        0
176
     1
290
     0
176
     1
 90
       13
176
     1
 40
0.0
176
     1
 90
        0
176
     1
290
     0
176
     1
290
     1
176
     1
290
     1
176
     1
290
     0
176
     1
290
     0
176
     1
290
     0
176
     1
290
     0
176
     1
290
     0
176
     1
290
     0
176
     1
 90
       50
176
     1
 40
0.0
176
     1
 40
1.0
176
     1
 90
        0
176
     1
 62
    18
420
        0
176
     1
 90
       50
176
     1
 90
        3
176
     1
 62
     5
420
      255
176
     1
290
     0
176
     1
 90
       50
176
     1
 90
       50
176
     1
 90
       50
176
     1
290
     0
176
     1
 90
       50
176
     1
 62
   256
176
     0
 40
1.0
176
     0
 90
        2
176
     1
  1
strokes_ogs.tif
176
     1
290
     0
176
     1
 40
1.0
176
     1
 40
1.0
176
     1
  0
DICTIONARYVAR
  5
280
102
{ACAD_REACTORS
330
27F
102
}
330
27F
100
DictionaryVariables
280
     0
  1
1:1
  0
DICTIONARYVAR
  5
288
102
{ACAD_REACTORS
330
27F
102
}
330
27F
100
DictionaryVariables
280
     0
  1
3.500000
  0
DICTIONARYVAR
  5
289
102
{ACAD_REACTORS
330
27F
102
}
330
27F
100
DictionaryVariables
280
     0
  1
acadiso.lin
  0
DICTIONARYVAR
  5
285
102
{ACAD_REACTORS
330
27F
102
}
330
27F
100
DictionaryVariables
280
     0
  1
Standard
  0
DICTIONARYVAR
  5
284
102
{ACAD_REACTORS
330
27F
102
}
330
27F
100
DictionaryVariables
280
     0
  1
Standard
  0
DICTIONARY
  5
281
330
6A
100
AcDbDictionary
280
     1
281
     1
  3
ACAD_ROUNDTRIP_2008_TABLESTYLE_CELLSTYLEMAP
360
282
  0
CELLSTYLEMAP
  5
282
102
{ACAD_REACTORS
330
281
102
}
330
281
100
AcDbCellStyleMap
 90
        3
300
CELLSTYLE
  1
TABLEFORMAT_BEGIN
 90
        5
170
     1
 91
        0
 92
    32768
 62
   257
 93
        1
300
CONTENTFORMAT
  1
CONTENTFORMAT_BEGIN
 90
        0
 91
        0
 92
        4
 93
        0
300

 40
0.0
140
1.0
 94
        5
 62
     0
340
11
144
6.0
309
CONTENTFORMAT_END
171
     1
301
MARGIN
  1
CELLMARGIN_BEGIN
 40
1.5
 40
1.5
 40
1.5
 40
1.5
 40
1.5
 40
1.5
309
CELLMARGIN_END
 94
        6
 95
        1
302
GRIDFORMAT
  1
GRIDFORMAT_BEGIN
 90
        0
 91
        1
 62
     0
 92
       -2
340
14
 93
        0
 40
0.045
309
GRIDFORMAT_END
 95
        2
302
GRIDFORMAT
  1
GRIDFORMAT_BEGIN
 90
        0
 91
        1
 62
     0
 92
       -2
340
14
 93
        0
 40
0.045
309
GRIDFORMAT_END
 95
        4
302
GRIDFORMAT
  1
GRIDFORMAT_BEGIN
 90
        0
 91
        1
 62
     0
 92
       -2
340
14
 93
        0
 40
0.045
309
GRIDFORMAT_END
 95
        8
302
GRIDFORMAT
  1
GRIDFORMAT_BEGIN
 90
        0
 91
        1
 62
     0
 92
       -2
340
14
 93
        0
 40
0.045
309
GRIDFORMAT_END
 95
       16
302
GRIDFORMAT
  1
GRIDFORMAT_BEGIN
 90
        0
 91
        1
 62
     0
 92
       -2
340
14
 93
        0
 40
0.045
309
GRIDFORMAT_END
 95
       32
302
GRIDFORMAT
  1
GRIDFORMAT_BEGIN
 90
        0
 91
        1
 62
     0
 92
       -2
340
14
 93
        0
 40
0.045
309
GRIDFORMAT_END
309
TABLEFORMAT_END
  1
CELLSTYLE_BEGIN
 90
        1
 91
        1
300
_TITLE
309
CELLSTYLE_END
300
CELLSTYLE
  1
TABLEFORMAT_BEGIN
 90
        5
170
     1
 91
        0
 92
        0
 62
   257
 93
        1
300
CONTENTFORMAT
  1
CONTENTFORMAT_BEGIN
 90
        0
 91
        0
 92
        4
 93
        0
300

 40
0.0
140
1.0
 94
        5
 62
     0
340
11
144
4.5
309
CONTENTFORMAT_END
171
     1
301
MARGIN
  1
CELLMARGIN_BEGIN
 40
1.5
 40
1.5
 40
1.5
 40
1.5
 40
1.5
 40
1.5
309
CELLMARGIN_END
 94
        6
 95
        1
302
GRIDFORMAT
  1
GRIDFORMAT_BEGIN
 90
        0
 91
        1
 62
     0
 92
       -2
340
14
 93
        0
 40
0.045
309
GRIDFORMAT_END
 95
        2
302
GRIDFORMAT
  1
GRIDFORMAT_BEGIN
 90
        0
 91
        1
 62
     0
 92
       -2
340
14
 93
        0
 40
0.045
309
GRIDFORMAT_END
 95
        4
302
GRIDFORMAT
  1
GRIDFORMAT_BEGIN
 90
        0
 91
        1
 62
     0
 92
       -2
340
14
 93
        0
 40
0.045
309
GRIDFORMAT_END
 95
        8
302
GRIDFORMAT
  1
GRIDFORMAT_BEGIN
 90
        0
 91
        1
 62
     0
 92
       -2
340
14
 93
        0
 40
0.045
309
GRIDFORMAT_END
 95
       16
302
GRIDFORMAT
  1
GRIDFORMAT_BEGIN
 90
        0
 91
        1
 62
     0
 92
       -2
340
14
 93
        0
 40
0.045
309
GRIDFORMAT_END
 95
       32
302
GRIDFORMAT
  1
GRIDFORMAT_BEGIN
 90
        0
 91
        1
 62
     0
 92
       -2
340
14
 93
        0
 40
0.045
309
GRIDFORMAT_END
309
TABLEFORMAT_END
  1
CELLSTYLE_BEGIN
 90
        2
 91
        1
300
_HEADER
309
CELLSTYLE_END
300
CELLSTYLE
  1
TABLEFORMAT_BEGIN
 90
        5
170
     1
 91
        0
 92
        0
 62
   257
 93
        1
300
CONTENTFORMAT
  1
CONTENTFORMAT_BEGIN
 90
        0
 91
        0
 92
        4
 93
        0
300

 40
0.0
140
1.0
 94
        2
 62
     0
340
11
144
4.5
309
CONTENTFORMAT_END
171
     1
301
MARGIN
  1
CELLMARGIN_BEGIN
 40
1.5
 40
1.5
 40
1.5
 40
1.5
 40
1.5
 40
1.5
309
CELLMARGIN_END
 94
        6
 95
        1
302
GRIDFORMAT
  1
GRIDFORMAT_BEGIN
 90
        0
 91
        1
 62
     0
 92
       -2
340
14
 93
        0
 40
0.045
309
GRIDFORMAT_END
 95
        2
302
GRIDFORMAT
  1
GRIDFORMAT_BEGIN
 90
        0
 91
        1
 62
     0
 92
       -2
340
14
 93
        0
 40
0.045
309
GRIDFORMAT_END
 95
        4
302
GRIDFORMAT
  1
GRIDFORMAT_BEGIN
 90
        0
 91
        1
 62
     0
 92
       -2
340
14
 93
        0
 40
0.045
309
GRIDFORMAT_END
 95
        8
302
GRIDFORMAT
  1
GRIDFORMAT_BEGIN
 90
        0
 91
        1
 62
     0
 92
       -2
340
14
 93
        0
 40
0.045
309
GRIDFORMAT_END
 95
       16
302
GRIDFORMAT
  1
GRIDFORMAT_BEGIN
 90
        0
 91
        1
 62
     0
 92
       -2
340
14
 93
        0
 40
0.045
309
GRIDFORMAT_END
 95
       32
302
GRIDFORMAT
  1
GRIDFORMAT_BEGIN
 90
        0
 91
        1
 62
     0
 92
       -2
340
14
 93
        0
 40
0.045
309
GRIDFORMAT_END
309
TABLEFORMAT_END
  1
CELLSTYLE_BEGIN
 90
        3
 91
        2
300
_DATA
309
CELLSTYLE_END
  0
ENDSEC
  0
EOF
