  0
SECTION
  2
HEADER
  9
$ACADVER
  1
AC1032
  9
$ACADMAINTVER
 90
        4
  9
$DWGCODEPAGE
  3
ANSI_1250
  9
$REQUIREDVERSIONS
160
                 0
  9
$INSBASE
 10
0.0
 20
0.0
 30
0.0
  9
$EXTMIN
 10
1.000000000000000E+20
 20
1.000000000000000E+20
 30
1.000000000000000E+20
  9
$EXTMAX
 10
-1.000000000000000E+20
 20
-1.000000000000000E+20
 30
-1.000000000000000E+20
  9
$LIMMIN
 10
0.0
 20
0.0
  9
$LIMMAX
 10
420.0
 20
297.0
  9
$ORTHOMODE
 70
     0
  9
$REGENMODE
 70
     1
  9
$FILLMODE
 70
     1
  9
$QTEXTMODE
 70
     0
  9
$MIRRTEXT
 70
     1
  9
$LTSCALE
 40
1.0
  9
$ATTMODE
 70
     1
  9
$TEXTSIZE
 40
2.5
  9
$TRACEWID
 40
1.0
  9
$TEXTSTYLE
  7
Standard
  9
$CLAYER
  8
0
  9
$CELTYPE
  6
ByLayer
  9
$CECOLOR
 62
   256
  9
$CELTSCALE
 40
1.0
  9
$DISPSILH
 70
     0
  9
$DIMSCALE
 40
1.0
  9
$DIMASZ
 40
3.0
  9
$DIMEXO
 40
0.625
  9
$DIMDLI
 40
3.75
  9
$DIMRND
 40
0.0
  9
$DIMDLE
 40
0.0
  9
$DIMEXE
 40
1.25
  9
$DIMTP
 40
0.0
  9
$DIMTM
 40
0.0
  9
$DIMTXT
 40
1.336918010447422
  9
$DIMCEN
 40
2.5
  9
$DIMTSZ
 40
0.0
  9
$DIMTOL
 70
     0
  9
$DIMLIM
 70
     0
  9
$DIMTIH
 70
     0
  9
$DIMTOH
 70
     0
  9
$DIMSE1
 70
     0
  9
$DIMSE2
 70
     0
  9
$DIMTAD
 70
     1
  9
$DIMZIN
 70
     8
  9
$DIMBLK
  1

  9
$DIMASO
 70
     1
  9
$DIMSHO
 70
     1
  9
$DIMPOST
  1

  9
$DIMAPOST
  1

  9
$DIMALT
 70
     0
  9
$DIMALTD
 70
     3
  9
$DIMALTF
 40
0.03937007874016
  9
$DIMLFAC
 40
1.0
  9
$DIMTOFL
 70
     1
  9
$DIMTVP
 40
0.0
  9
$DIMTIX
 70
     0
  9
$DIMSOXD
 70
     0
  9
$DIMSAH
 70
     0
  9
$DIMBLK1
  1

  9
$DIMBLK2
  1

  9
$DIMSTYLE
  2
ISO-25
  9
$DIMCLRD
 70
     0
  9
$DIMCLRE
 70
     0
  9
$DIMCLRT
 70
     0
  9
$DIMTFAC
 40
1.0
  9
$DIMGAP
 40
0.625
  9
$DIMJUST
 70
     0
  9
$DIMSD1
 70
     0
  9
$DIMSD2
 70
     0
  9
$DIMTOLJ
 70
     0
  9
$DIMTZIN
 70
     8
  9
$DIMALTZ
 70
     0
  9
$DIMALTTZ
 70
     0
  9
$DIMUPT
 70
     0
  9
$DIMDEC
 70
     2
  9
$DIMTDEC
 70
     2
  9
$DIMALTU
 70
     2
  9
$DIMALTTD
 70
     3
  9
$DIMTXSTY
  7
Standard
  9
$DIMAUNIT
 70
     0
  9
$DIMADEC
 70
     0
  9
$DIMALTRND
 40
0.0
  9
$DIMAZIN
 70
     0
  9
$DIMDSEP
 70
    44
  9
$DIMATFIT
 70
     3
  9
$DIMFRAC
 70
     0
  9
$DIMLDRBLK
  1

  9
$DIMLUNIT
 70
     2
  9
$DIMLWD
 70
    -2
  9
$DIMLWE
 70
    -2
  9
$DIMTMOVE
 70
     0
  9
$DIMFXL
 40
1.0
  9
$DIMFXLON
 70
     0
  9
$DIMJOGANG
 40
0.7853981633974483
  9
$DIMTFILL
 70
     0
  9
$DIMTFILLCLR
 70
     0
  9
$DIMARCSYM
 70
     0
  9
$DIMLTYPE
  6

  9
$DIMLTEX1
  6

  9
$DIMLTEX2
  6

  9
$DIMTXTDIRECTION
 70
     0
  9
$LUNITS
 70
     2
  9
$LUPREC
 70
     4
  9
$SKETCHINC
 40
1.0
  9
$FILLETRAD
 40
10.0
  9
$AUNITS
 70
     0
  9
$AUPREC
 70
     0
  9
$MENU
  1
.
  9
$ELEVATION
 40
0.0
  9
$PELEVATION
 40
0.0
  9
$THICKNESS
 40
0.0
  9
$LIMCHECK
 70
     0
  9
$CHAMFERA
 40
0.0
  9
$CHAMFERB
 40
0.0
  9
$CHAMFERC
 40
0.0
  9
$CHAMFERD
 40
0.0
  9
$SKPOLY
 70
     0
  9
$TDCREATE
 40
2458750.66011566
  9
$TDUCREATE
 40
2458750.576782326
  9
$TDUPDATE
 40
2458750.660120532
  9
$TDUUPDATE
 40
2458750.576787199
  9
$TDINDWG
 40
0.0000000116
  9
$TDUSRTIMER
 40
0.0000000116
  9
$USRTIMER
 70
     1
  9
$ANGBASE
 50
0.0
  9
$ANGDIR
 70
     0
  9
$PDMODE
 70
     0
  9
$PDSIZE
 40
0.0
  9
$PLINEWID
 40
0.0
  9
$SPLFRAME
 70
     0
  9
$SPLINETYPE
 70
     6
  9
$SPLINESEGS
 70
     8
  9
$HANDSEED
  5
2D5
  9
$SURFTAB1
 70
     6
  9
$SURFTAB2
 70
     6
  9
$SURFTYPE
 70
     6
  9
$SURFU
 70
     6
  9
$SURFV
 70
     6
  9
$UCSBASE
  2

  9
$UCSNAME
  2

  9
$UCSORG
 10
0.0
 20
0.0
 30
0.0
  9
$UCSXDIR
 10
1.0
 20
0.0
 30
0.0
  9
$UCSYDIR
 10
0.0
 20
1.0
 30
0.0
  9
$UCSORTHOREF
  2

  9
$UCSORTHOVIEW
 70
     0
  9
$UCSORGTOP
 10
0.0
 20
0.0
 30
0.0
  9
$UCSORGBOTTOM
 10
0.0
 20
0.0
 30
0.0
  9
$UCSORGLEFT
 10
0.0
 20
0.0
 30
0.0
  9
$UCSORGRIGHT
 10
0.0
 20
0.0
 30
0.0
  9
$UCSORGFRONT
 10
0.0
 20
0.0
 30
0.0
  9
$UCSORGBACK
 10
0.0
 20
0.0
 30
0.0
  9
$PUCSBASE
  2

  9
$PUCSNAME
  2

  9
$PUCSORG
 10
0.0
 20
0.0
 30
0.0
  9
$PUCSXDIR
 10
1.0
 20
0.0
 30
0.0
  9
$PUCSYDIR
 10
0.0
 20
1.0
 30
0.0
  9
$PUCSORTHOREF
  2

  9
$PUCSORTHOVIEW
 70
     0
  9
$PUCSORGTOP
 10
0.0
 20
0.0
 30
0.0
  9
$PUCSORGBOTTOM
 10
0.0
 20
0.0
 30
0.0
  9
$PUCSORGLEFT
 10
0.0
 20
0.0
 30
0.0
  9
$PUCSORGRIGHT
 10
0.0
 20
0.0
 30
0.0
  9
$PUCSORGFRONT
 10
0.0
 20
0.0
 30
0.0
  9
$PUCSORGBACK
 10
0.0
 20
0.0
 30
0.0
  9
$USERI1
 70
     0
  9
$USERI2
 70
     0
  9
$USERI3
 70
     0
  9
$USERI4
 70
     0
  9
$USERI5
 70
     0
  9
$USERR1
 40
0.0
  9
$USERR2
 40
0.0
  9
$USERR3
 40
0.0
  9
$USERR4
 40
0.0
  9
$USERR5
 40
0.0
  9
$WORLDVIEW
 70
     1
  9
$SHADEDGE
 70
     3
  9
$SHADEDIF
 70
    70
  9
$TILEMODE
 70
     1
  9
$MAXACTVP
 70
    64
  9
$PINSBASE
 10
0.0
 20
0.0
 30
0.0
  9
$PLIMCHECK
 70
     0
  9
$PEXTMIN
 10
1.000000000000000E+20
 20
1.000000000000000E+20
 30
1.000000000000000E+20
  9
$PEXTMAX
 10
-1.000000000000000E+20
 20
-1.000000000000000E+20
 30
-1.000000000000000E+20
  9
$PLIMMIN
 10
0.0
 20
0.0
  9
$PLIMMAX
 10
420.0
 20
297.0
  9
$UNITMODE
 70
     0
  9
$VISRETAIN
 70
     1
  9
$PLINEGEN
 70
     0
  9
$PSLTSCALE
 70
     1
  9
$TREEDEPTH
 70
  3020
  9
$CMLSTYLE
  2
Standard
  9
$CMLJUST
 70
     0
  9
$CMLSCALE
 40
20.0
  9
$PROXYGRAPHICS
 70
     1
  9
$MEASUREMENT
 70
     1
  9
$CELWEIGHT
370
    -1
  9
$ENDCAPS
280
     0
  9
$JOINSTYLE
280
     0
  9
$LWDISPLAY
290
     0
  9
$INSUNITS
 70
     4
  9
$HYPERLINKBASE
  1

  9
$STYLESHEET
  1

  9
$XEDIT
290
     1
  9
$CEPSNTYPE
380
     0
  9
$PSTYLEMODE
290
     1
  9
$FINGERPRINTGUID
  2
{3ece15a3-b13e-4971-a888-54bb65d62478}
  9
$VERSIONGUID
  2
{FAEB1C32-E019-11D5-929B-00C0DF256EC4}
  9
$EXTNAMES
290
     1
  9
$PSVPSCALE
 40
0.0
  9
$OLESTARTUP
290
     0
  9
$SORTENTS
280
   127
  9
$INDEXCTL
280
     0
  9
$HIDETEXT
280
     1
  9
$XCLIPFRAME
280
     2
  9
$HALOGAP
280
     0
  9
$OBSCOLOR
 70
   257
  9
$OBSLTYPE
280
     0
  9
$INTERSECTIONDISPLAY
280
     0
  9
$INTERSECTIONCOLOR
 70
   257
  9
$DIMASSOC
280
     2
  9
$PROJECTNAME
  1

  9
$CAMERADISPLAY
290
     0
  9
$LENSLENGTH
 40
50.0
  9
$CAMERAHEIGHT
 40
0.0
  9
$STEPSPERSEC
 40
2.0
  9
$STEPSIZE
 40
6.0
  9
$3DDWFPREC
 40
2.0
  9
$PSOLWIDTH
 40
5.0
  9
$PSOLHEIGHT
 40
80.0
  9
$LOFTANG1
 40
1.570796326794897
  9
$LOFTANG2
 40
1.570796326794897
  9
$LOFTMAG1
 40
0.0
  9
$LOFTMAG2
 40
0.0
  9
$LOFTPARAM
 70
     7
  9
$LOFTNORMALS
280
     1
  9
$LATITUDE
 40
37.795
  9
$LONGITUDE
 40
-122.394
  9
$NORTHDIRECTION
 40
0.0
  9
$TIMEZONE
 70
 -8000
  9
$LIGHTGLYPHDISPLAY
280
     1
  9
$TILEMODELIGHTSYNCH
280
     1
  9
$CMATERIAL
347
44
  9
$SOLIDHIST
280
     0
  9
$SHOWHIST
280
     1
  9
$DWFFRAME
280
     2
  9
$DGNFRAME
280
     2
  9
$REALWORLDSCALE
290
     1
  9
$INTERFERECOLOR
 62
   256
  9
$CSHADOW
280
     0
  9
$SHADOWPLANELOCATION
 40
0.0
  0
ENDSEC
  0
SECTION
  2
CLASSES
  0
CLASS
  1
ACDBDICTIONARYWDFLT
  2
AcDbDictionaryWithDefault
  3
ObjectDBX Classes
 90
        0
 91
        3
280
     0
281
     0
  0
CLASS
  1
VISUALSTYLE
  2
AcDbVisualStyle
  3
ObjectDBX Classes
 90
     4095
 91
        3
280
     0
281
     0
  0
CLASS
  1
MATERIAL
  2
AcDbMaterial
  3
ObjectDBX Classes
 90
     1153
 91
        3
280
     0
281
     0
  0
CLASS
  1
SCALE
  2
AcDbScale
  3
ObjectDBX Classes
 90
     1153
 91
        3
280
     0
281
     0
  0
CLASS
  1
TABLESTYLE
  2
AcDbTableStyle
  3
ObjectDBX Classes
 90
     4095
 91
        3
280
     0
281
     0
  0
CLASS
  1
MLEADERSTYLE
  2
AcDbMLeaderStyle
  3
ACDB_MLEADERSTYLE_CLASS
 90
     4095
 91
        3
280
     0
281
     0
  0
CLASS
  1
SUN
  2
AcDbSun
  3
SCENEOE
 90
     1153
 91
        3
280
     0
281
     0
  0
CLASS
  1
DICTIONARYVAR
  2
AcDbDictionaryVar
  3
ObjectDBX Classes
 90
        0
 91
        3
280
     0
281
     0
  0
CLASS
  1
CELLSTYLEMAP
  2
AcDbCellStyleMap
  3
ObjectDBX Classes
 90
     1152
 91
        3
280
     0
281
     0
  0
ENDSEC
  0
SECTION
  2
TABLES
  0
TABLE
  2
VPORT
  5
8
330
0
100
AcDbSymbolTable
 70
     1
  0
VPORT
  5
29
330
8
100
AcDbSymbolTableRecord
100
AcDbViewportTableRecord
  2
*Active
 70
     0
 10
0.0
 20
0.0
 11
1.0
 21
1.0
 12
344.1869158878504
 22
148.5
 13
0.0
 23
0.0
 14
10.0
 24
10.0
 15
10.0
 25
10.0
 16
0.0
 26
0.0
 36
1.0
 17
0.0
 27
0.0
 37
0.0
 40
297.0
 41
1.972972972850329
 42
50.0
 43
0.0
 44
0.0
 50
0.0
 51
0.0
 71
     0
 72
   100
 73
     1
 74
     3
 75
     0
 76
     0
 77
     0
 78
     0
281
     0
 65
     1
110
0.0
120
0.0
130
0.0
111
1.0
121
0.0
131
0.0
112
0.0
122
1.0
132
0.0
 79
     0
146
0.0
348
2F
 60
     3
 61
     5
292
     1
282
     1
141
0.0
142
0.0
 63
   250
361
6D
  0
ENDTAB
  0
TABLE
  2
LTYPE
  5
5
330
0
100
AcDbSymbolTable
 70
     1
  0
LTYPE
  5
14
330
5
100
AcDbSymbolTableRecord
100
AcDbLinetypeTableRecord
  2
ByBlock
 70
     0
  3

 72
    65
 73
     0
 40
0.0
  0
LTYPE
  5
15
330
5
100
AcDbSymbolTableRecord
100
AcDbLinetypeTableRecord
  2
ByLayer
 70
     0
  3

 72
    65
 73
     0
 40
0.0
  0
LTYPE
  5
16
330
5
100
AcDbSymbolTableRecord
100
AcDbLinetypeTableRecord
  2
Continuous
 70
     0
  3
Solid line
 72
    65
 73
     0
 40
0.0
  0
ENDTAB
  0
TABLE
  2
LAYER
  5
2
330
0
100
AcDbSymbolTable
 70
     6
  0
LAYER
  5
10
330
2
100
AcDbSymbolTableRecord
100
AcDbLayerTableRecord
  2
0
 70
     0
 62
     7
  6
Continuous
370
    -3
390
F
347
46
348
0
  0
LAYER
  5
6E
330
2
100
AcDbSymbolTableRecord
100
AcDbLayerTableRecord
  2
VISIBLE
 70
     0
 62
     7
  6
Continuous
370
     0
390
F
347
46
348
0
  0
LAYER
  5
85
330
2
100
AcDbSymbolTableRecord
100
AcDbLayerTableRecord
  2
CENTER
 70
     0
 62
   204
  6
Continuous
370
     0
390
F
347
46
348
0
  0
LAYER
  5
B0
330
2
100
AcDbSymbolTableRecord
100
AcDbLayerTableRecord
  2
DIMENSIONS
 70
     0
 62
     7
  6
Continuous
370
     0
390
F
347
46
348
0
  0
LAYER
  5
F6
330
2
100
AcDbSymbolTableRecord
100
AcDbLayerTableRecord
  2
CONTINUOUS
 70
     0
 62
     7
  6
Continuous
370
     0
390
F
347
46
348
0
  0
LAYER
  5
1F8
330
2
100
AcDbSymbolTableRecord
100
AcDbLayerTableRecord
  2
TANGENT EDGES
 70
     0
 62
     7
  6
Continuous
370
     0
390
F
347
46
348
0
  0
ENDTAB
  0
TABLE
  2
STYLE
  5
3
330
0
100
AcDbSymbolTable
 70
     1
  0
STYLE
  5
11
330
3
100
AcDbSymbolTableRecord
100
AcDbTextStyleTableRecord
  2
Standard
 70
     0
 40
0.0
 41
1.0
 50
0.0
 71
     0
 42
2.5
  3
txt
  4

  0
ENDTAB
  0
TABLE
  2
VIEW
  5
6
330
0
100
AcDbSymbolTable
 70
     0
  0
ENDTAB
  0
TABLE
  2
UCS
  5
7
330
0
100
AcDbSymbolTable
 70
     0
  0
ENDTAB
  0
TABLE
  2
APPID
  5
9
330
0
100
AcDbSymbolTable
 70
     1
  0
APPID
  5
12
330
9
100
AcDbSymbolTableRecord
100
AcDbRegAppTableRecord
  2
ACAD
 70
     0
  0
ENDTAB
  0
TABLE
  2
DIMSTYLE
  5
A
330
0
100
AcDbSymbolTable
 70
     1
100
AcDbDimStyleTable
  0
DIMSTYLE
105
27
102
{ACAD_REACTORS
330
B1
330
C3
330
D4
330
E5
330
1FA
330
20A
330
21B
330
22C
330
23D
330
24E
330
25F
102
}
330
A
100
AcDbSymbolTableRecord
100
AcDbDimStyleTableRecord
  2
ISO-25
 70
     0
 41
2.5
 42
0.625
 43
3.75
 44
1.25
 73
     0
 74
     0
 77
     1
 78
     8
140
2.5
141
2.5
143
0.03937007874016
147
0.625
171
     3
172
     1
178
     0
271
     2
272
     2
274
     3
278
    44
283
     0
284
     8
340
11
  0
ENDTAB
  0
TABLE
  2
BLOCK_RECORD
  5
1
330
0
100
AcDbSymbolTable
 70
    13
  0
BLOCK_RECORD
  5
1F
330
1
100
AcDbSymbolTableRecord
100
AcDbBlockTableRecord
  2
*Model_Space
340
22
 70
     0
280
     1
281
     0
  0
BLOCK_RECORD
  5
1B
330
1
100
AcDbSymbolTableRecord
100
AcDbBlockTableRecord
  2
*Paper_Space
340
1E
 70
     0
280
     1
281
     0
  0
BLOCK_RECORD
  5
23
330
1
100
AcDbSymbolTableRecord
100
AcDbBlockTableRecord
  2
*Paper_Space0
340
26
 70
     0
280
     1
281
     0
  0
BLOCK_RECORD
  5
B2
330
1
100
AcDbSymbolTableRecord
100
AcDbBlockTableRecord
  2
D1
340
0
 70
     0
280
     1
281
     0
  0
BLOCK_RECORD
  5
C4
330
1
100
AcDbSymbolTableRecord
100
AcDbBlockTableRecord
  2
D2
340
0
 70
     0
280
     1
281
     0
  0
BLOCK_RECORD
  5
D5
330
1
100
AcDbSymbolTableRecord
100
AcDbBlockTableRecord
  2
D3
340
0
 70
     0
280
     1
281
     0
  0
BLOCK_RECORD
  5
E6
330
1
100
AcDbSymbolTableRecord
100
AcDbBlockTableRecord
  2
D4
340
0
 70
     0
280
     1
281
     0
  0
BLOCK_RECORD
  5
1FB
330
1
100
AcDbSymbolTableRecord
100
AcDbBlockTableRecord
  2
D5
340
0
 70
     0
280
     1
281
     0
  0
BLOCK_RECORD
  5
20B
330
1
100
AcDbSymbolTableRecord
100
AcDbBlockTableRecord
  2
D6
340
0
 70
     0
280
     1
281
     0
  0
BLOCK_RECORD
  5
21C
330
1
100
AcDbSymbolTableRecord
100
AcDbBlockTableRecord
  2
D7
340
0
 70
     0
280
     1
281
     0
  0
BLOCK_RECORD
  5
22D
330
1
100
AcDbSymbolTableRecord
100
AcDbBlockTableRecord
  2
D8
340
0
 70
     0
280
     1
281
     0
  0
BLOCK_RECORD
  5
23E
330
1
100
AcDbSymbolTableRecord
100
AcDbBlockTableRecord
  2
D9
340
0
 70
     0
280
     1
281
     0
  0
BLOCK_RECORD
  5
24F
330
1
100
AcDbSymbolTableRecord
100
AcDbBlockTableRecord
  2
D10
340
0
 70
     0
280
     1
281
     0
  0
BLOCK_RECORD
  5
260
330
1
100
AcDbSymbolTableRecord
100
AcDbBlockTableRecord
  2
D11
340
0
 70
     0
280
     1
281
     0
  0
BLOCK_RECORD
  5
279
330
1
100
AcDbSymbolTableRecord
100
AcDbBlockTableRecord
  2
BLOCK0
340
0
102
{BLKREFS
331
278
102
}
 70
     0
280
     1
281
     0
  0
ENDTAB
  0
ENDSEC
  0
SECTION
  2
BLOCKS
  0
BLOCK
  5
20
330
1F
100
AcDbEntity
  8
0
100
AcDbBlockBegin
  2
*Model_Space
 70
     0
 10
0.0
 20
0.0
 30
0.0
  3
*Model_Space
  1

  0
ENDBLK
  5
21
330
1F
100
AcDbEntity
  8
0
100
AcDbBlockEnd
  0
BLOCK
  5
1C
330
1B
100
AcDbEntity
 67
     1
  8
0
100
AcDbBlockBegin
  2
*Paper_Space
 70
     0
 10
0.0
 20
0.0
 30
0.0
  3
*Paper_Space
  1

  0
ENDBLK
  5
1D
330
1B
100
AcDbEntity
 67
     1
  8
0
100
AcDbBlockEnd
  0
BLOCK
  5
24
330
23
100
AcDbEntity
  8
0
100
AcDbBlockBegin
  2
*Paper_Space0
 70
     0
 10
0.0
 20
0.0
 30
0.0
  3
*Paper_Space0
  1

  0
ENDBLK
  5
25
330
23
100
AcDbEntity
  8
0
100
AcDbBlockEnd
  0
BLOCK
  5
B3
330
B2
100
AcDbEntity
  8
0
100
AcDbBlockBegin
  2
D1
 70
     0
 10
0.0
 20
0.0
 30
0.0
  3
D1
  1

  0
MTEXT
  5
B5
330
B2
100
AcDbEntity
  8
DIMENSIONS
100
AcDbMText
 10
74.05894097222225
 20
99.50442504882801
 30
0.0
 40
2.134018756842158
 41
0.0
 46
0.0
 71
     5
 72
     1
  1
{\fAlibre Symbols|b0|i0|c0|p0;n}{\fCE|b0|i0|c0|p0;\H0.95x;55}{\fMicrosoft Sans Serif|b0|i0|c0|p0;\H0.8x;}
 73
     1
 44
1.0
  0
MTEXT
  5
B6
330
B2
100
AcDbEntity
  8
DIMENSIONS
100
AcDbMText
 10
74.05894097222225
 20
99.50442504882801
 30
0.0
 40
2.134018756842158
 41
0.0
 46
0.0
 71
     5
 72
     1
  1
{\fCE|b0|i0|c0|p0;}
 73
     1
 44
1.0
  0
MTEXT
  5
B7
330
B2
100
AcDbEntity
  8
DIMENSIONS
100
AcDbMText
 10
74.05894097222225
 20
99.50442504882801
 30
0.0
 40
2.134018756842158
 41
0.0
 46
0.0
 71
     5
 72
     1
  1
{\fCE|b0|i0|c0|p0;}
 73
     1
 44
1.0
  0
MTEXT
  5
B8
330
B2
100
AcDbEntity
  8
DIMENSIONS
100
AcDbMText
 10
70.35477430555558
 20
99.50442504882801
 30
0.0
 40
2.134018756842158
 41
0.0
 46
0.0
 71
     5
 72
     1
  1
{\fCE|b0|i0|c0|p0;}
 73
     1
 44
1.0
  0
MTEXT
  5
B9
330
B2
100
AcDbEntity
  8
DIMENSIONS
100
AcDbMText
 10
77.76310763888891
 20
99.50442504882801
 30
0.0
 40
2.134018756842158
 41
0.0
 46
0.0
 71
     5
 72
     1
  1
{\fCE|b0|i0|c0|p0; -0,2}{\fCE|b0|i0|c0|p0;}
 73
     1
 44
1.0
  0
LINE
  5
BA
330
B2
100
AcDbEntity
  8
DIMENSIONS
100
AcDbLine
 10
108.2498274795031
 20
148.955596923828
 30
0.0
 11
108.2498274795031
 21
95.03498060438355
 31
0.0
  0
LINE
  5
BB
330
B2
100
AcDbEntity
  8
DIMENSIONS
100
AcDbLine
 10
53.2498274795031
 20
148.955596923828
 30
0.0
 11
53.2498274795031
 21
95.03498060438355
 31
0.0
  0
LWPOLYLINE
  5
BC
330
B2
100
AcDbEntity
  8
DIMENSIONS
100
AcDbPolyline
 90
        4
 70
     0
 43
0.0
 10
108.2498274795031
 20
97.03498060438356
 10
105.2498274795031
 20
96.53498060438356
 10
105.2498274795031
 20
97.53498060438355
 10
108.2498274795031
 20
97.03498060438356
  0
LINE
  5
BD
330
B2
100
AcDbEntity
  8
DIMENSIONS
100
AcDbLine
 10
105.2498274795031
 20
97.03498060438356
 30
0.0
 11
74.05894097222225
 21
97.03498060438358
 31
0.0
  0
LWPOLYLINE
  5
BE
330
B2
100
AcDbEntity
  8
DIMENSIONS
100
AcDbPolyline
 90
        4
 70
     0
 43
0.0
 10
53.2498274795031
 20
97.03498060438355
 10
56.2498274795031
 20
97.53498060438355
 10
56.2498274795031
 20
96.53498060438355
 10
53.2498274795031
 20
97.03498060438355
  0
LINE
  5
BF
330
B2
100
AcDbEntity
  8
DIMENSIONS
100
AcDbLine
 10
56.2498274795031
 20
97.03498060438356
 30
0.0
 11
74.05894097222225
 21
97.03498060438358
 31
0.0
  0
LINE
  5
C0
330
B2
100
AcDbEntity
  8
DIMENSIONS
100
AcDbLine
 10
86.11310717978233
 20
97.03498060438356
 30
0.0
 11
67.64921877302879
 21
97.03498060438356
 31
0.0
  0
LWPOLYLINE
  5
C1
330
B2
100
AcDbEntity
  8
DIMENSIONS
100
AcDbPolyline
 90
        5
 70
     0
 43
0.0
 10
78.2498274795031
 20
143.455596923828
 10
78.2498274795031
 20
143.455596923828
 10
78.2498274795031
 20
143.455596923828
 10
78.2498274795031
 20
143.455596923828
 10
78.2498274795031
 20
143.455596923828
  0
HATCH
  5
C2
330
B2
100
AcDbEntity
  8
0
 62
     7
100
AcDbHatch
 10
0.0
 20
0.0
 30
0.0
210
0.0
220
0.0
230
1.0
  2
PLNÁ, Plné vyplnění
 70
     0
 71
     0
 91
        2
 92
        0
 93
        3
 72
     1
 10
105.2498274795031
 20
97.53498060438355
 11
108.2498274795031
 21
97.03498060438356
 72
     1
 10
108.2498274795031
 20
97.03498060438356
 11
105.2498274795031
 21
96.53498060438356
 72
     1
 10
105.2498274795031
 20
96.53498060438356
 11
105.2498274795031
 21
97.53498060438355
 97
        0
 92
        0
 93
        3
 72
     1
 10
56.2498274795031
 20
96.53498060438355
 11
53.2498274795031
 21
97.03498060438355
 72
     1
 10
53.2498274795031
 20
97.03498060438355
 11
56.2498274795031
 21
97.53498060438355
 72
     1
 10
56.2498274795031
 20
97.53498060438355
 11
56.2498274795031
 21
96.53498060438355
 97
        0
 75
     0
 76
     0
 52
0.0
 41
1.0
 77
     0
 78
     1
 53
45.0
 43
0.0
 44
0.0
 45
0.0
 46
0.0
 79
     0
 98
        0
  0
ENDBLK
  5
B4
330
B2
100
AcDbEntity
  8
0
100
AcDbBlockEnd
  0
BLOCK
  5
C5
330
C4
100
AcDbEntity
  8
0
100
AcDbBlockBegin
  2
D2
 70
     0
 10
0.0
 20
0.0
 30
0.0
  3
D2
  1

  0
MTEXT
  5
C7
330
C4
100
AcDbEntity
  8
DIMENSIONS
100
AcDbMText
 10
81.10962677001953
 20
115.2468193901908
 30
0.0
 40
2.134018756842158
 41
0.0
 46
0.0
 71
     5
 72
     1
  1
{\fCE|b0|i0|c0|p0;25}{\fCE|b0|i0|c0|p0;}
 73
     1
 44
1.0
  0
MTEXT
  5
C8
330
C4
100
AcDbEntity
  8
DIMENSIONS
100
AcDbMText
 10
81.10962677001953
 20
115.2468193901908
 30
0.0
 40
2.134018756842158
 41
0.0
 46
0.0
 71
     5
 72
     1
  1
{\fCE|b0|i0|c0|p0;}
 73
     1
 44
1.0
  0
MTEXT
  5
C9
330
C4
100
AcDbEntity
  8
DIMENSIONS
100
AcDbMText
 10
81.10962677001953
 20
115.2468193901908
 30
0.0
 40
2.134018756842158
 41
0.0
 46
0.0
 71
     5
 72
     1
  1
{\fCE|b0|i0|c0|p0;}
 73
     1
 44
1.0
  0
MTEXT
  5
CA
330
C4
100
AcDbEntity
  8
DIMENSIONS
100
AcDbMText
 10
78.64018232557508
 20
115.2468193901908
 30
0.0
 40
2.134018756842158
 41
0.0
 46
0.0
 71
     5
 72
     1
  1
{\fCE|b0|i0|c0|p0;}
 73
     1
 44
1.0
  0
MTEXT
  5
CB
330
C4
100
AcDbEntity
  8
DIMENSIONS
100
AcDbMText
 10
83.57907121446398
 20
115.2468193901908
 30
0.0
 40
2.134018756842158
 41
0.0
 46
0.0
 71
     5
 72
     1
  1
{\fCE|b0|i0|c0|p0;}
 73
     1
 44
1.0
  0
LINE
  5
CC
330
C4
100
AcDbEntity
  8
DIMENSIONS
100
AcDbLine
 10
68.2498274795031
 20
130.868096923828
 30
0.0
 11
68.2498274795031
 21
111.4829305013019
 31
0.0
  0
LINE
  5
CD
330
C4
100
AcDbEntity
  8
DIMENSIONS
100
AcDbLine
 10
93.2498274795031
 20
130.868096923828
 30
0.0
 11
93.2498274795031
 21
111.4829305013019
 31
0.0
  0
LWPOLYLINE
  5
CE
330
C4
100
AcDbEntity
  8
DIMENSIONS
100
AcDbPolyline
 90
        4
 70
     0
 43
0.0
 10
68.2498274795031
 20
113.4829305013019
 10
71.2498274795031
 20
113.9829305013019
 10
71.2498274795031
 20
112.9829305013019
 10
68.2498274795031
 20
113.4829305013019
  0
LINE
  5
CF
330
C4
100
AcDbEntity
  8
DIMENSIONS
100
AcDbLine
 10
71.2498274795031
 20
113.4829305013019
 30
0.0
 11
81.10962677001953
 21
113.4829305013019
 31
0.0
  0
LWPOLYLINE
  5
D0
330
C4
100
AcDbEntity
  8
DIMENSIONS
100
AcDbPolyline
 90
        4
 70
     0
 43
0.0
 10
93.2498274795031
 20
113.4829305013019
 10
90.2498274795031
 20
112.9829305013019
 10
90.2498274795031
 20
113.9829305013019
 10
93.2498274795031
 20
113.4829305013019
  0
LINE
  5
D1
330
C4
100
AcDbEntity
  8
DIMENSIONS
100
AcDbLine
 10
90.2498274795031
 20
113.4829305013019
 30
0.0
 11
81.10962677001953
 21
113.4829305013019
 31
0.0
  0
LINE
  5
D2
330
C4
100
AcDbEntity
  8
DIMENSIONS
100
AcDbLine
 10
85.57907102026695
 20
113.4829305013019
 30
0.0
 11
75.93462675579542
 21
113.4829305013019
 31
0.0
  0
HATCH
  5
D3
330
C4
100
AcDbEntity
  8
0
 62
     7
100
AcDbHatch
 10
0.0
 20
0.0
 30
0.0
210
0.0
220
0.0
230
1.0
  2
PLNÁ, Plné vyplnění
 70
     0
 71
     0
 91
        2
 92
        0
 93
        3
 72
     1
 10
71.2498274795031
 20
112.9829305013019
 11
68.2498274795031
 21
113.4829305013019
 72
     1
 10
68.2498274795031
 20
113.4829305013019
 11
71.2498274795031
 21
113.9829305013019
 72
     1
 10
71.2498274795031
 20
113.9829305013019
 11
71.2498274795031
 21
112.9829305013019
 97
        0
 92
        0
 93
        3
 72
     1
 10
90.2498274795031
 20
113.9829305013019
 11
93.2498274795031
 21
113.4829305013019
 72
     1
 10
93.2498274795031
 20
113.4829305013019
 11
90.2498274795031
 21
112.9829305013019
 72
     1
 10
90.2498274795031
 20
112.9829305013019
 11
90.2498274795031
 21
113.9829305013019
 97
        0
 75
     0
 76
     0
 52
0.0
 41
1.0
 77
     0
 78
     1
 53
45.0
 43
0.0
 44
0.0
 45
0.0
 46
0.0
 79
     0
 98
        0
  0
ENDBLK
  5
C6
330
C4
100
AcDbEntity
  8
0
100
AcDbBlockEnd
  0
BLOCK
  5
D6
330
D5
100
AcDbEntity
  8
0
100
AcDbBlockBegin
  2
D3
 70
     0
 10
0.0
 20
0.0
 30
0.0
  3
D3
  1

  0
MTEXT
  5
D8
330
D5
100
AcDbEntity
  8
DIMENSIONS
100
AcDbMText
 10
72.82421875000001
 20
110.679473876953
 30
0.0
 40
2.134018756842158
 41
0.0
 46
0.0
 71
     5
 72
     1
  1
{\fCE|b0|i0|c0|p0;35}{\fCE|b0|i0|c0|p0;}
 73
     1
 44
1.0
  0
MTEXT
  5
D9
330
D5
100
AcDbEntity
  8
DIMENSIONS
100
AcDbMText
 10
72.82421875000001
 20
110.679473876953
 30
0.0
 40
2.134018756842158
 41
0.0
 46
0.0
 71
     5
 72
     1
  1
{\fCE|b0|i0|c0|p0;}
 73
     1
 44
1.0
  0
MTEXT
  5
DA
330
D5
100
AcDbEntity
  8
DIMENSIONS
100
AcDbMText
 10
72.82421875000001
 20
110.679473876953
 30
0.0
 40
2.134018756842158
 41
0.0
 46
0.0
 71
     5
 72
     1
  1
{\fCE|b0|i0|c0|p0;}
 73
     1
 44
1.0
  0
MTEXT
  5
DB
330
D5
100
AcDbEntity
  8
DIMENSIONS
100
AcDbMText
 10
70.35477430555557
 20
110.679473876953
 30
0.0
 40
2.134018756842158
 41
0.0
 46
0.0
 71
     5
 72
     1
  1
{\fCE|b0|i0|c0|p0;}
 73
     1
 44
1.0
  0
MTEXT
  5
DC
330
D5
100
AcDbEntity
  8
DIMENSIONS
100
AcDbMText
 10
75.29366319444446
 20
110.679473876953
 30
0.0
 40
2.134018756842158
 41
0.0
 46
0.0
 71
     5
 72
     1
  1
{\fCE|b0|i0|c0|p0; +/- 0,02}{\fCE|b0|i0|c0|p0;}
 73
     1
 44
1.0
  0
LINE
  5
DD
330
D5
100
AcDbEntity
  8
DIMENSIONS
100
AcDbLine
 10
63.2498274795031
 20
143.868096923828
 30
0.0
 11
63.2498274795031
 21
106.9155849880641
 31
0.0
  0
LINE
  5
DE
330
D5
100
AcDbEntity
  8
DIMENSIONS
100
AcDbLine
 10
98.2498274795031
 20
143.868096923828
 30
0.0
 11
98.2498274795031
 21
106.9155849880641
 31
0.0
  0
LWPOLYLINE
  5
DF
330
D5
100
AcDbEntity
  8
DIMENSIONS
100
AcDbPolyline
 90
        4
 70
     0
 43
0.0
 10
63.2498274795031
 20
108.9155849880641
 10
66.2498274795031
 20
109.4155849880641
 10
66.2498274795031
 20
108.4155849880641
 10
63.2498274795031
 20
108.9155849880641
  0
LINE
  5
E0
330
D5
100
AcDbEntity
  8
DIMENSIONS
100
AcDbLine
 10
66.2498274795031
 20
108.9155849880641
 30
0.0
 11
72.82421875000001
 21
108.9155849880641
 31
0.0
  0
LWPOLYLINE
  5
E1
330
D5
100
AcDbEntity
  8
DIMENSIONS
100
AcDbPolyline
 90
        4
 70
     0
 43
0.0
 10
98.2498274795031
 20
108.9155849880641
 10
95.2498274795031
 20
108.4155849880641
 10
95.2498274795031
 20
109.4155849880641
 10
98.2498274795031
 20
108.9155849880641
  0
LINE
  5
E2
330
D5
100
AcDbEntity
  8
DIMENSIONS
100
AcDbLine
 10
95.2498274795031
 20
108.9155849880641
 30
0.0
 11
72.82421875000001
 21
108.9155849880641
 31
0.0
  0
LINE
  5
E3
330
D5
100
AcDbEntity
  8
DIMENSIONS
100
AcDbLine
 10
88.9353298894381
 20
108.9155849880641
 30
0.0
 11
67.64921877302879
 21
108.9155849880641
 31
0.0
  0
HATCH
  5
E4
330
D5
100
AcDbEntity
  8
0
 62
     7
100
AcDbHatch
 10
0.0
 20
0.0
 30
0.0
210
0.0
220
0.0
230
1.0
  2
PLNÁ, Plné vyplnění
 70
     0
 71
     0
 91
        2
 92
        0
 93
        3
 72
     1
 10
66.2498274795031
 20
108.4155849880641
 11
63.2498274795031
 21
108.9155849880641
 72
     1
 10
63.2498274795031
 20
108.9155849880641
 11
66.2498274795031
 21
109.4155849880641
 72
     1
 10
66.2498274795031
 20
109.4155849880641
 11
66.2498274795031
 21
108.4155849880641
 97
        0
 92
        0
 93
        3
 72
     1
 10
95.2498274795031
 20
109.4155849880641
 11
98.2498274795031
 21
108.9155849880641
 72
     1
 10
98.2498274795031
 20
108.9155849880641
 11
95.2498274795031
 21
108.4155849880641
 72
     1
 10
95.2498274795031
 20
108.4155849880641
 11
95.2498274795031
 21
109.4155849880641
 97
        0
 75
     0
 76
     0
 52
0.0
 41
1.0
 77
     0
 78
     1
 53
45.0
 43
0.0
 44
0.0
 45
0.0
 46
0.0
 79
     0
 98
        0
  0
ENDBLK
  5
D7
330
D5
100
AcDbEntity
  8
0
100
AcDbBlockEnd
  0
BLOCK
  5
E7
330
E6
100
AcDbEntity
  8
0
100
AcDbBlockBegin
  2
D4
 70
     0
 10
0.0
 20
0.0
 30
0.0
  3
D4
  1

  0
MTEXT
  5
E9
330
E6
100
AcDbEntity
  8
DIMENSIONS
100
AcDbMText
 10
122.9479751586914
 20
151.9248046874999
 30
0.0
 40
2.134018756842158
 41
0.0
 46
0.0
 71
     5
 72
     1
  1
{\fCE|b0|i0|c0|p0;25}{\fCE|b0|i0|c0|p0;}
 11
6.123031769111886E-17
 21
1.0
 31
0.0
 73
     1
 44
1.0
  0
MTEXT
  5
EA
330
E6
100
AcDbEntity
  8
DIMENSIONS
100
AcDbMText
 10
122.9479751586914
 20
151.9248046874999
 30
0.0
 40
2.134018756842158
 41
0.0
 46
0.0
 71
     5
 72
     1
  1
{\fCE|b0|i0|c0|p0;}
 11
6.123031769111886E-17
 21
1.0
 31
0.0
 73
     1
 44
1.0
  0
MTEXT
  5
EB
330
E6
100
AcDbEntity
  8
DIMENSIONS
100
AcDbMText
 10
122.9479751586914
 20
151.9248046874999
 30
0.0
 40
2.134018756842158
 41
0.0
 46
0.0
 71
     5
 72
     1
  1
{\fCE|b0|i0|c0|p0;}
 11
6.123031769111886E-17
 21
1.0
 31
0.0
 73
     1
 44
1.0
  0
MTEXT
  5
EC
330
E6
100
AcDbEntity
  8
DIMENSIONS
100
AcDbMText
 10
122.9479751586914
 20
149.4553602430555
 30
0.0
 40
2.134018756842158
 41
0.0
 46
0.0
 71
     5
 72
     1
  1
{\fCE|b0|i0|c0|p0;}
 11
6.123031769111886E-17
 21
1.0
 31
0.0
 73
     1
 44
1.0
  0
MTEXT
  5
ED
330
E6
100
AcDbEntity
  8
DIMENSIONS
100
AcDbMText
 10
122.9479751586914
 20
154.3942491319443
 30
0.0
 40
2.134018756842158
 41
0.0
 46
0.0
 71
     5
 72
     1
  1
{\fCE|b0|i0|c0|p0;}
 11
6.123031769111886E-17
 21
1.0
 31
0.0
 73
     1
 44
1.0
  0
LINE
  5
EE
330
E6
100
AcDbEntity
  8
DIMENSIONS
100
AcDbLine
 10
100.8373274795031
 20
138.455596923828
 30
0.0
 11
126.7118640475803
 21
138.455596923828
 31
0.0
  0
LINE
  5
EF
330
E6
100
AcDbEntity
  8
DIMENSIONS
100
AcDbLine
 10
100.8373274795031
 20
163.455596923828
 30
0.0
 11
126.7118640475803
 21
163.455596923828
 31
0.0
  0
LWPOLYLINE
  5
F0
330
E6
100
AcDbEntity
  8
DIMENSIONS
100
AcDbPolyline
 90
        4
 70
     0
 43
0.0
 10
124.7118640475803
 20
138.455596923828
 10
124.2118640475803
 20
141.455596923828
 10
125.2118640475803
 20
141.455596923828
 10
124.7118640475803
 20
138.455596923828
  0
LINE
  5
F1
330
E6
100
AcDbEntity
  8
DIMENSIONS
100
AcDbLine
 10
124.7118640475803
 20
141.455596923828
 30
0.0
 11
124.7118640475803
 21
151.9248046874999
 31
0.0
  0
LWPOLYLINE
  5
F2
330
E6
100
AcDbEntity
  8
DIMENSIONS
100
AcDbPolyline
 90
        4
 70
     0
 43
0.0
 10
124.7118640475803
 20
163.455596923828
 10
125.2118640475803
 20
160.455596923828
 10
124.2118640475803
 20
160.455596923828
 10
124.7118640475803
 20
163.455596923828
  0
LINE
  5
F3
330
E6
100
AcDbEntity
  8
DIMENSIONS
100
AcDbLine
 10
124.7118640475803
 20
160.455596923828
 30
0.0
 11
124.7118640475803
 21
151.9248046874999
 31
0.0
  0
LINE
  5
F4
330
E6
100
AcDbEntity
  8
DIMENSIONS
100
AcDbLine
 10
124.7118640475803
 20
156.7470275163649
 30
0.0
 11
124.7118640475803
 21
147.1025820970534
 31
0.0
  0
HATCH
  5
F5
330
E6
100
AcDbEntity
  8
0
 62
     7
100
AcDbHatch
 10
0.0
 20
0.0
 30
0.0
210
0.0
220
0.0
230
1.0
  2
PLNÁ, Plné vyplnění
 70
     0
 71
     0
 91
        2
 92
        0
 93
        3
 72
     1
 10
125.2118640475803
 20
141.455596923828
 11
124.7118640475803
 21
138.455596923828
 72
     1
 10
124.7118640475803
 20
138.455596923828
 11
124.2118640475803
 21
141.455596923828
 72
     1
 10
124.2118640475803
 20
141.455596923828
 11
125.2118640475803
 21
141.455596923828
 97
        0
 92
        0
 93
        3
 72
     1
 10
124.2118640475803
 20
160.455596923828
 11
124.7118640475803
 21
163.455596923828
 72
     1
 10
124.7118640475803
 20
163.455596923828
 11
125.2118640475803
 21
160.455596923828
 72
     1
 10
125.2118640475803
 20
160.455596923828
 11
124.2118640475803
 21
160.455596923828
 97
        0
 75
     0
 76
     0
 52
0.0
 41
1.0
 77
     0
 78
     1
 53
45.0
 43
0.0
 44
0.0
 45
0.0
 46
0.0
 79
     0
 98
        0
  0
ENDBLK
  5
E8
330
E6
100
AcDbEntity
  8
0
100
AcDbBlockEnd
  0
BLOCK
  5
1FC
330
1FB
100
AcDbEntity
  8
0
100
AcDbBlockBegin
  2
D5
 70
     0
 10
0.0
 20
0.0
 30
0.0
  3
D5
  1

  0
MTEXT
  5
1FE
330
1FB
100
AcDbEntity
  8
DIMENSIONS
100
AcDbMText
 10
167.3150787353515
 20
150.0778045654297
 30
0.0
 40
2.134018756842158
 41
0.0
 46
0.0
 71
     5
 72
     1
  1
{\fCE|b0|i0|c0|p0;20 °}{\fCE|b0|i0|c0|p0;}
 11
0.006369086881061554
 21
-0.999979717160454
 31
0.0
 73
     1
 44
1.0
  0
MTEXT
  5
1FF
330
1FB
100
AcDbEntity
  8
DIMENSIONS
100
AcDbMText
 10
167.3150787353515
 20
150.0778045654297
 30
0.0
 40
2.134018756842158
 41
0.0
 46
0.0
 71
     5
 72
     1
  1
{\fCE|b0|i0|c0|p0;}
 11
0.006369086881061554
 21
-0.999979717160454
 31
0.0
 73
     1
 44
1.0
  0
MTEXT
  5
200
330
1FB
100
AcDbEntity
  8
DIMENSIONS
100
AcDbMText
 10
167.3150787353515
 20
150.0778045654297
 30
0.0
 40
2.134018756842158
 41
0.0
 46
0.0
 71
     5
 72
     1
  1
{\fCE|b0|i0|c0|p0;}
 11
0.006369086881061554
 21
-0.999979717160454
 31
0.0
 73
     1
 44
1.0
  0
MTEXT
  5
201
330
1FB
100
AcDbEntity
  8
DIMENSIONS
100
AcDbMText
 10
167.2926100121878
 20
153.6055107898568
 30
0.0
 40
2.134018756842158
 41
0.0
 46
0.0
 71
     5
 72
     1
  1
{\fCE|b0|i0|c0|p0;}
 11
0.006369086881061554
 21
-0.999979717160454
 31
0.0
 73
     1
 44
1.0
  0
MTEXT
  5
202
330
1FB
100
AcDbEntity
  8
DIMENSIONS
100
AcDbMText
 10
167.3375474585153
 20
146.5500983410025
 30
0.0
 40
2.134018756842158
 41
0.0
 46
0.0
 71
     5
 72
     1
  1
{\fCE|b0|i0|c0|p0;}
 11
0.006369086881061554
 21
-0.999979717160454
 31
0.0
 73
     1
 44
1.0
  0
LWPOLYLINE
  5
203
330
1FB
100
AcDbEntity
  8
DIMENSIONS
100
AcDbPolyline
 90
        4
 70
     0
 43
0.0
 10
167.6689988258366
 20
175.194215850634
 10
167.6742338477435
 20
172.1528390909172
 10
166.6875584109755
 20
172.3155399897429
 10
167.6689988258366
 20
175.194215850634
  0
ARC
  5
204
330
1FB
100
AcDbEntity
  8
DIMENSIONS
100
AcDbCircle
 10
305.1330376780763
 20
150.955596923828
 30
0.0
 40
139.5835375636537
100
AcDbArc
 50
171.2303288111645
 51
180.0
  0
LWPOLYLINE
  5
205
330
1FB
100
AcDbEntity
  8
DIMENSIONS
100
AcDbPolyline
 90
        4
 70
     0
 43
0.0
 10
167.6689988258366
 20
126.716977997022
 10
166.6875584240682
 20
129.5956538623768
 10
167.6742338615762
 20
129.758354756715
 10
167.6689988258366
 20
126.716977997022
  0
ARC
  5
206
330
1FB
100
AcDbEntity
  8
DIMENSIONS
100
AcDbCircle
 10
305.1330376780763
 20
150.955596923828
 30
0.0
 40
139.58464322786
100
AcDbArc
 50
180.0
 51
188.7696707628191
  0
LINE
  5
207
330
1FB
100
AcDbEntity
  8
DIMENSIONS
100
AcDbLine
 10
178.6414240787126
 20
173.2594812347452
 30
0.0
 11
165.6993833198122
 21
175.5415122059679
 31
0.0
  0
LINE
  5
208
330
1FB
100
AcDbEntity
  8
DIMENSIONS
100
AcDbLine
 10
178.6414240787126
 20
128.6517126129109
 30
0.0
 11
165.6993833198122
 21
126.3696816416881
 31
0.0
  0
HATCH
  5
209
330
1FB
100
AcDbEntity
  8
0
 62
     7
100
AcDbHatch
 10
0.0
 20
0.0
 30
0.0
210
0.0
220
0.0
230
1.0
  2
PLNÁ, Plné vyplnění
 70
     0
 71
     0
 91
        2
 92
        0
 93
        3
 72
     1
 10
166.6875584109755
 20
172.3155399897429
 11
167.6689988258366
 21
175.194215850634
 72
     1
 10
167.6689988258366
 20
175.194215850634
 11
167.6742338477435
 21
172.1528390909172
 72
     1
 10
167.6742338477435
 20
172.1528390909172
 11
166.6875584109755
 21
172.3155399897429
 97
        0
 92
        0
 93
        3
 72
     1
 10
167.6742338615762
 20
129.758354756715
 11
167.6689988258366
 21
126.716977997022
 72
     1
 10
167.6689988258366
 20
126.716977997022
 11
166.6875584240682
 21
129.5956538623768
 72
     1
 10
166.6875584240682
 20
129.5956538623768
 11
167.6742338615762
 21
129.758354756715
 97
        0
 75
     0
 76
     0
 52
0.0
 41
1.0
 77
     0
 78
     1
 53
45.0
 43
0.0
 44
0.0
 45
0.0
 46
0.0
 79
     0
 98
        0
  0
ENDBLK
  5
1FD
330
1FB
100
AcDbEntity
  8
0
100
AcDbBlockEnd
  0
BLOCK
  5
20C
330
20B
100
AcDbEntity
  8
0
100
AcDbBlockBegin
  2
D6
 70
     0
 10
0.0
 20
0.0
 30
0.0
  3
D6
  1

  0
MTEXT
  5
20E
330
20B
100
AcDbEntity
  8
DIMENSIONS
100
AcDbMText
 10
187.3872375488277
 20
165.3237152099608
 30
0.0
 40
2.134018756842158
 41
0.0
 46
0.0
 71
     5
 72
     1
  1
{\fCE|b0|i0|c0|p0;13,5}{\fCE|b0|i0|c0|p0;}
 73
     1
 44
1.0
  0
MTEXT
  5
20F
330
20B
100
AcDbEntity
  8
DIMENSIONS
100
AcDbMText
 10
187.3872375488277
 20
165.3237152099608
 30
0.0
 40
2.134018756842158
 41
0.0
 46
0.0
 71
     5
 72
     1
  1
{\fCE|b0|i0|c0|p0;}
 73
     1
 44
1.0
  0
MTEXT
  5
210
330
20B
100
AcDbEntity
  8
DIMENSIONS
100
AcDbMText
 10
187.3872375488277
 20
165.3237152099608
 30
0.0
 40
2.134018756842158
 41
0.0
 46
0.0
 71
     5
 72
     1
  1
{\fCE|b0|i0|c0|p0;}
 73
     1
 44
1.0
  0
MTEXT
  5
211
330
20B
100
AcDbEntity
  8
DIMENSIONS
100
AcDbMText
 10
183.5066819932722
 20
165.3237152099608
 30
0.0
 40
2.134018756842158
 41
0.0
 46
0.0
 71
     5
 72
     1
  1
{\fCE|b0|i0|c0|p0;}
 73
     1
 44
1.0
  0
MTEXT
  5
212
330
20B
100
AcDbEntity
  8
DIMENSIONS
100
AcDbMText
 10
191.2677931043833
 20
165.3237152099608
 30
0.0
 40
2.134018756842158
 41
0.0
 46
0.0
 71
     5
 72
     1
  1
{\fCE|b0|i0|c0|p0;}
 73
     1
 44
1.0
  0
LINE
  5
213
330
20B
100
AcDbEntity
  8
DIMENSIONS
100
AcDbLine
 10
193.8379301702347
 20
168.5799271983093
 30
0.0
 11
193.8379301702347
 21
161.5598263210719
 31
0.0
  0
LINE
  5
214
330
20B
100
AcDbEntity
  8
DIMENSIONS
100
AcDbLine
 10
180.364837646484
 20
171.205596923828
 30
0.0
 11
180.364837646484
 21
161.5598263210719
 31
0.0
  0
LWPOLYLINE
  5
215
330
20B
100
AcDbEntity
  8
DIMENSIONS
100
AcDbPolyline
 90
        4
 70
     0
 43
0.0
 10
193.8379301702347
 20
163.5598263210719
 10
190.8379301702347
 20
163.0598263210719
 10
190.8379301702347
 20
164.0598263210719
 10
193.8379301702347
 20
163.5598263210719
  0
LINE
  5
216
330
20B
100
AcDbEntity
  8
DIMENSIONS
100
AcDbLine
 10
190.8379301702347
 20
163.5598263210719
 30
0.0
 11
187.3872375488277
 21
163.5598263210719
 31
0.0
  0
LWPOLYLINE
  5
217
330
20B
100
AcDbEntity
  8
DIMENSIONS
100
AcDbPolyline
 90
        4
 70
     0
 43
0.0
 10
180.364837646484
 20
163.5598263210719
 10
183.364837646484
 20
164.0598263210719
 10
183.364837646484
 20
163.0598263210719
 10
180.364837646484
 20
163.5598263210719
  0
LINE
  5
218
330
20B
100
AcDbEntity
  8
DIMENSIONS
100
AcDbLine
 10
183.364837646484
 20
163.5598263210719
 30
0.0
 11
187.3872375488277
 21
163.5598263210719
 31
0.0
  0
LINE
  5
219
330
20B
100
AcDbEntity
  8
DIMENSIONS
100
AcDbLine
 10
180.8011265397068
 20
163.5598263210719
 30
0.0
 11
193.267793178558
 21
163.5598263210719
 31
0.0
  0
HATCH
  5
21A
330
20B
100
AcDbEntity
  8
0
 62
     7
100
AcDbHatch
 10
0.0
 20
0.0
 30
0.0
210
0.0
220
0.0
230
1.0
  2
PLNÁ, Plné vyplnění
 70
     0
 71
     0
 91
        2
 92
        0
 93
        3
 72
     1
 10
190.8379301702347
 20
164.0598263210719
 11
193.8379301702347
 21
163.5598263210719
 72
     1
 10
193.8379301702347
 20
163.5598263210719
 11
190.8379301702347
 21
163.0598263210719
 72
     1
 10
190.8379301702347
 20
163.0598263210719
 11
190.8379301702347
 21
164.0598263210719
 97
        0
 92
        0
 93
        3
 72
     1
 10
183.364837646484
 20
163.0598263210719
 11
180.364837646484
 21
163.5598263210719
 72
     1
 10
180.364837646484
 20
163.5598263210719
 11
183.364837646484
 21
164.0598263210719
 72
     1
 10
183.364837646484
 20
164.0598263210719
 11
183.364837646484
 21
163.0598263210719
 97
        0
 75
     0
 76
     0
 52
0.0
 41
1.0
 77
     0
 78
     1
 53
45.0
 43
0.0
 44
0.0
 45
0.0
 46
0.0
 79
     0
 98
        0
  0
ENDBLK
  5
20D
330
20B
100
AcDbEntity
  8
0
100
AcDbBlockEnd
  0
BLOCK
  5
21D
330
21C
100
AcDbEntity
  8
0
100
AcDbBlockBegin
  2
D7
 70
     0
 10
0.0
 20
0.0
 30
0.0
  3
D7
  1

  0
MTEXT
  5
21F
330
21C
100
AcDbEntity
  8
DIMENSIONS
100
AcDbMText
 10
215.3824462890621
 20
107.8025436401366
 30
0.0
 40
2.134018756842158
 41
0.0
 46
0.0
 71
     5
 72
     1
  1
{\fCE|b0|i0|c0|p0;37}{\fCE|b0|i0|c0|p0;}
 73
     1
 44
1.0
  0
MTEXT
  5
220
330
21C
100
AcDbEntity
  8
DIMENSIONS
100
AcDbMText
 10
215.3824462890621
 20
107.8025436401366
 30
0.0
 40
2.134018756842158
 41
0.0
 46
0.0
 71
     5
 72
     1
  1
{\fCE|b0|i0|c0|p0;}
 73
     1
 44
1.0
  0
MTEXT
  5
221
330
21C
100
AcDbEntity
  8
DIMENSIONS
100
AcDbMText
 10
215.3824462890621
 20
107.8025436401366
 30
0.0
 40
2.134018756842158
 41
0.0
 46
0.0
 71
     5
 72
     1
  1
{\fCE|b0|i0|c0|p0;}
 73
     1
 44
1.0
  0
MTEXT
  5
222
330
21C
100
AcDbEntity
  8
DIMENSIONS
100
AcDbMText
 10
212.9130018446177
 20
107.8025436401366
 30
0.0
 40
2.134018756842158
 41
0.0
 46
0.0
 71
     5
 72
     1
  1
{\fCE|b0|i0|c0|p0;}
 73
     1
 44
1.0
  0
MTEXT
  5
223
330
21C
100
AcDbEntity
  8
DIMENSIONS
100
AcDbMText
 10
217.8518907335065
 20
107.8025436401366
 30
0.0
 40
2.134018756842158
 41
0.0
 46
0.0
 71
     5
 72
     1
  1
{\fCE|b0|i0|c0|p0;}
 73
     1
 44
1.0
  0
LINE
  5
224
330
21C
100
AcDbEntity
  8
DIMENSIONS
100
AcDbLine
 10
235.364837646484
 20
124.955596923828
 30
0.0
 11
235.364837646484
 21
104.0386547512477
 31
0.0
  0
LINE
  5
225
330
21C
100
AcDbEntity
  8
DIMENSIONS
100
AcDbLine
 10
198.364837646484
 20
122.455596923828
 30
0.0
 11
198.364837646484
 21
104.0386547512477
 31
0.0
  0
LWPOLYLINE
  5
226
330
21C
100
AcDbEntity
  8
DIMENSIONS
100
AcDbPolyline
 90
        4
 70
     0
 43
0.0
 10
235.364837646484
 20
106.0386547512477
 10
232.364837646484
 20
105.5386547512477
 10
232.364837646484
 20
106.5386547512477
 10
235.364837646484
 20
106.0386547512477
  0
LINE
  5
227
330
21C
100
AcDbEntity
  8
DIMENSIONS
100
AcDbLine
 10
232.364837646484
 20
106.0386547512477
 30
0.0
 11
215.3824462890621
 21
106.0386547512477
 31
0.0
  0
LWPOLYLINE
  5
228
330
21C
100
AcDbEntity
  8
DIMENSIONS
100
AcDbPolyline
 90
        4
 70
     0
 43
0.0
 10
198.364837646484
 20
106.0386547512477
 10
201.364837646484
 20
106.5386547512477
 10
201.364837646484
 20
105.5386547512477
 10
198.364837646484
 20
106.0386547512477
  0
LINE
  5
229
330
21C
100
AcDbEntity
  8
DIMENSIONS
100
AcDbLine
 10
201.364837646484
 20
106.0386547512477
 30
0.0
 11
215.3824462890621
 21
106.0386547512477
 31
0.0
  0
LINE
  5
22A
330
21C
100
AcDbEntity
  8
DIMENSIONS
100
AcDbLine
 10
210.2074460983273
 20
106.0386547512477
 30
0.0
 11
219.8518915176388
 21
106.0386547512477
 31
0.0
  0
HATCH
  5
22B
330
21C
100
AcDbEntity
  8
0
 62
     7
100
AcDbHatch
 10
0.0
 20
0.0
 30
0.0
210
0.0
220
0.0
230
1.0
  2
PLNÁ, Plné vyplnění
 70
     0
 71
     0
 91
        2
 92
        0
 93
        3
 72
     1
 10
232.364837646484
 20
106.5386547512477
 11
235.364837646484
 21
106.0386547512477
 72
     1
 10
235.364837646484
 20
106.0386547512477
 11
232.364837646484
 21
105.5386547512477
 72
     1
 10
232.364837646484
 20
105.5386547512477
 11
232.364837646484
 21
106.5386547512477
 97
        0
 92
        0
 93
        3
 72
     1
 10
201.364837646484
 20
105.5386547512477
 11
198.364837646484
 21
106.0386547512477
 72
     1
 10
198.364837646484
 20
106.0386547512477
 11
201.364837646484
 21
106.5386547512477
 72
     1
 10
201.364837646484
 20
106.5386547512477
 11
201.364837646484
 21
105.5386547512477
 97
        0
 75
     0
 76
     0
 52
0.0
 41
1.0
 77
     0
 78
     1
 53
45.0
 43
0.0
 44
0.0
 45
0.0
 46
0.0
 79
     0
 98
        0
  0
ENDBLK
  5
21E
330
21C
100
AcDbEntity
  8
0
100
AcDbBlockEnd
  0
BLOCK
  5
22E
330
22D
100
AcDbEntity
  8
0
100
AcDbBlockBegin
  2
D8
 70
     0
 10
0.0
 20
0.0
 30
0.0
  3
D8
  1

  0
MTEXT
  5
230
330
22D
100
AcDbEntity
  8
DIMENSIONS
100
AcDbMText
 10
205.7595062255855
 20
101.9204177856444
 30
0.0
 40
2.134018756842158
 41
0.0
 46
0.0
 71
     5
 72
     1
  1
{\fCE|b0|i0|c0|p0;55}{\fCE|b0|i0|c0|p0;}
 73
     1
 44
1.0
  0
MTEXT
  5
231
330
22D
100
AcDbEntity
  8
DIMENSIONS
100
AcDbMText
 10
205.7595062255855
 20
101.9204177856444
 30
0.0
 40
2.134018756842158
 41
0.0
 46
0.0
 71
     5
 72
     1
  1
{\fCE|b0|i0|c0|p0;}
 73
     1
 44
1.0
  0
MTEXT
  5
232
330
22D
100
AcDbEntity
  8
DIMENSIONS
100
AcDbMText
 10
205.7595062255855
 20
101.9204177856444
 30
0.0
 40
2.134018756842158
 41
0.0
 46
0.0
 71
     5
 72
     1
  1
{\fCE|b0|i0|c0|p0;}
 73
     1
 44
1.0
  0
MTEXT
  5
233
330
22D
100
AcDbEntity
  8
DIMENSIONS
100
AcDbMText
 10
203.290061781141
 20
101.9204177856444
 30
0.0
 40
2.134018756842158
 41
0.0
 46
0.0
 71
     5
 72
     1
  1
{\fCE|b0|i0|c0|p0;}
 73
     1
 44
1.0
  0
MTEXT
  5
234
330
22D
100
AcDbEntity
  8
DIMENSIONS
100
AcDbMText
 10
208.2289506700299
 20
101.9204177856444
 30
0.0
 40
2.134018756842158
 41
0.0
 46
0.0
 71
     5
 72
     1
  1
{\fCE|b0|i0|c0|p0;}
 73
     1
 44
1.0
  0
LINE
  5
235
330
22D
100
AcDbEntity
  8
DIMENSIONS
100
AcDbLine
 10
235.364837646484
 20
124.955596923828
 30
0.0
 11
235.364837646484
 21
98.1565288967555
 31
0.0
  0
LINE
  5
236
330
22D
100
AcDbEntity
  8
DIMENSIONS
100
AcDbLine
 10
180.364837646484
 20
122.455596923828
 30
0.0
 11
180.364837646484
 21
98.1565288967555
 31
0.0
  0
LWPOLYLINE
  5
237
330
22D
100
AcDbEntity
  8
DIMENSIONS
100
AcDbPolyline
 90
        4
 70
     0
 43
0.0
 10
235.364837646484
 20
100.1565288967555
 10
232.364837646484
 20
99.6565288967555
 10
232.364837646484
 20
100.6565288967555
 10
235.364837646484
 20
100.1565288967555
  0
LINE
  5
238
330
22D
100
AcDbEntity
  8
DIMENSIONS
100
AcDbLine
 10
232.364837646484
 20
100.1565288967555
 30
0.0
 11
205.7595062255855
 21
100.1565288967555
 31
0.0
  0
LWPOLYLINE
  5
239
330
22D
100
AcDbEntity
  8
DIMENSIONS
100
AcDbPolyline
 90
        4
 70
     0
 43
0.0
 10
180.364837646484
 20
100.1565288967555
 10
183.364837646484
 20
100.6565288967555
 10
183.364837646484
 20
99.6565288967555
 10
180.364837646484
 20
100.1565288967555
  0
LINE
  5
23A
330
22D
100
AcDbEntity
  8
DIMENSIONS
100
AcDbLine
 10
183.364837646484
 20
100.1565288967555
 30
0.0
 11
205.7595062255855
 21
100.1565288967555
 31
0.0
  0
LINE
  5
23B
330
22D
100
AcDbEntity
  8
DIMENSIONS
100
AcDbLine
 10
200.5845050811764
 20
100.1565288967555
 30
0.0
 11
210.2289505004879
 21
100.1565288967555
 31
0.0
  0
HATCH
  5
23C
330
22D
100
AcDbEntity
  8
0
 62
     7
100
AcDbHatch
 10
0.0
 20
0.0
 30
0.0
210
0.0
220
0.0
230
1.0
  2
PLNÁ, Plné vyplnění
 70
     0
 71
     0
 91
        2
 92
        0
 93
        3
 72
     1
 10
232.364837646484
 20
100.6565288967555
 11
235.364837646484
 21
100.1565288967555
 72
     1
 10
235.364837646484
 20
100.1565288967555
 11
232.364837646484
 21
99.6565288967555
 72
     1
 10
232.364837646484
 20
99.6565288967555
 11
232.364837646484
 21
100.6565288967555
 97
        0
 92
        0
 93
        3
 72
     1
 10
183.364837646484
 20
99.6565288967555
 11
180.364837646484
 21
100.1565288967555
 72
     1
 10
180.364837646484
 20
100.1565288967555
 11
183.364837646484
 21
100.6565288967555
 72
     1
 10
183.364837646484
 20
100.6565288967555
 11
183.364837646484
 21
99.6565288967555
 97
        0
 75
     0
 76
     0
 52
0.0
 41
1.0
 77
     0
 78
     1
 53
45.0
 43
0.0
 44
0.0
 45
0.0
 46
0.0
 79
     0
 98
        0
  0
ENDBLK
  5
22F
330
22D
100
AcDbEntity
  8
0
100
AcDbBlockEnd
  0
BLOCK
  5
23F
330
23E
100
AcDbEntity
  8
0
100
AcDbBlockBegin
  2
D9
 70
     0
 10
0.0
 20
0.0
 30
0.0
  3
D9
  1

  0
MTEXT
  5
241
330
23E
100
AcDbEntity
  8
DIMENSIONS
100
AcDbMText
 10
207.9225463867184
 20
183.0485076904296
 30
0.0
 40
2.134018756842158
 41
0.0
 46
0.0
 71
     5
 72
     1
  1
{\fCE|b0|i0|c0|p0;1}{\fCE|b0|i0|c0|p0;}
 73
     1
 44
1.0
  0
MTEXT
  5
242
330
23E
100
AcDbEntity
  8
DIMENSIONS
100
AcDbMText
 10
207.9225463867184
 20
183.0485076904296
 30
0.0
 40
2.134018756842158
 41
0.0
 46
0.0
 71
     5
 72
     1
  1
{\fCE|b0|i0|c0|p0;}
 73
     1
 44
1.0
  0
MTEXT
  5
243
330
23E
100
AcDbEntity
  8
DIMENSIONS
100
AcDbMText
 10
207.9225463867184
 20
183.0485076904296
 30
0.0
 40
2.134018756842158
 41
0.0
 46
0.0
 71
     5
 72
     1
  1
{\fCE|b0|i0|c0|p0;}
 73
     1
 44
1.0
  0
MTEXT
  5
244
330
23E
100
AcDbEntity
  8
DIMENSIONS
100
AcDbMText
 10
206.3350463867184
 20
183.0485076904296
 30
0.0
 40
2.134018756842158
 41
0.0
 46
0.0
 71
     5
 72
     1
  1
{\fCE|b0|i0|c0|p0;}
 73
     1
 44
1.0
  0
MTEXT
  5
245
330
23E
100
AcDbEntity
  8
DIMENSIONS
100
AcDbMText
 10
209.5100463867184
 20
183.0485076904296
 30
0.0
 40
2.134018756842158
 41
0.0
 46
0.0
 71
     5
 72
     1
  1
{\fCE|b0|i0|c0|p0;x45}{\fAlibre Symbols|b0|i0|c0|p0;\H1.052632x;_}{\fCE|b0|i0|c0|p0;}
 73
     1
 44
1.0
  0
LINE
  5
246
330
23E
100
AcDbEntity
  8
DIMENSIONS
100
AcDbLine
 10
198.364837646484
 20
179.455596923828
 30
0.0
 11
198.364837646484
 21
182.5790632459852
 31
0.0
  0
LINE
  5
247
330
23E
100
AcDbEntity
  8
DIMENSIONS
100
AcDbLine
 10
197.364837646484
 20
180.455596923828
 30
0.0
 11
197.364837646484
 21
182.5790632459852
 31
0.0
  0
LWPOLYLINE
  5
248
330
23E
100
AcDbEntity
  8
DIMENSIONS
100
AcDbPolyline
 90
        4
 70
     0
 43
0.0
 10
198.364837646484
 20
180.5790632459852
 10
201.364837646484
 20
181.0790632459852
 10
201.364837646484
 20
180.0790632459852
 10
198.364837646484
 20
180.5790632459852
  0
LINE
  5
249
330
23E
100
AcDbEntity
  8
DIMENSIONS
100
AcDbLine
 10
201.364837646484
 20
180.5790632459852
 30
0.0
 11
207.9225463867184
 21
180.5790632459851
 31
0.0
  0
LWPOLYLINE
  5
24A
330
23E
100
AcDbEntity
  8
DIMENSIONS
100
AcDbPolyline
 90
        4
 70
     0
 43
0.0
 10
197.364837646484
 20
180.5790632459852
 10
194.364837646484
 20
180.0790632459852
 10
194.364837646484
 20
181.0790632459852
 10
197.364837646484
 20
180.5790632459852
  0
LINE
  5
24B
330
23E
100
AcDbEntity
  8
DIMENSIONS
100
AcDbLine
 10
194.364837646484
 20
180.5790632459852
 30
0.0
 11
193.764837646484
 21
180.5790632459852
 31
0.0
  0
LINE
  5
24C
330
23E
100
AcDbEntity
  8
DIMENSIONS
100
AcDbLine
 10
203.6294918060299
 20
180.5790632459852
 30
0.0
 11
217.5072689056393
 21
180.5790632459852
 31
0.0
  0
HATCH
  5
24D
330
23E
100
AcDbEntity
  8
0
 62
     7
100
AcDbHatch
 10
0.0
 20
0.0
 30
0.0
210
0.0
220
0.0
230
1.0
  2
PLNÁ, Plné vyplnění
 70
     0
 71
     0
 91
        2
 92
        0
 93
        3
 72
     1
 10
201.364837646484
 20
180.0790632459852
 11
198.364837646484
 21
180.5790632459852
 72
     1
 10
198.364837646484
 20
180.5790632459852
 11
201.364837646484
 21
181.0790632459852
 72
     1
 10
201.364837646484
 20
181.0790632459852
 11
201.364837646484
 21
180.0790632459852
 97
        0
 92
        0
 93
        3
 72
     1
 10
194.364837646484
 20
181.0790632459852
 11
197.364837646484
 21
180.5790632459852
 72
     1
 10
197.364837646484
 20
180.5790632459852
 11
194.364837646484
 21
180.0790632459852
 72
     1
 10
194.364837646484
 20
180.0790632459852
 11
194.364837646484
 21
181.0790632459852
 97
        0
 75
     0
 76
     0
 52
0.0
 41
1.0
 77
     0
 78
     1
 53
45.0
 43
0.0
 44
0.0
 45
0.0
 46
0.0
 79
     0
 98
        0
  0
ENDBLK
  5
240
330
23E
100
AcDbEntity
  8
0
100
AcDbBlockEnd
  0
BLOCK
  5
250
330
24F
100
AcDbEntity
  8
0
100
AcDbBlockBegin
  2
D10
 70
     0
 10
0.0
 20
0.0
 30
0.0
  3
D10
  1

  0
MTEXT
  5
252
330
24F
100
AcDbEntity
  8
DIMENSIONS
100
AcDbMText
 10
242.5087738037105
 20
181.0859374999999
 30
0.0
 40
2.134018756842158
 41
0.0
 46
0.0
 71
     5
 72
     1
  1
{\fCE|b0|i0|c0|p0;1}{\fCE|b0|i0|c0|p0;}
 73
     1
 44
1.0
  0
MTEXT
  5
253
330
24F
100
AcDbEntity
  8
DIMENSIONS
100
AcDbMText
 10
242.5087738037105
 20
181.0859374999999
 30
0.0
 40
2.134018756842158
 41
0.0
 46
0.0
 71
     5
 72
     1
  1
{\fCE|b0|i0|c0|p0;}
 73
     1
 44
1.0
  0
MTEXT
  5
254
330
24F
100
AcDbEntity
  8
DIMENSIONS
100
AcDbMText
 10
242.5087738037105
 20
181.0859374999999
 30
0.0
 40
2.134018756842158
 41
0.0
 46
0.0
 71
     5
 72
     1
  1
{\fCE|b0|i0|c0|p0;}
 73
     1
 44
1.0
  0
MTEXT
  5
255
330
24F
100
AcDbEntity
  8
DIMENSIONS
100
AcDbMText
 10
240.9212738037105
 20
181.0859374999999
 30
0.0
 40
2.134018756842158
 41
0.0
 46
0.0
 71
     5
 72
     1
  1
{\fCE|b0|i0|c0|p0;}
 73
     1
 44
1.0
  0
MTEXT
  5
256
330
24F
100
AcDbEntity
  8
DIMENSIONS
100
AcDbMText
 10
244.0962738037105
 20
181.0859374999999
 30
0.0
 40
2.134018756842158
 41
0.0
 46
0.0
 71
     5
 72
     1
  1
{\fCE|b0|i0|c0|p0;x45}{\fAlibre Symbols|b0|i0|c0|p0;\H1.052632x;_}{\fCE|b0|i0|c0|p0;}
 73
     1
 44
1.0
  0
LINE
  5
257
330
24F
100
AcDbEntity
  8
DIMENSIONS
100
AcDbLine
 10
235.364837646484
 20
176.955596923828
 30
0.0
 11
235.364837646484
 21
180.6164930555555
 31
0.0
  0
LINE
  5
258
330
24F
100
AcDbEntity
  8
DIMENSIONS
100
AcDbLine
 10
234.364837646484
 20
177.955596923828
 30
0.0
 11
234.364837646484
 21
180.6164930555555
 31
0.0
  0
LWPOLYLINE
  5
259
330
24F
100
AcDbEntity
  8
DIMENSIONS
100
AcDbPolyline
 90
        4
 70
     0
 43
0.0
 10
235.364837646484
 20
178.6164930555555
 10
238.364837646484
 20
179.1164930555555
 10
238.364837646484
 20
178.1164930555555
 10
235.364837646484
 20
178.6164930555555
  0
LINE
  5
25A
330
24F
100
AcDbEntity
  8
DIMENSIONS
100
AcDbLine
 10
238.364837646484
 20
178.6164930555555
 30
0.0
 11
242.5087738037105
 21
178.6164930555557
 31
0.0
  0
LWPOLYLINE
  5
25B
330
24F
100
AcDbEntity
  8
DIMENSIONS
100
AcDbPolyline
 90
        4
 70
     0
 43
0.0
 10
234.364837646484
 20
178.6164930555555
 10
231.364837646484
 20
178.1164930555555
 10
231.364837646484
 20
179.1164930555555
 10
234.364837646484
 20
178.6164930555555
  0
LINE
  5
25C
330
24F
100
AcDbEntity
  8
DIMENSIONS
100
AcDbLine
 10
231.364837646484
 20
178.6164930555555
 30
0.0
 11
230.764837646484
 21
178.6164930555555
 31
0.0
  0
LINE
  5
25D
330
24F
100
AcDbEntity
  8
DIMENSIONS
100
AcDbLine
 10
238.2157163619991
 20
178.6164930555555
 30
0.0
 11
252.0934934616085
 21
178.6164930555555
 31
0.0
  0
HATCH
  5
25E
330
24F
100
AcDbEntity
  8
0
 62
     7
100
AcDbHatch
 10
0.0
 20
0.0
 30
0.0
210
0.0
220
0.0
230
1.0
  2
PLNÁ, Plné vyplnění
 70
     0
 71
     0
 91
        2
 92
        0
 93
        3
 72
     1
 10
238.364837646484
 20
178.1164930555555
 11
235.364837646484
 21
178.6164930555555
 72
     1
 10
235.364837646484
 20
178.6164930555555
 11
238.364837646484
 21
179.1164930555555
 72
     1
 10
238.364837646484
 20
179.1164930555555
 11
238.364837646484
 21
178.1164930555555
 97
        0
 92
        0
 93
        3
 72
     1
 10
231.364837646484
 20
179.1164930555555
 11
234.364837646484
 21
178.6164930555555
 72
     1
 10
234.364837646484
 20
178.6164930555555
 11
231.364837646484
 21
178.1164930555555
 72
     1
 10
231.364837646484
 20
178.1164930555555
 11
231.364837646484
 21
179.1164930555555
 97
        0
 75
     0
 76
     0
 52
0.0
 41
1.0
 77
     0
 78
     1
 53
45.0
 43
0.0
 44
0.0
 45
0.0
 46
0.0
 79
     0
 98
        0
  0
ENDBLK
  5
251
330
24F
100
AcDbEntity
  8
0
100
AcDbBlockEnd
  0
BLOCK
  5
261
330
260
100
AcDbEntity
  8
0
100
AcDbBlockBegin
  2
D11
 70
     0
 10
0.0
 20
0.0
 30
0.0
  3
D11
  1

  0
MTEXT
  5
263
330
260
100
AcDbEntity
  8
DIMENSIONS
100
AcDbMText
 10
187.060638427734
 20
186.1865081787108
 30
0.0
 40
2.134018756842158
 41
0.0
 46
0.0
 71
     5
 72
     1
  1
{\fCE|b0|i0|c0|p0;1}{\fCE|b0|i0|c0|p0;}
 73
     1
 44
1.0
  0
MTEXT
  5
264
330
260
100
AcDbEntity
  8
DIMENSIONS
100
AcDbMText
 10
187.060638427734
 20
186.1865081787108
 30
0.0
 40
2.134018756842158
 41
0.0
 46
0.0
 71
     5
 72
     1
  1
{\fCE|b0|i0|c0|p0;}
 73
     1
 44
1.0
  0
MTEXT
  5
265
330
260
100
AcDbEntity
  8
DIMENSIONS
100
AcDbMText
 10
187.060638427734
 20
186.1865081787108
 30
0.0
 40
2.134018756842158
 41
0.0
 46
0.0
 71
     5
 72
     1
  1
{\fCE|b0|i0|c0|p0;}
 73
     1
 44
1.0
  0
MTEXT
  5
266
330
260
100
AcDbEntity
  8
DIMENSIONS
100
AcDbMText
 10
185.473138427734
 20
186.1865081787108
 30
0.0
 40
2.134018756842158
 41
0.0
 46
0.0
 71
     5
 72
     1
  1
{\fCE|b0|i0|c0|p0;}
 73
     1
 44
1.0
  0
MTEXT
  5
267
330
260
100
AcDbEntity
  8
DIMENSIONS
100
AcDbMText
 10
188.648138427734
 20
186.1865081787108
 30
0.0
 40
2.134018756842158
 41
0.0
 46
0.0
 71
     5
 72
     1
  1
{\fCE|b0|i0|c0|p0;x45}{\fAlibre Symbols|b0|i0|c0|p0;\H1.052632x;_}{\fCE|b0|i0|c0|p0;}
 73
     1
 44
1.0
  0
LINE
  5
268
330
260
100
AcDbEntity
  8
DIMENSIONS
100
AcDbLine
 10
181.364837646484
 20
180.455596923828
 30
0.0
 11
181.364837646484
 21
185.7170637342664
 31
0.0
  0
LINE
  5
269
330
260
100
AcDbEntity
  8
DIMENSIONS
100
AcDbLine
 10
180.364837646484
 20
179.455596923828
 30
0.0
 11
180.364837646484
 21
185.7170637342664
 31
0.0
  0
LWPOLYLINE
  5
26A
330
260
100
AcDbEntity
  8
DIMENSIONS
100
AcDbPolyline
 90
        4
 70
     0
 43
0.0
 10
181.364837646484
 20
183.7170637342664
 10
184.364837646484
 20
184.2170637342664
 10
184.364837646484
 20
183.2170637342664
 10
181.364837646484
 20
183.7170637342664
  0
LINE
  5
26B
330
260
100
AcDbEntity
  8
DIMENSIONS
100
AcDbLine
 10
184.364837646484
 20
183.7170637342664
 30
0.0
 11
187.060638427734
 21
183.7170637342664
 31
0.0
  0
LWPOLYLINE
  5
26C
330
260
100
AcDbEntity
  8
DIMENSIONS
100
AcDbPolyline
 90
        4
 70
     0
 43
0.0
 10
180.364837646484
 20
183.7170637342664
 10
177.364837646484
 20
183.2170637342664
 10
177.364837646484
 20
184.2170637342664
 10
180.364837646484
 20
183.7170637342664
  0
LINE
  5
26D
330
260
100
AcDbEntity
  8
DIMENSIONS
100
AcDbLine
 10
177.364837646484
 20
183.7170637342664
 30
0.0
 11
176.764837646484
 21
183.7170637342664
 31
0.0
  0
LINE
  5
26E
330
260
100
AcDbEntity
  8
DIMENSIONS
100
AcDbLine
 10
182.7675830125805
 20
183.7170637342664
 30
0.0
 11
196.6453607082363
 21
183.7170637342664
 31
0.0
  0
HATCH
  5
26F
330
260
100
AcDbEntity
  8
0
 62
     7
100
AcDbHatch
 10
0.0
 20
0.0
 30
0.0
210
0.0
220
0.0
230
1.0
  2
PLNÁ, Plné vyplnění
 70
     0
 71
     0
 91
        2
 92
        0
 93
        3
 72
     1
 10
184.364837646484
 20
183.2170637342664
 11
181.364837646484
 21
183.7170637342664
 72
     1
 10
181.364837646484
 20
183.7170637342664
 11
184.364837646484
 21
184.2170637342664
 72
     1
 10
184.364837646484
 20
184.2170637342664
 11
184.364837646484
 21
183.2170637342664
 97
        0
 92
        0
 93
        3
 72
     1
 10
177.364837646484
 20
184.2170637342664
 11
180.364837646484
 21
183.7170637342664
 72
     1
 10
180.364837646484
 20
183.7170637342664
 11
177.364837646484
 21
183.2170637342664
 72
     1
 10
177.364837646484
 20
183.2170637342664
 11
177.364837646484
 21
184.2170637342664
 97
        0
 75
     0
 76
     0
 52
0.0
 41
1.0
 77
     0
 78
     1
 53
45.0
 43
0.0
 44
0.0
 45
0.0
 46
0.0
 79
     0
 98
        0
  0
ENDBLK
  5
262
330
260
100
AcDbEntity
  8
0
100
AcDbBlockEnd
  0
BLOCK
  5
27A
330
279
100
AcDbEntity
  8
0
100
AcDbBlockBegin
  2
BLOCK0
 70
     0
 10
0.0
 20
0.0
 30
0.0
  3
BLOCK0
  1

  0
LINE
  5
27C
330
279
100
AcDbEntity
  8
CONTINUOUS
100
AcDbLine
 10
9.99999999999998
 20
9.99999999999995
 30
0.0
 11
287.0
 21
10.0
 31
0.0
  0
LINE
  5
27D
330
279
100
AcDbEntity
  8
CONTINUOUS
100
AcDbLine
 10
141.942321777344
 20
5.0
 30
0.0
 11
241.942321777344
 21
5.0
 31
0.0
  0
LINE
  5
27E
330
279
100
AcDbEntity
  8
CONTINUOUS
100
AcDbLine
 10
0.0
 20
0.0
 30
0.0
 11
-0.0000000000000012
 21
10.0
 31
0.0
  0
LINE
  5
27F
330
279
100
AcDbEntity
  8
CONTINUOUS
100
AcDbLine
 10
0.0
 20
0.0
 30
0.0
 11
10.0
 21
0.0000000000000018
 31
0.0
  0
LINE
  5
280
330
279
100
AcDbEntity
  8
CONTINUOUS
100
AcDbLine
 10
141.942321777344
 20
5.0
 30
0.0
 11
141.942321777344
 21
10.0
 31
0.0
  0
LINE
  5
281
330
279
100
AcDbEntity
  8
CONTINUOUS
100
AcDbLine
 10
151.942321777344
 20
5.0
 30
0.0
 11
151.942321777344
 21
10.0
 31
0.0
  0
LINE
  5
282
330
279
100
AcDbEntity
  8
CONTINUOUS
100
AcDbLine
 10
161.942321777344
 20
5.0
 30
0.0
 11
161.942321777344
 21
10.0
 31
0.0
  0
LINE
  5
283
330
279
100
AcDbEntity
  8
CONTINUOUS
100
AcDbLine
 10
10.0
 20
57.5
 30
0.0
 11
5.0
 21
57.5
 31
0.0
  0
LINE
  5
284
330
279
100
AcDbEntity
  8
CONTINUOUS
100
AcDbLine
 10
10.0
 20
105.0
 30
0.0
 11
5.0
 21
105.0
 31
0.0
  0
LINE
  5
285
330
279
100
AcDbEntity
  8
CONTINUOUS
100
AcDbLine
 10
191.942321777344
 20
10.0
 30
0.0
 11
191.942321777344
 21
5.0
 31
0.0
  0
LINE
  5
286
330
279
100
AcDbEntity
  8
CONTINUOUS
100
AcDbLine
 10
171.942321777344
 20
5.0
 30
0.0
 11
171.942321777344
 21
10.0
 31
0.0
  0
LINE
  5
287
330
279
100
AcDbEntity
  8
CONTINUOUS
100
AcDbLine
 10
181.942321777344
 20
5.0
 30
0.0
 11
181.942321777344
 21
10.0
 31
0.0
  0
LINE
  5
288
330
279
100
AcDbEntity
  8
CONTINUOUS
100
AcDbLine
 10
201.942321777344
 20
5.0
 30
0.0
 11
201.942321777344
 21
10.0
 31
0.0
  0
LINE
  5
289
330
279
100
AcDbEntity
  8
CONTINUOUS
100
AcDbLine
 10
211.942321777344
 20
5.0
 30
0.0
 11
211.942321777344
 21
10.0
 31
0.0
  0
LINE
  5
28A
330
279
100
AcDbEntity
  8
CONTINUOUS
100
AcDbLine
 10
221.942321777344
 20
5.0
 30
0.0
 11
221.942321777344
 21
10.0
 31
0.0
  0
LINE
  5
28B
330
279
100
AcDbEntity
  8
CONTINUOUS
100
AcDbLine
 10
297.0
 20
0.0
 30
0.0
 11
297.0
 21
10.0
 31
0.0
  0
LINE
  5
28C
330
279
100
AcDbEntity
  8
CONTINUOUS
100
AcDbLine
 10
241.942321777344
 20
5.0
 30
0.0
 11
241.942321777344
 21
10.0
 31
0.0
  0
LINE
  5
28D
330
279
100
AcDbEntity
  8
CONTINUOUS
100
AcDbLine
 10
231.942321777344
 20
5.0
 30
0.0
 11
231.942321777344
 21
10.0
 31
0.0
  0
LINE
  5
28E
330
279
100
AcDbEntity
  8
CONTINUOUS
100
AcDbLine
 10
296.942321777344
 20
0.0
 30
0.0
 11
286.942321777344
 21
0.0
 31
0.0
  0
LINE
  5
28F
330
279
100
AcDbEntity
  8
CONTINUOUS
100
AcDbLine
 10
291.942321777344
 20
57.5
 30
0.0
 11
286.942321777344
 21
57.5
 31
0.0
  0
LINE
  5
290
330
279
100
AcDbEntity
  8
CONTINUOUS
100
AcDbLine
 10
291.942321777344
 20
105.0
 30
0.0
 11
286.942321777344
 21
105.0
 31
0.0
  0
LINE
  5
291
330
279
100
AcDbEntity
  8
CONTINUOUS
100
AcDbLine
 10
-0.0000000000000249
 20
209.989334106445
 30
0.0
 11
-0.0000000000000249
 21
199.989334106445
 31
0.0
  0
LINE
  5
292
330
279
100
AcDbEntity
  8
CONTINUOUS
100
AcDbLine
 10
10.0165710449219
 20
209.989334106445
 30
0.0
 11
0.016571044921875
 21
209.989334106445
 31
0.0
  0
LINE
  5
293
330
279
100
AcDbEntity
  8
CONTINUOUS
100
AcDbLine
 10
194.666666666667
 20
199.989334106445
 30
0.0
 11
194.666666666667
 21
204.989334106445
 31
0.0
  0
LINE
  5
294
330
279
100
AcDbEntity
  8
CONTINUOUS
100
AcDbLine
 10
297.0
 20
199.989334106445
 30
0.0
 11
297.0
 21
209.989334106445
 31
0.0
  0
LINE
  5
295
330
279
100
AcDbEntity
  8
CONTINUOUS
100
AcDbLine
 10
240.833333333333
 20
199.989334106445
 30
0.0
 11
240.833333333333
 21
204.989334106445
 31
0.0
  0
LINE
  5
296
330
279
100
AcDbEntity
  8
CONTINUOUS
100
AcDbLine
 10
296.958892822266
 20
209.989334106445
 30
0.0
 11
286.958892822266
 21
209.989334106445
 31
0.0
  0
LINE
  5
297
330
279
100
AcDbEntity
  8
CONTINUOUS
100
AcDbLine
 10
286.942321777344
 20
152.5
 30
0.0
 11
291.942321777344
 21
152.5
 31
0.0
  0
LINE
  5
298
330
279
100
AcDbEntity
  8
CONTINUOUS
100
AcDbLine
 10
5.0
 20
152.5
 30
0.0
 11
10.0
 21
152.5
 31
0.0
  0
LINE
  5
299
330
279
100
AcDbEntity
  8
CONTINUOUS
100
AcDbLine
 10
287.0
 20
200.0
 30
0.0
 11
9.99999999999998
 21
200.0
 31
0.0
  0
LINE
  5
29A
330
279
100
AcDbEntity
  8
CONTINUOUS
100
AcDbLine
 10
287.0
 20
10.0
 30
0.0
 11
287.0
 21
200.0
 31
0.0
  0
LINE
  5
29B
330
279
100
AcDbEntity
  8
CONTINUOUS
100
AcDbLine
 10
9.99999999999998
 20
200.0
 30
0.0
 11
9.99999999999998
 21
9.99999999999995
 31
0.0
  0
LINE
  5
29C
330
279
100
AcDbEntity
  8
CONTINUOUS
100
AcDbLine
 10
56.1666666666666
 20
200.0
 30
0.0
 11
56.1666666666666
 21
205.0
 31
0.0
  0
LINE
  5
29D
330
279
100
AcDbEntity
  8
CONTINUOUS
100
AcDbLine
 10
102.333333333333
 20
200.0
 30
0.0
 11
102.333333333333
 21
205.0
 31
0.0
  0
LINE
  5
29E
330
279
100
AcDbEntity
  8
CONTINUOUS
100
AcDbLine
 10
148.5
 20
200.0
 30
0.0
 11
148.5
 21
205.0
 31
0.0
  0
LINE
  5
29F
330
279
100
AcDbEntity
  8
CONTINUOUS
100
AcDbLine
 10
56.1666679382324
 20
10.0
 30
0.0
 11
56.1666679382324
 21
5.0
 31
0.0
  0
LINE
  5
2A0
330
279
100
AcDbEntity
  8
CONTINUOUS
100
AcDbLine
 10
102.333335876465
 20
10.0
 30
0.0
 11
102.333335876465
 21
5.0
 31
0.0
  0
LINE
  5
2A1
330
279
100
AcDbEntity
  8
CONTINUOUS
100
AcDbLine
 10
194.0
 20
10.0
 30
0.0
 11
194.0
 21
48.0
 31
0.0
  0
LINE
  5
2A2
330
279
100
AcDbEntity
  8
CONTINUOUS
100
AcDbLine
 10
251.0
 20
10.0
 30
0.0
 11
251.0
 21
20.0
 31
0.0
  0
LINE
  5
2A3
330
279
100
AcDbEntity
  8
CONTINUOUS
100
AcDbLine
 10
269.0
 20
10.0
 30
0.0
 11
269.0
 21
20.0
 31
0.0
  0
LINE
  5
2A4
330
279
100
AcDbEntity
  8
CONTINUOUS
100
AcDbLine
 10
229.0
 20
9.99999999999999
 30
0.0
 11
229.0
 21
20.0
 31
0.0
  0
LINE
  5
2A5
330
279
100
AcDbEntity
  8
CONTINUOUS
100
AcDbLine
 10
241.559921264648
 20
30.0
 30
0.0
 11
241.559921264648
 21
20.0
 31
0.0
  0
LINE
  5
2A6
330
279
100
AcDbEntity
  8
CONTINUOUS
100
AcDbLine
 10
269.0
 20
10.0
 30
0.0
 11
287.0
 21
10.0
 31
0.0
  0
LINE
  5
2A7
330
279
100
AcDbEntity
  8
CONTINUOUS
100
AcDbLine
 10
194.0
 20
48.0
 30
0.0
 11
287.0
 21
48.0
 31
0.0
  0
LINE
  5
2A8
330
279
100
AcDbEntity
  8
CONTINUOUS
100
AcDbLine
 10
194.059921264648
 20
30.0
 30
0.0
 11
287.059921264648
 21
30.0
 31
0.0
  0
LINE
  5
2A9
330
279
100
AcDbEntity
  8
CONTINUOUS
100
AcDbLine
 10
194.059921264648
 20
20.0
 30
0.0
 11
287.059921264648
 21
20.0
 31
0.0
  0
LINE
  5
2AA
330
279
100
AcDbEntity
  8
CONTINUOUS
100
AcDbLine
 10
216.0
 20
30.0
 30
0.0
 11
216.0
 21
48.0
 31
0.0
  0
MTEXT
  5
2AB
330
279
100
AcDbEntity
  8
CONTINUOUS
100
AcDbMText
 10
216.858890991211
 20
204.29698022461
 30
0.0
 40
3.720853217058121
 41
0.0
 46
0.0
 71
     4
 72
     1
  1
{\fArial|b0|i0|c0|p0;\C7;5}{\fArial|b0|i0|c0|p0;\C7;}
 73
     1
 44
1.0
  0
MTEXT
  5
2AC
330
279
100
AcDbEntity
  8
CONTINUOUS
100
AcDbMText
 10
288.710822753907
 20
79.4667495117188
 30
0.0
 40
3.720853217058121
 41
0.0
 46
0.0
 71
     4
 72
     1
  1
{\fArial|b0|i0|c0|p0;\C7;C}{\fArial|b0|i0|c0|p0;\C7;}
 73
     1
 44
1.0
  0
MTEXT
  5
2AD
330
279
100
AcDbEntity
  8
CONTINUOUS
100
AcDbMText
 10
5.6160912703474
 20
125.886
 30
0.0
 40
3.720853217058121
 41
0.0
 46
0.0
 71
     4
 72
     1
  1
{\fArial|b0|i0|c0|p0;\C7;B}{\fArial|b0|i0|c0|p0;\C7;}
 73
     1
 44
1.0
  0
MTEXT
  5
2AE
330
279
100
AcDbEntity
  8
CONTINUOUS
100
AcDbMText
 10
244.748741149902
 20
7.15205116271974
 30
0.0
 40
1.969863467854299
 41
0.0
 46
0.0
 71
     4
 72
     1
  1
{\fArial|b0|i0|c0|p0;\C7;}
 73
     1
 44
1.0
  0
MTEXT
  5
2AF
330
279
100
AcDbEntity
  8
CONTINUOUS
100
AcDbMText
 10
77.9621860149715
 20
204.250404272846
 30
0.0
 40
3.720853217058121
 41
0.0
 46
0.0
 71
     4
 72
     1
  1
{\fArial|b0|i0|c0|p0;\C7;2}{\fArial|b0|i0|c0|p0;\C7;}
 73
     1
 44
1.0
  0
MTEXT
  5
2B0
330
279
100
AcDbEntity
  8
CONTINUOUS
100
AcDbMText
 10
121.245655822681
 20
204.355103698803
 30
0.0
 40
3.720853217058121
 41
0.0
 46
0.0
 71
     4
 72
     1
  1
{\fArial|b0|i0|c0|p0;\C7;3}{\fArial|b0|i0|c0|p0;\C7;}
 73
     1
 44
1.0
  0
MTEXT
  5
2B1
330
279
100
AcDbEntity
  8
CONTINUOUS
100
AcDbMText
 10
171.459843139648
 20
204.242353759765
 30
0.0
 40
3.720853217058121
 41
0.0
 46
0.0
 71
     4
 72
     1
  1
{\fArial|b0|i0|c0|p0;\C7;4}{\fArial|b0|i0|c0|p0;\C7;}
 73
     1
 44
1.0
  0
MTEXT
  5
2B2
330
279
100
AcDbEntity
  8
CONTINUOUS
100
AcDbMText
 10
5.18862550735474
 20
80.0342772827149
 30
0.0
 40
3.720853217058121
 41
0.0
 46
0.0
 71
     4
 72
     1
  1
{\fArial|b0|i0|c0|p0;\C7;C}{\fArial|b0|i0|c0|p0;\C7;}
 73
     1
 44
1.0
  0
MTEXT
  5
2B3
330
279
100
AcDbEntity
  8
CONTINUOUS
100
AcDbMText
 10
288.920463256836
 20
33.4667418823242
 30
0.0
 40
3.720853217058121
 41
0.0
 46
0.0
 71
     4
 72
     1
  1
{\fArial|b0|i0|c0|p0;\C7;D}{\fArial|b0|i0|c0|p0;\C7;}
 73
     1
 44
1.0
  0
MTEXT
  5
2B4
330
279
100
AcDbEntity
  8
CONTINUOUS
100
AcDbMText
 10
288.594410820089
 20
171.67635949707
 30
0.0
 40
3.720853217058121
 41
0.0
 46
0.0
 71
     4
 72
     1
  1
{\fArial|b0|i0|c0|p0;\C7;A}{\fArial|b0|i0|c0|p0;\C7;}
 73
     1
 44
1.0
  0
MTEXT
  5
2B5
330
279
100
AcDbEntity
  8
CONTINUOUS
100
AcDbMText
 10
4.984780712209
 20
172.034376464844
 30
0.0
 40
3.720853217058121
 41
0.0
 46
0.0
 71
     4
 72
     1
  1
{\fArial|b0|i0|c0|p0;\C7;A}{\fArial|b0|i0|c0|p0;\C7;}
 73
     1
 44
1.0
  0
MTEXT
  5
2B6
330
279
100
AcDbEntity
  8
CONTINUOUS
100
AcDbMText
 10
5.33690040588379
 20
33.886
 30
0.0
 40
3.720853217058121
 41
0.0
 46
0.0
 71
     4
 72
     1
  1
{\fArial|b0|i0|c0|p0;\C7;D}{\fArial|b0|i0|c0|p0;\C7;}
 73
     1
 44
1.0
  0
MTEXT
  5
2B7
330
279
100
AcDbEntity
  8
CONTINUOUS
100
AcDbMText
 10
269.000775146485
 20
17.4468976593018
 30
0.0
 40
2.251496730059653
 41
0.0
 46
0.0
 71
     4
 72
     1
  1
{\fMonotype Corsiva|b0|i1|c0|p0;\C7;Scale }{\fArial|b0|i0|c0|p0;\C7;\H0.7692308x;}
 73
     1
 44
1.0
  0
MTEXT
  5
2B8
330
279
100
AcDbEntity
  8
CONTINUOUS
100
AcDbMText
 10
27.3887158203126
 20
6.7864282951355
 30
0.0
 40
3.720853217058121
 41
0.0
 46
0.0
 71
     4
 72
     1
  1
{\fArial|b0|i0|c0|p0;\C7;1}{\fArial|b0|i0|c0|p0;\C7;}
 73
     1
 44
1.0
  0
MTEXT
  5
2B9
330
279
100
AcDbEntity
  8
CONTINUOUS
100
AcDbMText
 10
32.2742214965821
 20
204.252439819336
 30
0.0
 40
3.720853217058121
 41
0.0
 46
0.0
 71
     4
 72
     1
  1
{\fArial|b0|i0|c0|p0;\C7;1}{\fArial|b0|i0|c0|p0;\C7;}
 73
     1
 44
1.0
  0
MTEXT
  5
2BA
330
279
100
AcDbEntity
  8
CONTINUOUS
100
AcDbMText
 10
81.36409489129
 20
6.84505931157936
 30
0.0
 40
3.720853217058121
 41
0.0
 46
0.0
 71
     4
 72
     1
  1
{\fArial|b0|i0|c0|p0;\C7;2}{\fArial|b0|i0|c0|p0;\C7;}
 73
     1
 44
1.0
  0
MTEXT
  5
2BB
330
279
100
AcDbEntity
  8
CONTINUOUS
100
AcDbMText
 10
194.206589508057
 20
27.6925756072998
 30
0.0
 40
2.251496730059653
 41
0.0
 46
0.0
 71
     4
 72
     1
  1
{\fMonotype Corsiva|b0|i1|c0|p0;\C7;Name }{\fArial|b0|i0|c0|p0;\C7;\H0.7692308x;}
 73
     1
 44
1.0
  0
MTEXT
  5
2BC
330
279
100
AcDbEntity
  8
CONTINUOUS
100
AcDbMText
 10
251.201002341357
 20
20.0034076309204
 30
0.0
 40
2.251496730059653
 41
0.0
 46
0.0
 71
     1
 72
     1
  1
{\fMonotype Corsiva|b0|i1|c0|p0;\C7;Quantity}{\fArial|b0|i0|c0|p0;\C7;\H0.7692308x;}
 73
     1
 44
1.0
  0
MTEXT
  5
2BD
330
279
100
AcDbEntity
  8
CONTINUOUS
100
AcDbMText
 10
241.827730760921
 20
26.8954164123535
 30
0.0
 40
2.251496730059653
 41
0.0
 46
0.0
 71
     4
 72
     1
  1
{\fMonotype Corsiva|b0|i1|c0|p0;\C7;Material }{\fArial|b0|i0|c0|p0;\C7;\H0.7692308x;}
 73
     1
 44
1.0
  0
MTEXT
  5
2BE
330
279
100
AcDbEntity
  8
CONTINUOUS
100
AcDbMText
 10
194.738236236572
 20
17.6612302398682
 30
0.0
 40
2.251496730059653
 41
0.0
 46
0.0
 71
     4
 72
     1
  1
{\fMonotype Corsiva|b0|i1|c0|p0;\C7;Treatment  }{\fArial|b0|i0|c0|p0;\C7;\H0.7692308x;}
 73
     1
 44
1.0
  0
MTEXT
  5
2BF
330
279
100
AcDbEntity
  8
CONTINUOUS
100
AcDbMText
 10
229.187939453125
 20
17.546260986328
 30
0.0
 40
2.251496730059653
 41
0.0
 46
0.0
 71
     4
 72
     1
  1
{\fMonotype Corsiva|b0|i1|c0|p0;\C7;Date}{\fArial|b0|i0|c0|p0;\C7;\H0.7692308x;}
 73
     1
 44
1.0
  0
MTEXT
  5
2C0
330
279
100
AcDbEntity
  8
CONTINUOUS
100
AcDbMText
 10
265.171810609717
 20
204.240896547217
 30
0.0
 40
3.720853217058121
 41
0.0
 46
0.0
 71
     4
 72
     1
  1
{\fArial|b0|i0|c0|p0;\C7;6}{\fArial|b0|i0|c0|p0;\C7;}
 73
     1
 44
1.0
  0
MTEXT
  5
2C1
330
279
100
AcDbEntity
  8
CONTINUOUS
100
AcDbMText
 10
126.092175294703
 20
6.61010619923708
 30
0.0
 40
3.720853217058121
 41
0.0
 46
0.0
 71
     4
 72
     1
  1
{\fArial|b0|i0|c0|p0;\C7;3}{\fArial|b0|i0|c0|p0;\C7;}
 73
     1
 44
1.0
  0
MTEXT
  5
2C2
330
279
100
AcDbEntity
  8
CONTINUOUS
100
AcDbMText
 10
262.082233886719
 20
6.73998626327514
 30
0.0
 40
3.720853217058121
 41
0.0
 46
0.0
 71
     4
 72
     1
  1
{\fArial|b0|i0|c0|p0;\C7;6}{\fArial|b0|i0|c0|p0;\C7;}
 73
     1
 44
1.0
  0
MTEXT
  5
2C3
330
279
100
AcDbEntity
  8
CONTINUOUS
100
AcDbMText
 10
289.025805015464
 20
125.886
 30
0.0
 40
3.720853217058121
 41
0.0
 46
0.0
 71
     4
 72
     1
  1
{\fArial|b0|i0|c0|p0;\C7;B}{\fArial|b0|i0|c0|p0;\C7;}
 73
     1
 44
1.0
  0
ENDBLK
  5
27B
330
279
100
AcDbEntity
  8
0
100
AcDbBlockEnd
  0
ENDSEC
  0
SECTION
  2
ENTITIES
  0
CIRCLE
  5
6F
330
1F
100
AcDbEntity
  8
VISIBLE
100
AcDbCircle
 10
80.7498274795031
 20
150.955596923828
 30
0.0
 40
25.0
  0
CIRCLE
  5
70
330
1F
100
AcDbEntity
  8
VISIBLE
100
AcDbCircle
 10
80.7498274795031
 20
150.955596923828
 30
0.0
 40
27.5
  0
ARC
  5
71
330
1F
100
AcDbEntity
  8
VISIBLE
100
AcDbCircle
 10
81.34765242452964
 20
135.5061383801232
 30
0.0
 40
7.999999999999982
100
AcDbArc
 50
72.97602236201215
 51
119.9820140697331
  0
CIRCLE
  5
72
330
1F
100
AcDbEntity
  8
VISIBLE
100
AcDbCircle
 10
93.2498274795031
 20
138.455596923828
 30
0.0
 40
3.0
  0
CIRCLE
  5
73
330
1F
100
AcDbEntity
  8
VISIBLE
100
AcDbCircle
 10
68.2498274795031
 20
163.455596923828
 30
0.0
 40
4.0
  0
CIRCLE
  5
74
330
1F
100
AcDbEntity
  8
VISIBLE
100
AcDbCircle
 10
63.2498274795031
 20
150.955596923828
 30
0.0
 40
3.5
  0
CIRCLE
  5
75
330
1F
100
AcDbEntity
  8
VISIBLE
100
AcDbCircle
 10
63.2498274795031
 20
150.955596923828
 30
0.0
 40
3.0
  0
LINE
  5
76
330
1F
100
AcDbEntity
  8
VISIBLE
100
AcDbLine
 10
82.7898274795031
 20
146.185596923828
 30
0.0
 11
83.6898274795031
 21
143.1555969238281
 31
0.0
  0
CIRCLE
  5
77
330
1F
100
AcDbEntity
  8
VISIBLE
100
AcDbCircle
 10
68.2498274795031
 20
138.455596923828
 30
0.0
 40
3.0
  0
CIRCLE
  5
78
330
1F
100
AcDbEntity
  8
VISIBLE
100
AcDbCircle
 10
93.2498274795031
 20
163.455596923828
 30
0.0
 40
3.0
  0
CIRCLE
  5
79
330
1F
100
AcDbEntity
  8
VISIBLE
100
AcDbCircle
 10
93.2498274795031
 20
138.455596923828
 30
0.0
 40
4.0
  0
CIRCLE
  5
7A
330
1F
100
AcDbEntity
  8
VISIBLE
100
AcDbCircle
 10
68.2498274795031
 20
163.455596923828
 30
0.0
 40
3.0
  0
CIRCLE
  5
7B
330
1F
100
AcDbEntity
  8
VISIBLE
100
AcDbCircle
 10
98.2498274795031
 20
150.955596923828
 30
0.0
 40
3.5
  0
CIRCLE
  5
7C
330
1F
100
AcDbEntity
  8
VISIBLE
100
AcDbCircle
 10
68.2498274795031
 20
138.455596923828
 30
0.0
 40
4.0
  0
ARC
  5
7D
330
1F
100
AcDbEntity
  8
VISIBLE
100
AcDbCircle
 10
51.36505608954818
 20
153.2212155991
 30
0.0
 40
27.5
100
AcDbArc
 50
345.1765949624006
 51
12.14234460925374
  0
CIRCLE
  5
7E
330
1F
100
AcDbEntity
  8
VISIBLE
100
AcDbCircle
 10
93.2498274795031
 20
163.455596923828
 30
0.0
 40
4.0
  0
ARC
  5
7F
330
1F
100
AcDbEntity
  8
VISIBLE
100
AcDbCircle
 10
81.09982747950309
 20
166.4807223408361
 30
0.0
 40
8.000000000000018
100
AcDbArc
 50
249.1299265475056
 51
290.8700734524945
  0
ARC
  5
80
330
1F
100
AcDbEntity
  8
VISIBLE
100
AcDbCircle
 10
112.552068341531
 20
149.9550821500408
 30
0.0
 40
30.0
100
AcDbArc
 50
162.4412342932089
 51
187.2182655585985
  0
CIRCLE
  5
81
330
1F
100
AcDbEntity
  8
VISIBLE
100
AcDbCircle
 10
80.7498274795031
 20
150.955596923828
 30
0.0
 40
26.5
  0
CIRCLE
  5
82
330
1F
100
AcDbEntity
  8
VISIBLE
100
AcDbCircle
 10
80.7498274795031
 20
150.955596923828
 30
0.0
 40
24.0
  0
ARC
  5
83
330
1F
100
AcDbEntity
  8
VISIBLE
100
AcDbCircle
 10
62.95737532368466
 20
146.6613892687591
 30
0.0
 40
15.00000000000003
100
AcDbArc
 50
343.6371439367419
 51
358.1823022216132
  0
CIRCLE
  5
84
330
1F
100
AcDbEntity
  8
VISIBLE
100
AcDbCircle
 10
98.2498274795031
 20
150.955596923828
 30
0.0
 40
3.0
  0
LINE
  5
86
330
1F
100
AcDbEntity
  8
CENTER
100
AcDbLine
 10
98.7498274795031
 20
150.955596923828
 30
0.0
 11
97.7498274795031
 21
150.955596923828
 31
0.0
  0
LINE
  5
87
330
1F
100
AcDbEntity
  8
CENTER
100
AcDbLine
 10
98.2498274795031
 20
151.455596923828
 30
0.0
 11
98.2498274795031
 21
150.455596923828
 31
0.0
  0
LINE
  5
88
330
1F
100
AcDbEntity
  8
CENTER
100
AcDbLine
 10
99.2498274795031
 20
150.955596923828
 30
0.0
 11
103.3373274795031
 21
150.955596923828
 31
0.0
  0
LINE
  5
89
330
1F
100
AcDbEntity
  8
CENTER
100
AcDbLine
 10
97.2498274795031
 20
150.955596923828
 30
0.0
 11
93.1623274795031
 21
150.955596923828
 31
0.0
  0
LINE
  5
8A
330
1F
100
AcDbEntity
  8
CENTER
100
AcDbLine
 10
98.2498274795031
 20
151.955596923828
 30
0.0
 11
98.2498274795031
 21
156.043096923828
 31
0.0
  0
LINE
  5
8B
330
1F
100
AcDbEntity
  8
CENTER
100
AcDbLine
 10
98.2498274795031
 20
149.955596923828
 30
0.0
 11
98.2498274795031
 21
145.868096923828
 31
0.0
  0
LINE
  5
8C
330
1F
100
AcDbEntity
  8
CENTER
100
AcDbLine
 10
81.2498274795031
 20
150.955596923828
 30
0.0
 11
80.2498274795031
 21
150.955596923828
 31
0.0
  0
LINE
  5
8D
330
1F
100
AcDbEntity
  8
CENTER
100
AcDbLine
 10
80.7498274795031
 20
151.455596923828
 30
0.0
 11
80.7498274795031
 21
150.455596923828
 31
0.0
  0
LINE
  5
8E
330
1F
100
AcDbEntity
  8
CENTER
100
AcDbLine
 10
81.7498274795031
 20
150.955596923828
 30
0.0
 11
109.8373274795031
 21
150.955596923828
 31
0.0
  0
LINE
  5
8F
330
1F
100
AcDbEntity
  8
CENTER
100
AcDbLine
 10
79.7498274795031
 20
150.955596923828
 30
0.0
 11
51.6623274795031
 21
150.955596923828
 31
0.0
  0
LINE
  5
90
330
1F
100
AcDbEntity
  8
CENTER
100
AcDbLine
 10
80.7498274795031
 20
151.955596923828
 30
0.0
 11
80.7498274795031
 21
180.043096923828
 31
0.0
  0
LINE
  5
91
330
1F
100
AcDbEntity
  8
CENTER
100
AcDbLine
 10
80.7498274795031
 20
149.955596923828
 30
0.0
 11
80.7498274795031
 21
121.868096923828
 31
0.0
  0
LINE
  5
92
330
1F
100
AcDbEntity
  8
CENTER
100
AcDbLine
 10
93.7498274795031
 20
138.455596923828
 30
0.0
 11
92.7498274795031
 21
138.455596923828
 31
0.0
  0
LINE
  5
93
330
1F
100
AcDbEntity
  8
CENTER
100
AcDbLine
 10
93.2498274795031
 20
138.955596923828
 30
0.0
 11
93.2498274795031
 21
137.955596923828
 31
0.0
  0
LINE
  5
94
330
1F
100
AcDbEntity
  8
CENTER
100
AcDbLine
 10
94.2498274795031
 20
138.455596923828
 30
0.0
 11
98.8373274795031
 21
138.455596923828
 31
0.0
  0
LINE
  5
95
330
1F
100
AcDbEntity
  8
CENTER
100
AcDbLine
 10
92.2498274795031
 20
138.455596923828
 30
0.0
 11
87.66232747950309
 21
138.455596923828
 31
0.0
  0
LINE
  5
96
330
1F
100
AcDbEntity
  8
CENTER
100
AcDbLine
 10
93.2498274795031
 20
139.455596923828
 30
0.0
 11
93.2498274795031
 21
144.043096923828
 31
0.0
  0
LINE
  5
97
330
1F
100
AcDbEntity
  8
CENTER
100
AcDbLine
 10
93.2498274795031
 20
137.455596923828
 30
0.0
 11
93.2498274795031
 21
132.868096923828
 31
0.0
  0
LINE
  5
98
330
1F
100
AcDbEntity
  8
CENTER
100
AcDbLine
 10
63.7498274795031
 20
150.955596923828
 30
0.0
 11
62.7498274795031
 21
150.955596923828
 31
0.0
  0
LINE
  5
99
330
1F
100
AcDbEntity
  8
CENTER
100
AcDbLine
 10
63.2498274795031
 20
151.455596923828
 30
0.0
 11
63.2498274795031
 21
150.455596923828
 31
0.0
  0
LINE
  5
9A
330
1F
100
AcDbEntity
  8
CENTER
100
AcDbLine
 10
64.2498274795031
 20
150.955596923828
 30
0.0
 11
68.3373274795031
 21
150.955596923828
 31
0.0
  0
LINE
  5
9B
330
1F
100
AcDbEntity
  8
CENTER
100
AcDbLine
 10
62.2498274795031
 20
150.955596923828
 30
0.0
 11
58.1623274795031
 21
150.955596923828
 31
0.0
  0
LINE
  5
9C
330
1F
100
AcDbEntity
  8
CENTER
100
AcDbLine
 10
63.2498274795031
 20
151.955596923828
 30
0.0
 11
63.2498274795031
 21
156.043096923828
 31
0.0
  0
LINE
  5
9D
330
1F
100
AcDbEntity
  8
CENTER
100
AcDbLine
 10
63.2498274795031
 20
149.955596923828
 30
0.0
 11
63.2498274795031
 21
145.868096923828
 31
0.0
  0
LINE
  5
9E
330
1F
100
AcDbEntity
  8
CENTER
100
AcDbLine
 10
68.7498274795031
 20
163.455596923828
 30
0.0
 11
67.7498274795031
 21
163.455596923828
 31
0.0
  0
LINE
  5
9F
330
1F
100
AcDbEntity
  8
CENTER
100
AcDbLine
 10
68.2498274795031
 20
163.955596923828
 30
0.0
 11
68.2498274795031
 21
162.955596923828
 31
0.0
  0
LINE
  5
A0
330
1F
100
AcDbEntity
  8
CENTER
100
AcDbLine
 10
69.2498274795031
 20
163.455596923828
 30
0.0
 11
73.8373274795031
 21
163.455596923828
 31
0.0
  0
LINE
  5
A1
330
1F
100
AcDbEntity
  8
CENTER
100
AcDbLine
 10
67.2498274795031
 20
163.455596923828
 30
0.0
 11
62.6623274795031
 21
163.455596923828
 31
0.0
  0
LINE
  5
A2
330
1F
100
AcDbEntity
  8
CENTER
100
AcDbLine
 10
68.2498274795031
 20
164.455596923828
 30
0.0
 11
68.2498274795031
 21
169.043096923828
 31
0.0
  0
LINE
  5
A3
330
1F
100
AcDbEntity
  8
CENTER
100
AcDbLine
 10
68.2498274795031
 20
162.455596923828
 30
0.0
 11
68.2498274795031
 21
157.868096923828
 31
0.0
  0
LINE
  5
A4
330
1F
100
AcDbEntity
  8
CENTER
100
AcDbLine
 10
68.7498274795031
 20
138.455596923828
 30
0.0
 11
67.7498274795031
 21
138.455596923828
 31
0.0
  0
LINE
  5
A5
330
1F
100
AcDbEntity
  8
CENTER
100
AcDbLine
 10
68.2498274795031
 20
138.955596923828
 30
0.0
 11
68.2498274795031
 21
137.955596923828
 31
0.0
  0
LINE
  5
A6
330
1F
100
AcDbEntity
  8
CENTER
100
AcDbLine
 10
69.2498274795031
 20
138.455596923828
 30
0.0
 11
73.8373274795031
 21
138.455596923828
 31
0.0
  0
LINE
  5
A7
330
1F
100
AcDbEntity
  8
CENTER
100
AcDbLine
 10
67.2498274795031
 20
138.455596923828
 30
0.0
 11
62.6623274795031
 21
138.455596923828
 31
0.0
  0
LINE
  5
A8
330
1F
100
AcDbEntity
  8
CENTER
100
AcDbLine
 10
68.2498274795031
 20
139.455596923828
 30
0.0
 11
68.2498274795031
 21
144.043096923828
 31
0.0
  0
LINE
  5
A9
330
1F
100
AcDbEntity
  8
CENTER
100
AcDbLine
 10
68.2498274795031
 20
137.455596923828
 30
0.0
 11
68.2498274795031
 21
132.868096923828
 31
0.0
  0
LINE
  5
AA
330
1F
100
AcDbEntity
  8
CENTER
100
AcDbLine
 10
93.7498274795031
 20
163.455596923828
 30
0.0
 11
92.7498274795031
 21
163.455596923828
 31
0.0
  0
LINE
  5
AB
330
1F
100
AcDbEntity
  8
CENTER
100
AcDbLine
 10
93.2498274795031
 20
163.955596923828
 30
0.0
 11
93.2498274795031
 21
162.955596923828
 31
0.0
  0
LINE
  5
AC
330
1F
100
AcDbEntity
  8
CENTER
100
AcDbLine
 10
94.2498274795031
 20
163.455596923828
 30
0.0
 11
98.8373274795031
 21
163.455596923828
 31
0.0
  0
LINE
  5
AD
330
1F
100
AcDbEntity
  8
CENTER
100
AcDbLine
 10
92.2498274795031
 20
163.455596923828
 30
0.0
 11
87.66232747950309
 21
163.455596923828
 31
0.0
  0
LINE
  5
AE
330
1F
100
AcDbEntity
  8
CENTER
100
AcDbLine
 10
93.2498274795031
 20
164.455596923828
 30
0.0
 11
93.2498274795031
 21
169.043096923828
 31
0.0
  0
LINE
  5
AF
330
1F
100
AcDbEntity
  8
CENTER
100
AcDbLine
 10
93.2498274795031
 20
162.455596923828
 30
0.0
 11
93.2498274795031
 21
157.868096923828
 31
0.0
  0
DIMENSION
  5
B1
330
1F
100
AcDbEntity
  8
DIMENSIONS
100
AcDbDimension
280
     0
  2
D1
 10
0.0
 20
0.0
 30
0.0
 11
152.3087684517253
 21
242.960021972656
 31
0.0
 70
    32
  1
<> -0,2
 71
     5
 42
-1.0
 73
     0
 74
     0
 75
     0
  3
ISO-25
100
AcDbAlignedDimension
 13
108.2498274795031
 23
150.955596923828
 33
0.0
 14
53.2498274795031
 24
150.955596923828
 34
0.0
100
AcDbRotatedDimension
1001
ACAD
1000
DSTYLE
1002
{
1070
    76
1070
     0
1070
    75
1070
     0
1070
   282
1070
     0
1070
   281
1070
     0
1070
    77
1070
     1
1070
    79
1070
     0
1070
    78
1070
     0
1070
   272
1070
     2
1070
   271
1070
     2
1070
   179
1070
     2
1070
   140
1040
2.707850318471337
1070
    71
1070
     0
1070
    72
1070
     0
1070
    48
1040
0.002
1070
    47
1040
0.005
1002
}
  0
DIMENSION
  5
C3
330
1F
100
AcDbEntity
  8
DIMENSIONS
100
AcDbDimension
280
     0
  2
D2
 10
0.0
 20
0.0
 30
0.0
 11
159.3594542495226
 21
258.7024163140188
 31
0.0
 70
    32
  1
<>
 71
     5
 42
-1.0
 73
     0
 74
     0
 75
     0
 53
180.0
  3
ISO-25
100
AcDbAlignedDimension
 13
68.2498274795031
 23
132.868096923828
 33
0.0
 14
93.2498274795031
 24
132.868096923828
 34
0.0
 50
180.0
100
AcDbRotatedDimension
1001
ACAD
1000
DSTYLE
1002
{
1070
    76
1070
     0
1070
    75
1070
     0
1070
   282
1070
     0
1070
   281
1070
     0
1070
    77
1070
     1
1070
    79
1070
     0
1070
    78
1070
     0
1070
   272
1070
     2
1070
   271
1070
     2
1070
   179
1070
     2
1070
   140
1040
2.707850318471337
1070
    71
1070
     0
1070
    72
1070
     0
1070
    48
1040
0.002
1070
    47
1040
0.005
1002
}
  0
DIMENSION
  5
D4
330
1F
100
AcDbEntity
  8
DIMENSIONS
100
AcDbDimension
280
     0
  2
D3
 10
0.0
 20
0.0
 30
0.0
 11
151.0740462295031
 21
254.135070800781
 31
0.0
 70
    32
  1
<> +/- 0,02
 71
     5
 42
-1.0
 73
     0
 74
     0
 75
     0
 53
180.0
  3
ISO-25
100
AcDbAlignedDimension
 13
63.2498274795031
 23
145.868096923828
 33
0.0
 14
98.2498274795031
 24
145.868096923828
 34
0.0
 50
180.0
100
AcDbRotatedDimension
1001
ACAD
1000
DSTYLE
1002
{
1070
    76
1070
     0
1070
    75
1070
     0
1070
   282
1070
     0
1070
   281
1070
     0
1070
    77
1070
     1
1070
    79
1070
     0
1070
    78
1070
     0
1070
   272
1070
     2
1070
   271
1070
     2
1070
   179
1070
     2
1070
   140
1040
2.707850318471337
1070
    71
1070
     0
1070
    72
1070
     0
1070
    48
1040
0.002
1070
    47
1040
0.005
1002
}
  0
DIMENSION
  5
E5
330
1F
100
AcDbEntity
  8
DIMENSIONS
100
AcDbDimension
280
     0
  2
D4
 10
0.0
 20
0.0
 30
0.0
 11
201.1978026381945
 21
295.3804016113279
 31
0.0
 70
    32
  1
<>
 71
     5
 42
-1.0
 73
     0
 74
     0
 75
     0
 53
90.0
  3
ISO-25
100
AcDbAlignedDimension
 13
98.8373274795031
 23
138.455596923828
 33
0.0
 14
98.8373274795031
 24
163.455596923828
 34
0.0
 50
90.0
100
AcDbRotatedDimension
1001
ACAD
1000
DSTYLE
1002
{
1070
    76
1070
     0
1070
    75
1070
     0
1070
   282
1070
     0
1070
   281
1070
     0
1070
    77
1070
     1
1070
    79
1070
     0
1070
    78
1070
     0
1070
   272
1070
     2
1070
   271
1070
     2
1070
   179
1070
     2
1070
   140
1040
2.707850318471337
1070
    71
1070
     0
1070
    72
1070
     0
1070
    48
1040
0.002
1070
    47
1040
0.005
1002
}
  0
MTEXT
  5
F7
330
1F
100
AcDbEntity
  8
CONTINUOUS
100
AcDbMText
 10
35.1035003662109
 20
177.6873854927772
 30
0.0
 40
2.079300327179538
 41
0.0
 46
0.0
 71
     1
 72
     1
  1
{\fCE|b0|i0|c0|p0;\C7;4x M6 }{\fAlibre Symbols|b0|i0|c0|p0;\C7;x}{\fCE|b0|i0|c0|p0;\C7;20}{\fCE|b0|i0|c0|p0;\C7;}
 73
     1
 44
1.0
  0
LINE
  5
F8
330
1F
100
AcDbEntity
  8
CONTINUOUS
100
AcDbLine
 10
56.6823198106554
 20
175.738636949327
 30
0.0
 11
51.5229448106554
 21
175.738636949327
 31
0.0
  0
LINE
  5
F9
330
1F
100
AcDbEntity
  8
CONTINUOUS
100
AcDbLine
 10
66.09712432813213
 20
166.0523186380995
 30
0.0
 11
66.09712432813213
 21
166.0523186380995
 31
0.0
  0
LINE
  5
FA
330
1F
100
AcDbEntity
  8
CONTINUOUS
100
AcDbLine
 10
66.09712432813213
 20
166.0523186380995
 30
0.0
 11
56.6823198106554
 21
175.738636949327
 31
0.0
  0
LWPOLYLINE
  5
FB
330
1F
100
AcDbEntity
  8
CONTINUOUS
100
AcDbPolyline
 90
        4
 70
     0
 43
0.0
 10
68.18807983398438
 20
163.901062011719
 10
65.7385815570687
 20
165.7038260537908
 10
66.45566709919552
 20
166.4008112224082
 10
68.18807983398438
 20
163.901062011719
  0
HATCH
  5
FC
330
1F
100
AcDbEntity
  8
0
 62
     7
100
AcDbHatch
 10
0.0
 20
0.0
 30
0.0
210
0.0
220
0.0
230
1.0
  2
PLNÁ, Plné vyplnění
 70
     0
 71
     0
 91
        1
 92
        0
 93
        3
 72
     1
 10
66.45566709919552
 20
166.4008112224082
 11
68.18807983398438
 21
163.901062011719
 72
     1
 10
68.18807983398438
 20
163.901062011719
 11
65.7385815570687
 21
165.7038260537908
 72
     1
 10
65.7385815570687
 20
165.7038260537908
 11
66.45566709919552
 21
166.4008112224082
 97
        0
 75
     0
 76
     0
 52
0.0
 41
1.0
 77
     0
 78
     1
 53
45.0
 43
0.0
 44
0.0
 45
0.0
 46
0.0
 79
     0
 98
        0
  0
LINE
  5
FD
330
1F
100
AcDbEntity
  8
CONTINUOUS
100
AcDbLine
 10
80.7498274795031
 20
179.4676971435546
 30
0.0
 11
80.7498274795031
 21
121.868096923828
 31
0.0
  0
LWPOLYLINE
  5
FE
330
1F
100
AcDbEntity
  8
CONTINUOUS
100
AcDbPolyline
 90
        4
 70
     0
 43
0.0
 10
80.7498274795031
 20
179.4676971435546
 10
73.4917774795031
 20
177.9556033935546
 10
73.4917774795031
 20
180.9797908935546
 10
80.7498274795031
 20
179.4676971435546
  0
LWPOLYLINE
  5
FF
330
1F
100
AcDbEntity
  8
CONTINUOUS
100
AcDbPolyline
 90
        4
 70
     0
 43
0.0
 10
80.7498274795031
 20
121.868096923828
 10
73.4917774795031
 20
120.356003173828
 10
73.4917774795031
 20
123.380190673828
 10
80.7498274795031
 20
121.868096923828
  0
LINE
  5
100
330
1F
100
AcDbEntity
  8
CONTINUOUS
100
AcDbLine
 10
73.4917774795031
 20
179.4676971435546
 30
0.0
 11
66.4623274795031
 21
179.4676971435546
 31
0.0
  0
LINE
  5
101
330
1F
100
AcDbEntity
  8
CONTINUOUS
100
AcDbLine
 10
73.4917774795031
 20
121.868096923828
 30
0.0
 11
66.4623274795031
 21
121.868096923828
 31
0.0
  0
MTEXT
  5
102
330
1F
100
AcDbEntity
  8
CONTINUOUS
100
AcDbMText
 10
58.7042774795031
 20
179.4676971435546
 30
0.0
 40
2.954795201781449
 41
0.0
 46
0.0
 71
     5
 72
     1
  1
{\fCE|b0|i0|c0|p0;\C7;A}{\fCE|b0|i0|c0|p0;\C7;}
 73
     1
 44
1.0
  0
MTEXT
  5
103
330
1F
100
AcDbEntity
  8
CONTINUOUS
100
AcDbMText
 10
58.7042774795031
 20
121.868096923828
 30
0.0
 40
2.954795201781449
 41
0.0
 46
0.0
 71
     5
 72
     1
  1
{\fCE|b0|i0|c0|p0;\C7;A}{\fCE|b0|i0|c0|p0;\C7;}
 73
     1
 44
1.0
  0
HATCH
  5
104
330
1F
100
AcDbEntity
  8
0
 62
     7
100
AcDbHatch
 10
0.0
 20
0.0
 30
0.0
210
0.0
220
0.0
230
1.0
  2
PLNÁ, Plné vyplnění
 70
     0
 71
     0
 91
        2
 92
        0
 93
        3
 72
     1
 10
80.7498274795031
 20
179.4676971435546
 11
73.4917774795031
 21
177.9556033935546
 72
     1
 10
73.4917774795031
 20
177.9556033935546
 11
73.4917774795031
 21
180.9797908935546
 72
     1
 10
73.4917774795031
 20
180.9797908935546
 11
80.7498274795031
 21
179.4676971435546
 97
        0
 92
        0
 93
        3
 72
     1
 10
80.7498274795031
 20
121.868096923828
 11
73.4917774795031
 21
120.356003173828
 72
     1
 10
73.4917774795031
 20
120.356003173828
 11
73.4917774795031
 21
123.380190673828
 72
     1
 10
73.4917774795031
 20
123.380190673828
 11
80.7498274795031
 21
121.868096923828
 97
        0
 75
     0
 76
     0
 52
0.0
 41
1.0
 77
     0
 78
     1
 53
45.0
 43
0.0
 44
0.0
 45
0.0
 46
0.0
 79
     0
 98
        0
  0
ELLIPSE
  5
105
330
1F
100
AcDbEntity
  8
VISIBLE
100
AcDbEllipse
 10
129.9237656023428
 20
40.55510841843
 30
0.0
 11
-12.5
 21
21.65063509461096
 31
0.0
210
0.0
220
0.0
230
1.0
 40
0.5773502691896253
 41
3.926990816987242
 42
6.283185307179586
  0
ELLIPSE
  5
106
330
1F
100
AcDbEntity
  8
VISIBLE
100
AcDbEllipse
 10
129.9237656023428
 20
40.55510841843
 30
0.0
 11
-12.5
 21
21.65063509461096
 31
0.0
210
0.0
220
0.0
230
1.0
 40
0.5773502691896253
 41
0.0
 42
0.7853981633974475
  0
ELLIPSE
  5
107
330
1F
100
AcDbEntity
  8
VISIBLE
100
AcDbEllipse
 10
129.9237656023428
 20
40.55510841843
 30
0.0
 11
-12.5
 21
21.65063509461096
 31
0.0
210
0.0
220
0.0
230
1.0
 40
0.5773502691896253
 41
2.356194490192344
 42
3.141592653589793
  0
ELLIPSE
  5
108
330
1F
100
AcDbEntity
  8
VISIBLE
100
AcDbEllipse
 10
129.9237656023428
 20
40.55510841843
 30
0.0
 11
-12.5
 21
21.65063509461096
 31
0.0
210
0.0
220
0.0
230
1.0
 40
0.5773502691896253
 41
3.141592653589793
 42
3.926990816987241
  0
ELLIPSE
  5
109
330
1F
100
AcDbEntity
  8
VISIBLE
100
AcDbEllipse
 10
156.0867165062451
 20
55.66029516559292
 30
0.0
 11
-13.75
 21
23.81569860407208
 31
0.0
210
0.0
220
0.0
230
1.0
 40
0.5773502691896253
 41
3.926990816987243
 42
6.283185307179586
  0
ELLIPSE
  5
10A
330
1F
100
AcDbEntity
  8
VISIBLE
100
AcDbEllipse
 10
156.0867165062451
 20
55.66029516559292
 30
0.0
 11
-13.75
 21
23.81569860407208
 31
0.0
210
0.0
220
0.0
230
1.0
 40
0.5773502691896253
 41
0.0
 42
0.4296996661514259
  0
ELLIPSE
  5
10B
330
1F
100
AcDbEntity
  8
VISIBLE
100
AcDbEllipse
 10
156.0867165062451
 20
55.66029516559292
 30
0.0
 11
-13.75
 21
23.81569860407208
 31
0.0
210
0.0
220
0.0
230
1.0
 40
0.5773502691896253
 41
2.711892987438369
 42
3.141592653589793
  0
ELLIPSE
  5
10C
330
1F
100
AcDbEntity
  8
VISIBLE
100
AcDbEllipse
 10
156.0867165062451
 20
55.66029516559292
 30
0.0
 11
-13.75
 21
23.81569860407208
 31
0.0
210
0.0
220
0.0
230
1.0
 40
0.5773502691896253
 41
3.141592653589793
 42
3.926990816987242
  0
ELLIPSE
  5
10D
330
1F
100
AcDbEntity
  8
VISIBLE
100
AcDbEllipse
 10
129.639384893747
 20
27.28836903804279
 30
0.0
 11
4.0
 21
-6.928203230275507
 31
0.0
210
0.0
220
0.0
230
1.0
 40
0.5773502691896257
 41
-4.224115278556018
 42
-3.40370595509114
  0
ELLIPSE
  5
10E
330
1F
100
AcDbEntity
  8
VISIBLE
100
AcDbEllipse
 10
138.7626003671746
 20
25.24579752603515
 30
0.0
 11
1.5
 21
-2.598076211353323
 31
0.0
210
0.0
220
0.0
230
1.0
 40
0.5773502691896244
 41
0.0
 42
0.6301372460645638
  0
ELLIPSE
  5
10F
330
1F
100
AcDbEntity
  8
VISIBLE
100
AcDbEllipse
 10
138.7626003671746
 20
25.24579752603515
 30
0.0
 11
1.5
 21
-2.598076211353323
 31
0.0
210
0.0
220
0.0
230
1.0
 40
0.5773502691896244
 41
-3.141592653589788
 42
0.0
  0
ELLIPSE
  5
110
330
1F
100
AcDbEntity
  8
VISIBLE
100
AcDbEllipse
 10
138.7626003671746
 20
25.24579752603515
 30
0.0
 11
1.5
 21
-2.598076211353323
 31
0.0
210
0.0
220
0.0
230
1.0
 40
0.5773502691896244
 41
-3.77172989965436
 42
-3.141592653589788
  0
ELLIPSE
  5
111
330
1F
100
AcDbEntity
  8
VISIBLE
100
AcDbEllipse
 10
168.1075317864164
 20
62.60051610347859
 30
0.0
 11
-13.25
 21
22.94967320028763
 31
0.0
210
0.0
220
0.0
230
1.0
 40
0.5773502691896267
 41
3.926990816987239
 42
5.497787143782139
  0
ELLIPSE
  5
112
330
1F
100
AcDbEntity
  8
VISIBLE
100
AcDbEllipse
 10
120.3778240563244
 20
55.456171020361
 30
0.0
 11
2.0
 21
-3.46410161513775
 31
0.0
210
0.0
220
0.0
230
1.0
 40
0.5773502691896264
 41
-3.926990816987241
 42
0.7853981633974461
  0
ELLIPSE
  5
113
330
1F
100
AcDbEntity
  8
VISIBLE
100
AcDbEllipse
 10
120.3778240563244
 20
55.456171020361
 30
0.0
 11
2.0
 21
-3.46410161513775
 31
0.0
210
0.0
220
0.0
230
1.0
 40
0.5773502691896264
 41
0.785398163397446
 42
2.356194490192345
  0
ELLIPSE
  5
114
330
1F
100
AcDbEntity
  8
VISIBLE
100
AcDbEllipse
 10
116.8422901503917
 20
47.29120521108375
 30
0.0
 11
-1.750000000000014
 21
3.03108891324554
 31
0.0
210
0.0
220
0.0
230
1.0
 40
0.5773502691896251
 41
3.926990816987233
 42
5.497787143782134
  0
ELLIPSE
  5
115
330
1F
100
AcDbEntity
  8
VISIBLE
100
AcDbEllipse
 10
116.8422901503917
 20
47.29120521108375
 30
0.0
 11
-1.750000000000014
 21
3.03108891324554
 31
0.0
210
0.0
220
0.0
230
1.0
 40
0.5773502691896251
 41
-0.7853981633974523
 42
3.926990816987233
  0
ELLIPSE
  5
116
330
1F
100
AcDbEntity
  8
VISIBLE
100
AcDbEllipse
 10
155.3796097250585
 20
55.25204687512906
 30
0.0
 11
12.5
 21
-21.65063509461097
 31
0.0
210
0.0
220
0.0
230
1.0
 40
0.5773502691896255
 41
0.0
 42
0.7853981633974488
  0
ELLIPSE
  5
117
330
1F
100
AcDbEntity
  8
VISIBLE
100
AcDbEllipse
 10
155.3796097250585
 20
55.25204687512906
 30
0.0
 11
12.5
 21
-21.65063509461097
 31
0.0
210
0.0
220
0.0
230
1.0
 40
0.5773502691896255
 41
0.7853981633974488
 42
3.141592653589794
  0
ELLIPSE
  5
118
330
1F
100
AcDbEntity
  8
VISIBLE
100
AcDbEllipse
 10
117.1958435409849
 20
47.49532935631568
 30
0.0
 11
-1.499999999999986
 21
2.598076211353323
 31
0.0
210
0.0
220
0.0
230
1.0
 40
0.5773502691896198
 41
3.14159265358981
 42
3.846786188849328
  0
ELLIPSE
  5
119
330
1F
100
AcDbEntity
  8
VISIBLE
100
AcDbEllipse
 10
117.1958435409849
 20
47.49532935631568
 30
0.0
 11
-1.499999999999986
 21
2.598076211353323
 31
0.0
210
0.0
220
0.0
230
1.0
 40
0.5773502691896198
 41
0.0
 42
3.14159265358981
  0
ELLIPSE
  5
11A
330
1F
100
AcDbEntity
  8
VISIBLE
100
AcDbEllipse
 10
117.1958435409849
 20
47.49532935631568
 30
0.0
 11
-1.499999999999986
 21
2.598076211353323
 31
0.0
210
0.0
220
0.0
230
1.0
 40
0.5773502691896198
 41
-0.7051935352595191
 42
0.0
  0
LINE
  5
11B
330
1F
100
AcDbEntity
  8
VISIBLE
100
AcDbLine
 10
130.6591566547768
 20
35.41934492439461
 30
0.0
 11
131.2955527578447
 21
32.57793682276621
 31
0.0
  0
ELLIPSE
  5
11C
330
1F
100
AcDbEntity
  8
VISIBLE
100
AcDbEllipse
 10
121.0849308375109
 20
35.45200478763172
 30
0.0
 11
1.5
 21
-2.598076211353323
 31
0.0
210
0.0
220
0.0
230
1.0
 40
0.5773502691896238
 41
0.0
 42
0.6301372460645737
  0
ELLIPSE
  5
11D
330
1F
100
AcDbEntity
  8
VISIBLE
100
AcDbEllipse
 10
121.0849308375109
 20
35.45200478763172
 30
0.0
 11
1.5
 21
-2.598076211353323
 31
0.0
210
0.0
220
0.0
230
1.0
 40
0.5773502691896238
 41
-3.141592653589793
 42
0.0
  0
ELLIPSE
  5
11E
330
1F
100
AcDbEntity
  8
VISIBLE
100
AcDbEllipse
 10
121.0849308375109
 20
35.45200478763172
 30
0.0
 11
1.5
 21
-2.598076211353323
 31
0.0
210
0.0
220
0.0
230
1.0
 40
0.5773502691896238
 41
-3.771729899654368
 42
-3.141592653589793
  0
ELLIPSE
  5
11F
330
1F
100
AcDbEntity
  8
VISIBLE
100
AcDbEllipse
 10
138.7626003671746
 20
45.65821204922828
 30
0.0
 11
1.5
 21
-2.598076211353316
 31
0.0
210
0.0
220
0.0
230
1.0
 40
0.5773502691896356
 41
0.0
 42
0.6301372460645627
  0
ELLIPSE
  5
120
330
1F
100
AcDbEntity
  8
VISIBLE
100
AcDbEllipse
 10
138.7626003671746
 20
45.65821204922828
 30
0.0
 11
1.5
 21
-2.598076211353316
 31
0.0
210
0.0
220
0.0
230
1.0
 40
0.5773502691896356
 41
-3.141592653589794
 42
0.0
  0
ELLIPSE
  5
121
330
1F
100
AcDbEntity
  8
VISIBLE
100
AcDbEllipse
 10
138.7626003671746
 20
45.65821204922828
 30
0.0
 11
1.5
 21
-2.598076211353316
 31
0.0
210
0.0
220
0.0
230
1.0
 40
0.5773502691896356
 41
-3.771729899654353
 42
-3.141592653589794
  0
LINE
  5
122
330
1F
100
AcDbEntity
  8
VISIBLE
100
AcDbLine
 10
127.2367598338339
 20
37.3952666502399
 30
0.0
 11
130.5014766449565
 21
39.35659303644968
 31
0.0
  0
ELLIPSE
  5
123
330
1F
100
AcDbEntity
  8
VISIBLE
100
AcDbEllipse
 10
138.0554935859881
 20
24.83754923557128
 30
0.0
 11
2.0
 21
-3.464101615137758
 31
0.0
210
0.0
220
0.0
230
1.0
 40
0.5773502691896252
 41
-3.926990816987241
 42
0.7853981633974514
  0
ELLIPSE
  5
124
330
1F
100
AcDbEntity
  8
VISIBLE
100
AcDbEllipse
 10
138.0554935859881
 20
24.83754923557128
 30
0.0
 11
2.0
 21
-3.464101615137758
 31
0.0
210
0.0
220
0.0
230
1.0
 40
0.5773502691896252
 41
0.7853981633974512
 42
2.356194490192345
  0
ELLIPSE
  5
125
330
1F
100
AcDbEntity
  8
VISIBLE
100
AcDbEllipse
 10
121.084930837511
 20
55.86441931082486
 30
0.0
 11
1.5
 21
-2.598076211353316
 31
0.0
210
0.0
220
0.0
230
1.0
 40
0.5773502691896262
 41
0.0
 42
0.6301372460645704
  0
ELLIPSE
  5
126
330
1F
100
AcDbEntity
  8
VISIBLE
100
AcDbEllipse
 10
121.084930837511
 20
55.86441931082486
 30
0.0
 11
1.5
 21
-2.598076211353316
 31
0.0
210
0.0
220
0.0
230
1.0
 40
0.5773502691896262
 41
-3.141592653589792
 42
0.0
  0
ELLIPSE
  5
127
330
1F
100
AcDbEntity
  8
VISIBLE
100
AcDbEllipse
 10
121.084930837511
 20
55.86441931082486
 30
0.0
 11
1.5
 21
-2.598076211353316
 31
0.0
210
0.0
220
0.0
230
1.0
 40
0.5773502691896262
 41
-3.771729899654361
 42
-3.141592653589792
  0
ELLIPSE
  5
128
330
1F
100
AcDbEntity
  8
VISIBLE
100
AcDbEllipse
 10
141.5910274919208
 20
33.00251504484854
 30
0.0
 11
-1.75
 21
3.031088913245533
 31
0.0
210
0.0
220
0.0
230
1.0
 40
0.5773502691896264
 41
3.926990816987237
 42
5.497787143782138
  0
ELLIPSE
  5
129
330
1F
100
AcDbEntity
  8
VISIBLE
100
AcDbEllipse
 10
141.5910274919208
 20
33.00251504484854
 30
0.0
 11
-1.75
 21
3.031088913245533
 31
0.0
210
0.0
220
0.0
230
1.0
 40
0.5773502691896264
 41
-0.7853981633974481
 42
3.926990816987237
  0
ELLIPSE
  5
12A
330
1F
100
AcDbEntity
  8
VISIBLE
100
AcDbEllipse
 10
120.3778240563244
 20
35.04375649716785
 30
0.0
 11
2.000000000000014
 21
-3.46410161513775
 31
0.0
210
0.0
220
0.0
230
1.0
 40
0.5773502691896264
 41
-3.926990816987245
 42
0.7853981633974447
  0
ELLIPSE
  5
12B
330
1F
100
AcDbEntity
  8
VISIBLE
100
AcDbEllipse
 10
120.3778240563244
 20
35.04375649716785
 30
0.0
 11
2.000000000000014
 21
-3.46410161513775
 31
0.0
210
0.0
220
0.0
230
1.0
 40
0.5773502691896264
 41
0.7853981633974471
 42
2.356194490192341
  0
ELLIPSE
  5
12C
330
1F
100
AcDbEntity
  8
VISIBLE
100
AcDbEllipse
 10
108.4384877077027
 20
53.99301271563228
 30
0.0
 11
13.74999999999999
 21
-23.81569860407207
 31
0.0
210
0.0
220
0.0
230
1.0
 40
0.5773502691896255
 41
0.5266809391346243
 42
0.997322055740711
  0
ELLIPSE
  5
12D
330
1F
100
AcDbEntity
  8
VISIBLE
100
AcDbEllipse
 10
138.0554935859881
 20
45.24996375876442
 30
0.0
 11
2.0
 21
-3.46410161513775
 31
0.0
210
0.0
220
0.0
230
1.0
 40
0.5773502691896264
 41
-3.926990816987241
 42
0.7853981633974478
  0
ELLIPSE
  5
12E
330
1F
100
AcDbEntity
  8
VISIBLE
100
AcDbEllipse
 10
138.0554935859881
 20
45.24996375876442
 30
0.0
 11
2.0
 21
-3.46410161513775
 31
0.0
210
0.0
220
0.0
230
1.0
 40
0.5773502691896264
 41
0.7853981633974481
 42
2.356194490192345
  0
ELLIPSE
  5
12F
330
1F
100
AcDbEntity
  8
VISIBLE
100
AcDbEllipse
 10
129.4641461945715
 20
52.68018504776501
 30
0.0
 11
4.000000000000028
 21
-6.928203230275507
 31
0.0
210
0.0
220
0.0
230
1.0
 40
0.5773502691896298
 41
-1.149649660276535
 42
-0.4211466665183541
  0
ELLIPSE
  5
130
330
1F
100
AcDbEntity
  8
VISIBLE
100
AcDbEllipse
 10
151.7042389916241
 20
26.34673277115828
 30
0.0
 11
15.0
 21
-25.98076211353317
 31
0.0
210
0.0
220
0.0
230
1.0
 40
0.5773502691896254
 41
-2.66265276436212
 42
-2.230211989911492
  0
ELLIPSE
  5
131
330
1F
100
AcDbEntity
  8
VISIBLE
100
AcDbEllipse
 10
155.3796097250585
 20
55.25204687512906
 30
0.0
 11
-13.25
 21
22.94967320028763
 31
0.0
210
0.0
220
0.0
230
1.0
 40
0.5773502691896255
 41
2.803521709967884
 42
3.926990816987242
  0
ELLIPSE
  5
132
330
1F
100
AcDbEntity
  8
VISIBLE
100
AcDbEllipse
 10
155.3796097250585
 20
55.25204687512906
 30
0.0
 11
-13.25
 21
22.94967320028763
 31
0.0
210
0.0
220
0.0
230
1.0
 40
0.5773502691896255
 41
3.926990816987242
 42
6.621256250801493
  0
SPLINE
  5
133
330
1F
100
AcDbEntity
  8
VISIBLE
100
AcDbSpline
210
0.0
220
0.0
230
1.0
 70
     8
 71
     3
 72
     8
 73
     4
 74
     0
 42
0.000000001
 43
0.000001
 40
1.342532552742141
 40
1.342532552742141
 40
1.342532552742141
 40
1.342532552742141
 40
1.845212849163699
 40
1.845212849163699
 40
1.845212849163699
 40
1.845212849163699
 10
126.812495765122
 20
34.57835344603905
 30
0.0
 10
128.0511910303961
 20
35.28191841979417
 30
0.0
 10
129.2994424963189
 20
35.9902661782193
 30
0.0
 10
130.5522263323362
 20
36.70032041628602
 30
0.0
  0
ELLIPSE
  5
134
330
1F
100
AcDbEntity
  8
VISIBLE
100
AcDbEllipse
 10
129.2166588211562
 20
40.14686012796614
 30
0.0
 11
-11.99999999999999
 21
20.78460969082653
 31
0.0
210
0.0
220
0.0
230
1.0
 40
0.5773502691896257
 41
2.356194490192345
 42
3.926990816987241
  0
ELLIPSE
  5
135
330
1F
100
AcDbEntity
  8
VISIBLE
100
AcDbEllipse
 10
129.2166588211562
 20
40.14686012796614
 30
0.0
 11
-11.99999999999999
 21
20.78460969082653
 31
0.0
210
0.0
220
0.0
230
1.0
 40
0.5773502691896257
 41
0.7853981633974493
 42
2.356194490192345
  0
ELLIPSE
  5
136
330
1F
100
AcDbEntity
  8
VISIBLE
100
AcDbEllipse
 10
129.2166588211562
 20
40.14686012796614
 30
0.0
 11
-11.99999999999999
 21
20.78460969082653
 31
0.0
210
0.0
220
0.0
230
1.0
 40
0.5773502691896257
 41
3.926990816987241
 42
7.068583470577035
  0
ELLIPSE
  5
137
330
1F
100
AcDbEntity
  8
VISIBLE
100
AcDbEllipse
 10
116.6354952478398
 20
43.90439243558166
 30
0.0
 11
7.5
 21
-12.99038105676661
 31
0.0
210
0.0
220
0.0
230
1.0
 40
0.5773502691896267
 41
0.4998124500636793
 42
0.7536733523584116
  0
ELLIPSE
  5
138
330
1F
100
AcDbEntity
  8
VISIBLE
100
AcDbEllipse
 10
141.9445808825141
 20
33.20663919008047
 30
0.0
 11
-1.5
 21
2.598076211353316
 31
0.0
210
0.0
220
0.0
230
1.0
 40
0.577350269189625
 41
3.141592653589778
 42
3.846786188849312
  0
ELLIPSE
  5
139
330
1F
100
AcDbEntity
  8
VISIBLE
100
AcDbEllipse
 10
141.9445808825141
 20
33.20663919008047
 30
0.0
 11
-1.5
 21
2.598076211353316
 31
0.0
210
0.0
220
0.0
230
1.0
 40
0.577350269189625
 41
0.0
 42
3.141592653589778
  0
ELLIPSE
  5
13A
330
1F
100
AcDbEntity
  8
VISIBLE
100
AcDbEllipse
 10
141.9445808825141
 20
33.20663919008047
 30
0.0
 11
-1.5
 21
2.598076211353316
 31
0.0
210
0.0
220
0.0
230
1.0
 40
0.577350269189625
 41
-0.7051935352595139
 42
0.0
  0
ELLIPSE
  5
13B
330
1F
100
AcDbEntity
  8
VISIBLE
100
AcDbEllipse
 10
167.4004250052298
 20
62.19226781301472
 30
0.0
 11
-13.75
 21
23.81569860407207
 31
0.0
210
0.0
220
0.0
230
1.0
 40
0.5773502691896267
 41
3.141592653589792
 42
3.92699081698724
  0
ELLIPSE
  5
13C
330
1F
100
AcDbEntity
  8
VISIBLE
100
AcDbEllipse
 10
167.4004250052298
 20
62.19226781301472
 30
0.0
 11
-13.75
 21
23.81569860407207
 31
0.0
210
0.0
220
0.0
230
1.0
 40
0.5773502691896267
 41
-0.7853981633974473
 42
0.0
  0
ELLIPSE
  5
13D
330
1F
100
AcDbEntity
  8
VISIBLE
100
AcDbEllipse
 10
167.4004250052298
 20
62.19226781301472
 30
0.0
 11
-13.75
 21
23.81569860407207
 31
0.0
210
0.0
220
0.0
230
1.0
 40
0.5773502691896267
 41
3.92699081698724
 42
5.497787143782139
  0
LINE
  5
13E
330
1F
100
AcDbEntity
  8
VISIBLE
100
AcDbLine
 10
142.8796097250585
 20
76.90268196974003
 30
0.0
 11
117.4237656023428
 21
62.20574351304097
 31
0.0
  0
LINE
  5
13F
330
1F
100
AcDbEntity
  8
VISIBLE
100
AcDbLine
 10
186.8458614878599
 20
51.78193640618621
 30
0.0
 11
186.8458614878599
 21
50.96543982525849
 31
0.0
  0
LINE
  5
140
330
1F
100
AcDbEntity
  8
VISIBLE
100
AcDbLine
 10
129.2166588211562
 20
20.55094218570073
 30
0.0
 11
129.9237656023428
 21
20.14269389523686
 31
0.0
  0
LINE
  5
141
330
1F
100
AcDbEntity
  8
VISIBLE
100
AcDbLine
 10
168.1075317864164
 20
84.23767549806334
 30
0.0
 11
167.4004250052298
 21
84.6459237885272
 31
0.0
  0
LINE
  5
142
330
1F
100
AcDbEntity
  8
VISIBLE
100
AcDbLine
 10
181.1504250052298
 20
38.37656920894266
 30
0.0
 11
169.8367165062451
 21
31.84459656152086
 31
0.0
  0
LINE
  5
143
330
1F
100
AcDbEntity
  8
VISIBLE
100
AcDbLine
 10
167.8796097250585
 20
33.60141178051809
 30
0.0
 11
142.4237656023428
 21
18.90447332381903
 31
0.0
  0
LINE
  5
144
330
1F
100
AcDbEntity
  8
VISIBLE
100
AcDbLine
 10
153.6504250052298
 20
86.00796641708679
 30
0.0
 11
142.3367165062451
 21
79.475993769665
 31
0.0
  0
LINE
  5
145
330
1F
100
AcDbEntity
  8
VISIBLE
100
AcDbLine
 10
112.2460960726791
 20
49.94481909909886
 30
0.0
 11
112.2460960726791
 21
50.76131568002658
 31
0.0
  0
LINE
  5
146
330
1F
100
AcDbEntity
  8
CENTER
100
AcDbLine
 10
143.2793351335882
 20
27.85353555928218
 30
0.0
 11
144.1453605373727
 21
28.35353555928218
 31
0.0
  0
LINE
  5
147
330
1F
100
AcDbEntity
  8
CENTER
100
AcDbLine
 10
142.846322431696
 20
27.60353555928219
 30
0.0
 11
138.5161954127738
 21
25.10353555928219
 31
0.0
  0
LINE
  5
148
330
1F
100
AcDbEntity
  8
CENTER
100
AcDbLine
 10
144.5783732392649
 20
28.60353555928218
 30
0.0
 11
148.9085002581871
 21
31.10353555928218
 31
0.0
  0
LINE
  5
149
330
1F
100
AcDbEntity
  8
CENTER
100
AcDbLine
 10
138.0831827108816
 20
24.85353555928219
 30
0.0
 11
137.2171573070972
 21
24.35353555928219
 31
0.0
  0
LINE
  5
14A
330
1F
100
AcDbEntity
  8
CENTER
100
AcDbLine
 10
149.3415129600793
 20
31.35353555928218
 30
0.0
 11
150.2075383638638
 21
31.85353555928217
 31
0.0
  0
LINE
  5
14B
330
1F
100
AcDbEntity
  8
CENTER
100
AcDbLine
 10
136.7841446052049
 20
24.10353555928219
 30
0.0
 11
133.8916493665994
 21
22.43355265464356
 31
0.0
  0
LINE
  5
14C
330
1F
100
AcDbEntity
  8
CENTER
100
AcDbLine
 10
150.640551065756
 20
32.10353555928217
 30
0.0
 11
153.5330463043615
 21
33.77351846392081
 31
0.0
  0
LINE
  5
14D
330
1F
100
AcDbEntity
  8
CENTER
100
AcDbLine
 10
131.1887219996239
 20
61.69784585810653
 30
0.0
 11
132.0547474034083
 21
62.19784585810653
 31
0.0
  0
LINE
  5
14E
330
1F
100
AcDbEntity
  8
CENTER
100
AcDbLine
 10
130.7557092977317
 20
61.44784585810654
 30
0.0
 11
126.1134747735474
 21
58.76765050592736
 31
0.0
  0
LINE
  5
14F
330
1F
100
AcDbEntity
  8
CENTER
100
AcDbLine
 10
132.4877601053006
 20
62.44784585810653
 30
0.0
 11
137.1299946294849
 21
65.12804121028572
 31
0.0
  0
LINE
  5
150
330
1F
100
AcDbEntity
  8
CENTER
100
AcDbLine
 10
142.2186749618084
 20
47.65357764677954
 30
0.0
 11
143.0847003655929
 21
48.15357764677954
 31
0.0
  0
LINE
  5
151
330
1F
100
AcDbEntity
  8
CENTER
100
AcDbLine
 10
141.7856622599162
 20
47.40357764677954
 30
0.0
 11
137.455535240994
 21
44.90357764677954
 31
0.0
  0
LINE
  5
152
330
1F
100
AcDbEntity
  8
CENTER
100
AcDbLine
 10
143.5177130674851
 20
48.40357764677954
 30
0.0
 11
147.8478400864073
 21
50.90357764677954
 31
0.0
  0
LINE
  5
153
330
1F
100
AcDbEntity
  8
CENTER
100
AcDbLine
 10
137.0225225391018
 20
44.65357764677954
 30
0.0
 11
136.1564971353174
 21
44.15357764677954
 31
0.0
  0
LINE
  5
154
330
1F
100
AcDbEntity
  8
CENTER
100
AcDbLine
 10
148.2808527882995
 20
51.15357764677954
 30
0.0
 11
149.146878192084
 21
51.65357764677954
 31
0.0
  0
LINE
  5
155
330
1F
100
AcDbEntity
  8
CENTER
100
AcDbLine
 10
135.7234844334251
 20
43.90357764677954
 30
0.0
 11
131.3933574145029
 21
41.40357764677954
 31
0.0
  0
LINE
  5
156
330
1F
100
AcDbEntity
  8
CENTER
100
AcDbLine
 10
149.5798908939762
 20
51.90357764677954
 30
0.0
 11
153.9100179128984
 21
54.40357764677953
 31
0.0
  0
LINE
  5
157
330
1F
100
AcDbEntity
  8
CENTER
100
AcDbLine
 10
130.9603447126107
 20
41.15357764677955
 30
0.0
 11
130.0943193088263
 21
40.65357764677955
 31
0.0
  0
LINE
  5
158
330
1F
100
AcDbEntity
  8
CENTER
100
AcDbLine
 10
154.3430306147906
 20
54.65357764677953
 30
0.0
 11
155.209056018575
 21
55.15357764677953
 31
0.0
  0
LINE
  5
159
330
1F
100
AcDbEntity
  8
CENTER
100
AcDbLine
 10
129.6613066069341
 20
40.40357764677955
 30
0.0
 11
125.3311795880119
 21
37.90357764677955
 31
0.0
  0
LINE
  5
15A
330
1F
100
AcDbEntity
  8
CENTER
100
AcDbLine
 10
155.6420687204673
 20
55.40357764677953
 30
0.0
 11
159.9721957393894
 21
57.90357764677953
 31
0.0
  0
LINE
  5
15B
330
1F
100
AcDbEntity
  8
CENTER
100
AcDbLine
 10
124.8981668861197
 20
37.65357764677955
 30
0.0
 11
124.0321414823352
 21
37.15357764677955
 31
0.0
  0
LINE
  5
15C
330
1F
100
AcDbEntity
  8
CENTER
100
AcDbLine
 10
160.4052084412817
 20
58.15357764677953
 30
0.0
 11
161.2712338450661
 21
58.65357764677953
 31
0.0
  0
LINE
  5
15D
330
1F
100
AcDbEntity
  8
CENTER
100
AcDbLine
 10
123.599128780443
 20
36.90357764677955
 30
0.0
 11
119.2690017615208
 21
34.40357764677955
 31
0.0
  0
LINE
  5
15E
330
1F
100
AcDbEntity
  8
CENTER
100
AcDbLine
 10
161.7042465469583
 20
58.90357764677953
 30
0.0
 11
166.0343735658805
 21
61.40357764677952
 31
0.0
  0
LINE
  5
15F
330
1F
100
AcDbEntity
  8
CENTER
100
AcDbLine
 10
118.8359890596286
 20
34.15357764677955
 30
0.0
 11
117.9699636558441
 21
33.65357764677955
 31
0.0
  0
LINE
  5
160
330
1F
100
AcDbEntity
  8
CENTER
100
AcDbLine
 10
166.4673862677727
 20
61.65357764677952
 30
0.0
 11
167.3334116715572
 21
62.15357764677952
 31
0.0
  0
LINE
  5
161
330
1F
100
AcDbEntity
  8
CENTER
100
AcDbLine
 10
117.5369509539519
 20
33.40357764677955
 30
0.0
 11
113.2068239350297
 21
30.90357764677956
 31
0.0
  0
LINE
  5
162
330
1F
100
AcDbEntity
  8
CENTER
100
AcDbLine
 10
167.7664243734494
 20
62.40357764677952
 30
0.0
 11
172.0965513923716
 21
64.90357764677952
 31
0.0
  0
LINE
  5
163
330
1F
100
AcDbEntity
  8
CENTER
100
AcDbLine
 10
112.7738112331375
 20
30.65357764677956
 30
0.0
 11
111.9077858293531
 21
30.15357764677956
 31
0.0
  0
LINE
  5
164
330
1F
100
AcDbEntity
  8
CENTER
100
AcDbLine
 10
172.5295640942638
 20
65.15357764677952
 30
0.0
 11
173.3955894980483
 21
65.65357764677952
 31
0.0
  0
LINE
  5
165
330
1F
100
AcDbEntity
  8
CENTER
100
AcDbLine
 10
111.4747731274608
 20
29.90357764677956
 30
0.0
 11
109.4964654156635
 21
28.76140115683345
 31
0.0
  0
LINE
  5
166
330
1F
100
AcDbEntity
  8
CENTER
100
AcDbLine
 10
173.8286021999405
 20
65.90357764677952
 30
0.0
 11
175.8069099117378
 21
67.04575413672563
 31
0.0
  0
LINE
  5
167
330
1F
100
AcDbEntity
  8
CENTER
100
AcDbLine
 10
125.6016656039246
 20
58.47215734407191
 30
0.0
 11
126.467691007709
 21
58.97215734407191
 31
0.0
  0
LINE
  5
168
330
1F
100
AcDbEntity
  8
CENTER
100
AcDbLine
 10
125.1686529020324
 20
58.22215734407191
 30
0.0
 11
120.8385258831102
 21
55.72215734407192
 31
0.0
  0
LINE
  5
169
330
1F
100
AcDbEntity
  8
CENTER
100
AcDbLine
 10
126.9007037096012
 20
59.22215734407191
 30
0.0
 11
131.2308307285234
 21
61.72215734407191
 31
0.0
  0
LINE
  5
16A
330
1F
100
AcDbEntity
  8
CENTER
100
AcDbLine
 10
120.4055131812179
 20
55.47215734407192
 30
0.0
 11
119.5394877774335
 21
54.97215734407192
 31
0.0
  0
LINE
  5
16B
330
1F
100
AcDbEntity
  8
CENTER
100
AcDbLine
 10
131.6638434304157
 20
61.97215734407191
 30
0.0
 11
132.5298688342001
 21
62.47215734407191
 31
0.0
  0
LINE
  5
16C
330
1F
100
AcDbEntity
  8
CENTER
100
AcDbLine
 10
119.1064750755413
 20
54.72215734407192
 30
0.0
 11
116.2139798369357
 21
53.05217443943329
 31
0.0
  0
LINE
  5
16D
330
1F
100
AcDbEntity
  8
CENTER
100
AcDbLine
 10
132.9628815360923
 20
62.72215734407191
 30
0.0
 11
135.8553767746979
 21
64.39214024871053
 31
0.0
  0
LINE
  5
16E
330
1F
100
AcDbEntity
  8
CENTER
100
AcDbLine
 10
120.8286948309154
 20
49.59275702648289
 30
0.0
 11
121.6947202346998
 21
50.09275702648289
 31
0.0
  0
LINE
  5
16F
330
1F
100
AcDbEntity
  8
CENTER
100
AcDbLine
 10
120.3956821290232
 20
49.34275702648289
 30
0.0
 11
116.065555110101
 21
46.84275702648289
 31
0.0
  0
LINE
  5
170
330
1F
100
AcDbEntity
  8
CENTER
100
AcDbLine
 10
122.127732936592
 20
50.34275702648289
 30
0.0
 11
126.4578599555142
 21
52.84275702648289
 31
0.0
  0
LINE
  5
171
330
1F
100
AcDbEntity
  8
CENTER
100
AcDbLine
 10
115.6325424082087
 20
46.59275702648289
 30
0.0
 11
114.7665170044243
 21
46.09275702648289
 31
0.0
  0
LINE
  5
172
330
1F
100
AcDbEntity
  8
CENTER
100
AcDbLine
 10
126.8908726574064
 20
53.09275702648289
 30
0.0
 11
127.7568980611909
 21
53.59275702648289
 31
0.0
  0
LINE
  5
173
330
1F
100
AcDbEntity
  8
CENTER
100
AcDbLine
 10
114.3335043025321
 20
45.84275702648289
 30
0.0
 11
112.3248925404097
 21
44.68308448492409
 31
0.0
  0
LINE
  5
174
330
1F
100
AcDbEntity
  8
CENTER
100
AcDbLine
 10
128.1899107630831
 20
53.84275702648289
 30
0.0
 11
130.1985225252055
 21
55.00242956804168
 31
0.0
  0
LINE
  5
175
330
1F
100
AcDbEntity
  8
CENTER
100
AcDbLine
 10
145.5774321724445
 20
35.30406686024768
 30
0.0
 11
146.443457576229
 21
35.80406686024767
 31
0.0
  0
LINE
  5
176
330
1F
100
AcDbEntity
  8
CENTER
100
AcDbLine
 10
145.1444194705523
 20
35.05406686024768
 30
0.0
 11
140.8142924516301
 21
32.55406686024769
 31
0.0
  0
LINE
  5
177
330
1F
100
AcDbEntity
  8
CENTER
100
AcDbLine
 10
146.8764702781212
 20
36.05406686024767
 30
0.0
 11
151.2065972970434
 21
38.55406686024767
 31
0.0
  0
LINE
  5
178
330
1F
100
AcDbEntity
  8
CENTER
100
AcDbLine
 10
140.3812797497379
 20
32.30406686024769
 30
0.0
 11
139.5152543459535
 21
31.80406686024769
 31
0.0
  0
LINE
  5
179
330
1F
100
AcDbEntity
  8
CENTER
100
AcDbLine
 10
151.6396099989356
 20
38.80406686024767
 30
0.0
 11
152.50563540272
 21
39.30406686024767
 31
0.0
  0
LINE
  5
17A
330
1F
100
AcDbEntity
  8
CENTER
100
AcDbLine
 10
139.0822416440612
 20
31.55406686024769
 30
0.0
 11
137.0736298819389
 21
30.39439431868889
 31
0.0
  0
LINE
  5
17B
330
1F
100
AcDbEntity
  8
CENTER
100
AcDbLine
 10
152.9386481046123
 20
39.55406686024767
 30
0.0
 11
154.9472598667346
 21
40.71373940180647
 31
0.0
  0
LINE
  5
17C
330
1F
100
AcDbEntity
  8
CENTER
100
AcDbLine
 10
120.2983647450255
 20
55.41029516559294
 30
0.0
 11
121.1643901488099
 21
55.91029516559294
 31
0.0
  0
LINE
  5
17D
330
1F
100
AcDbEntity
  8
CENTER
100
AcDbLine
 10
119.8653520431333
 20
55.16029516559294
 30
0.0
 11
114.7997662745626
 21
52.23567785850555
 31
0.0
  0
LINE
  5
17E
330
1F
100
AcDbEntity
  8
CENTER
100
AcDbLine
 10
121.5974028507021
 20
56.16029516559294
 30
0.0
 11
126.6629886192728
 21
59.08491247268033
 31
0.0
  0
LINE
  5
17F
330
1F
100
AcDbEntity
  8
CENTER
100
AcDbLine
 10
129.1371995098573
 20
40.10098427319808
 30
0.0
 11
130.0032249136418
 21
40.60098427319808
 31
0.0
  0
LINE
  5
180
330
1F
100
AcDbEntity
  8
CENTER
100
AcDbLine
 10
128.7041868079651
 20
39.85098427319808
 30
0.0
 11
124.3740597890429
 21
37.35098427319808
 31
0.0
  0
LINE
  5
181
330
1F
100
AcDbEntity
  8
CENTER
100
AcDbLine
 10
130.436237615534
 20
40.85098427319808
 30
0.0
 11
134.7663646344562
 21
43.35098427319807
 31
0.0
  0
LINE
  5
182
330
1F
100
AcDbEntity
  8
CENTER
100
AcDbLine
 10
123.9410470871507
 20
37.10098427319808
 30
0.0
 11
123.0750216833662
 21
36.60098427319809
 31
0.0
  0
LINE
  5
183
330
1F
100
AcDbEntity
  8
CENTER
100
AcDbLine
 10
135.1993773363484
 20
43.60098427319807
 30
0.0
 11
136.0654027401328
 21
44.10098427319807
 31
0.0
  0
LINE
  5
184
330
1F
100
AcDbEntity
  8
CENTER
100
AcDbLine
 10
122.642008981474
 20
36.35098427319809
 30
0.0
 11
118.3118819625518
 21
33.85098427319809
 31
0.0
  0
LINE
  5
185
330
1F
100
AcDbEntity
  8
CENTER
100
AcDbLine
 10
136.498415442025
 20
44.35098427319807
 30
0.0
 11
140.8285424609472
 21
46.85098427319807
 31
0.0
  0
LINE
  5
186
330
1F
100
AcDbEntity
  8
CENTER
100
AcDbLine
 10
117.8788692606596
 20
33.60098427319809
 30
0.0
 11
117.0128438568752
 21
33.10098427319809
 31
0.0
  0
LINE
  5
187
330
1F
100
AcDbEntity
  8
CENTER
100
AcDbLine
 10
141.2615551628395
 20
47.10098427319807
 30
0.0
 11
142.1275805666239
 21
47.60098427319807
 31
0.0
  0
LINE
  5
188
330
1F
100
AcDbEntity
  8
CENTER
100
AcDbLine
 10
116.5798311549829
 20
32.85098427319809
 30
0.0
 11
112.2497041360607
 21
30.3509842731981
 31
0.0
  0
LINE
  5
189
330
1F
100
AcDbEntity
  8
CENTER
100
AcDbLine
 10
142.5605932685161
 20
47.85098427319807
 30
0.0
 11
146.8907202874383
 21
50.35098427319807
 31
0.0
  0
LINE
  5
18A
330
1F
100
AcDbEntity
  8
CENTER
100
AcDbLine
 10
111.8166914341685
 20
30.1009842731981
 30
0.0
 11
110.9506660303841
 21
29.6009842731981
 31
0.0
  0
LINE
  5
18B
330
1F
100
AcDbEntity
  8
CENTER
100
AcDbLine
 10
147.3237329893305
 20
50.60098427319807
 30
0.0
 11
148.189758393115
 21
51.10098427319807
 31
0.0
  0
LINE
  5
18C
330
1F
100
AcDbEntity
  8
CENTER
100
AcDbLine
 10
110.5176533284919
 20
29.3509842731981
 30
0.0
 11
108.789358634477
 21
28.35315286636959
 31
0.0
  0
LINE
  5
18D
330
1F
100
AcDbEntity
  8
CENTER
100
AcDbLine
 10
148.6227710950072
 20
51.35098427319807
 30
0.0
 11
150.3510657890221
 21
52.34881568002657
 31
0.0
  0
LINE
  5
18E
330
1F
100
AcDbEntity
  8
CENTER
100
AcDbLine
 10
167.3209656939309
 20
62.14639195824665
 30
0.0
 11
168.1869910977153
 21
62.64639195824665
 31
0.0
  0
LINE
  5
18F
330
1F
100
AcDbEntity
  8
CENTER
100
AcDbLine
 10
166.8879529920387
 20
61.89639195824665
 30
0.0
 11
162.5578259731165
 21
59.39639195824666
 31
0.0
  0
LINE
  5
190
330
1F
100
AcDbEntity
  8
CENTER
100
AcDbLine
 10
168.6200037996075
 20
62.89639195824665
 30
0.0
 11
172.9501308185297
 21
65.39639195824665
 31
0.0
  0
LINE
  5
191
330
1F
100
AcDbEntity
  8
CENTER
100
AcDbLine
 10
162.1248132712242
 20
59.14639195824666
 30
0.0
 11
161.2587878674398
 21
58.64639195824666
 31
0.0
  0
LINE
  5
192
330
1F
100
AcDbEntity
  8
CENTER
100
AcDbLine
 10
173.383143520422
 20
65.64639195824665
 30
0.0
 11
174.2491689242064
 21
66.14639195824665
 31
0.0
  0
LINE
  5
193
330
1F
100
AcDbEntity
  8
CENTER
100
AcDbLine
 10
160.8257751655476
 20
58.39639195824666
 30
0.0
 11
156.4956481466254
 21
55.89639195824666
 31
0.0
  0
LINE
  5
194
330
1F
100
AcDbEntity
  8
CENTER
100
AcDbLine
 10
174.6821816260986
 20
66.39639195824665
 30
0.0
 11
179.0123086450208
 21
68.89639195824665
 31
0.0
  0
LINE
  5
195
330
1F
100
AcDbEntity
  8
CENTER
100
AcDbLine
 10
156.0626354447332
 20
55.64639195824666
 30
0.0
 11
155.1966100409487
 21
55.14639195824666
 31
0.0
  0
LINE
  5
196
330
1F
100
AcDbEntity
  8
CENTER
100
AcDbLine
 10
179.445321346913
 20
69.14639195824665
 30
0.0
 11
180.3113467506975
 21
69.64639195824665
 31
0.0
  0
LINE
  5
197
330
1F
100
AcDbEntity
  8
CENTER
100
AcDbLine
 10
154.7635973390565
 20
54.89639195824666
 30
0.0
 11
150.4334703201343
 21
52.39639195824667
 31
0.0
  0
LINE
  5
198
330
1F
100
AcDbEntity
  8
CENTER
100
AcDbLine
 10
180.7443594525897
 20
69.89639195824665
 30
0.0
 11
185.0744864715119
 21
72.39639195824665
 31
0.0
  0
LINE
  5
199
330
1F
100
AcDbEntity
  8
CENTER
100
AcDbLine
 10
150.0004576182421
 20
52.14639195824667
 30
0.0
 11
149.1344322144577
 21
51.64639195824667
 31
0.0
  0
LINE
  5
19A
330
1F
100
AcDbEntity
  8
CENTER
100
AcDbLine
 10
185.5074991734041
 20
72.64639195824665
 30
0.0
 11
186.3735245771885
 21
73.14639195824665
 31
0.0
  0
LINE
  5
19B
330
1F
100
AcDbEntity
  8
CENTER
100
AcDbLine
 10
148.7014195125655
 20
51.39639195824667
 30
0.0
 11
145.2053578655842
 21
49.3779398252585
 31
0.0
  0
LINE
  5
19C
330
1F
100
AcDbEntity
  8
CENTER
100
AcDbLine
 10
186.8065372790807
 20
73.39639195824665
 30
0.0
 11
190.302598926062
 21
75.41484409123481
 31
0.0
  0
LINE
  5
19D
330
1F
100
AcDbEntity
  8
CENTER
100
AcDbLine
 10
148.8663915292876
 20
31.07922407331681
 30
0.0
 11
149.732416933072
 21
31.57922407331681
 31
0.0
  0
LINE
  5
19E
330
1F
100
AcDbEntity
  8
CENTER
100
AcDbLine
 10
148.4333788273954
 20
30.82922407331681
 30
0.0
 11
143.7911443032111
 21
28.14902872113764
 31
0.0
  0
LINE
  5
19F
330
1F
100
AcDbEntity
  8
CENTER
100
AcDbLine
 10
150.1654296349643
 20
31.82922407331681
 30
0.0
 11
154.8076641591485
 21
34.50941942549598
 31
0.0
  0
LINE
  5
1A0
330
1F
100
AcDbEntity
  8
CENTER
100
AcDbLine
 10
116.5860541437961
 20
47.14326728369971
 30
0.0
 11
117.4520795475805
 21
47.64326728369971
 31
0.0
  0
LINE
  5
1A1
330
1F
100
AcDbEntity
  8
CENTER
100
AcDbLine
 10
116.1530414419039
 20
46.89326728369971
 30
0.0
 11
111.6177857592232
 21
44.27483619446023
 31
0.0
  0
LINE
  5
1A2
330
1F
100
AcDbEntity
  8
CENTER
100
AcDbLine
 10
117.8850922494727
 20
47.89326728369971
 30
0.0
 11
122.4203479321534
 21
50.5116983729392
 31
0.0
  0
LINE
  5
1A3
330
1F
100
AcDbEntity
  8
CENTER
100
AcDbLine
 10
155.3001504137596
 20
55.20617102036099
 30
0.0
 11
156.166175817544
 21
55.70617102036099
 31
0.0
  0
LINE
  5
1A4
330
1F
100
AcDbEntity
  8
CENTER
100
AcDbLine
 10
154.8671377118673
 20
54.95617102036099
 30
0.0
 11
150.5370106929452
 21
52.456171020361
 31
0.0
  0
LINE
  5
1A5
330
1F
100
AcDbEntity
  8
CENTER
100
AcDbLine
 10
156.5991885194362
 20
55.95617102036099
 30
0.0
 11
160.9293155383584
 21
58.45617102036099
 31
0.0
  0
LINE
  5
1A6
330
1F
100
AcDbEntity
  8
CENTER
100
AcDbLine
 10
150.1039979910529
 20
52.206171020361
 30
0.0
 11
149.2379725872685
 21
51.706171020361
 31
0.0
  0
LINE
  5
1A7
330
1F
100
AcDbEntity
  8
CENTER
100
AcDbLine
 10
161.3623282402506
 20
58.70617102036099
 30
0.0
 11
162.2283536440351
 21
59.20617102036099
 31
0.0
  0
LINE
  5
1A8
330
1F
100
AcDbEntity
  8
CENTER
100
AcDbLine
 10
148.8049598853763
 20
51.456171020361
 30
0.0
 11
144.4748328664541
 21
48.956171020361
 31
0.0
  0
LINE
  5
1A9
330
1F
100
AcDbEntity
  8
CENTER
100
AcDbLine
 10
162.6613663459273
 20
59.45617102036099
 30
0.0
 11
166.9914933648495
 21
61.95617102036098
 31
0.0
  0
LINE
  5
1AA
330
1F
100
AcDbEntity
  8
CENTER
100
AcDbLine
 10
144.0418201645619
 20
48.706171020361
 30
0.0
 11
143.1757947607774
 21
48.206171020361
 31
0.0
  0
LINE
  5
1AB
330
1F
100
AcDbEntity
  8
CENTER
100
AcDbLine
 10
167.4245060667417
 20
62.20617102036098
 30
0.0
 11
168.2905314705262
 21
62.70617102036098
 31
0.0
  0
LINE
  5
1AC
330
1F
100
AcDbEntity
  8
CENTER
100
AcDbLine
 10
142.7427820588852
 20
47.956171020361
 30
0.0
 11
138.412655039963
 21
45.456171020361
 31
0.0
  0
LINE
  5
1AD
330
1F
100
AcDbEntity
  8
CENTER
100
AcDbLine
 10
168.7235441724184
 20
62.95617102036098
 30
0.0
 11
173.0536711913406
 21
65.45617102036098
 31
0.0
  0
LINE
  5
1AE
330
1F
100
AcDbEntity
  8
CENTER
100
AcDbLine
 10
137.9796423380708
 20
45.206171020361
 30
0.0
 11
137.1136169342863
 21
44.706171020361
 31
0.0
  0
LINE
  5
1AF
330
1F
100
AcDbEntity
  8
CENTER
100
AcDbLine
 10
173.4866838932328
 20
65.70617102036098
 30
0.0
 11
174.3527092970172
 21
66.20617102036098
 31
0.0
  0
LINE
  5
1B0
330
1F
100
AcDbEntity
  8
CENTER
100
AcDbLine
 10
136.6806042323941
 20
44.456171020361
 30
0.0
 11
133.1845425854129
 21
42.43771888737284
 31
0.0
  0
LINE
  5
1B1
330
1F
100
AcDbEntity
  8
CENTER
100
AcDbLine
 10
174.7857219989095
 20
66.45617102036098
 30
0.0
 11
178.2817836458907
 21
68.47462315334914
 31
0.0
  0
LINE
  5
1B2
330
1F
100
AcDbEntity
  8
CENTER
100
AcDbLine
 10
125.9552189945179
 20
52.5525571323459
 30
0.0
 11
126.8212443983023
 21
53.0525571323459
 31
0.0
  0
LINE
  5
1B3
330
1F
100
AcDbEntity
  8
CENTER
100
AcDbLine
 10
125.5222062926256
 20
52.3025571323459
 30
0.0
 11
120.456620524055
 21
49.37793982525852
 31
0.0
  0
LINE
  5
1B4
330
1F
100
AcDbEntity
  8
CENTER
100
AcDbLine
 10
127.2542571001945
 20
53.3025571323459
 30
0.0
 11
132.3198428687651
 21
56.22717443943328
 31
0.0
  0
LINE
  5
1B5
330
1F
100
AcDbEntity
  8
CENTER
100
AcDbLine
 10
141.3347914853252
 20
32.8545771174645
 30
0.0
 11
142.2008168891097
 21
33.3545771174645
 31
0.0
  0
LINE
  5
1B6
330
1F
100
AcDbEntity
  8
CENTER
100
AcDbLine
 10
140.901778783433
 20
32.6045771174645
 30
0.0
 11
136.3665231007523
 21
29.98614602822501
 31
0.0
  0
LINE
  5
1B7
330
1F
100
AcDbEntity
  8
CENTER
100
AcDbLine
 10
142.6338295910019
 20
33.6045771174645
 30
0.0
 11
147.1690852736826
 21
36.22300820670399
 31
0.0
  0
LINE
  5
1B8
330
1F
100
AcDbEntity
  8
CENTER
100
AcDbLine
 10
150.703956336047
 20
38.26386696611069
 30
0.0
 11
151.5699817398314
 21
38.76386696611068
 31
0.0
  0
LINE
  5
1B9
330
1F
100
AcDbEntity
  8
CENTER
100
AcDbLine
 10
150.2709436341548
 20
38.01386696611069
 30
0.0
 11
145.2053578655842
 21
35.08924965902331
 31
0.0
  0
LINE
  5
1BA
330
1F
100
AcDbEntity
  8
CENTER
100
AcDbLine
 10
152.0029944417237
 20
39.01386696611068
 30
0.0
 11
157.0685802102943
 21
41.93848427319807
 31
0.0
  0
LINE
  5
1BB
330
1F
100
AcDbEntity
  8
CENTER
100
AcDbLine
 10
161.3105580538452
 20
58.67628148930383
 30
0.0
 11
162.1765834576297
 21
59.17628148930383
 31
0.0
  0
LINE
  5
1BC
330
1F
100
AcDbEntity
  8
CENTER
100
AcDbLine
 10
160.877545351953
 20
58.42628148930383
 30
0.0
 11
156.5474183330308
 21
55.92628148930383
 31
0.0
  0
LINE
  5
1BD
330
1F
100
AcDbEntity
  8
CENTER
100
AcDbLine
 10
162.6095961595219
 20
59.42628148930383
 30
0.0
 11
166.9397231784441
 21
61.92628148930383
 31
0.0
  0
LINE
  5
1BE
330
1F
100
AcDbEntity
  8
CENTER
100
AcDbLine
 10
156.1144056311386
 20
55.67628148930383
 30
0.0
 11
155.2483802273541
 21
55.17628148930383
 31
0.0
  0
LINE
  5
1BF
330
1F
100
AcDbEntity
  8
CENTER
100
AcDbLine
 10
167.3727358803363
 20
62.17628148930383
 30
0.0
 11
168.2387612841207
 21
62.67628148930382
 31
0.0
  0
LINE
  5
1C0
330
1F
100
AcDbEntity
  8
CENTER
100
AcDbLine
 10
154.8153675254619
 20
54.92628148930383
 30
0.0
 11
150.4852405065398
 21
52.42628148930383
 31
0.0
  0
LINE
  5
1C1
330
1F
100
AcDbEntity
  8
CENTER
100
AcDbLine
 10
168.671773986013
 20
62.92628148930383
 30
0.0
 11
173.0019010049351
 21
65.42628148930382
 31
0.0
  0
LINE
  5
1C2
330
1F
100
AcDbEntity
  8
CENTER
100
AcDbLine
 10
150.0522278046475
 20
52.17628148930383
 30
0.0
 11
149.1862024008631
 21
51.67628148930383
 31
0.0
  0
LINE
  5
1C3
330
1F
100
AcDbEntity
  8
CENTER
100
AcDbLine
 10
173.4349137068274
 20
65.67628148930382
 30
0.0
 11
174.3009391106118
 21
66.17628148930382
 31
0.0
  0
LINE
  5
1C4
330
1F
100
AcDbEntity
  8
CENTER
100
AcDbLine
 10
148.7531896989709
 20
51.42628148930383
 30
0.0
 11
144.4230626800487
 21
48.92628148930383
 31
0.0
  0
LINE
  5
1C5
330
1F
100
AcDbEntity
  8
CENTER
100
AcDbLine
 10
174.733951812504
 20
66.42628148930382
 30
0.0
 11
179.0640788314262
 21
68.92628148930382
 31
0.0
  0
LINE
  5
1C6
330
1F
100
AcDbEntity
  8
CENTER
100
AcDbLine
 10
143.9900499781564
 20
48.67628148930383
 30
0.0
 11
143.124024574372
 21
48.17628148930383
 31
0.0
  0
LINE
  5
1C7
330
1F
100
AcDbEntity
  8
CENTER
100
AcDbLine
 10
179.4970915333184
 20
69.17628148930382
 30
0.0
 11
180.3631169371029
 21
69.67628148930382
 31
0.0
  0
LINE
  5
1C8
330
1F
100
AcDbEntity
  8
CENTER
100
AcDbLine
 10
142.6910118724798
 20
47.92628148930383
 30
0.0
 11
138.3608848535576
 21
45.42628148930383
 31
0.0
  0
LINE
  5
1C9
330
1F
100
AcDbEntity
  8
CENTER
100
AcDbLine
 10
180.7961296389951
 20
69.92628148930382
 30
0.0
 11
185.1262566579173
 21
72.42628148930382
 31
0.0
  0
LINE
  5
1CA
330
1F
100
AcDbEntity
  8
CENTER
100
AcDbLine
 10
137.9278721516654
 20
45.17628148930383
 30
0.0
 11
137.0618467478809
 21
44.67628148930383
 31
0.0
  0
LINE
  5
1CB
330
1F
100
AcDbEntity
  8
CENTER
100
AcDbLine
 10
185.5592693598095
 20
72.67628148930382
 30
0.0
 11
186.4252947635939
 21
73.17628148930382
 31
0.0
  0
LINE
  5
1CC
330
1F
100
AcDbEntity
  8
CENTER
100
AcDbLine
 10
136.6288340459887
 20
44.42628148930383
 30
0.0
 11
133.8916493665994
 21
42.84596717783671
 31
0.0
  0
LINE
  5
1CD
330
1F
100
AcDbEntity
  8
CENTER
100
AcDbLine
 10
186.8583074654862
 20
73.42628148930382
 30
0.0
 11
189.5954921448755
 21
75.00659580077095
 31
0.0
  0
LINE
  5
1CE
330
1F
100
AcDbEntity
  8
CENTER
100
AcDbLine
 10
137.9760342746891
 20
24.79167338080321
 30
0.0
 11
138.8420596784736
 21
25.29167338080321
 31
0.0
  0
LINE
  5
1CF
330
1F
100
AcDbEntity
  8
CENTER
100
AcDbLine
 10
137.5430215727969
 20
24.54167338080322
 30
0.0
 11
132.4774358042263
 21
21.61705607371584
 31
0.0
  0
LINE
  5
1D0
330
1F
100
AcDbEntity
  8
CENTER
100
AcDbLine
 10
139.2750723803658
 20
25.54167338080321
 30
0.0
 11
144.3406581489364
 21
28.46629068789059
 31
0.0
  0
LINE
  5
1D1
330
1F
100
AcDbEntity
  8
VISIBLE
100
AcDbLine
 10
193.8379301702347
 20
131.3312666493467
 30
0.0
 11
180.6110395847371
 21
128.9990089682447
 31
0.0
  0
LINE
  5
1D2
330
1F
100
AcDbEntity
  8
VISIBLE
100
AcDbLine
 10
198.364837646484
 20
125.955596923828
 30
0.0
 11
234.364837646484
 21
125.955596923828
 31
0.0
  0
LINE
  5
1D3
330
1F
100
AcDbEntity
  8
VISIBLE
100
AcDbLine
 10
235.364837646484
 20
174.955596923828
 30
0.0
 11
234.364837646484
 21
175.955596923828
 31
0.0
  0
LINE
  5
1D4
330
1F
100
AcDbEntity
  8
VISIBLE
100
AcDbLine
 10
235.364837646484
 20
158.4883822579817
 30
0.0
 11
235.364837646484
 21
158.4807223408361
 31
0.0
  0
LINE
  5
1D5
330
1F
100
AcDbEntity
  8
VISIBLE
100
AcDbLine
 10
198.364837646484
 20
177.455596923828
 30
0.0
 11
197.364837646484
 21
178.455596923828
 31
0.0
  0
LINE
  5
1D6
330
1F
100
AcDbEntity
  8
VISIBLE
100
AcDbLine
 10
180.6110395847371
 20
128.9990089682447
 30
0.0
 11
180.364837646484
 21
128.705596923828
 31
0.0
  0
LINE
  5
1D7
330
1F
100
AcDbEntity
  8
VISIBLE
100
AcDbLine
 10
235.364837646484
 20
126.955596923828
 30
0.0
 11
235.364837646484
 21
143.4837699418779
 31
0.0
  0
LINE
  5
1D8
330
1F
100
AcDbEntity
  8
VISIBLE
100
AcDbLine
 10
180.6110395847371
 20
128.9990089682447
 30
0.0
 11
180.6110395847371
 21
172.9121848794113
 31
0.0
  0
LINE
  5
1D9
330
1F
100
AcDbEntity
  8
VISIBLE
100
AcDbLine
 10
234.364837646484
 20
125.955596923828
 30
0.0
 11
235.364837646484
 21
126.955596923828
 31
0.0
  0
LINE
  5
1DA
330
1F
100
AcDbEntity
  8
VISIBLE
100
AcDbLine
 10
180.364837646484
 20
128.705596923828
 30
0.0
 11
180.364837646484
 21
124.455596923828
 31
0.0
  0
LINE
  5
1DB
330
1F
100
AcDbEntity
  8
VISIBLE
100
AcDbLine
 10
197.364837646484
 20
178.455596923828
 30
0.0
 11
181.364837646484
 21
178.455596923828
 31
0.0
  0
LINE
  5
1DC
330
1F
100
AcDbEntity
  8
VISIBLE
100
AcDbLine
 10
235.364837646484
 20
143.5061383801232
 30
0.0
 11
235.364837646484
 21
143.4837699418779
 31
0.0
  0
LINE
  5
1DD
330
1F
100
AcDbEntity
  8
VISIBLE
100
AcDbLine
 10
198.364837646484
 20
124.455596923828
 30
0.0
 11
198.364837646484
 21
125.955596923828
 31
0.0
  0
LINE
  5
1DE
330
1F
100
AcDbEntity
  8
VISIBLE
100
AcDbLine
 10
180.364837646484
 20
173.205596923828
 30
0.0
 11
180.6110395847371
 21
172.9121848794113
 31
0.0
  0
SPLINE
  5
1DF
330
1F
100
AcDbEntity
  8
VISIBLE
100
AcDbSpline
210
0.0
220
0.0
230
1.0
 70
     8
 71
     3
 72
    20
 73
    16
 74
     0
 42
0.000000001
 43
0.000001
 40
-1.510550238822489
 40
-1.510550238822489
 40
-1.510550238822489
 40
-1.510550238822489
 40
-1.397111728640351
 40
-1.397111728640351
 40
-1.256318058463426
 40
-1.256318058463426
 40
-0.9933299544707208
 40
-0.9933299544707208
 40
-0.7975394685721627
 40
-0.7975394685721627
 40
-0.6456529935138762
 40
-0.6456529935138762
 40
-0.4542133314062144
 40
-0.4542133314062144
 40
-0.0734507672637151
 40
-0.0734507672637151
 40
-0.0734507672637151
 40
-0.0734507672637151
 10
209.6315450854272
 20
146.2782439662281
 30
0.0
 10
209.7267434409161
 20
146.6401622081992
 30
0.0
 10
209.8108875618899
 20
147.0057157849687
 30
0.0
 10
209.9742630760119
 20
147.8318871334526
 30
0.0
 10
210.0472996167157
 20
148.2935786760324
 30
0.0
 10
210.2056660405608
 20
149.6258042213949
 30
0.0
 10
210.2463032658673
 20
150.5003101145106
 30
0.0
 10
210.2042346008615
 20
152.027299630187
 30
0.0
 10
210.1506117754689
 20
152.6760502738436
 30
0.0
 10
209.9941543038784
 20
153.816075439631
 30
0.0
 10
209.9051258812387
 20
154.3094353912911
 30
0.0
 10
209.6581814771584
 20
155.4106576744492
 30
0.0
 10
209.4886760288928
 20
156.0135139851548
 30
0.0
 10
208.889845429707
 20
157.7749750761807
 30
0.0
 10
208.3729242672608
 20
158.8838239627338
 30
0.0
 10
207.7471886729861
 20
159.9173383097766
 30
0.0
  0
LINE
  5
1E0
330
1F
100
AcDbEntity
  8
VISIBLE
100
AcDbLine
 10
180.364837646484
 20
124.455596923828
 30
0.0
 11
181.364837646484
 21
123.455596923828
 31
0.0
  0
SPLINE
  5
1E1
330
1F
100
AcDbEntity
  8
VISIBLE
100
AcDbSpline
210
0.0
220
0.0
230
1.0
 70
    12
 71
     2
 72
     6
 73
     3
 74
     0
 42
0.000000001
 43
0.000001
 40
0.0947512462457969
 40
0.0947512462457969
 40
0.0947512462457969
 40
2.762394885192877
 40
2.762394885192877
 40
2.762394885192877
 10
208.6640530270427
 20
158.9549205417651
 30
0.0
 41
1.0
 10
221.6135175908759
 20
158.7286424890861
 30
0.0
 41
1.0
 10
235.364837646484
 20
158.4883822579817
 30
0.0
 41
1.0
  0
LINE
  5
1E2
330
1F
100
AcDbEntity
  8
VISIBLE
100
AcDbLine
 10
235.364837646484
 20
158.4807223408361
 30
0.0
 11
235.364837646484
 21
146.185596923828
 31
0.0
  0
LINE
  5
1E3
330
1F
100
AcDbEntity
  8
VISIBLE
100
AcDbLine
 10
181.364837646484
 20
178.455596923828
 30
0.0
 11
180.364837646484
 21
177.455596923828
 31
0.0
  0
LINE
  5
1E4
330
1F
100
AcDbEntity
  8
VISIBLE
100
AcDbLine
 10
235.364837646484
 20
158.4883822579817
 30
0.0
 11
235.364837646484
 21
174.955596923828
 31
0.0
  0
LINE
  5
1E5
330
1F
100
AcDbEntity
  8
VISIBLE
100
AcDbLine
 10
180.364837646484
 20
173.205596923828
 30
0.0
 11
180.364837646484
 21
128.705596923828
 31
0.0
  0
LINE
  5
1E6
330
1F
100
AcDbEntity
  8
VISIBLE
100
AcDbLine
 10
197.364837646484
 20
123.455596923828
 30
0.0
 11
198.364837646484
 21
124.455596923828
 31
0.0
  0
SPLINE
  5
1E7
330
1F
100
AcDbEntity
  8
VISIBLE
100
AcDbSpline
210
0.0
220
0.0
230
1.0
 70
    12
 71
     2
 72
     6
 73
     3
 74
     0
 42
0.000000001
 43
0.000001
 40
0.0003810238918364
 40
0.0003810238918364
 40
0.0003810238918364
 40
2.663565555181591
 40
2.663565555181591
 40
2.663565555181591
 10
235.364837646484
 20
143.4837699418779
 30
0.0
 41
1.00000013699138
 10
221.6256033405094
 20
143.2432782871622
 30
0.0
 41
1.000478826166583
 10
208.6906227167912
 20
143.0167832513668
 30
0.0
 41
1.00005318781661
  0
SPLINE
  5
1E8
330
1F
100
AcDbEntity
  8
VISIBLE
100
AcDbSpline
210
0.0
220
0.0
230
1.0
 70
     8
 71
     3
 72
    14
 73
    10
 74
     0
 42
0.000000001
 43
0.000001
 40
-0.8477723965738936
 40
-0.8477723965738936
 40
-0.8477723965738936
 40
-0.8477723965738936
 40
-0.816537315196027
 40
-0.816537315196027
 40
-0.7004879390399237
 40
-0.7004879390399237
 40
-0.4682487573394098
 40
-0.4682487573394098
 40
-0.4481985981797659
 40
-0.4481985981797659
 40
-0.4481985981797659
 40
-0.4481985981797659
 10
207.7471717967228
 20
159.9173417674969
 30
0.0
 10
207.7905256203689
 20
159.8706378976831
 30
0.0
 10
207.832612018939
 20
159.8252089306862
 30
0.0
 10
208.0248602893463
 20
159.6174084635274
 30
0.0
 10
208.1575247982984
 20
159.4731700013006
 30
0.0
 10
208.4921020049456
 20
159.1112481058923
 30
0.0
 10
208.6254907335716
 20
158.9705172145015
 30
0.0
 10
208.6609203136322
 20
158.9477195035106
 30
0.0
 10
208.6629746076761
 20
158.9468069621694
 30
0.0
 10
208.6642709274082
 20
158.9467871848653
 30
0.0
  0
LINE
  5
1E9
330
1F
100
AcDbEntity
  8
VISIBLE
100
AcDbLine
 10
208.6643730687085
 20
158.9467875082888
 30
0.0
 11
208.6640899821357
 21
158.9549446974786
 31
0.0
  0
SPLINE
  5
1EA
330
1F
100
AcDbEntity
  8
VISIBLE
100
AcDbSpline
210
0.0
220
0.0
230
1.0
 70
     8
 71
     3
 72
    10
 73
     6
 74
     0
 42
0.000000001
 43
0.000001
 40
4.981940273564285
 40
4.981940273564285
 40
4.981940273564285
 40
4.981940273564285
 40
5.101024332768716
 40
5.101024332768716
 40
5.40327745128431
 40
5.40327745128431
 40
5.40327745128431
 40
5.40327745128431
 10
208.0137382296849
 20
142.3730221909745
 30
0.0
 10
208.2095093603673
 20
142.7254275604309
 30
0.0
 10
208.3901579805528
 20
143.0768263551072
 30
0.0
 10
208.9705377230595
 20
144.2998929498071
 30
0.0
 10
209.3415651100179
 20
145.2704442539039
 30
0.0
 10
209.6306913962342
 20
146.2784727714163
 30
0.0
  0
SPLINE
  5
1EB
330
1F
100
AcDbEntity
  8
VISIBLE
100
AcDbSpline
210
0.0
220
0.0
230
1.0
 70
     8
 71
     3
 72
     8
 73
     4
 74
     0
 42
0.000000001
 43
0.000001
 40
-0.5756394042452552
 40
-0.5756394042452552
 40
-0.5756394042452552
 40
-0.5756394042452552
 40
-0.5150864454838504
 40
-0.5150864454838504
 40
-0.5150864454838504
 40
-0.5150864454838504
 10
208.6906696855088
 20
143.0167446120831
 30
0.0
 10
208.6976617109787
 20
143.0326901956109
 30
0.0
 10
208.6978388816746
 20
143.0406052301598
 30
0.0
 10
208.6912168937452
 20
143.0404962269679
 30
0.0
  0
SPLINE
  5
1EC
330
1F
100
AcDbEntity
  8
VISIBLE
100
AcDbSpline
210
0.0
220
0.0
230
1.0
 70
     8
 71
     3
 72
    10
 73
     6
 74
     0
 42
0.000000001
 43
0.000001
 40
-0.5150864454838504
 40
-0.5150864454838504
 40
-0.5150864454838504
 40
-0.5150864454838504
 40
-0.4248753243226759
 40
-0.4248753243226759
 40
-0.1868567481294047
 40
-0.1868567481294047
 40
-0.1868567481294047
 40
-0.1868567481294047
 10
208.6912168937452
 20
143.0404962269679
 30
0.0
 10
208.6813515301422
 20
143.040333835231
 30
0.0
 10
208.6563956329337
 20
143.022362326535
 30
0.0
 10
208.5108770695838
 20
142.8922542301454
 30
0.0
 10
208.3048642310465
 20
142.6780260661822
 30
0.0
 10
208.0146648211552
 20
142.3725451821354
 30
0.0
  0
LINE
  5
1ED
330
1F
100
AcDbEntity
  8
VISIBLE
100
AcDbLine
 10
180.364837646484
 20
177.455596923828
 30
0.0
 11
180.364837646484
 21
173.205596923828
 31
0.0
  0
LINE
  5
1EE
330
1F
100
AcDbEntity
  8
VISIBLE
100
AcDbLine
 10
181.364837646484
 20
123.455596923828
 30
0.0
 11
197.364837646484
 21
123.455596923828
 31
0.0
  0
LINE
  5
1EF
330
1F
100
AcDbEntity
  8
VISIBLE
100
AcDbLine
 10
180.6110395847371
 20
172.9121848794113
 30
0.0
 11
193.8379301702347
 21
170.5799271983093
 31
0.0
  0
SPLINE
  5
1F0
330
1F
100
AcDbEntity
  8
VISIBLE
100
AcDbSpline
210
0.0
220
0.0
230
1.0
 70
    12
 71
     2
 72
     6
 73
     3
 74
     0
 42
0.000000001
 43
0.000001
 40
1.835012832197277
 40
1.835012832197277
 40
1.835012832197277
 40
4.403267460704978
 40
4.403267460704978
 40
4.403267460704978
 10
209.6315442126568
 20
146.278244007926
 30
0.0
 41
0.9999999981933497
 10
222.4493419914559
 20
146.2321632505808
 30
0.0
 41
0.999999997711331
 10
235.364837646484
 20
146.185596923828
 30
0.0
 41
0.9999999994189918
  0
LINE
  5
1F1
330
1F
100
AcDbEntity
  8
VISIBLE
100
AcDbLine
 10
235.364837646484
 20
146.185596923828
 30
0.0
 11
235.364837646484
 21
143.5061383801232
 31
0.0
  0
LINE
  5
1F2
330
1F
100
AcDbEntity
  8
VISIBLE
100
AcDbLine
 10
198.364837646484
 20
175.955596923828
 30
0.0
 11
198.364837646484
 21
177.455596923828
 31
0.0
  0
ARC
  5
1F3
330
1F
100
AcDbEntity
  8
VISIBLE
100
AcDbCircle
 10
190.3649666168961
 20
150.8837721380651
 30
0.0
 40
20.00000000000004
100
AcDbArc
 50
23.80075920983026
 51
80.00000000000009
  0
LINE
  5
1F4
330
1F
100
AcDbEntity
  8
VISIBLE
100
AcDbLine
 10
234.364837646484
 20
175.955596923828
 30
0.0
 11
198.364837646484
 21
175.955596923828
 31
0.0
  0
ARC
  5
1F5
330
1F
100
AcDbEntity
  8
VISIBLE
100
AcDbCircle
 10
190.3649666168961
 20
151.0274217095909
 30
0.0
 40
20.00000000000006
100
AcDbArc
 50
279.9999999999999
 51
336.3885642420388
  0
LINE
  5
1F6
330
1F
100
AcDbEntity
  8
VISIBLE
100
AcDbLine
 10
208.6642633742653
 20
158.9467825983783
 30
0.0
 11
235.364837646484
 21
158.4807223408361
 31
0.0
  0
LINE
  5
1F7
330
1F
100
AcDbEntity
  8
VISIBLE
100
AcDbLine
 10
208.6911557360715
 20
143.0405475305023
 30
0.0
 11
235.364837646484
 21
143.5061383801232
 31
0.0
  0
LINE
  5
1F9
330
1F
100
AcDbEntity
  8
TANGENT EDGES
100
AcDbLine
 10
193.8379301702347
 20
131.3312666493467
 30
0.0
 11
193.8379301702347
 21
170.5799271983093
 31
0.0
  0
DIMENSION
  5
1FA
330
1F
100
AcDbEntity
  8
DIMENSIONS
100
AcDbDimension
280
     0
  2
D5
 10
167.6689988258366
 20
126.716977997022
 30
0.0
 11
345.1799163818355
 21
293.5334014892577
 31
0.0
 70
    34
  1
<>
 71
     5
 42
-1.0
 73
     0
 74
     0
 75
     0
  3
ISO-25
100
AcDb2LineAngularDimension
 13
180.6110395847371
 23
172.9121848794113
 33
0.0
 14
167.6689988258367
 24
175.1942158506341
 34
0.0
 15
180.6110395847371
 25
128.9990089682447
 35
0.0
 16
345.1799163818355
 26
293.5334014892577
 36
0.0
1001
ACAD
1000
DSTYLE
1002
{
1070
    76
1070
     0
1070
    75
1070
     0
1070
   282
1070
     0
1070
   281
1070
     0
1070
    77
1070
     1
1070
    79
1070
     0
1070
    78
1070
     0
1070
   272
1070
     2
1070
   271
1070
     2
1070
   179
1070
     2
1070
   140
1040
2.707850318471337
1070
    71
1070
     0
1070
    72
1070
     0
1070
    48
1040
0.0174527778
1070
    47
1040
0.0174527778
1002
}
  0
DIMENSION
  5
20A
330
1F
100
AcDbEntity
  8
DIMENSIONS
100
AcDbDimension
280
     0
  2
D6
 10
0.0
 20
0.0
 30
0.0
 11
365.2520751953117
 21
308.7793121337888
 31
0.0
 70
    32
  1
<>
 71
     5
 42
-1.0
 73
     0
 74
     0
 75
     0
 53
180.0
  3
ISO-25
100
AcDbAlignedDimension
 13
193.8379301702347
 23
170.5799271983093
 33
0.0
 14
180.364837646484
 24
173.205596923828
 34
0.0
 50
180.0
100
AcDbRotatedDimension
1001
ACAD
1000
DSTYLE
1002
{
1070
    76
1070
     0
1070
    75
1070
     0
1070
   282
1070
     0
1070
   281
1070
     0
1070
    77
1070
     1
1070
    79
1070
     0
1070
    78
1070
     0
1070
   272
1070
     2
1070
   271
1070
     2
1070
   179
1070
     2
1070
   140
1040
2.707850318471337
1070
    71
1070
     0
1070
    72
1070
     0
1070
    48
1040
0.002
1070
    47
1040
0.005
1002
}
  0
DIMENSION
  5
21B
330
1F
100
AcDbEntity
  8
DIMENSIONS
100
AcDbDimension
280
     0
  2
D7
 10
0.0
 20
0.0
 30
0.0
 11
393.2472839355461
 21
251.2581405639646
 31
0.0
 70
    32
  1
<>
 71
     5
 42
-1.0
 73
     0
 74
     0
 75
     0
 53
180.0
  3
ISO-25
100
AcDbAlignedDimension
 13
235.364837646484
 23
126.955596923828
 33
0.0
 14
198.364837646484
 24
124.455596923828
 34
0.0
 50
180.0
100
AcDbRotatedDimension
1001
ACAD
1000
DSTYLE
1002
{
1070
    76
1070
     0
1070
    75
1070
     0
1070
   282
1070
     0
1070
   281
1070
     0
1070
    77
1070
     1
1070
    79
1070
     0
1070
    78
1070
     0
1070
   272
1070
     2
1070
   271
1070
     2
1070
   179
1070
     2
1070
   140
1040
2.707850318471337
1070
    71
1070
     0
1070
    72
1070
     0
1070
    48
1040
0.002
1070
    47
1040
0.005
1002
}
  0
DIMENSION
  5
22C
330
1F
100
AcDbEntity
  8
DIMENSIONS
100
AcDbDimension
280
     0
  2
D8
 10
0.0
 20
0.0
 30
0.0
 11
383.6243438720695
 21
245.3760147094724
 31
0.0
 70
    32
  1
<>
 71
     5
 42
-1.0
 73
     0
 74
     0
 75
     0
 53
180.0
  3
ISO-25
100
AcDbAlignedDimension
 13
235.364837646484
 23
126.955596923828
 33
0.0
 14
180.364837646484
 24
124.455596923828
 34
0.0
 50
180.0
100
AcDbRotatedDimension
1001
ACAD
1000
DSTYLE
1002
{
1070
    76
1070
     0
1070
    75
1070
     0
1070
   282
1070
     0
1070
   281
1070
     0
1070
    77
1070
     1
1070
    79
1070
     0
1070
    78
1070
     0
1070
   272
1070
     2
1070
   271
1070
     2
1070
   179
1070
     2
1070
   140
1040
2.707850318471337
1070
    71
1070
     0
1070
    72
1070
     0
1070
    48
1040
0.002
1070
    47
1040
0.005
1002
}
  0
DIMENSION
  5
23D
330
1F
100
AcDbEntity
  8
DIMENSIONS
100
AcDbDimension
280
     0
  2
D9
 10
0.0
 20
0.0
 30
0.0
 11
385.7873840332024
 21
326.5041046142576
 31
0.0
 70
    32
  1
<>x45_
 71
     5
 42
-1.0
 73
     0
 74
     0
 75
     0
  3
ISO-25
100
AcDbAlignedDimension
 13
198.364837646484
 23
177.455596923828
 33
0.0
 14
197.364837646484
 24
178.455596923828
 34
0.0
100
AcDbRotatedDimension
1001
ACAD
1000
DSTYLE
1002
{
1070
    76
1070
     0
1070
    75
1070
     0
1070
   282
1070
     0
1070
   281
1070
     0
1070
    77
1070
     1
1070
    79
1070
     0
1070
    78
1070
     0
1070
   272
1070
     2
1070
   271
1070
     2
1070
   179
1070
     2
1070
   140
1040
2.707850318471337
1070
    71
1070
     0
1070
    72
1070
     0
1070
    48
1040
0.002
1070
    47
1040
0.005
1002
}
  0
DIMENSION
  5
24E
330
1F
100
AcDbEntity
  8
DIMENSIONS
100
AcDbDimension
280
     0
  2
D10
 10
0.0
 20
0.0
 30
0.0
 11
420.3736114501945
 21
324.5415344238279
 31
0.0
 70
    32
  1
<>x45_
 71
     5
 42
-1.0
 73
     0
 74
     0
 75
     0
  3
ISO-25
100
AcDbAlignedDimension
 13
235.364837646484
 23
174.955596923828
 33
0.0
 14
234.364837646484
 24
175.955596923828
 34
0.0
100
AcDbRotatedDimension
1001
ACAD
1000
DSTYLE
1002
{
1070
    76
1070
     0
1070
    75
1070
     0
1070
   282
1070
     0
1070
   281
1070
     0
1070
    77
1070
     1
1070
    79
1070
     0
1070
    78
1070
     0
1070
   272
1070
     2
1070
   271
1070
     2
1070
   179
1070
     2
1070
   140
1040
2.707850318471337
1070
    71
1070
     0
1070
    72
1070
     0
1070
    48
1040
0.002
1070
    47
1040
0.005
1002
}
  0
DIMENSION
  5
25F
330
1F
100
AcDbEntity
  8
DIMENSIONS
100
AcDbDimension
280
     0
  2
D11
 10
0.0
 20
0.0
 30
0.0
 11
364.925476074218
 21
329.6421051025388
 31
0.0
 70
    32
  1
<>x45_
 71
     5
 42
-1.0
 73
     0
 74
     0
 75
     0
  3
ISO-25
100
AcDbAlignedDimension
 13
181.364837646484
 23
178.455596923828
 33
0.0
 14
180.364837646484
 24
177.455596923828
 34
0.0
100
AcDbRotatedDimension
1001
ACAD
1000
DSTYLE
1002
{
1070
    76
1070
     0
1070
    75
1070
     0
1070
   282
1070
     0
1070
   281
1070
     0
1070
    77
1070
     1
1070
    79
1070
     0
1070
    78
1070
     0
1070
   272
1070
     2
1070
   271
1070
     2
1070
   179
1070
     2
1070
   140
1040
2.707850318471337
1070
    71
1070
     0
1070
    72
1070
     0
1070
    48
1040
0.002
1070
    47
1040
0.005
1002
}
  0
MTEXT
  5
270
330
1F
100
AcDbEntity
  8
CONTINUOUS
100
AcDbMText
 10
162.388305664063
 20
188.719062805176
 30
0.0
 40
2.626484623805732
 41
0.0
 46
0.0
 71
     5
 72
     1
  1
{\fCE|b0|i0|c0|p0;\C7;Section A-A}{\fCE|b0|i0|c0|p0;\C7;}
 73
     1
 44
1.0
  0
MTEXT
  5
271
330
1F
100
AcDbEntity
  8
CONTINUOUS
100
AcDbMText
 10
183.494262695313
 20
156.5286025337926
 30
0.0
 40
2.079300327179538
 41
0.0
 46
0.0
 71
     1
 72
     1
  1
{\fCE|b0|i0|c0|p0;\C7;R20}{\fCE|b0|i0|c0|p0;\C7;}
 73
     1
 44
1.0
  0
LINE
  5
272
330
1F
100
AcDbEntity
  8
CONTINUOUS
100
AcDbLine
 10
195.5480821397574
 20
155.1090206570095
 30
0.0
 11
190.3887071397574
 21
155.1090206570095
 31
0.0
  0
LINE
  5
273
330
1F
100
AcDbEntity
  8
CONTINUOUS
100
AcDbLine
 10
202.8140361690385
 20
162.4638396665687
 30
0.0
 11
202.8140361690385
 21
162.4638396665687
 31
0.0
  0
LINE
  5
274
330
1F
100
AcDbEntity
  8
CONTINUOUS
100
AcDbLine
 10
202.8140361690385
 20
162.4638396665687
 30
0.0
 11
195.5480821397574
 21
155.1090206570095
 31
0.0
  0
LWPOLYLINE
  5
275
330
1F
100
AcDbEntity
  8
CONTINUOUS
100
AcDbPolyline
 90
        4
 70
     0
 43
0.0
 10
204.9224241952079
 20
164.5980139638333
 10
203.1697318852492
 20
162.1124416622071
 10
202.4583404528277
 20
162.8152376709302
 10
204.9224241952079
 20
164.5980139638333
  0
HATCH
  5
276
330
1F
100
AcDbEntity
  8
0
 62
     7
100
AcDbHatch
 10
0.0
 20
0.0
 30
0.0
210
0.0
220
0.0
230
1.0
  2
PLNÁ, Plné vyplnění
 70
     0
 71
     0
 91
        1
 92
        0
 93
        3
 72
     1
 10
202.4583404528277
 20
162.8152376709302
 11
204.9224241952079
 21
164.5980139638333
 72
     1
 10
204.9224241952079
 20
164.5980139638333
 11
203.1697318852492
 21
162.1124416622071
 72
     1
 10
203.1697318852492
 20
162.1124416622071
 11
202.4583404528277
 21
162.8152376709302
 97
        0
 75
     0
 76
     0
 52
0.0
 41
1.0
 77
     0
 78
     1
 53
45.0
 43
0.0
 44
0.0
 45
0.0
 46
0.0
 79
     0
 98
        0
  0
HATCH
  5
277
330
1F
100
AcDbEntity
  8
0
 62
     7
100
AcDbHatch
 10
0.0
 20
0.0
 30
0.0
210
0.0
220
0.0
230
1.0
  2
ISO (Steel)
 70
     0
 71
     0
 91
        2
 92
        0
 93
       12
 72
     1
 10
234.364837646484
 20
175.955596923828
 11
198.364837646484
 21
175.955596923828
 72
     1
 10
198.364837646484
 20
175.955596923828
 11
198.364837646484
 21
177.455596923828
 72
     1
 10
198.364837646484
 20
177.455596923828
 11
197.364837646484
 21
178.455596923828
 72
     1
 10
197.364837646484
 20
178.455596923828
 11
181.364837646484
 21
178.455596923828
 72
     1
 10
181.364837646484
 20
178.455596923828
 11
180.364837646484
 21
177.455596923828
 72
     1
 10
180.364837646484
 20
177.455596923828
 11
180.364837646484
 21
173.205596923828
 72
     1
 10
180.364837646484
 20
173.205596923828
 11
180.6110395847371
 21
172.9121848794113
 72
     1
 10
180.6110395847371
 20
172.9121848794113
 11
193.8379301702347
 21
170.5799271983093
 72
     2
 10
190.3649666168961
 20
150.8837721380651
 40
20.00000000000004
 50
23.80075920983026
 51
80.00000000000009
 73
     1
 72
     4
 94
        2
 73
     1
 74
     0
 95
        6
 96
        3
 40
0.0947512462457969
 40
0.0947512462457969
 40
0.0947512462457969
 40
2.762394885192877
 40
2.762394885192877
 40
2.762394885192877
 10
208.6640530270427
 20
158.9549205417651
 42
1.0
 10
221.6135175908759
 20
158.7286424890861
 42
1.0
 10
235.364837646484
 20
158.4883822579817
 42
1.0
 97
        0
 72
     1
 10
235.364837646484
 20
158.4883822579817
 11
235.364837646484
 21
174.955596923828
 72
     1
 10
235.364837646484
 20
174.955596923828
 11
234.364837646484
 21
175.955596923828
 97
        0
 92
        0
 93
       12
 72
     1
 10
198.364837646484
 20
125.955596923828
 11
234.364837646484
 21
125.955596923828
 72
     1
 10
234.364837646484
 20
125.955596923828
 11
235.364837646484
 21
126.955596923828
 72
     1
 10
235.364837646484
 20
126.955596923828
 11
235.364837646484
 21
143.4837699418779
 72
     4
 94
        2
 73
     1
 74
     0
 95
        6
 96
        3
 40
0.0003810238918364
 40
0.0003810238918364
 40
0.0003810238918364
 40
2.663565555181591
 40
2.663565555181591
 40
2.663565555181591
 10
235.364837646484
 20
143.4837699418779
 42
1.00000013699138
 10
221.6256033405094
 20
143.2432782871622
 42
1.000478826166583
 10
208.6906227167912
 20
143.0167832513668
 42
1.00005318781661
 97
        0
 72
     2
 10
190.3649666168961
 20
151.0274217095909
 40
20.00000000000006
 50
279.9999999999999
 51
336.3885642420388
 73
     1
 72
     1
 10
193.8379301702347
 20
131.3312666493467
 11
180.6110395847371
 21
128.9990089682447
 72
     1
 10
180.6110395847371
 20
128.9990089682447
 11
180.364837646484
 21
128.705596923828
 72
     1
 10
180.364837646484
 20
128.705596923828
 11
180.364837646484
 21
124.455596923828
 72
     1
 10
180.364837646484
 20
124.455596923828
 11
181.364837646484
 21
123.455596923828
 72
     1
 10
181.364837646484
 20
123.455596923828
 11
197.364837646484
 21
123.455596923828
 72
     1
 10
197.364837646484
 20
123.455596923828
 11
198.364837646484
 21
124.455596923828
 72
     1
 10
198.364837646484
 20
124.455596923828
 11
198.364837646484
 21
125.955596923828
 97
        0
 75
     0
 76
     1
 52
0.0
 41
1.0
 77
     0
 78
     1
 53
44.99999999999998
 43
177.864837646484
 44
143.455596923828
 45
-2.245064030267288
 46
2.245064030267289
 79
     0
 98
        0
  0
INSERT
  5
278
330
1F
100
AcDbEntity
  8
CONTINUOUS
100
AcDbBlockReference
  2
BLOCK0
 10
0.0
 20
0.0
 30
0.0
  0
MTEXT
  5
2C4
330
1F
100
AcDbEntity
  8
CONTINUOUS
100
AcDbMText
 10
260.522247314453
 20
26.39310830161492
 30
0.0
 40
2.079300327179538
 41
0.0
 46
0.0
 71
     1
 72
     1
  1
{\fCE|b0|i0|c0|p0;\C7;1.4301}{\fCE|b0|i0|c0|p0;\C7;}
 73
     1
 44
1.0
  0
MTEXT
  5
2C5
330
1F
100
AcDbEntity
  8
CONTINUOUS
100
AcDbMText
 10
259.673004150391
 20
13.53767388389032
 30
0.0
 40
2.079300327179538
 41
0.0
 46
0.0
 71
     1
 72
     1
  1
{\fCE|b0|i0|c0|p0;\C7;1x}{\fCE|b0|i0|c0|p0;\C7;}
 73
     1
 44
1.0
  0
MTEXT
  5
2C6
330
1F
100
AcDbEntity
  8
CONTINUOUS
100
AcDbMText
 10
275.457885742188
 20
14.30766480491082
 30
0.0
 40
2.079300327179538
 41
0.0
 46
0.0
 71
     1
 72
     1
  1
{\fCE|b0|i0|c0|p0;\C7;1:1}{\fCE|b0|i0|c0|p0;\C7;}
 73
     1
 44
1.0
  0
MTEXT
  5
2C7
330
1F
100
AcDbEntity
  8
CONTINUOUS
100
AcDbMText
 10
205.003524780273
 20
14.30766480491082
 30
0.0
 40
2.079300327179538
 41
0.0
 46
0.0
 71
     1
 72
     1
  1
{\fCE|b0|i0|c0|p0;\C7;------------------}{\fCE|b0|i0|c0|p0;\C7;}
 73
     1
 44
1.0
  0
MTEXT
  5
2C8
330
1F
100
AcDbEntity
  8
CONTINUOUS
100
AcDbMText
 10
231.719607204861
 20
14.88515847251332
 30
0.0
 40
2.079300327179538
 41
0.0
 46
0.0
 71
     1
 72
     1
  1
{\fCE|b0|i0|c0|p0;\C7;23.09.2019}{\fCE|b0|i0|c0|p0;\C7;}
 73
     1
 44
1.0
  0
MTEXT
  5
2C9
330
1F
100
AcDbEntity
  8
CONTINUOUS
100
AcDbMText
 10
208.08349609375
 20
26.62751572654172
 30
0.0
 40
2.079300327179538
 41
0.0
 46
0.0
 71
     1
 72
     1
  1
{\fCE|b0|i0|c0|p0;\C7;Základ V2 S2019092}{\fCE|b0|i0|c0|p0;\C7;}
 73
     1
 44
1.0
  0
ENDSEC
  0
SECTION
  2
OBJECTS
  0
DICTIONARY
  5
C
330
0
100
AcDbDictionary
281
     1
  3
ACAD_DETAILVIEWSTYLE
350
2D1
  3
ACAD_GROUP
350
D
  3
ACAD_LAYOUT
350
1A
  3
ACAD_MATERIAL
350
43
  3
ACAD_MLEADERSTYLE
350
6B
  3
ACAD_MLINESTYLE
350
17
  3
ACAD_PLOTSETTINGS
350
19
  3
ACAD_PLOTSTYLENAME
350
E
  3
ACAD_SCALELIST
350
47
  3
ACAD_SECTIONVIEWSTYLE
350
2D2
  3
ACAD_TABLESTYLE
350
69
  3
ACAD_VISUALSTYLE
350
2A
  3
ACDB_RECOMPOSE_DATA
350
2CE
  3
AcDbVariableDictionary
350
2CA
  0
SUN
  5
6D
330
29
100
AcDbSun
 90
        1
290
     0
 63
     7
421
 16777215
 40
1.0
291
     1
 91
  2455826
 92
 54000000
292
     0
 70
     2
 71
   256
280
     1
  0
DICTIONARY
  5
2D1
102
{ACAD_REACTORS
330
C
102
}
330
C
100
AcDbDictionary
281
     1
  0
DICTIONARY
  5
D
102
{ACAD_REACTORS
330
C
102
}
330
C
100
AcDbDictionary
281
     1
  0
DICTIONARY
  5
1A
102
{ACAD_REACTORS
330
C
102
}
330
C
100
AcDbDictionary
281
     1
  3
Layout1
350
1E
  3
Layout2
350
26
  3
Model
350
22
  0
DICTIONARY
  5
43
102
{ACAD_REACTORS
330
C
102
}
330
C
100
AcDbDictionary
281
     1
  3
ByBlock
350
45
  3
ByLayer
350
44
  3
Global
350
46
  0
DICTIONARY
  5
6B
102
{ACAD_REACTORS
330
C
102
}
330
C
100
AcDbDictionary
281
     1
  3
Standard
350
6C
  0
DICTIONARY
  5
17
102
{ACAD_REACTORS
330
C
102
}
330
C
100
AcDbDictionary
281
     1
  3
Standard
350
18
  0
DICTIONARY
  5
19
102
{ACAD_REACTORS
330
C
102
}
330
C
100
AcDbDictionary
281
     1
  0
ACDBDICTIONARYWDFLT
  5
E
102
{ACAD_REACTORS
330
C
102
}
330
C
100
AcDbDictionary
281
     1
  3
Normal
350
F
100
AcDbDictionaryWithDefault
340
F
  0
DICTIONARY
  5
47
102
{ACAD_REACTORS
330
C
102
}
330
C
100
AcDbDictionary
281
     1
  3
A0
350
48
  3
A1
350
49
  3
A2
350
4A
  3
A3
350
4B
  3
A4
350
4C
  3
A5
350
4D
  3
A6
350
4E
  3
A7
350
4F
  3
A8
350
50
  3
A9
350
51
  3
B0
350
52
  3
B1
350
53
  3
B2
350
54
  3
B3
350
55
  3
B4
350
56
  3
B5
350
57
  3
B6
350
58
  3
B7
350
59
  3
B8
350
5A
  3
B9
350
5B
  3
C0
350
5C
  3
C1
350
5D
  3
C2
350
5E
  3
C3
350
5F
  3
C4
350
60
  3
C5
350
61
  3
C6
350
62
  3
C7
350
63
  3
C8
350
64
  3
C9
350
65
  3
D0
350
66
  3
D1
350
67
  3
D2
350
68
  0
DICTIONARY
  5
2D2
102
{ACAD_REACTORS
330
C
102
}
330
C
100
AcDbDictionary
281
     1
  0
DICTIONARY
  5
69
102
{ACAD_REACTORS
330
C
102
}
330
C
100
AcDbDictionary
281
     1
  3
Standard
350
6A
  0
DICTIONARY
  5
2A
102
{ACAD_REACTORS
330
C
102
}
330
C
100
AcDbDictionary
281
     1
  3
2dWireframe
350
2F
  3
Basic
350
32
  3
Brighten
350
36
  3
ColorChange
350
3A
  3
Conceptual
350
34
  3
Dim
350
35
  3
EdgeColorOff
350
3D
  3
Facepattern
350
39
  3
Flat
350
2B
  3
FlatWithEdges
350
2C
  3
Gouraud
350
2D
  3
GouraudWithEdges
350
2E
  3
Hidden
350
31
  3
JitterOff
350
3B
  3
Linepattern
350
38
  3
OverhangOff
350
3C
  3
Realistic
350
33
  3
Shaded
350
42
  3
Shaded with edges
350
41
  3
Shades of Gray
350
3E
  3
Sketchy
350
3F
  3
Thicken
350
37
  3
Wireframe
350
30
  3
X-Ray
350
40
  0
XRECORD
  5
2CE
102
{ACAD_REACTORS
330
C
102
}
330
C
100
AcDbXrecord
280
     1
 90
        1
330
6A
  0
DICTIONARY
  5
2CA
102
{ACAD_REACTORS
330
C
102
}
330
C
100
AcDbDictionary
281
     1
  3
CANNOSCALE
350
2CB
  3
CENTEREXE
350
2D3
  3
CENTERLTYPEFILE
350
2D4
  3
CMLEADERSTYLE
350
2D0
  3
CTABLESTYLE
350
2CF
  0
LAYOUT
  5
1E
102
{ACAD_REACTORS
330
1A
102
}
330
1A
100
AcDbPlotSettings
  1

  2
none_device
  4

  6

 40
0.0
 41
0.0
 42
0.0
 43
0.0
 44
0.0
 45
0.0
 46
0.0
 47
0.0
 48
0.0
 49
0.0
140
0.0
141
0.0
142
1.0
143
1.0
 70
   688
 72
     1
 73
     0
 74
     5
  7

 75
    16
 76
     0
 77
     2
 78
   300
147
1.0
148
0.0
149
0.0
100
AcDbLayout
  1
Layout1
 70
     1
 71
     1
 10
0.0
 20
0.0
 11
420.0
 21
297.0
 12
0.0
 22
0.0
 32
0.0
 14
1.000000000000000E+20
 24
1.000000000000000E+20
 34
1.000000000000000E+20
 15
-1.000000000000000E+20
 25
-1.000000000000000E+20
 35
-1.000000000000000E+20
146
0.0
 13
0.0
 23
0.0
 33
0.0
 16
1.0
 26
0.0
 36
0.0
 17
0.0
 27
1.0
 37
0.0
 76
     0
330
1B
  0
LAYOUT
  5
26
102
{ACAD_REACTORS
330
1A
102
}
330
1A
100
AcDbPlotSettings
  1

  2
none_device
  4

  6

 40
0.0
 41
0.0
 42
0.0
 43
0.0
 44
0.0
 45
0.0
 46
0.0
 47
0.0
 48
0.0
 49
0.0
140
0.0
141
0.0
142
1.0
143
1.0
 70
   688
 72
     1
 73
     0
 74
     5
  7

 75
    16
 76
     0
 77
     2
 78
   300
147
1.0
148
0.0
149
0.0
100
AcDbLayout
  1
Layout2
 70
     1
 71
     2
 10
0.0
 20
0.0
 11
0.0
 21
0.0
 12
0.0
 22
0.0
 32
0.0
 14
0.0
 24
0.0
 34
0.0
 15
0.0
 25
0.0
 35
0.0
146
0.0
 13
0.0
 23
0.0
 33
0.0
 16
1.0
 26
0.0
 36
0.0
 17
0.0
 27
1.0
 37
0.0
 76
     0
330
23
  0
LAYOUT
  5
22
102
{ACAD_REACTORS
330
1A
102
}
330
1A
100
AcDbPlotSettings
  1

  2
none_device
  4
Letter_(8.50_x_11.00_Inches)
  6

 40
6.35
 41
6.35
 42
6.35000508
 43
6.35000508
 44
215.9
 45
279.4
 46
0.0
 47
0.0
 48
0.0
 49
0.0
140
0.0
141
0.0
142
1.0
143
1.0
 70
  1712
 72
     1
 73
     0
 74
     0
  7

 75
     0
 76
     0
 77
     2
 78
   300
147
1.0
148
0.0
149
0.0
100
AcDbLayout
  1
Model
 70
     1
 71
     0
 10
0.0
 20
0.0
 11
420.0
 21
297.0
 12
0.0
 22
0.0
 32
0.0
 14
1.000000000000000E+20
 24
1.000000000000000E+20
 34
1.000000000000000E+20
 15
-1.000000000000000E+20
 25
-1.000000000000000E+20
 35
-1.000000000000000E+20
146
0.0
 13
0.0
 23
0.0
 33
0.0
 16
1.0
 26
0.0
 36
0.0
 17
0.0
 27
1.0
 37
0.0
 76
     0
330
1F
331
29
  0
MATERIAL
  5
45
102
{ACAD_REACTORS
330
43
102
}
330
43
100
AcDbMaterial
  1
ByBlock
 72
     1
 94
      127
  0
MATERIAL
  5
44
102
{ACAD_REACTORS
330
43
102
}
330
43
100
AcDbMaterial
  1
ByLayer
 72
     1
 94
      127
  0
MATERIAL
  5
46
102
{ACAD_REACTORS
330
43
102
}
330
43
100
AcDbMaterial
  1
Global
 72
     1
 94
      127
  0
MLEADERSTYLE
  5
6C
102
{ACAD_REACTORS
330
6B
102
}
330
6B
100
AcDbMLeaderStyle
179
     2
170
     2
171
     1
172
     0
 90
        2
 40
0.0
 41
0.0
173
     1
 91
-1056964608
340
14
 92
       -2
290
     1
 42
2.0
291
     1
 43
8.0
  3
Standard
341
0
 44
4.0
300

342
11
174
     1
178
     6
175
     1
176
     0
 93
-1056964608
 45
4.0
292
     0
297
     0
 46
4.0
343
0
 94
-1056964608
 47
1.0
 49
1.0
140
1.0
293
     1
141
0.0
294
     1
177
     0
142
1.0
295
     0
296
     0
143
3.75
271
     0
272
     9
273
     9
298
     0
  0
MLINESTYLE
  5
18
102
{ACAD_REACTORS
330
17
102
}
330
17
100
AcDbMlineStyle
  2
Standard
 70
     0
  3

 62
   256
 51
90.0
 52
90.0
 71
     2
 49
0.5
 62
   256
  6
BYLAYER
 49
-0.5
 62
   256
  6
BYLAYER
  0
ACDBPLACEHOLDER
  5
F
102
{ACAD_REACTORS
330
E
102
}
330
E
  0
SCALE
  5
48
102
{ACAD_REACTORS
330
47
102
}
330
47
100
AcDbScale
 70
     0
300
1:1
140
1.0
141
1.0
290
     1
  0
SCALE
  5
49
102
{ACAD_REACTORS
330
47
102
}
330
47
100
AcDbScale
 70
     0
300
1:2
140
1.0
141
2.0
290
     0
  0
SCALE
  5
4A
102
{ACAD_REACTORS
330
47
102
}
330
47
100
AcDbScale
 70
     0
300
1:4
140
1.0
141
4.0
290
     0
  0
SCALE
  5
4B
102
{ACAD_REACTORS
330
47
102
}
330
47
100
AcDbScale
 70
     0
300
1:5
140
1.0
141
5.0
290
     0
  0
SCALE
  5
4C
102
{ACAD_REACTORS
330
47
102
}
330
47
100
AcDbScale
 70
     0
300
1:8
140
1.0
141
8.0
290
     0
  0
SCALE
  5
4D
102
{ACAD_REACTORS
330
47
102
}
330
47
100
AcDbScale
 70
     0
300
1:10
140
1.0
141
10.0
290
     0
  0
SCALE
  5
4E
102
{ACAD_REACTORS
330
47
102
}
330
47
100
AcDbScale
 70
     0
300
1:16
140
1.0
141
16.0
290
     0
  0
SCALE
  5
4F
102
{ACAD_REACTORS
330
47
102
}
330
47
100
AcDbScale
 70
     0
300
1:20
140
1.0
141
20.0
290
     0
  0
SCALE
  5
50
102
{ACAD_REACTORS
330
47
102
}
330
47
100
AcDbScale
 70
     0
300
1:30
140
1.0
141
30.0
290
     0
  0
SCALE
  5
51
102
{ACAD_REACTORS
330
47
102
}
330
47
100
AcDbScale
 70
     0
300
1:40
140
1.0
141
40.0
290
     0
  0
SCALE
  5
52
102
{ACAD_REACTORS
330
47
102
}
330
47
100
AcDbScale
 70
     0
300
1:50
140
1.0
141
50.0
290
     0
  0
SCALE
  5
53
102
{ACAD_REACTORS
330
47
102
}
330
47
100
AcDbScale
 70
     0
300
1:100
140
1.0
141
100.0
290
     0
  0
SCALE
  5
54
102
{ACAD_REACTORS
330
47
102
}
330
47
100
AcDbScale
 70
     0
300
2:1
140
2.0
141
1.0
290
     0
  0
SCALE
  5
55
102
{ACAD_REACTORS
330
47
102
}
330
47
100
AcDbScale
 70
     0
300
4:1
140
4.0
141
1.0
290
     0
  0
SCALE
  5
56
102
{ACAD_REACTORS
330
47
102
}
330
47
100
AcDbScale
 70
     0
300
8:1
140
8.0
141
1.0
290
     0
  0
SCALE
  5
57
102
{ACAD_REACTORS
330
47
102
}
330
47
100
AcDbScale
 70
     0
300
10:1
140
10.0
141
1.0
290
     0
  0
SCALE
  5
58
102
{ACAD_REACTORS
330
47
102
}
330
47
100
AcDbScale
 70
     0
300
100:1
140
100.0
141
1.0
290
     0
  0
SCALE
  5
59
102
{ACAD_REACTORS
330
47
102
}
330
47
100
AcDbScale
 70
     0
300
1/128" = 1'-0"
140
0.0078125
141
12.0
290
     0
  0
SCALE
  5
5A
102
{ACAD_REACTORS
330
47
102
}
330
47
100
AcDbScale
 70
     0
300
1/64" = 1'-0"
140
0.015625
141
12.0
290
     0
  0
SCALE
  5
5B
102
{ACAD_REACTORS
330
47
102
}
330
47
100
AcDbScale
 70
     0
300
1/32" = 1'-0"
140
0.03125
141
12.0
290
     0
  0
SCALE
  5
5C
102
{ACAD_REACTORS
330
47
102
}
330
47
100
AcDbScale
 70
     0
300
1/16" = 1'-0"
140
0.0625
141
12.0
290
     0
  0
SCALE
  5
5D
102
{ACAD_REACTORS
330
47
102
}
330
47
100
AcDbScale
 70
     0
300
3/32" = 1'-0"
140
0.09375
141
12.0
290
     0
  0
SCALE
  5
5E
102
{ACAD_REACTORS
330
47
102
}
330
47
100
AcDbScale
 70
     0
300
1/8" = 1'-0"
140
0.125
141
12.0
290
     0
  0
SCALE
  5
5F
102
{ACAD_REACTORS
330
47
102
}
330
47
100
AcDbScale
 70
     0
300
3/16" = 1'-0"
140
0.1875
141
12.0
290
     0
  0
SCALE
  5
60
102
{ACAD_REACTORS
330
47
102
}
330
47
100
AcDbScale
 70
     0
300
1/4" = 1'-0"
140
0.25
141
12.0
290
     0
  0
SCALE
  5
61
102
{ACAD_REACTORS
330
47
102
}
330
47
100
AcDbScale
 70
     0
300
3/8" = 1'-0"
140
0.375
141
12.0
290
     0
  0
SCALE
  5
62
102
{ACAD_REACTORS
330
47
102
}
330
47
100
AcDbScale
 70
     0
300
1/2" = 1'-0"
140
0.5
141
12.0
290
     0
  0
SCALE
  5
63
102
{ACAD_REACTORS
330
47
102
}
330
47
100
AcDbScale
 70
     0
300
3/4" = 1'-0"
140
0.75
141
12.0
290
     0
  0
SCALE
  5
64
102
{ACAD_REACTORS
330
47
102
}
330
47
100
AcDbScale
 70
     0
300
1" = 1'-0"
140
1.0
141
12.0
290
     0
  0
SCALE
  5
65
102
{ACAD_REACTORS
330
47
102
}
330
47
100
AcDbScale
 70
     0
300
1-1/2" = 1'-0"
140
1.5
141
12.0
290
     0
  0
SCALE
  5
66
102
{ACAD_REACTORS
330
47
102
}
330
47
100
AcDbScale
 70
     0
300
3" = 1'-0"
140
3.0
141
12.0
290
     0
  0
SCALE
  5
67
102
{ACAD_REACTORS
330
47
102
}
330
47
100
AcDbScale
 70
     0
300
6" = 1'-0"
140
6.0
141
12.0
290
     0
  0
SCALE
  5
68
102
{ACAD_REACTORS
330
47
102
}
330
47
100
AcDbScale
 70
     0
300
1'-0" = 1'-0"
140
12.0
141
12.0
290
     0
  0
TABLESTYLE
  5
6A
102
{ACAD_REACTORS
330
69
102
}
102
{ACAD_XDICTIONARY
360
2CC
102
}
330
69
100
AcDbTableStyle
  3
Standard
 70
     0
 71
     0
 40
0.06
 41
0.06
280
     0
281
     0
  7
Standard
140
4.5
170
     2
 62
     0
 63
   257
283
     0
 90
        4
 91
        0
  1

274
    -2
284
     1
 64
     0
275
    -2
285
     1
 65
     0
276
    -2
286
     1
 66
     0
277
    -2
287
     1
 67
     0
278
    -2
288
     1
 68
     0
279
    -2
289
     1
 69
     0
  7
Standard
140
6.0
170
     5
 62
     0
 63
   257
283
     0
 90
        4
 91
        0
  1

274
    -2
284
     1
 64
     0
275
    -2
285
     1
 65
     0
276
    -2
286
     1
 66
     0
277
    -2
287
     1
 67
     0
278
    -2
288
     1
 68
     0
279
    -2
289
     1
 69
     0
  7
Standard
140
4.5
170
     5
 62
     0
 63
   257
283
     0
 90
        4
 91
        0
  1

274
    -2
284
     1
 64
     0
275
    -2
285
     1
 65
     0
276
    -2
286
     1
 66
     0
277
    -2
287
     1
 67
     0
278
    -2
288
     1
 68
     0
279
    -2
289
     1
 69
     0
  0
VISUALSTYLE
  5
2F
102
{ACAD_REACTORS
330
2A
102
}
330
2A
100
AcDbVisualStyle
  2
2dWireframe
 70
     4
177
     3
291
     0
 70
    58
 90
        0
176
     1
 90
        2
176
     1
 90
        0
176
     1
 90
        0
176
     1
 40
0.6
176
     1
 40
30.0
176
     1
 62
     7
420
 16777215
176
     1
 90
        1
176
     1
 90
        4
176
     1
 62
     7
176
     1
 62
   257
176
     1
 90
        1
176
     1
 90
        1
176
     1
 40
1.0
176
     1
 90
        0
176
     1
 62
   257
176
     1
 40
1.0
176
     1
 90
        1
176
     1
 90
        6
176
     1
 90
        2
176
     1
 62
     7
176
     1
 90
        5
176
     1
 90
        0
176
     1
 90
        0
176
     1
290
     0
176
     1
 90
        1
176
     1
 40
0.0
176
     1
 90
        0
176
     1
290
     1
176
     1
290
     1
176
     1
290
     0
176
     1
290
     0
176
     1
290
     0
176
     1
290
     0
176
     1
290
     0
176
     1
290
     0
176
     1
290
     0
176
     1
 90
       50
176
     1
 40
0.0
176
     1
 40
1.0
176
     1
 90
        0
176
     1
 62
    18
420
        0
176
     1
 90
       50
176
     1
 90
        3
176
     1
 62
     5
420
      255
176
     1
290
     0
176
     1
 90
       50
176
     1
 90
       50
176
     1
 90
       50
176
     1
290
     0
176
     1
 90
       50
176
     1
 62
   256
176
     0
 40
1.0
176
     0
 90
        2
176
     1
  1
strokes_ogs.tif
176
     1
290
     0
176
     1
 40
1.0
176
     1
 40
1.0
176
     1
  0
VISUALSTYLE
  5
32
102
{ACAD_REACTORS
330
2A
102
}
330
2A
100
AcDbVisualStyle
  2
Basic
 70
     7
177
     3
291
     1
 70
    58
 90
        1
176
     1
 90
        0
176
     1
 90
        1
176
     1
 90
        0
176
     1
 40
0.6
176
     1
 40
30.0
176
     1
 62
     7
420
 16777215
176
     1
 90
        0
176
     1
 90
        4
176
     1
 62
     7
176
     1
 62
   257
176
     1
 90
        1
176
     1
 90
        1
176
     1
 40
1.0
176
     1
 90
        8
176
     1
 62
     7
176
     1
 40
1.0
176
     1
 90
        1
176
     1
 90
        6
176
     1
 90
        2
176
     1
 62
     7
176
     1
 90
        5
176
     1
 90
        0
176
     1
 90
        0
176
     1
290
     0
176
     1
 90
        1
176
     1
 40
0.0
176
     1
 90
        0
176
     1
290
     0
176
     1
290
     1
176
     1
290
     1
176
     1
290
     0
176
     1
290
     0
176
     1
290
     0
176
     1
290
     0
176
     1
290
     0
176
     1
290
     0
176
     1
 90
       50
176
     1
 40
0.0
176
     1
 40
1.0
176
     1
 90
        0
176
     1
 62
    18
420
        0
176
     1
 90
       50
176
     1
 90
        3
176
     1
 62
     5
420
      255
176
     1
290
     0
176
     1
 90
       50
176
     1
 90
       50
176
     1
 90
       50
176
     1
290
     0
176
     1
 90
       50
176
     1
 62
   256
176
     0
 40
1.0
176
     0
 90
        2
176
     1
  1
strokes_ogs.tif
176
     1
290
     0
176
     1
 40
1.0
176
     1
 40
1.0
176
     1
  0
VISUALSTYLE
  5
36
102
{ACAD_REACTORS
330
2A
102
}
330
2A
100
AcDbVisualStyle
  2
Brighten
 70
    12
177
     3
291
     1
 70
    58
 90
        2
176
     1
 90
        2
176
     1
 90
        0
176
     1
 90
        0
176
     1
 40
0.6
176
     1
 40
30.0
176
     1
 62
     7
420
 16777215
176
     1
 90
        1
176
     1
 90
        4
176
     1
 62
     7
176
     1
 62
   257
176
     1
 90
        1
176
     1
 90
        1
176
     1
 40
1.0
176
     1
 90
        8
176
     1
 62
     7
176
     1
 40
1.0
176
     1
 90
        1
176
     1
 90
        6
176
     1
 90
        2
176
     1
 62
     7
176
     1
 90
        5
176
     1
 90
        0
176
     1
 90
        0
176
     1
290
     0
176
     1
 90
        1
176
     1
 40
50.0
176
     1
 90
        0
176
     1
290
     0
176
     1
290
     1
176
     1
290
     1
176
     1
290
     0
176
     1
290
     0
176
     1
290
     0
176
     1
290
     0
176
     1
290
     0
176
     1
290
     0
176
     1
 90
       50
176
     1
 40
0.0
176
     1
 40
1.0
176
     1
 90
        0
176
     1
 62
    18
420
        0
176
     1
 90
       50
176
     1
 90
        3
176
     1
 62
     5
420
      255
176
     1
290
     0
176
     1
 90
       50
176
     1
 90
       50
176
     1
 90
       50
176
     1
290
     0
176
     1
 90
       50
176
     1
 62
   256
176
     0
 40
1.0
176
     0
 90
        2
176
     1
  1
strokes_ogs.tif
176
     1
290
     0
176
     1
 40
1.0
176
     1
 40
1.0
176
     1
  0
VISUALSTYLE
  5
3A
102
{ACAD_REACTORS
330
2A
102
}
330
2A
100
AcDbVisualStyle
  2
ColorChange
 70
    16
177
     3
291
     1
 70
    58
 90
        2
176
     1
 90
        2
176
     1
 90
        3
176
     1
 90
        0
176
     1
 40
0.6
176
     1
 40
30.0
176
     1
 62
     8
420
  8421504
176
     1
 90
        1
176
     1
 90
        4
176
     1
 62
     7
176
     1
 62
   257
176
     1
 90
        1
176
     1
 90
        1
176
     1
 40
1.0
176
     1
 90
        8
176
     1
 62
     8
420
  8421504
176
     1
 40
1.0
176
     1
 90
        1
176
     1
 90
        6
176
     1
 90
        2
176
     1
 62
     7
176
     1
 90
        5
176
     1
 90
        0
176
     1
 90
        0
176
     1
290
     0
176
     1
 90
        1
176
     1
 40
0.0
176
     1
 90
        0
176
     1
290
     0
176
     1
290
     1
176
     1
290
     1
176
     1
290
     0
176
     1
290
     0
176
     1
290
     0
176
     1
290
     0
176
     1
290
     0
176
     1
290
     0
176
     1
 90
       50
176
     1
 40
0.0
176
     1
 40
1.0
176
     1
 90
        0
176
     1
 62
    18
420
        0
176
     1
 90
       50
176
     1
 90
        3
176
     1
 62
     5
420
      255
176
     1
290
     0
176
     1
 90
       50
176
     1
 90
       50
176
     1
 90
       50
176
     1
290
     0
176
     1
 90
       50
176
     1
 62
   256
176
     0
 40
1.0
176
     0
 90
        2
176
     1
  1
strokes_ogs.tif
176
     1
290
     0
176
     1
 40
1.0
176
     1
 40
1.0
176
     1
  0
VISUALSTYLE
  5
34
102
{ACAD_REACTORS
330
2A
102
}
330
2A
100
AcDbVisualStyle
  2
Conceptual
 70
     9
177
     3
291
     0
 70
    58
 90
        3
176
     1
 90
        2
176
     1
 90
        0
176
     1
 90
        0
176
     1
 40
0.6
176
     1
 40
30.0
176
     1
 62
     7
420
 16777215
176
     1
 90
        2
176
     1
 90
        2
176
     1
 62
     7
176
     1
 62
   257
176
     1
 90
        1
176
     1
 90
        1
176
     1
 40
179.0
176
     1
 90
        8
176
     1
 62
     7
176
     1
 40
1.0
176
     1
 90
        1
176
     1
 90
        6
176
     1
 90
        2
176
     1
 62
     7
176
     1
 90
        3
176
     1
 90
        0
176
     1
 90
        0
176
     1
290
     0
176
     1
 90
        1
176
     1
 40
0.0
176
     1
 90
        0
176
     1
290
     0
176
     1
290
     1
176
     1
290
     1
176
     1
290
     0
176
     1
290
     0
176
     1
290
     0
176
     1
290
     0
176
     1
290
     0
176
     1
290
     0
176
     1
 90
       50
176
     1
 40
0.0
176
     1
 40
1.0
176
     1
 90
        0
176
     1
 62
    18
420
        0
176
     1
 90
       50
176
     1
 90
        3
176
     1
 62
     5
420
      255
176
     1
290
     0
176
     1
 90
       50
176
     1
 90
       50
176
     1
 90
       50
176
     1
290
     0
176
     1
 90
       50
176
     1
 62
   256
176
     0
 40
1.0
176
     0
 90
        2
176
     1
  1
strokes_ogs.tif
176
     1
290
     0
176
     1
 40
1.0
176
     1
 40
1.0
176
     1
  0
VISUALSTYLE
  5
35
102
{ACAD_REACTORS
330
2A
102
}
330
2A
100
AcDbVisualStyle
  2
Dim
 70
    11
177
     3
291
     1
 70
    58
 90
        2
176
     1
 90
        2
176
     1
 90
        0
176
     1
 90
        0
176
     1
 40
0.6
176
     1
 40
30.0
176
     1
 62
     7
420
 16777215
176
     1
 90
        1
176
     1
 90
        4
176
     1
 62
     7
176
     1
 62
   257
176
     1
 90
        1
176
     1
 90
        1
176
     1
 40
1.0
176
     1
 90
        8
176
     1
 62
     7
176
     1
 40
1.0
176
     1
 90
        1
176
     1
 90
        6
176
     1
 90
        2
176
     1
 62
     7
176
     1
 90
        5
176
     1
 90
        0
176
     1
 90
        0
176
     1
290
     0
176
     1
 90
        1
176
     1
 40
-50.0
176
     1
 90
        0
176
     1
290
     0
176
     1
290
     1
176
     1
290
     1
176
     1
290
     0
176
     1
290
     0
176
     1
290
     0
176
     1
290
     0
176
     1
290
     0
176
     1
290
     0
176
     1
 90
       50
176
     1
 40
0.0
176
     1
 40
1.0
176
     1
 90
        0
176
     1
 62
    18
420
        0
176
     1
 90
       50
176
     1
 90
        3
176
     1
 62
     5
420
      255
176
     1
290
     0
176
     1
 90
       50
176
     1
 90
       50
176
     1
 90
       50
176
     1
290
     0
176
     1
 90
       50
176
     1
 62
   256
176
     0
 40
1.0
176
     0
 90
        2
176
     1
  1
strokes_ogs.tif
176
     1
290
     0
176
     1
 40
1.0
176
     1
 40
1.0
176
     1
  0
VISUALSTYLE
  5
3D
102
{ACAD_REACTORS
330
2A
102
}
330
2A
100
AcDbVisualStyle
  2
EdgeColorOff
 70
    22
177
     3
291
     1
 70
    58
 90
        2
176
     0
 90
        2
176
     0
 90
        0
176
     0
 90
        0
176
     0
 40
0.6
176
     0
 40
30.0
176
     0
 62
     7
420
 16777215
176
     0
 90
        1
176
     0
 90
        4
176
     0
 62
     7
176
     0
 62
   257
176
     0
 90
        1
176
     0
 90
        1
176
     0
 40
1.0
176
     0
 90
        8
176
     2
 62
     7
176
     0
 40
1.0
176
     0
 90
        1
176
     0
 90
        6
176
     0
 90
        2
176
     0
 62
     7
176
     0
 90
        5
176
     0
 90
        0
176
     0
 90
        0
176
     0
290
     0
176
     0
 90
        1
176
     0
 40
0.0
176
     0
 90
        0
176
     0
290
     0
176
     0
290
     1
176
     0
290
     1
176
     0
290
     0
176
     0
290
     0
176
     0
290
     0
176
     0
290
     0
176
     0
290
     0
176
     0
290
     0
176
     0
 90
       50
176
     0
 40
0.0
176
     0
 40
1.0
176
     0
 90
        0
176
     0
 62
    18
420
        0
176
     0
 90
       50
176
     0
 90
        3
176
     0
 62
     5
420
      255
176
     0
290
     0
176
     0
 90
       50
176
     0
 90
       50
176
     0
 90
       50
176
     0
290
     0
176
     0
 90
       50
176
     0
 62
   256
176
     0
 40
1.0
176
     0
 90
        2
176
     0
  1
strokes_ogs.tif
176
     0
290
     0
176
     0
 40
1.0
176
     0
 40
1.0
176
     0
  0
VISUALSTYLE
  5
39
102
{ACAD_REACTORS
330
2A
102
}
330
2A
100
AcDbVisualStyle
  2
Facepattern
 70
    15
177
     3
291
     1
 70
    58
 90
        2
176
     1
 90
        2
176
     1
 90
        0
176
     1
 90
        0
176
     1
 40
0.6
176
     1
 40
30.0
176
     1
 62
     7
420
 16777215
176
     1
 90
        1
176
     1
 90
        4
176
     1
 62
     7
176
     1
 62
   257
176
     1
 90
        1
176
     1
 90
        1
176
     1
 40
1.0
176
     1
 90
        8
176
     1
 62
     7
176
     1
 40
1.0
176
     1
 90
        1
176
     1
 90
        6
176
     1
 90
        2
176
     1
 62
     7
176
     1
 90
        5
176
     1
 90
        0
176
     1
 90
        0
176
     1
290
     0
176
     1
 90
        1
176
     1
 40
0.0
176
     1
 90
        0
176
     1
290
     0
176
     1
290
     1
176
     1
290
     1
176
     1
290
     0
176
     1
290
     0
176
     1
290
     0
176
     1
290
     0
176
     1
290
     0
176
     1
290
     0
176
     1
 90
       50
176
     1
 40
0.0
176
     1
 40
1.0
176
     1
 90
        0
176
     1
 62
    18
420
        0
176
     1
 90
       50
176
     1
 90
        3
176
     1
 62
     5
420
      255
176
     1
290
     0
176
     1
 90
       50
176
     1
 90
       50
176
     1
 90
       50
176
     1
290
     0
176
     1
 90
       50
176
     1
 62
   256
176
     0
 40
1.0
176
     0
 90
        2
176
     1
  1
strokes_ogs.tif
176
     1
290
     0
176
     1
 40
1.0
176
     1
 40
1.0
176
     1
  0
VISUALSTYLE
  5
2B
102
{ACAD_REACTORS
330
2A
102
}
330
2A
100
AcDbVisualStyle
  2
Flat
 70
     0
177
     3
291
     1
 70
    58
 90
        2
176
     1
 90
        1
176
     1
 90
        1
176
     1
 90
        2
176
     1
 40
0.6
176
     1
 40
30.0
176
     1
 62
     7
420
 16777215
176
     1
 90
        0
176
     1
 90
        0
176
     1
 62
     7
176
     1
 62
   257
176
     1
 90
        1
176
     1
 90
        1
176
     1
 40
1.0
176
     1
 90
        8
176
     1
 62
     7
176
     1
 40
1.0
176
     1
 90
        1
176
     1
 90
        6
176
     1
 90
        2
176
     1
 62
     7
176
     1
 90
        5
176
     1
 90
        0
176
     1
 90
        0
176
     1
290
     0
176
     1
 90
       13
176
     1
 40
0.0
176
     1
 90
        0
176
     1
290
     0
176
     1
290
     1
176
     1
290
     1
176
     1
290
     0
176
     1
290
     0
176
     1
290
     0
176
     1
290
     0
176
     1
290
     0
176
     1
290
     0
176
     1
 90
       50
176
     1
 40
0.0
176
     1
 40
1.0
176
     1
 90
        0
176
     1
 62
    18
420
        0
176
     1
 90
       50
176
     1
 90
        3
176
     1
 62
     5
420
      255
176
     1
290
     0
176
     1
 90
       50
176
     1
 90
       50
176
     1
 90
       50
176
     1
290
     0
176
     1
 90
       50
176
     1
 62
   256
176
     0
 40
1.0
176
     0
 90
        2
176
     1
  1
strokes_ogs.tif
176
     1
290
     0
176
     1
 40
1.0
176
     1
 40
1.0
176
     1
  0
VISUALSTYLE
  5
2C
102
{ACAD_REACTORS
330
2A
102
}
330
2A
100
AcDbVisualStyle
  2
FlatWithEdges
 70
     1
177
     3
291
     1
 70
    58
 90
        2
176
     1
 90
        1
176
     1
 90
        1
176
     1
 90
        2
176
     1
 40
0.6
176
     1
 40
30.0
176
     1
 62
     7
420
 16777215
176
     1
 90
        1
176
     1
 90
        0
176
     1
 62
     7
176
     1
 62
   257
176
     1
 90
        1
176
     1
 90
        1
176
     1
 40
1.0
176
     1
 90
        0
176
     1
 62
   257
176
     1
 40
1.0
176
     1
 90
        1
176
     1
 90
        6
176
     1
 90
        2
176
     1
 62
     7
176
     1
 90
        5
176
     1
 90
        0
176
     1
 90
        0
176
     1
290
     0
176
     1
 90
       13
176
     1
 40
0.0
176
     1
 90
        0
176
     1
290
     0
176
     1
290
     1
176
     1
290
     1
176
     1
290
     0
176
     1
290
     0
176
     1
290
     0
176
     1
290
     0
176
     1
290
     0
176
     1
290
     0
176
     1
 90
       50
176
     1
 40
0.0
176
     1
 40
1.0
176
     1
 90
        0
176
     1
 62
    18
420
        0
176
     1
 90
       50
176
     1
 90
        3
176
     1
 62
     5
420
      255
176
     1
290
     0
176
     1
 90
       50
176
     1
 90
       50
176
     1
 90
       50
176
     1
290
     0
176
     1
 90
       50
176
     1
 62
   256
176
     0
 40
1.0
176
     0
 90
        2
176
     1
  1
strokes_ogs.tif
176
     1
290
     0
176
     1
 40
1.0
176
     1
 40
1.0
176
     1
  0
VISUALSTYLE
  5
2D
102
{ACAD_REACTORS
330
2A
102
}
330
2A
100
AcDbVisualStyle
  2
Gouraud
 70
     2
177
     3
291
     1
 70
    58
 90
        2
176
     1
 90
        2
176
     1
 90
        1
176
     1
 90
        2
176
     1
 40
0.6
176
     1
 40
30.0
176
     1
 62
     7
420
 16777215
176
     1
 90
        0
176
     1
 90
        0
176
     1
 62
     7
176
     1
 62
   257
176
     1
 90
        1
176
     1
 90
        1
176
     1
 40
1.0
176
     1
 90
        0
176
     1
 62
     7
176
     1
 40
1.0
176
     1
 90
        1
176
     1
 90
        6
176
     1
 90
        2
176
     1
 62
     7
176
     1
 90
        5
176
     1
 90
        0
176
     1
 90
        0
176
     1
290
     0
176
     1
 90
       13
176
     1
 40
0.0
176
     1
 90
        0
176
     1
290
     0
176
     1
290
     1
176
     1
290
     1
176
     1
290
     0
176
     1
290
     0
176
     1
290
     0
176
     1
290
     0
176
     1
290
     0
176
     1
290
     0
176
     1
 90
       50
176
     1
 40
0.0
176
     1
 40
1.0
176
     1
 90
        0
176
     1
 62
    18
420
        0
176
     1
 90
       50
176
     1
 90
        3
176
     1
 62
     5
420
      255
176
     1
290
     0
176
     1
 90
       50
176
     1
 90
       50
176
     1
 90
       50
176
     1
290
     0
176
     1
 90
       50
176
     1
 62
   256
176
     0
 40
1.0
176
     0
 90
        2
176
     1
  1
strokes_ogs.tif
176
     1
290
     0
176
     1
 40
1.0
176
     1
 40
1.0
176
     1
  0
VISUALSTYLE
  5
2E
102
{ACAD_REACTORS
330
2A
102
}
330
2A
100
AcDbVisualStyle
  2
GouraudWithEdges
 70
     3
177
     3
291
     1
 70
    58
 90
        2
176
     1
 90
        2
176
     1
 90
        1
176
     1
 90
        2
176
     1
 40
0.6
176
     1
 40
30.0
176
     1
 62
     7
420
 16777215
176
     1
 90
        1
176
     1
 90
        0
176
     1
 62
     7
176
     1
 62
   257
176
     1
 90
        1
176
     1
 90
        1
176
     1
 40
1.0
176
     1
 90
        0
176
     1
 62
   257
176
     1
 40
1.0
176
     1
 90
        1
176
     1
 90
        6
176
     1
 90
        2
176
     1
 62
     7
176
     1
 90
        5
176
     1
 90
        0
176
     1
 90
        0
176
     1
290
     0
176
     1
 90
       13
176
     1
 40
0.0
176
     1
 90
        0
176
     1
290
     0
176
     1
290
     1
176
     1
290
     1
176
     1
290
     0
176
     1
290
     0
176
     1
290
     0
176
     1
290
     0
176
     1
290
     0
176
     1
290
     0
176
     1
 90
       50
176
     1
 40
0.0
176
     1
 40
1.0
176
     1
 90
        0
176
     1
 62
    18
420
        0
176
     1
 90
       50
176
     1
 90
        3
176
     1
 62
     5
420
      255
176
     1
290
     0
176
     1
 90
       50
176
     1
 90
       50
176
     1
 90
       50
176
     1
290
     0
176
     1
 90
       50
176
     1
 62
   256
176
     0
 40
1.0
176
     0
 90
        2
176
     1
  1
strokes_ogs.tif
176
     1
290
     0
176
     1
 40
1.0
176
     1
 40
1.0
176
     1
  0
VISUALSTYLE
  5
31
102
{ACAD_REACTORS
330
2A
102
}
330
2A
100
AcDbVisualStyle
  2
Hidden
 70
     6
177
     3
291
     0
 70
    58
 90
        1
176
     1
 90
        2
176
     1
 90
        2
176
     1
 90
        0
176
     1
 40
0.6
176
     1
 40
30.0
176
     1
 62
     7
420
 16777215
176
     1
 90
        2
176
     1
 90
        2
176
     1
 62
     7
176
     1
 62
   257
176
     1
 90
        2
176
     1
 90
        1
176
     1
 40
40.0
176
     1
 90
        0
176
     1
 62
   257
176
     1
 40
1.0
176
     1
 90
        1
176
     1
 90
        6
176
     1
 90
        2
176
     1
 62
     7
176
     1
 90
        3
176
     1
 90
        0
176
     1
 90
        0
176
     1
290
     0
176
     1
 90
        1
176
     1
 40
0.0
176
     1
 90
        0
176
     1
290
     0
176
     1
290
     1
176
     1
290
     1
176
     1
290
     0
176
     1
290
     0
176
     1
290
     0
176
     1
290
     0
176
     1
290
     0
176
     1
290
     0
176
     1
 90
       50
176
     1
 40
0.0
176
     1
 40
1.0
176
     1
 90
        0
176
     1
 62
    18
420
        0
176
     1
 90
       50
176
     1
 90
        3
176
     1
 62
     5
420
      255
176
     1
290
     0
176
     1
 90
       50
176
     1
 90
       50
176
     1
 90
       50
176
     1
290
     0
176
     1
 90
       50
176
     1
 62
   256
176
     0
 40
1.0
176
     0
 90
        2
176
     1
  1
strokes_ogs.tif
176
     1
290
     0
176
     1
 40
1.0
176
     1
 40
1.0
176
     1
  0
VISUALSTYLE
  5
3B
102
{ACAD_REACTORS
330
2A
102
}
330
2A
100
AcDbVisualStyle
  2
JitterOff
 70
    20
177
     3
291
     1
 70
    58
 90
        2
176
     0
 90
        2
176
     0
 90
        0
176
     0
 90
        0
176
     0
 40
0.6
176
     0
 40
30.0
176
     0
 62
     7
420
 16777215
176
     0
 90
        1
176
     0
 90
        4
176
     0
 62
     7
176
     0
 62
   257
176
     0
 90
        1
176
     0
 90
        1
176
     0
 40
1.0
176
     0
 90
       10
176
     2
 62
     7
176
     0
 40
1.0
176
     0
 90
        1
176
     0
 90
        6
176
     0
 90
        2
176
     0
 62
     7
176
     0
 90
        5
176
     0
 90
        0
176
     0
 90
        0
176
     0
290
     0
176
     0
 90
        1
176
     0
 40
0.0
176
     0
 90
        0
176
     0
290
     0
176
     0
290
     1
176
     0
290
     1
176
     0
290
     0
176
     0
290
     0
176
     0
290
     0
176
     0
290
     0
176
     0
290
     0
176
     0
290
     0
176
     0
 90
       50
176
     0
 40
0.0
176
     0
 40
1.0
176
     0
 90
        0
176
     0
 62
    18
420
        0
176
     0
 90
       50
176
     0
 90
        3
176
     0
 62
     5
420
      255
176
     0
290
     0
176
     0
 90
       50
176
     0
 90
       50
176
     0
 90
       50
176
     0
290
     0
176
     0
 90
       50
176
     0
 62
   256
176
     0
 40
1.0
176
     0
 90
        2
176
     0
  1
strokes_ogs.tif
176
     0
290
     0
176
     0
 40
1.0
176
     0
 40
1.0
176
     0
  0
VISUALSTYLE
  5
38
102
{ACAD_REACTORS
330
2A
102
}
330
2A
100
AcDbVisualStyle
  2
Linepattern
 70
    14
177
     3
291
     1
 70
    58
 90
        2
176
     1
 90
        2
176
     1
 90
        0
176
     1
 90
        0
176
     1
 40
0.6
176
     1
 40
30.0
176
     1
 62
     7
420
 16777215
176
     1
 90
        1
176
     1
 90
        4
176
     1
 62
     7
176
     1
 62
   257
176
     1
 90
        7
176
     1
 90
        7
176
     1
 40
1.0
176
     1
 90
        8
176
     1
 62
     7
176
     1
 40
1.0
176
     1
 90
        1
176
     1
 90
        6
176
     1
 90
        2
176
     1
 62
     7
176
     1
 90
        5
176
     1
 90
        0
176
     1
 90
        0
176
     1
290
     0
176
     1
 90
        1
176
     1
 40
0.0
176
     1
 90
        0
176
     1
290
     0
176
     1
290
     1
176
     1
290
     1
176
     1
290
     0
176
     1
290
     0
176
     1
290
     0
176
     1
290
     0
176
     1
290
     0
176
     1
290
     0
176
     1
 90
       50
176
     1
 40
0.0
176
     1
 40
1.0
176
     1
 90
        0
176
     1
 62
    18
420
        0
176
     1
 90
       50
176
     1
 90
        3
176
     1
 62
     5
420
      255
176
     1
290
     0
176
     1
 90
       50
176
     1
 90
       50
176
     1
 90
       50
176
     1
290
     0
176
     1
 90
       50
176
     1
 62
   256
176
     0
 40
1.0
176
     0
 90
        2
176
     1
  1
strokes_ogs.tif
176
     1
290
     0
176
     1
 40
1.0
176
     1
 40
1.0
176
     1
  0
VISUALSTYLE
  5
3C
102
{ACAD_REACTORS
330
2A
102
}
330
2A
100
AcDbVisualStyle
  2
OverhangOff
 70
    21
177
     3
291
     1
 70
    58
 90
        2
176
     0
 90
        2
176
     0
 90
        0
176
     0
 90
        0
176
     0
 40
0.6
176
     0
 40
30.0
176
     0
 62
     7
420
 16777215
176
     0
 90
        1
176
     0
 90
        4
176
     0
 62
     7
176
     0
 62
   257
176
     0
 90
        1
176
     0
 90
        1
176
     0
 40
1.0
176
     0
 90
        9
176
     2
 62
     7
176
     0
 40
1.0
176
     0
 90
        1
176
     0
 90
        6
176
     0
 90
        2
176
     0
 62
     7
176
     0
 90
        5
176
     0
 90
        0
176
     0
 90
        0
176
     0
290
     0
176
     0
 90
        1
176
     0
 40
0.0
176
     0
 90
        0
176
     0
290
     0
176
     0
290
     1
176
     0
290
     1
176
     0
290
     0
176
     0
290
     0
176
     0
290
     0
176
     0
290
     0
176
     0
290
     0
176
     0
290
     0
176
     0
 90
       50
176
     0
 40
0.0
176
     0
 40
1.0
176
     0
 90
        0
176
     0
 62
    18
420
        0
176
     0
 90
       50
176
     0
 90
        3
176
     0
 62
     5
420
      255
176
     0
290
     0
176
     0
 90
       50
176
     0
 90
       50
176
     0
 90
       50
176
     0
290
     0
176
     0
 90
       50
176
     0
 62
   256
176
     0
 40
1.0
176
     0
 90
        2
176
     0
  1
strokes_ogs.tif
176
     0
290
     0
176
     0
 40
1.0
176
     0
 40
1.0
176
     0
  0
VISUALSTYLE
  5
33
102
{ACAD_REACTORS
330
2A
102
}
330
2A
100
AcDbVisualStyle
  2
Realistic
 70
     8
177
     3
291
     0
 70
    58
 90
        2
176
     1
 90
        3
176
     1
 90
        0
176
     1
 90
        2
176
     1
 40
0.6
176
     1
 40
30.0
176
     1
 62
     7
420
 16777215
176
     1
 90
        0
176
     1
 90
        0
176
     1
 62
     7
176
     1
 62
   257
176
     1
 90
        1
176
     1
 90
        1
176
     1
 40
1.0
176
     1
 90
        8
176
     1
 62
   257
176
     1
 40
1.0
176
     1
 90
        1
176
     1
 90
        6
176
     1
 90
        2
176
     1
 62
     7
176
     1
 90
        3
176
     1
 90
        0
176
     1
 90
        0
176
     1
290
     0
176
     1
 90
       13
176
     1
 40
0.0
176
     1
 90
        0
176
     1
290
     0
176
     1
290
     1
176
     1
290
     1
176
     1
290
     0
176
     1
290
     0
176
     1
290
     0
176
     1
290
     0
176
     1
290
     0
176
     1
290
     0
176
     1
 90
       50
176
     1
 40
0.0
176
     1
 40
1.0
176
     1
 90
        0
176
     1
 62
    18
420
        0
176
     1
 90
       50
176
     1
 90
        3
176
     1
 62
     5
420
      255
176
     1
290
     0
176
     1
 90
       50
176
     1
 90
       50
176
     1
 90
       50
176
     1
290
     0
176
     1
 90
       50
176
     1
 62
   256
176
     0
 40
1.0
176
     0
 90
        2
176
     1
  1
strokes_ogs.tif
176
     1
290
     0
176
     1
 40
1.0
176
     1
 40
1.0
176
     1
  0
VISUALSTYLE
  5
42
102
{ACAD_REACTORS
330
2A
102
}
330
2A
100
AcDbVisualStyle
  2
Shaded
 70
    27
177
     3
291
     0
 70
    58
 90
        2
176
     1
 90
        2
176
     1
 90
        1
176
     1
 90
        2
176
     1
 40
0.6
176
     1
 40
30.0
176
     1
 62
     7
420
 16777215
176
     1
 90
        0
176
     1
 90
        4
176
     1
 62
     7
176
     1
 62
   257
176
     1
 90
        1
176
     1
 90
        1
176
     1
 40
1.0
176
     1
 90
        8
176
     1
 62
   257
176
     1
 40
1.0
176
     1
 90
        1
176
     1
 90
        6
176
     1
 90
        2
176
     1
 62
     8
420
  7895160
176
     1
 90
        3
176
     1
 90
        0
176
     1
 90
        0
176
     1
290
     0
176
     1
 90
        5
176
     1
 40
0.0
176
     1
 90
        0
176
     1
290
     0
176
     1
290
     1
176
     1
290
     1
176
     1
290
     0
176
     1
290
     0
176
     1
290
     0
176
     1
290
     0
176
     1
290
     0
176
     1
290
     0
176
     1
 90
       50
176
     1
 40
0.0
176
     1
 40
1.0
176
     1
 90
        0
176
     1
 62
    18
420
        0
176
     1
 90
       50
176
     1
 90
        3
176
     1
 62
     5
420
      255
176
     1
290
     0
176
     1
 90
       50
176
     1
 90
       50
176
     1
 90
       50
176
     1
290
     0
176
     1
 90
       50
176
     1
 62
   256
176
     0
 40
1.0
176
     0
 90
        2
176
     1
  1
strokes_ogs.tif
176
     1
290
     0
176
     1
 40
1.0
176
     1
 40
1.0
176
     1
  0
VISUALSTYLE
  5
41
102
{ACAD_REACTORS
330
2A
102
}
330
2A
100
AcDbVisualStyle
  2
Shaded with edges
 70
    26
177
     3
291
     0
 70
    58
 90
        2
176
     1
 90
        2
176
     1
 90
        1
176
     1
 90
        2
176
     1
 40
0.6
176
     1
 40
30.0
176
     1
 62
     7
420
 16777215
176
     1
 90
        1
176
     1
 90
       10
176
     1
 62
     7
176
     1
 62
   257
176
     1
 90
        2
176
     1
 90
        1
176
     1
 40
1.0
176
     1
 90
        8
176
     1
 62
   257
176
     1
 40
1.0
176
     1
 90
        1
176
     1
 90
        6
176
     1
 90
        2
176
     1
 62
     7
176
     1
 90
        3
176
     1
 90
        0
176
     1
 90
        0
176
     1
290
     0
176
     1
 90
        5
176
     1
 40
0.0
176
     1
 90
        0
176
     1
290
     0
176
     1
290
     1
176
     1
290
     1
176
     1
290
     0
176
     1
290
     0
176
     1
290
     0
176
     1
290
     0
176
     1
290
     0
176
     1
290
     0
176
     1
 90
       50
176
     1
 40
0.0
176
     1
 40
1.0
176
     1
 90
        0
176
     1
 62
    18
420
        0
176
     1
 90
       50
176
     1
 90
        3
176
     1
 62
     5
420
      255
176
     1
290
     0
176
     1
 90
       50
176
     1
 90
       50
176
     1
 90
       50
176
     1
290
     0
176
     1
 90
       50
176
     1
 62
   256
176
     0
 40
1.0
176
     0
 90
        2
176
     1
  1
strokes_ogs.tif
176
     1
290
     0
176
     1
 40
1.0
176
     1
 40
1.0
176
     1
  0
VISUALSTYLE
  5
3E
102
{ACAD_REACTORS
330
2A
102
}
330
2A
100
AcDbVisualStyle
  2
Shades of Gray
 70
    23
177
     3
291
     0
 70
    58
 90
        2
176
     1
 90
        2
176
     1
 90
        3
176
     1
 90
        0
176
     1
 40
0.6
176
     1
 40
30.0
176
     1
 62
     7
420
 16777215
176
     1
 90
        2
176
     1
 90
        2
176
     1
 62
     7
176
     1
 62
     7
176
     1
 90
        1
176
     1
 90
        1
176
     1
 40
40.0
176
     1
 90
        8
176
     1
 62
     7
176
     1
 40
1.0
176
     1
 90
        1
176
     1
 90
        6
176
     1
 90
        2
176
     1
 62
     7
176
     1
 90
        3
176
     1
 90
        0
176
     1
 90
        0
176
     1
290
     0
176
     1
 90
        1
176
     1
 40
0.0
176
     1
 90
        0
176
     1
290
     0
176
     1
290
     1
176
     1
290
     1
176
     1
290
     0
176
     1
290
     0
176
     1
290
     0
176
     1
290
     0
176
     1
290
     0
176
     1
290
     0
176
     1
 90
       50
176
     1
 40
0.0
176
     1
 40
1.0
176
     1
 90
        0
176
     1
 62
    18
420
        0
176
     1
 90
       50
176
     1
 90
        3
176
     1
 62
     5
420
      255
176
     1
290
     0
176
     1
 90
       50
176
     1
 90
       50
176
     1
 90
       50
176
     1
290
     0
176
     1
 90
       50
176
     1
 62
   256
176
     0
 40
1.0
176
     0
 90
        2
176
     1
  1
strokes_ogs.tif
176
     1
290
     0
176
     1
 40
1.0
176
     1
 40
1.0
176
     1
  0
VISUALSTYLE
  5
3F
102
{ACAD_REACTORS
330
2A
102
}
330
2A
100
AcDbVisualStyle
  2
Sketchy
 70
    24
177
     3
291
     0
 70
    58
 90
        1
176
     1
 90
        2
176
     1
 90
        2
176
     1
 90
        0
176
     1
 40
0.6
176
     1
 40
30.0
176
     1
 62
     7
420
 16777215
176
     1
 90
        2
176
     1
 90
        2
176
     1
 62
     7
176
     1
 62
     7
176
     1
 90
        1
176
     1
 90
        1
176
     1
 40
40.0
176
     1
 90
       11
176
     1
 62
     7
176
     1
 40
1.0
176
     1
 90
        1
176
     1
 90
        6
176
     1
 90
        2
176
     1
 62
     7
176
     1
 90
        6
176
     1
 90
        0
176
     1
 90
        0
176
     1
290
     0
176
     1
 90
        1
176
     1
 40
0.0
176
     1
 90
        0
176
     1
290
     0
176
     1
290
     1
176
     1
290
     1
176
     1
290
     0
176
     1
290
     0
176
     1
290
     0
176
     1
290
     0
176
     1
290
     0
176
     1
290
     0
176
     1
 90
       50
176
     1
 40
0.0
176
     1
 40
1.0
176
     1
 90
        0
176
     1
 62
    18
420
        0
176
     1
 90
       50
176
     1
 90
        3
176
     1
 62
     5
420
      255
176
     1
290
     0
176
     1
 90
       50
176
     1
 90
       50
176
     1
 90
       50
176
     1
290
     0
176
     1
 90
       50
176
     1
 62
   256
176
     0
 40
1.0
176
     0
 90
        2
176
     1
  1
strokes_ogs.tif
176
     1
290
     0
176
     1
 40
1.0
176
     1
 40
1.0
176
     1
  0
VISUALSTYLE
  5
37
102
{ACAD_REACTORS
330
2A
102
}
330
2A
100
AcDbVisualStyle
  2
Thicken
 70
    13
177
     3
291
     1
 70
    58
 90
        2
176
     1
 90
        2
176
     1
 90
        0
176
     1
 90
        0
176
     1
 40
0.6
176
     1
 40
30.0
176
     1
 62
     7
420
 16777215
176
     1
 90
        1
176
     1
 90
        4
176
     1
 62
     7
176
     1
 62
   257
176
     1
 90
        1
176
     1
 90
        1
176
     1
 40
1.0
176
     1
 90
       12
176
     1
 62
     7
176
     1
 40
1.0
176
     1
 90
        1
176
     1
 90
        6
176
     1
 90
        2
176
     1
 62
     7
176
     1
 90
        5
176
     1
 90
        0
176
     1
 90
        0
176
     1
290
     0
176
     1
 90
        1
176
     1
 40
0.0
176
     1
 90
        0
176
     1
290
     0
176
     1
290
     1
176
     1
290
     1
176
     1
290
     0
176
     1
290
     0
176
     1
290
     0
176
     1
290
     0
176
     1
290
     0
176
     1
290
     0
176
     1
 90
       50
176
     1
 40
0.0
176
     1
 40
1.0
176
     1
 90
        0
176
     1
 62
    18
420
        0
176
     1
 90
       50
176
     1
 90
        3
176
     1
 62
     5
420
      255
176
     1
290
     0
176
     1
 90
       50
176
     1
 90
       50
176
     1
 90
       50
176
     1
290
     0
176
     1
 90
       50
176
     1
 62
   256
176
     0
 40
1.0
176
     0
 90
        2
176
     1
  1
strokes_ogs.tif
176
     1
290
     0
176
     1
 40
1.0
176
     1
 40
1.0
176
     1
  0
VISUALSTYLE
  5
30
102
{ACAD_REACTORS
330
2A
102
}
330
2A
100
AcDbVisualStyle
  2
Wireframe
 70
     5
177
     3
291
     0
 70
    58
 90
        0
176
     1
 90
        2
176
     1
 90
        0
176
     1
 90
        0
176
     1
 40
0.6
176
     1
 40
30.0
176
     1
 62
     7
420
 16777215
176
     1
 90
        1
176
     1
 90
        4
176
     1
 62
     7
176
     1
 62
   257
176
     1
 90
        1
176
     1
 90
        1
176
     1
 40
1.0
176
     1
 90
        0
176
     1
 62
   257
176
     1
 40
1.0
176
     1
 90
        1
176
     1
 90
        6
176
     1
 90
        2
176
     1
 62
     7
176
     1
 90
        3
176
     1
 90
        0
176
     1
 90
        0
176
     1
290
     0
176
     1
 90
        1
176
     1
 40
0.0
176
     1
 90
        0
176
     1
290
     0
176
     1
290
     1
176
     1
290
     1
176
     1
290
     0
176
     1
290
     0
176
     1
290
     0
176
     1
290
     0
176
     1
290
     0
176
     1
290
     0
176
     1
 90
       50
176
     1
 40
0.0
176
     1
 40
1.0
176
     1
 90
        0
176
     1
 62
    18
420
        0
176
     1
 90
       50
176
     1
 90
        3
176
     1
 62
     5
420
      255
176
     1
290
     0
176
     1
 90
       50
176
     1
 90
       50
176
     1
 90
       50
176
     1
290
     0
176
     1
 90
       50
176
     1
 62
   256
176
     0
 40
1.0
176
     0
 90
        2
176
     1
  1
strokes_ogs.tif
176
     1
290
     0
176
     1
 40
1.0
176
     1
 40
1.0
176
     1
  0
VISUALSTYLE
  5
40
102
{ACAD_REACTORS
330
2A
102
}
330
2A
100
AcDbVisualStyle
  2
X-Ray
 70
    25
177
     3
291
     0
 70
    58
 90
        2
176
     1
 90
        2
176
     1
 90
        1
176
     1
 90
        1
176
     1
 40
0.5
176
     1
 40
30.0
176
     1
 62
     7
420
 16777215
176
     1
 90
        1
176
     1
 90
        0
176
     1
 62
     7
176
     1
 62
   257
176
     1
 90
        1
176
     1
 90
        1
176
     1
 40
1.0
176
     1
 90
        8
176
     1
 62
     7
176
     1
 40
1.0
176
     1
 90
        1
176
     1
 90
        6
176
     1
 90
        2
176
     1
 62
     7
176
     1
 90
        3
176
     1
 90
        0
176
     1
 90
        0
176
     1
290
     0
176
     1
 90
       13
176
     1
 40
0.0
176
     1
 90
        0
176
     1
290
     0
176
     1
290
     1
176
     1
290
     1
176
     1
290
     0
176
     1
290
     0
176
     1
290
     0
176
     1
290
     0
176
     1
290
     0
176
     1
290
     0
176
     1
 90
       50
176
     1
 40
0.0
176
     1
 40
1.0
176
     1
 90
        0
176
     1
 62
    18
420
        0
176
     1
 90
       50
176
     1
 90
        3
176
     1
 62
     5
420
      255
176
     1
290
     0
176
     1
 90
       50
176
     1
 90
       50
176
     1
 90
       50
176
     1
290
     0
176
     1
 90
       50
176
     1
 62
   256
176
     0
 40
1.0
176
     0
 90
        2
176
     1
  1
strokes_ogs.tif
176
     1
290
     0
176
     1
 40
1.0
176
     1
 40
1.0
176
     1
  0
DICTIONARYVAR
  5
2CB
102
{ACAD_REACTORS
330
2CA
102
}
330
2CA
100
DictionaryVariables
280
     0
  1
1:1
  0
DICTIONARYVAR
  5
2D3
102
{ACAD_REACTORS
330
2CA
102
}
330
2CA
100
DictionaryVariables
280
     0
  1
3.500000
  0
DICTIONARYVAR
  5
2D4
102
{ACAD_REACTORS
330
2CA
102
}
330
2CA
100
DictionaryVariables
280
     0
  1
acadiso.lin
  0
DICTIONARYVAR
  5
2D0
102
{ACAD_REACTORS
330
2CA
102
}
330
2CA
100
DictionaryVariables
280
     0
  1
Standard
  0
DICTIONARYVAR
  5
2CF
102
{ACAD_REACTORS
330
2CA
102
}
330
2CA
100
DictionaryVariables
280
     0
  1
Standard
  0
DICTIONARY
  5
2CC
330
6A
100
AcDbDictionary
280
     1
281
     1
  3
ACAD_ROUNDTRIP_2008_TABLESTYLE_CELLSTYLEMAP
360
2CD
  0
CELLSTYLEMAP
  5
2CD
102
{ACAD_REACTORS
330
2CC
102
}
330
2CC
100
AcDbCellStyleMap
 90
        3
300
CELLSTYLE
  1
TABLEFORMAT_BEGIN
 90
        5
170
     1
 91
        0
 92
    32768
 62
   257
 93
        1
300
CONTENTFORMAT
  1
CONTENTFORMAT_BEGIN
 90
        0
 91
        0
 92
        4
 93
        0
300

 40
0.0
140
1.0
 94
        5
 62
     0
340
11
144
6.0
309
CONTENTFORMAT_END
171
     1
301
MARGIN
  1
CELLMARGIN_BEGIN
 40
1.5
 40
1.5
 40
1.5
 40
1.5
 40
1.5
 40
1.5
309
CELLMARGIN_END
 94
        6
 95
        1
302
GRIDFORMAT
  1
GRIDFORMAT_BEGIN
 90
        0
 91
        1
 62
     0
 92
       -2
340
14
 93
        0
 40
0.045
309
GRIDFORMAT_END
 95
        2
302
GRIDFORMAT
  1
GRIDFORMAT_BEGIN
 90
        0
 91
        1
 62
     0
 92
       -2
340
14
 93
        0
 40
0.045
309
GRIDFORMAT_END
 95
        4
302
GRIDFORMAT
  1
GRIDFORMAT_BEGIN
 90
        0
 91
        1
 62
     0
 92
       -2
340
14
 93
        0
 40
0.045
309
GRIDFORMAT_END
 95
        8
302
GRIDFORMAT
  1
GRIDFORMAT_BEGIN
 90
        0
 91
        1
 62
     0
 92
       -2
340
14
 93
        0
 40
0.045
309
GRIDFORMAT_END
 95
       16
302
GRIDFORMAT
  1
GRIDFORMAT_BEGIN
 90
        0
 91
        1
 62
     0
 92
       -2
340
14
 93
        0
 40
0.045
309
GRIDFORMAT_END
 95
       32
302
GRIDFORMAT
  1
GRIDFORMAT_BEGIN
 90
        0
 91
        1
 62
     0
 92
       -2
340
14
 93
        0
 40
0.045
309
GRIDFORMAT_END
309
TABLEFORMAT_END
  1
CELLSTYLE_BEGIN
 90
        1
 91
        1
300
_TITLE
309
CELLSTYLE_END
300
CELLSTYLE
  1
TABLEFORMAT_BEGIN
 90
        5
170
     1
 91
        0
 92
        0
 62
   257
 93
        1
300
CONTENTFORMAT
  1
CONTENTFORMAT_BEGIN
 90
        0
 91
        0
 92
        4
 93
        0
300

 40
0.0
140
1.0
 94
        5
 62
     0
340
11
144
4.5
309
CONTENTFORMAT_END
171
     1
301
MARGIN
  1
CELLMARGIN_BEGIN
 40
1.5
 40
1.5
 40
1.5
 40
1.5
 40
1.5
 40
1.5
309
CELLMARGIN_END
 94
        6
 95
        1
302
GRIDFORMAT
  1
GRIDFORMAT_BEGIN
 90
        0
 91
        1
 62
     0
 92
       -2
340
14
 93
        0
 40
0.045
309
GRIDFORMAT_END
 95
        2
302
GRIDFORMAT
  1
GRIDFORMAT_BEGIN
 90
        0
 91
        1
 62
     0
 92
       -2
340
14
 93
        0
 40
0.045
309
GRIDFORMAT_END
 95
        4
302
GRIDFORMAT
  1
GRIDFORMAT_BEGIN
 90
        0
 91
        1
 62
     0
 92
       -2
340
14
 93
        0
 40
0.045
309
GRIDFORMAT_END
 95
        8
302
GRIDFORMAT
  1
GRIDFORMAT_BEGIN
 90
        0
 91
        1
 62
     0
 92
       -2
340
14
 93
        0
 40
0.045
309
GRIDFORMAT_END
 95
       16
302
GRIDFORMAT
  1
GRIDFORMAT_BEGIN
 90
        0
 91
        1
 62
     0
 92
       -2
340
14
 93
        0
 40
0.045
309
GRIDFORMAT_END
 95
       32
302
GRIDFORMAT
  1
GRIDFORMAT_BEGIN
 90
        0
 91
        1
 62
     0
 92
       -2
340
14
 93
        0
 40
0.045
309
GRIDFORMAT_END
309
TABLEFORMAT_END
  1
CELLSTYLE_BEGIN
 90
        2
 91
        1
300
_HEADER
309
CELLSTYLE_END
300
CELLSTYLE
  1
TABLEFORMAT_BEGIN
 90
        5
170
     1
 91
        0
 92
        0
 62
   257
 93
        1
300
CONTENTFORMAT
  1
CONTENTFORMAT_BEGIN
 90
        0
 91
        0
 92
        4
 93
        0
300

 40
0.0
140
1.0
 94
        2
 62
     0
340
11
144
4.5
309
CONTENTFORMAT_END
171
     1
301
MARGIN
  1
CELLMARGIN_BEGIN
 40
1.5
 40
1.5
 40
1.5
 40
1.5
 40
1.5
 40
1.5
309
CELLMARGIN_END
 94
        6
 95
        1
302
GRIDFORMAT
  1
GRIDFORMAT_BEGIN
 90
        0
 91
        1
 62
     0
 92
       -2
340
14
 93
        0
 40
0.045
309
GRIDFORMAT_END
 95
        2
302
GRIDFORMAT
  1
GRIDFORMAT_BEGIN
 90
        0
 91
        1
 62
     0
 92
       -2
340
14
 93
        0
 40
0.045
309
GRIDFORMAT_END
 95
        4
302
GRIDFORMAT
  1
GRIDFORMAT_BEGIN
 90
        0
 91
        1
 62
     0
 92
       -2
340
14
 93
        0
 40
0.045
309
GRIDFORMAT_END
 95
        8
302
GRIDFORMAT
  1
GRIDFORMAT_BEGIN
 90
        0
 91
        1
 62
     0
 92
       -2
340
14
 93
        0
 40
0.045
309
GRIDFORMAT_END
 95
       16
302
GRIDFORMAT
  1
GRIDFORMAT_BEGIN
 90
        0
 91
        1
 62
     0
 92
       -2
340
14
 93
        0
 40
0.045
309
GRIDFORMAT_END
 95
       32
302
GRIDFORMAT
  1
GRIDFORMAT_BEGIN
 90
        0
 91
        1
 62
     0
 92
       -2
340
14
 93
        0
 40
0.045
309
GRIDFORMAT_END
309
TABLEFORMAT_END
  1
CELLSTYLE_BEGIN
 90
        3
 91
        2
300
_DATA
309
CELLSTYLE_END
  0
ENDSEC
  0
EOF
