  0
SECTION
  2
HEADER
  9
$ACADVER
  1
AC1032
  9
$ACADMAINTVER
 90
        4
  9
$DWGCODEPAGE
  3
ANSI_1250
  9
$REQUIREDVERSIONS
160
                 0
  9
$INSBASE
 10
0.0
 20
0.0
 30
0.0
  9
$EXTMIN
 10
1.000000000000000E+20
 20
1.000000000000000E+20
 30
1.000000000000000E+20
  9
$EXTMAX
 10
-1.000000000000000E+20
 20
-1.000000000000000E+20
 30
-1.000000000000000E+20
  9
$LIMMIN
 10
0.0
 20
0.0
  9
$LIMMAX
 10
420.0
 20
297.0
  9
$ORTHOMODE
 70
     0
  9
$REGENMODE
 70
     1
  9
$FILLMODE
 70
     1
  9
$QTEXTMODE
 70
     0
  9
$MIRRTEXT
 70
     1
  9
$LTSCALE
 40
1.0
  9
$ATTMODE
 70
     1
  9
$TEXTSIZE
 40
2.5
  9
$TRACEWID
 40
1.0
  9
$TEXTSTYLE
  7
Standard
  9
$CLAYER
  8
0
  9
$CELTYPE
  6
ByLayer
  9
$CECOLOR
 62
   256
  9
$CELTSCALE
 40
1.0
  9
$DISPSILH
 70
     0
  9
$DIMSCALE
 40
1.0
  9
$DIMASZ
 40
3.0
  9
$DIMEXO
 40
0.625
  9
$DIMDLI
 40
3.75
  9
$DIMRND
 40
0.0
  9
$DIMDLE
 40
0.0
  9
$DIMEXE
 40
1.25
  9
$DIMTP
 40
0.0
  9
$DIMTM
 40
0.0
  9
$DIMTXT
 40
1.336918010447422
  9
$DIMCEN
 40
2.5
  9
$DIMTSZ
 40
0.0
  9
$DIMTOL
 70
     0
  9
$DIMLIM
 70
     0
  9
$DIMTIH
 70
     0
  9
$DIMTOH
 70
     0
  9
$DIMSE1
 70
     0
  9
$DIMSE2
 70
     0
  9
$DIMTAD
 70
     1
  9
$DIMZIN
 70
     8
  9
$DIMBLK
  1

  9
$DIMASO
 70
     1
  9
$DIMSHO
 70
     1
  9
$DIMPOST
  1

  9
$DIMAPOST
  1

  9
$DIMALT
 70
     0
  9
$DIMALTD
 70
     3
  9
$DIMALTF
 40
0.03937007874016
  9
$DIMLFAC
 40
1.0
  9
$DIMTOFL
 70
     1
  9
$DIMTVP
 40
0.0
  9
$DIMTIX
 70
     0
  9
$DIMSOXD
 70
     0
  9
$DIMSAH
 70
     0
  9
$DIMBLK1
  1

  9
$DIMBLK2
  1

  9
$DIMSTYLE
  2
ISO-25
  9
$DIMCLRD
 70
     0
  9
$DIMCLRE
 70
     0
  9
$DIMCLRT
 70
     0
  9
$DIMTFAC
 40
1.0
  9
$DIMGAP
 40
0.625
  9
$DIMJUST
 70
     0
  9
$DIMSD1
 70
     0
  9
$DIMSD2
 70
     0
  9
$DIMTOLJ
 70
     0
  9
$DIMTZIN
 70
     8
  9
$DIMALTZ
 70
     0
  9
$DIMALTTZ
 70
     0
  9
$DIMUPT
 70
     0
  9
$DIMDEC
 70
     2
  9
$DIMTDEC
 70
     2
  9
$DIMALTU
 70
     2
  9
$DIMALTTD
 70
     3
  9
$DIMTXSTY
  7
Standard
  9
$DIMAUNIT
 70
     0
  9
$DIMADEC
 70
     0
  9
$DIMALTRND
 40
0.0
  9
$DIMAZIN
 70
     0
  9
$DIMDSEP
 70
    44
  9
$DIMATFIT
 70
     3
  9
$DIMFRAC
 70
     0
  9
$DIMLDRBLK
  1

  9
$DIMLUNIT
 70
     2
  9
$DIMLWD
 70
    -2
  9
$DIMLWE
 70
    -2
  9
$DIMTMOVE
 70
     0
  9
$DIMFXL
 40
1.0
  9
$DIMFXLON
 70
     0
  9
$DIMJOGANG
 40
0.7853981633974483
  9
$DIMTFILL
 70
     0
  9
$DIMTFILLCLR
 70
     0
  9
$DIMARCSYM
 70
     0
  9
$DIMLTYPE
  6

  9
$DIMLTEX1
  6

  9
$DIMLTEX2
  6

  9
$DIMTXTDIRECTION
 70
     0
  9
$LUNITS
 70
     2
  9
$LUPREC
 70
     4
  9
$SKETCHINC
 40
1.0
  9
$FILLETRAD
 40
10.0
  9
$AUNITS
 70
     0
  9
$AUPREC
 70
     0
  9
$MENU
  1
.
  9
$ELEVATION
 40
0.0
  9
$PELEVATION
 40
0.0
  9
$THICKNESS
 40
0.0
  9
$LIMCHECK
 70
     0
  9
$CHAMFERA
 40
0.0
  9
$CHAMFERB
 40
0.0
  9
$CHAMFERC
 40
0.0
  9
$CHAMFERD
 40
0.0
  9
$SKPOLY
 70
     0
  9
$TDCREATE
 40
2458750.657317732
  9
$TDUCREATE
 40
2458750.573984398
  9
$TDUPDATE
 40
2458750.65731934
  9
$TDUUPDATE
 40
2458750.573986007
  9
$TDINDWG
 40
0.0000000116
  9
$TDUSRTIMER
 40
0.0000000116
  9
$USRTIMER
 70
     1
  9
$ANGBASE
 50
0.0
  9
$ANGDIR
 70
     0
  9
$PDMODE
 70
     0
  9
$PDSIZE
 40
0.0
  9
$PLINEWID
 40
0.0
  9
$SPLFRAME
 70
     0
  9
$SPLINETYPE
 70
     6
  9
$SPLINESEGS
 70
     8
  9
$HANDSEED
  5
22E
  9
$SURFTAB1
 70
     6
  9
$SURFTAB2
 70
     6
  9
$SURFTYPE
 70
     6
  9
$SURFU
 70
     6
  9
$SURFV
 70
     6
  9
$UCSBASE
  2

  9
$UCSNAME
  2

  9
$UCSORG
 10
0.0
 20
0.0
 30
0.0
  9
$UCSXDIR
 10
1.0
 20
0.0
 30
0.0
  9
$UCSYDIR
 10
0.0
 20
1.0
 30
0.0
  9
$UCSORTHOREF
  2

  9
$UCSORTHOVIEW
 70
     0
  9
$UCSORGTOP
 10
0.0
 20
0.0
 30
0.0
  9
$UCSORGBOTTOM
 10
0.0
 20
0.0
 30
0.0
  9
$UCSORGLEFT
 10
0.0
 20
0.0
 30
0.0
  9
$UCSORGRIGHT
 10
0.0
 20
0.0
 30
0.0
  9
$UCSORGFRONT
 10
0.0
 20
0.0
 30
0.0
  9
$UCSORGBACK
 10
0.0
 20
0.0
 30
0.0
  9
$PUCSBASE
  2

  9
$PUCSNAME
  2

  9
$PUCSORG
 10
0.0
 20
0.0
 30
0.0
  9
$PUCSXDIR
 10
1.0
 20
0.0
 30
0.0
  9
$PUCSYDIR
 10
0.0
 20
1.0
 30
0.0
  9
$PUCSORTHOREF
  2

  9
$PUCSORTHOVIEW
 70
     0
  9
$PUCSORGTOP
 10
0.0
 20
0.0
 30
0.0
  9
$PUCSORGBOTTOM
 10
0.0
 20
0.0
 30
0.0
  9
$PUCSORGLEFT
 10
0.0
 20
0.0
 30
0.0
  9
$PUCSORGRIGHT
 10
0.0
 20
0.0
 30
0.0
  9
$PUCSORGFRONT
 10
0.0
 20
0.0
 30
0.0
  9
$PUCSORGBACK
 10
0.0
 20
0.0
 30
0.0
  9
$USERI1
 70
     0
  9
$USERI2
 70
     0
  9
$USERI3
 70
     0
  9
$USERI4
 70
     0
  9
$USERI5
 70
     0
  9
$USERR1
 40
0.0
  9
$USERR2
 40
0.0
  9
$USERR3
 40
0.0
  9
$USERR4
 40
0.0
  9
$USERR5
 40
0.0
  9
$WORLDVIEW
 70
     1
  9
$SHADEDGE
 70
     3
  9
$SHADEDIF
 70
    70
  9
$TILEMODE
 70
     1
  9
$MAXACTVP
 70
    64
  9
$PINSBASE
 10
0.0
 20
0.0
 30
0.0
  9
$PLIMCHECK
 70
     0
  9
$PEXTMIN
 10
1.000000000000000E+20
 20
1.000000000000000E+20
 30
1.000000000000000E+20
  9
$PEXTMAX
 10
-1.000000000000000E+20
 20
-1.000000000000000E+20
 30
-1.000000000000000E+20
  9
$PLIMMIN
 10
0.0
 20
0.0
  9
$PLIMMAX
 10
420.0
 20
297.0
  9
$UNITMODE
 70
     0
  9
$VISRETAIN
 70
     1
  9
$PLINEGEN
 70
     0
  9
$PSLTSCALE
 70
     1
  9
$TREEDEPTH
 70
  3020
  9
$CMLSTYLE
  2
Standard
  9
$CMLJUST
 70
     0
  9
$CMLSCALE
 40
20.0
  9
$PROXYGRAPHICS
 70
     1
  9
$MEASUREMENT
 70
     1
  9
$CELWEIGHT
370
    -1
  9
$ENDCAPS
280
     0
  9
$JOINSTYLE
280
     0
  9
$LWDISPLAY
290
     0
  9
$INSUNITS
 70
     4
  9
$HYPERLINKBASE
  1

  9
$STYLESHEET
  1

  9
$XEDIT
290
     1
  9
$CEPSNTYPE
380
     0
  9
$PSTYLEMODE
290
     1
  9
$FINGERPRINTGUID
  2
{a96dfd90-e677-4bb5-b566-598c0fc44f8a}
  9
$VERSIONGUID
  2
{FAEB1C32-E019-11D5-929B-00C0DF256EC4}
  9
$EXTNAMES
290
     1
  9
$PSVPSCALE
 40
0.0
  9
$OLESTARTUP
290
     0
  9
$SORTENTS
280
   127
  9
$INDEXCTL
280
     0
  9
$HIDETEXT
280
     1
  9
$XCLIPFRAME
280
     2
  9
$HALOGAP
280
     0
  9
$OBSCOLOR
 70
   257
  9
$OBSLTYPE
280
     0
  9
$INTERSECTIONDISPLAY
280
     0
  9
$INTERSECTIONCOLOR
 70
   257
  9
$DIMASSOC
280
     2
  9
$PROJECTNAME
  1

  9
$CAMERADISPLAY
290
     0
  9
$LENSLENGTH
 40
50.0
  9
$CAMERAHEIGHT
 40
0.0
  9
$STEPSPERSEC
 40
2.0
  9
$STEPSIZE
 40
6.0
  9
$3DDWFPREC
 40
2.0
  9
$PSOLWIDTH
 40
5.0
  9
$PSOLHEIGHT
 40
80.0
  9
$LOFTANG1
 40
1.570796326794897
  9
$LOFTANG2
 40
1.570796326794897
  9
$LOFTMAG1
 40
0.0
  9
$LOFTMAG2
 40
0.0
  9
$LOFTPARAM
 70
     7
  9
$LOFTNORMALS
280
     1
  9
$LATITUDE
 40
37.795
  9
$LONGITUDE
 40
-122.394
  9
$NORTHDIRECTION
 40
0.0
  9
$TIMEZONE
 70
 -8000
  9
$LIGHTGLYPHDISPLAY
280
     1
  9
$TILEMODELIGHTSYNCH
280
     1
  9
$CMATERIAL
347
44
  9
$SOLIDHIST
280
     0
  9
$SHOWHIST
280
     1
  9
$DWFFRAME
280
     2
  9
$DGNFRAME
280
     2
  9
$REALWORLDSCALE
290
     1
  9
$INTERFERECOLOR
 62
   256
  9
$CSHADOW
280
     0
  9
$SHADOWPLANELOCATION
 40
0.0
  0
ENDSEC
  0
SECTION
  2
CLASSES
  0
CLASS
  1
ACDBDICTIONARYWDFLT
  2
AcDbDictionaryWithDefault
  3
ObjectDBX Classes
 90
        0
 91
        3
280
     0
281
     0
  0
CLASS
  1
VISUALSTYLE
  2
AcDbVisualStyle
  3
ObjectDBX Classes
 90
     4095
 91
        3
280
     0
281
     0
  0
CLASS
  1
MATERIAL
  2
AcDbMaterial
  3
ObjectDBX Classes
 90
     1153
 91
        3
280
     0
281
     0
  0
CLASS
  1
SCALE
  2
AcDbScale
  3
ObjectDBX Classes
 90
     1153
 91
        3
280
     0
281
     0
  0
CLASS
  1
TABLESTYLE
  2
AcDbTableStyle
  3
ObjectDBX Classes
 90
     4095
 91
        3
280
     0
281
     0
  0
CLASS
  1
MLEADERSTYLE
  2
AcDbMLeaderStyle
  3
ACDB_MLEADERSTYLE_CLASS
 90
     4095
 91
        3
280
     0
281
     0
  0
CLASS
  1
SUN
  2
AcDbSun
  3
SCENEOE
 90
     1153
 91
        3
280
     0
281
     0
  0
CLASS
  1
DICTIONARYVAR
  2
AcDbDictionaryVar
  3
ObjectDBX Classes
 90
        0
 91
        3
280
     0
281
     0
  0
CLASS
  1
CELLSTYLEMAP
  2
AcDbCellStyleMap
  3
ObjectDBX Classes
 90
     1152
 91
        3
280
     0
281
     0
  0
ENDSEC
  0
SECTION
  2
TABLES
  0
TABLE
  2
VPORT
  5
8
330
0
100
AcDbSymbolTable
 70
     1
  0
VPORT
  5
29
330
8
100
AcDbSymbolTableRecord
100
AcDbViewportTableRecord
  2
*Active
 70
     0
 10
0.0
 20
0.0
 11
1.0
 21
1.0
 12
344.1869158878504
 22
148.5
 13
0.0
 23
0.0
 14
10.0
 24
10.0
 15
10.0
 25
10.0
 16
0.0
 26
0.0
 36
1.0
 17
0.0
 27
0.0
 37
0.0
 40
297.0
 41
1.972972972850329
 42
50.0
 43
0.0
 44
0.0
 50
0.0
 51
0.0
 71
     0
 72
   100
 73
     1
 74
     3
 75
     0
 76
     0
 77
     0
 78
     0
281
     0
 65
     1
110
0.0
120
0.0
130
0.0
111
1.0
121
0.0
131
0.0
112
0.0
122
1.0
132
0.0
 79
     0
146
0.0
348
2F
 60
     3
 61
     5
292
     1
282
     1
141
0.0
142
0.0
 63
   250
361
6D
  0
ENDTAB
  0
TABLE
  2
LTYPE
  5
5
330
0
100
AcDbSymbolTable
 70
     1
  0
LTYPE
  5
14
330
5
100
AcDbSymbolTableRecord
100
AcDbLinetypeTableRecord
  2
ByBlock
 70
     0
  3

 72
    65
 73
     0
 40
0.0
  0
LTYPE
  5
15
330
5
100
AcDbSymbolTableRecord
100
AcDbLinetypeTableRecord
  2
ByLayer
 70
     0
  3

 72
    65
 73
     0
 40
0.0
  0
LTYPE
  5
16
330
5
100
AcDbSymbolTableRecord
100
AcDbLinetypeTableRecord
  2
Continuous
 70
     0
  3
Solid line
 72
    65
 73
     0
 40
0.0
  0
ENDTAB
  0
TABLE
  2
LAYER
  5
2
330
0
100
AcDbSymbolTable
 70
     7
  0
LAYER
  5
10
330
2
100
AcDbSymbolTableRecord
100
AcDbLayerTableRecord
  2
0
 70
     0
 62
     7
  6
Continuous
370
    -3
390
F
347
46
348
0
  0
LAYER
  5
6E
330
2
100
AcDbSymbolTableRecord
100
AcDbLayerTableRecord
  2
VISIBLE
 70
     0
 62
     7
  6
Continuous
370
     0
390
F
347
46
348
0
  0
LAYER
  5
81
330
2
100
AcDbSymbolTableRecord
100
AcDbLayerTableRecord
  2
CENTER
 70
     0
 62
   204
  6
Continuous
370
     0
390
F
347
46
348
0
  0
LAYER
  5
AC
330
2
100
AcDbSymbolTableRecord
100
AcDbLayerTableRecord
  2
DIMENSIONS
 70
     0
 62
     7
  6
Continuous
370
     0
390
F
347
46
348
0
  0
LAYER
  5
D0
330
2
100
AcDbSymbolTableRecord
100
AcDbLayerTableRecord
  2
DELIACA
 70
     0
 62
     1
  6
Continuous
370
     0
390
F
347
46
348
0
  0
LAYER
  5
104
330
2
100
AcDbSymbolTableRecord
100
AcDbLayerTableRecord
  2
CONTINUOUS
 70
     0
 62
     7
  6
Continuous
370
     0
390
F
347
46
348
0
  0
LAYER
  5
199
330
2
100
AcDbSymbolTableRecord
100
AcDbLayerTableRecord
  2
TANGENT EDGES
 70
     0
 62
     7
  6
Continuous
370
     0
390
F
347
46
348
0
  0
ENDTAB
  0
TABLE
  2
STYLE
  5
3
330
0
100
AcDbSymbolTable
 70
     1
  0
STYLE
  5
11
330
3
100
AcDbSymbolTableRecord
100
AcDbTextStyleTableRecord
  2
Standard
 70
     0
 40
0.0
 41
1.0
 50
0.0
 71
     0
 42
2.5
  3
txt
  4

  0
ENDTAB
  0
TABLE
  2
VIEW
  5
6
330
0
100
AcDbSymbolTable
 70
     0
  0
ENDTAB
  0
TABLE
  2
UCS
  5
7
330
0
100
AcDbSymbolTable
 70
     0
  0
ENDTAB
  0
TABLE
  2
APPID
  5
9
330
0
100
AcDbSymbolTable
 70
     1
  0
APPID
  5
12
330
9
100
AcDbSymbolTableRecord
100
AcDbRegAppTableRecord
  2
ACAD
 70
     0
  0
ENDTAB
  0
TABLE
  2
DIMSTYLE
  5
A
330
0
100
AcDbSymbolTable
 70
     1
100
AcDbDimStyleTable
  0
DIMSTYLE
105
27
102
{ACAD_REACTORS
330
AD
330
BF
330
D1
330
E2
330
F3
330
153
102
}
330
A
100
AcDbSymbolTableRecord
100
AcDbDimStyleTableRecord
  2
ISO-25
 70
     0
 41
2.5
 42
0.625
 43
3.75
 44
1.25
 73
     0
 74
     0
 77
     1
 78
     8
140
2.5
141
2.5
143
0.03937007874016
147
0.625
171
     3
172
     1
178
     0
271
     2
272
     2
274
     3
278
    44
283
     0
284
     8
340
11
  0
ENDTAB
  0
TABLE
  2
BLOCK_RECORD
  5
1
330
0
100
AcDbSymbolTable
 70
     8
  0
BLOCK_RECORD
  5
1F
330
1
100
AcDbSymbolTableRecord
100
AcDbBlockTableRecord
  2
*Model_Space
340
22
 70
     0
280
     1
281
     0
  0
BLOCK_RECORD
  5
1B
330
1
100
AcDbSymbolTableRecord
100
AcDbBlockTableRecord
  2
*Paper_Space
340
1E
 70
     0
280
     1
281
     0
  0
BLOCK_RECORD
  5
23
330
1
100
AcDbSymbolTableRecord
100
AcDbBlockTableRecord
  2
*Paper_Space0
340
26
 70
     0
280
     1
281
     0
  0
BLOCK_RECORD
  5
AE
330
1
100
AcDbSymbolTableRecord
100
AcDbBlockTableRecord
  2
D1
340
0
 70
     0
280
     1
281
     0
  0
BLOCK_RECORD
  5
C0
330
1
100
AcDbSymbolTableRecord
100
AcDbBlockTableRecord
  2
D2
340
0
 70
     0
280
     1
281
     0
  0
BLOCK_RECORD
  5
D2
330
1
100
AcDbSymbolTableRecord
100
AcDbBlockTableRecord
  2
D3
340
0
 70
     0
280
     1
281
     0
  0
BLOCK_RECORD
  5
E3
330
1
100
AcDbSymbolTableRecord
100
AcDbBlockTableRecord
  2
D4
340
0
 70
     0
280
     1
281
     0
  0
BLOCK_RECORD
  5
F4
330
1
100
AcDbSymbolTableRecord
100
AcDbBlockTableRecord
  2
D5
340
0
 70
     0
280
     1
281
     0
  0
BLOCK_RECORD
  5
154
330
1
100
AcDbSymbolTableRecord
100
AcDbBlockTableRecord
  2
D6
340
0
 70
     0
280
     1
281
     0
  0
BLOCK_RECORD
  5
1D3
330
1
100
AcDbSymbolTableRecord
100
AcDbBlockTableRecord
  2
BLOCK1
340
0
102
{BLKREFS
331
1D2
102
}
 70
     0
280
     1
281
     0
  0
ENDTAB
  0
ENDSEC
  0
SECTION
  2
BLOCKS
  0
BLOCK
  5
20
330
1F
100
AcDbEntity
  8
0
100
AcDbBlockBegin
  2
*Model_Space
 70
     0
 10
0.0
 20
0.0
 30
0.0
  3
*Model_Space
  1

  0
ENDBLK
  5
21
330
1F
100
AcDbEntity
  8
0
100
AcDbBlockEnd
  0
BLOCK
  5
1C
330
1B
100
AcDbEntity
 67
     1
  8
0
100
AcDbBlockBegin
  2
*Paper_Space
 70
     0
 10
0.0
 20
0.0
 30
0.0
  3
*Paper_Space
  1

  0
ENDBLK
  5
1D
330
1B
100
AcDbEntity
 67
     1
  8
0
100
AcDbBlockEnd
  0
BLOCK
  5
24
330
23
100
AcDbEntity
  8
0
100
AcDbBlockBegin
  2
*Paper_Space0
 70
     0
 10
0.0
 20
0.0
 30
0.0
  3
*Paper_Space0
  1

  0
ENDBLK
  5
25
330
23
100
AcDbEntity
  8
0
100
AcDbBlockEnd
  0
BLOCK
  5
AF
330
AE
100
AcDbEntity
  8
0
100
AcDbBlockBegin
  2
D1
 70
     0
 10
0.0
 20
0.0
 30
0.0
  3
D1
  1

  0
MTEXT
  5
B1
330
AE
100
AcDbEntity
  8
DIMENSIONS
100
AcDbMText
 10
83.90295155843093
 20
87.9174499511721
 30
0.0
 40
2.134018756842158
 41
0.0
 46
0.0
 71
     5
 72
     1
  1
{\fAlibre Symbols|b0|i0|c0|p0;n}{\fCE|b0|i0|c0|p0;\H0.95x;50}{\fMicrosoft Sans Serif|b0|i0|c0|p0;\H0.8x;}
 73
     1
 44
1.0
  0
MTEXT
  5
B2
330
AE
100
AcDbEntity
  8
DIMENSIONS
100
AcDbMText
 10
83.90295155843093
 20
87.9174499511721
 30
0.0
 40
2.134018756842158
 41
0.0
 46
0.0
 71
     5
 72
     1
  1
{\fCE|b0|i0|c0|p0;}
 73
     1
 44
1.0
  0
MTEXT
  5
B3
330
AE
100
AcDbEntity
  8
DIMENSIONS
100
AcDbMText
 10
83.90295155843093
 20
87.9174499511721
 30
0.0
 40
2.134018756842158
 41
0.0
 46
0.0
 71
     5
 72
     1
  1
{\fCE|b0|i0|c0|p0;}
 73
     1
 44
1.0
  0
MTEXT
  5
B4
330
AE
100
AcDbEntity
  8
DIMENSIONS
100
AcDbMText
 10
80.19878489176426
 20
87.9174499511721
 30
0.0
 40
2.134018756842158
 41
0.0
 46
0.0
 71
     5
 72
     1
  1
{\fCE|b0|i0|c0|p0;}
 73
     1
 44
1.0
  0
MTEXT
  5
B5
330
AE
100
AcDbEntity
  8
DIMENSIONS
100
AcDbMText
 10
87.6071182250976
 20
87.9174499511721
 30
0.0
 40
2.134018756842158
 41
0.0
 46
0.0
 71
     5
 72
     1
  1
{\fCE|b0|i0|c0|p0; -0,2}{\fCE|b0|i0|c0|p0;}
 73
     1
 44
1.0
  0
LINE
  5
B6
330
AE
100
AcDbEntity
  8
DIMENSIONS
100
AcDbLine
 10
113.2978248596191
 20
137.433532714844
 30
0.0
 11
113.2978248596191
 21
83.44800550672765
 31
0.0
  0
LINE
  5
B7
330
AE
100
AcDbEntity
  8
DIMENSIONS
100
AcDbLine
 10
63.2978248596191
 20
137.433532714844
 30
0.0
 11
63.2978248596191
 21
83.44800550672765
 31
0.0
  0
LWPOLYLINE
  5
B8
330
AE
100
AcDbEntity
  8
DIMENSIONS
100
AcDbPolyline
 90
        4
 70
     0
 43
0.0
 10
113.2978248596191
 20
85.44800550672765
 10
110.2978248596191
 20
84.94800550672767
 10
110.2978248596191
 20
85.94800550672765
 10
113.2978248596191
 20
85.44800550672765
  0
LINE
  5
B9
330
AE
100
AcDbEntity
  8
DIMENSIONS
100
AcDbLine
 10
110.2978248596191
 20
85.44800550672765
 30
0.0
 11
83.90295155843093
 21
85.44800550672765
 31
0.0
  0
LWPOLYLINE
  5
BA
330
AE
100
AcDbEntity
  8
DIMENSIONS
100
AcDbPolyline
 90
        4
 70
     0
 43
0.0
 10
63.2978248596191
 20
85.44800550672765
 10
66.2978248596191
 20
85.94800550672765
 10
66.2978248596191
 20
84.94800550672765
 10
63.2978248596191
 20
85.44800550672765
  0
LINE
  5
BB
330
AE
100
AcDbEntity
  8
DIMENSIONS
100
AcDbLine
 10
66.2978248596191
 20
85.44800550672765
 30
0.0
 11
83.90295155843093
 21
85.44800550672765
 31
0.0
  0
LINE
  5
BC
330
AE
100
AcDbEntity
  8
DIMENSIONS
100
AcDbLine
 10
95.95711779594417
 20
85.44800550672765
 30
0.0
 11
77.49322938919063
 21
85.44800550672765
 31
0.0
  0
LWPOLYLINE
  5
BD
330
AE
100
AcDbEntity
  8
DIMENSIONS
100
AcDbPolyline
 90
        5
 70
     0
 43
0.0
 10
85.7978248596191
 20
131.933532714844
 10
85.7978248596191
 20
131.933532714844
 10
85.7978248596191
 20
131.933532714844
 10
85.7978248596191
 20
131.933532714844
 10
85.7978248596191
 20
131.933532714844
  0
HATCH
  5
BE
330
AE
100
AcDbEntity
  8
0
 62
     7
100
AcDbHatch
 10
0.0
 20
0.0
 30
0.0
210
0.0
220
0.0
230
1.0
  2
PLNÁ, Plné vyplnění
 70
     0
 71
     0
 91
        2
 92
        0
 93
        3
 72
     1
 10
110.2978248596191
 20
85.94800550672765
 11
113.2978248596191
 21
85.44800550672765
 72
     1
 10
113.2978248596191
 20
85.44800550672765
 11
110.2978248596191
 21
84.94800550672767
 72
     1
 10
110.2978248596191
 20
84.94800550672767
 11
110.2978248596191
 21
85.94800550672765
 97
        0
 92
        0
 93
        3
 72
     1
 10
66.2978248596191
 20
84.94800550672765
 11
63.2978248596191
 21
85.44800550672765
 72
     1
 10
63.2978248596191
 20
85.44800550672765
 11
66.2978248596191
 21
85.94800550672765
 72
     1
 10
66.2978248596191
 20
85.94800550672765
 11
66.2978248596191
 21
84.94800550672765
 97
        0
 75
     0
 76
     0
 52
0.0
 41
1.0
 77
     0
 78
     1
 53
45.0
 43
0.0
 44
0.0
 45
0.0
 46
0.0
 79
     0
 98
        0
  0
ENDBLK
  5
B0
330
AE
100
AcDbEntity
  8
0
100
AcDbBlockEnd
  0
BLOCK
  5
C1
330
C0
100
AcDbEntity
  8
0
100
AcDbBlockBegin
  2
D2
 70
     0
 10
0.0
 20
0.0
 30
0.0
  3
D2
  1

  0
MTEXT
  5
C3
330
C0
100
AcDbEntity
  8
DIMENSIONS
100
AcDbMText
 10
48.2153434753417
 20
140.4182128906253
 30
0.0
 40
2.134018756842158
 41
0.0
 46
0.0
 71
     5
 72
     1
  1
{\fCE|b0|i0|c0|p0;25}{\fCE|b0|i0|c0|p0;}
 11
6.123031769111886E-17
 21
1.0
 31
0.0
 73
     1
 44
1.0
  0
MTEXT
  5
C4
330
C0
100
AcDbEntity
  8
DIMENSIONS
100
AcDbMText
 10
48.2153434753417
 20
140.4182128906253
 30
0.0
 40
2.134018756842158
 41
0.0
 46
0.0
 71
     5
 72
     1
  1
{\fCE|b0|i0|c0|p0;}
 11
6.123031769111886E-17
 21
1.0
 31
0.0
 73
     1
 44
1.0
  0
MTEXT
  5
C5
330
C0
100
AcDbEntity
  8
DIMENSIONS
100
AcDbMText
 10
48.2153434753417
 20
140.4182128906253
 30
0.0
 40
2.134018756842158
 41
0.0
 46
0.0
 71
     5
 72
     1
  1
{\fCE|b0|i0|c0|p0;}
 11
6.123031769111886E-17
 21
1.0
 31
0.0
 73
     1
 44
1.0
  0
MTEXT
  5
C6
330
C0
100
AcDbEntity
  8
DIMENSIONS
100
AcDbMText
 10
48.2153434753417
 20
137.9487684461808
 30
0.0
 40
2.134018756842158
 41
0.0
 46
0.0
 71
     5
 72
     1
  1
{\fCE|b0|i0|c0|p0;}
 11
6.123031769111886E-17
 21
1.0
 31
0.0
 73
     1
 44
1.0
  0
MTEXT
  5
C7
330
C0
100
AcDbEntity
  8
DIMENSIONS
100
AcDbMText
 10
48.2153434753417
 20
142.8876573350697
 30
0.0
 40
2.134018756842158
 41
0.0
 46
0.0
 71
     5
 72
     1
  1
{\fCE|b0|i0|c0|p0;}
 11
6.123031769111886E-17
 21
1.0
 31
0.0
 73
     1
 44
1.0
  0
LINE
  5
C8
330
C0
100
AcDbEntity
  8
DIMENSIONS
100
AcDbLine
 10
67.2103248596191
 20
126.933532714844
 30
0.0
 11
47.97923236423058
 21
126.933532714844
 31
0.0
  0
LINE
  5
C9
330
C0
100
AcDbEntity
  8
DIMENSIONS
100
AcDbLine
 10
67.2103248596191
 20
151.933532714844
 30
0.0
 11
47.97923236423058
 21
151.933532714844
 31
0.0
  0
LWPOLYLINE
  5
CA
330
C0
100
AcDbEntity
  8
DIMENSIONS
100
AcDbPolyline
 90
        4
 70
     0
 43
0.0
 10
49.97923236423058
 20
126.933532714844
 10
49.47923236423058
 20
129.933532714844
 10
50.47923236423058
 20
129.933532714844
 10
49.97923236423058
 20
126.933532714844
  0
LINE
  5
CB
330
C0
100
AcDbEntity
  8
DIMENSIONS
100
AcDbLine
 10
49.97923236423058
 20
129.933532714844
 30
0.0
 11
49.97923236423058
 21
140.4182128906253
 31
0.0
  0
LWPOLYLINE
  5
CC
330
C0
100
AcDbEntity
  8
DIMENSIONS
100
AcDbPolyline
 90
        4
 70
     0
 43
0.0
 10
49.97923236423059
 20
151.933532714844
 10
50.47923236423059
 20
148.933532714844
 10
49.4792323642306
 20
148.933532714844
 10
49.97923236423059
 20
151.933532714844
  0
LINE
  5
CD
330
C0
100
AcDbEntity
  8
DIMENSIONS
100
AcDbLine
 10
49.97923236423058
 20
148.933532714844
 30
0.0
 11
49.97923236423058
 21
140.4182128906253
 31
0.0
  0
LINE
  5
CE
330
C0
100
AcDbEntity
  8
DIMENSIONS
100
AcDbLine
 10
49.97923236423058
 20
145.240435779095
 30
0.0
 11
49.97923236423058
 21
135.5959903597834
 31
0.0
  0
HATCH
  5
CF
330
C0
100
AcDbEntity
  8
0
 62
     7
100
AcDbHatch
 10
0.0
 20
0.0
 30
0.0
210
0.0
220
0.0
230
1.0
  2
PLNÁ, Plné vyplnění
 70
     0
 71
     0
 91
        2
 92
        0
 93
        3
 72
     1
 10
50.47923236423058
 20
129.933532714844
 11
49.97923236423058
 21
126.933532714844
 72
     1
 10
49.97923236423058
 20
126.933532714844
 11
49.47923236423058
 21
129.933532714844
 72
     1
 10
49.47923236423058
 20
129.933532714844
 11
50.47923236423058
 21
129.933532714844
 97
        0
 92
        0
 93
        3
 72
     1
 10
49.4792323642306
 20
148.933532714844
 11
49.97923236423059
 21
151.933532714844
 72
     1
 10
49.97923236423059
 20
151.933532714844
 11
50.47923236423059
 21
148.933532714844
 72
     1
 10
50.47923236423059
 20
148.933532714844
 11
49.4792323642306
 21
148.933532714844
 97
        0
 75
     0
 76
     0
 52
0.0
 41
1.0
 77
     0
 78
     1
 53
45.0
 43
0.0
 44
0.0
 45
0.0
 46
0.0
 79
     0
 98
        0
  0
ENDBLK
  5
C2
330
C0
100
AcDbEntity
  8
0
100
AcDbBlockEnd
  0
BLOCK
  5
D3
330
D2
100
AcDbEntity
  8
0
100
AcDbBlockBegin
  2
D3
 70
     0
 10
0.0
 20
0.0
 30
0.0
  3
D3
  1

  0
MTEXT
  5
D5
330
D2
100
AcDbEntity
  8
DELIACA
100
AcDbMText
 10
81.25711822509759
 20
97.96215057373071
 30
0.0
 40
2.134018756842158
 41
0.0
 46
0.0
 71
     5
 72
     1
  1
{\fCE|b0|i0|c0|p0;35}{\fCE|b0|i0|c0|p0;}
 73
     1
 44
1.0
  0
MTEXT
  5
D6
330
D2
100
AcDbEntity
  8
DELIACA
100
AcDbMText
 10
81.25711822509759
 20
97.96215057373071
 30
0.0
 40
2.134018756842158
 41
0.0
 46
0.0
 71
     5
 72
     1
  1
{\fCE|b0|i0|c0|p0;}
 73
     1
 44
1.0
  0
MTEXT
  5
D7
330
D2
100
AcDbEntity
  8
DELIACA
100
AcDbMText
 10
81.25711822509759
 20
97.96215057373071
 30
0.0
 40
2.134018756842158
 41
0.0
 46
0.0
 71
     5
 72
     1
  1
{\fCE|b0|i0|c0|p0;}
 73
     1
 44
1.0
  0
MTEXT
  5
D8
330
D2
100
AcDbEntity
  8
DELIACA
100
AcDbMText
 10
78.78767378065314
 20
97.96215057373071
 30
0.0
 40
2.134018756842158
 41
0.0
 46
0.0
 71
     5
 72
     1
  1
{\fCE|b0|i0|c0|p0;}
 73
     1
 44
1.0
  0
MTEXT
  5
D9
330
D2
100
AcDbEntity
  8
DELIACA
100
AcDbMText
 10
83.72656266954203
 20
97.96215057373071
 30
0.0
 40
2.134018756842158
 41
0.0
 46
0.0
 71
     5
 72
     1
  1
{\fCE|b0|i0|c0|p0; +/- 0,02}{\fCE|b0|i0|c0|p0;}
 73
     1
 44
1.0
  0
LINE
  5
DA
330
D2
100
AcDbEntity
  8
DELIACA
100
AcDbLine
 10
70.7978248596191
 20
132.346032714844
 30
0.0
 11
70.7978248596191
 21
94.19826168484181
 31
0.0
  0
LINE
  5
DB
330
D2
100
AcDbEntity
  8
DELIACA
100
AcDbLine
 10
105.7978248596191
 20
132.346032714844
 30
0.0
 11
105.7978248596191
 21
94.19826168484181
 31
0.0
  0
LWPOLYLINE
  5
DC
330
D2
100
AcDbEntity
  8
DELIACA
100
AcDbPolyline
 90
        4
 70
     0
 43
0.0
 10
70.7978248596191
 20
96.19826168484182
 10
73.7978248596191
 20
96.69826168484182
 10
73.7978248596191
 20
95.69826168484182
 10
70.7978248596191
 20
96.19826168484182
  0
LINE
  5
DD
330
D2
100
AcDbEntity
  8
DELIACA
100
AcDbLine
 10
73.7978248596191
 20
96.19826168484182
 30
0.0
 11
81.25711822509759
 21
96.19826168484181
 31
0.0
  0
LWPOLYLINE
  5
DE
330
D2
100
AcDbEntity
  8
DELIACA
100
AcDbPolyline
 90
        4
 70
     0
 43
0.0
 10
105.7978248596191
 20
96.19826168484182
 10
102.7978248596191
 20
95.69826168484182
 10
102.7978248596191
 20
96.69826168484181
 10
105.7978248596191
 20
96.19826168484182
  0
LINE
  5
DF
330
D2
100
AcDbEntity
  8
DELIACA
100
AcDbLine
 10
102.7978248596191
 20
96.19826168484182
 30
0.0
 11
81.25711822509759
 21
96.19826168484181
 31
0.0
  0
LINE
  5
E0
330
D2
100
AcDbEntity
  8
DELIACA
100
AcDbLine
 10
97.36822915077205
 20
96.19826168484182
 30
0.0
 11
76.08211803436275
 21
96.19826168484182
 31
0.0
  0
HATCH
  5
E1
330
D2
100
AcDbEntity
  8
0
 62
     1
100
AcDbHatch
 10
0.0
 20
0.0
 30
0.0
210
0.0
220
0.0
230
1.0
  2
PLNÁ, Plné vyplnění
 70
     0
 71
     0
 91
        2
 92
        0
 93
        3
 72
     1
 10
73.7978248596191
 20
95.69826168484182
 11
70.7978248596191
 21
96.19826168484182
 72
     1
 10
70.7978248596191
 20
96.19826168484182
 11
73.7978248596191
 21
96.69826168484182
 72
     1
 10
73.7978248596191
 20
96.69826168484182
 11
73.7978248596191
 21
95.69826168484182
 97
        0
 92
        0
 93
        3
 72
     1
 10
102.7978248596191
 20
96.69826168484181
 11
105.7978248596191
 21
96.19826168484182
 72
     1
 10
105.7978248596191
 20
96.19826168484182
 11
102.7978248596191
 21
95.69826168484182
 72
     1
 10
102.7978248596191
 20
95.69826168484182
 11
102.7978248596191
 21
96.69826168484181
 97
        0
 75
     0
 76
     0
 52
0.0
 41
1.0
 77
     0
 78
     1
 53
45.0
 43
0.0
 44
0.0
 45
0.0
 46
0.0
 79
     0
 98
        0
  0
ENDBLK
  5
D4
330
D2
100
AcDbEntity
  8
0
100
AcDbBlockEnd
  0
BLOCK
  5
E4
330
E3
100
AcDbEntity
  8
0
100
AcDbBlockBegin
  2
D4
 70
     0
 10
0.0
 20
0.0
 30
0.0
  3
D4
  1

  0
MTEXT
  5
E6
330
E3
100
AcDbEntity
  8
DELIACA
100
AcDbMText
 10
77.25759124755851
 20
108.861885070801
 30
0.0
 40
2.134018756842158
 41
0.0
 46
0.0
 71
     5
 72
     1
  1
{\fCE|b0|i0|c0|p0;17,5}{\fCE|b0|i0|c0|p0;}
 73
     1
 44
1.0
  0
MTEXT
  5
E7
330
E3
100
AcDbEntity
  8
DELIACA
100
AcDbMText
 10
77.25759124755851
 20
108.861885070801
 30
0.0
 40
2.134018756842158
 41
0.0
 46
0.0
 71
     5
 72
     1
  1
{\fCE|b0|i0|c0|p0;}
 73
     1
 44
1.0
  0
MTEXT
  5
E8
330
E3
100
AcDbEntity
  8
DELIACA
100
AcDbMText
 10
77.25759124755851
 20
108.861885070801
 30
0.0
 40
2.134018756842158
 41
0.0
 46
0.0
 71
     5
 72
     1
  1
{\fCE|b0|i0|c0|p0;}
 73
     1
 44
1.0
  0
MTEXT
  5
E9
330
E3
100
AcDbEntity
  8
DELIACA
100
AcDbMText
 10
73.37703569200295
 20
108.861885070801
 30
0.0
 40
2.134018756842158
 41
0.0
 46
0.0
 71
     5
 72
     1
  1
{\fCE|b0|i0|c0|p0;}
 73
     1
 44
1.0
  0
MTEXT
  5
EA
330
E3
100
AcDbEntity
  8
DELIACA
100
AcDbMText
 10
81.13814680311407
 20
108.861885070801
 30
0.0
 40
2.134018756842158
 41
0.0
 46
0.0
 71
     5
 72
     1
  1
{\fCE|b0|i0|c0|p0; +/- 0,02}{\fCE|b0|i0|c0|p0;}
 73
     1
 44
1.0
  0
LINE
  5
EB
330
E3
100
AcDbEntity
  8
DELIACA
100
AcDbLine
 10
88.2978248596191
 20
110.846032714844
 30
0.0
 11
88.2978248596191
 21
105.0979961819121
 31
0.0
  0
LINE
  5
EC
330
E3
100
AcDbEntity
  8
DELIACA
100
AcDbLine
 10
70.7978248596191
 20
132.346032714844
 30
0.0
 11
70.7978248596191
 21
105.0979961819121
 31
0.0
  0
LWPOLYLINE
  5
ED
330
E3
100
AcDbEntity
  8
DELIACA
100
AcDbPolyline
 90
        4
 70
     0
 43
0.0
 10
88.2978248596191
 20
107.0979961819121
 10
85.2978248596191
 20
106.5979961819121
 10
85.2978248596191
 20
107.5979961819121
 10
88.2978248596191
 20
107.0979961819121
  0
LINE
  5
EE
330
E3
100
AcDbEntity
  8
DELIACA
100
AcDbLine
 10
85.2978248596191
 20
107.0979961819121
 30
0.0
 11
77.25759124755851
 21
107.0979961819121
 31
0.0
  0
LWPOLYLINE
  5
EF
330
E3
100
AcDbEntity
  8
DELIACA
100
AcDbPolyline
 90
        4
 70
     0
 43
0.0
 10
70.7978248596191
 20
107.0979961819121
 10
73.7978248596191
 20
107.5979961819121
 10
73.7978248596191
 20
106.5979961819121
 10
70.7978248596191
 20
107.0979961819121
  0
LINE
  5
F0
330
E3
100
AcDbEntity
  8
DELIACA
100
AcDbLine
 10
73.7978248596191
 20
107.0979961819121
 30
0.0
 11
77.25759124755851
 21
107.0979961819121
 31
0.0
  0
LINE
  5
F1
330
E3
100
AcDbEntity
  8
DELIACA
100
AcDbLine
 10
70.67148017883297
 20
107.0979961819121
 30
0.0
 11
94.77981281280513
 21
107.0979961819121
 31
0.0
  0
HATCH
  5
F2
330
E3
100
AcDbEntity
  8
0
 62
     1
100
AcDbHatch
 10
0.0
 20
0.0
 30
0.0
210
0.0
220
0.0
230
1.0
  2
PLNÁ, Plné vyplnění
 70
     0
 71
     0
 91
        2
 92
        0
 93
        3
 72
     1
 10
85.2978248596191
 20
107.5979961819121
 11
88.2978248596191
 21
107.0979961819121
 72
     1
 10
88.2978248596191
 20
107.0979961819121
 11
85.2978248596191
 21
106.5979961819121
 72
     1
 10
85.2978248596191
 20
106.5979961819121
 11
85.2978248596191
 21
107.5979961819121
 97
        0
 92
        0
 93
        3
 72
     1
 10
73.7978248596191
 20
106.5979961819121
 11
70.7978248596191
 21
107.0979961819121
 72
     1
 10
70.7978248596191
 20
107.0979961819121
 11
73.7978248596191
 21
107.5979961819121
 72
     1
 10
73.7978248596191
 20
107.5979961819121
 11
73.7978248596191
 21
106.5979961819121
 97
        0
 75
     0
 76
     0
 52
0.0
 41
1.0
 77
     0
 78
     1
 53
45.0
 43
0.0
 44
0.0
 45
0.0
 46
0.0
 79
     0
 98
        0
  0
ENDBLK
  5
E5
330
E3
100
AcDbEntity
  8
0
100
AcDbBlockEnd
  0
BLOCK
  5
F5
330
F4
100
AcDbEntity
  8
0
100
AcDbBlockBegin
  2
D5
 70
     0
 10
0.0
 20
0.0
 30
0.0
  3
D5
  1

  0
MTEXT
  5
F7
330
F4
100
AcDbEntity
  8
DIMENSIONS
100
AcDbMText
 10
87.28701782226558
 20
172.7421569824221
 30
0.0
 40
2.134018756842158
 41
0.0
 46
0.0
 71
     5
 72
     1
  1
{\fCE|b0|i0|c0|p0;25}{\fCE|b0|i0|c0|p0;}
 73
     1
 44
1.0
  0
MTEXT
  5
F8
330
F4
100
AcDbEntity
  8
DIMENSIONS
100
AcDbMText
 10
87.28701782226558
 20
172.7421569824221
 30
0.0
 40
2.134018756842158
 41
0.0
 46
0.0
 71
     5
 72
     1
  1
{\fCE|b0|i0|c0|p0;}
 73
     1
 44
1.0
  0
MTEXT
  5
F9
330
F4
100
AcDbEntity
  8
DIMENSIONS
100
AcDbMText
 10
87.28701782226558
 20
172.7421569824221
 30
0.0
 40
2.134018756842158
 41
0.0
 46
0.0
 71
     5
 72
     1
  1
{\fCE|b0|i0|c0|p0;}
 73
     1
 44
1.0
  0
MTEXT
  5
FA
330
F4
100
AcDbEntity
  8
DIMENSIONS
100
AcDbMText
 10
84.81757337782113
 20
172.7421569824221
 30
0.0
 40
2.134018756842158
 41
0.0
 46
0.0
 71
     5
 72
     1
  1
{\fCE|b0|i0|c0|p0;}
 73
     1
 44
1.0
  0
MTEXT
  5
FB
330
F4
100
AcDbEntity
  8
DIMENSIONS
100
AcDbMText
 10
89.75646226671003
 20
172.7421569824221
 30
0.0
 40
2.134018756842158
 41
0.0
 46
0.0
 71
     5
 72
     1
  1
{\fCE|b0|i0|c0|p0;}
 73
     1
 44
1.0
  0
LINE
  5
FC
330
F4
100
AcDbEntity
  8
DIMENSIONS
100
AcDbLine
 10
75.7978248596191
 20
160.521032714844
 30
0.0
 11
75.7978248596191
 21
172.9782680935332
 31
0.0
  0
LINE
  5
FD
330
F4
100
AcDbEntity
  8
DIMENSIONS
100
AcDbLine
 10
100.7978248596191
 20
160.521032714844
 30
0.0
 11
100.7978248596191
 21
172.9782680935332
 31
0.0
  0
LWPOLYLINE
  5
FE
330
F4
100
AcDbEntity
  8
DIMENSIONS
100
AcDbPolyline
 90
        4
 70
     0
 43
0.0
 10
75.7978248596191
 20
170.9782680935332
 10
78.7978248596191
 20
171.4782680935332
 10
78.7978248596191
 20
170.4782680935332
 10
75.7978248596191
 20
170.9782680935332
  0
LINE
  5
FF
330
F4
100
AcDbEntity
  8
DIMENSIONS
100
AcDbLine
 10
78.7978248596191
 20
170.9782680935332
 30
0.0
 11
87.28701782226558
 21
170.9782680935332
 31
0.0
  0
LWPOLYLINE
  5
100
330
F4
100
AcDbEntity
  8
DIMENSIONS
100
AcDbPolyline
 90
        4
 70
     0
 43
0.0
 10
100.7978248596191
 20
170.9782680935332
 10
97.7978248596191
 20
170.4782680935332
 10
97.7978248596191
 20
171.4782680935332
 10
100.7978248596191
 20
170.9782680935332
  0
LINE
  5
101
330
F4
100
AcDbEntity
  8
DIMENSIONS
100
AcDbLine
 10
97.7978248596191
 20
170.9782680935332
 30
0.0
 11
87.28701782226558
 21
170.9782680935332
 31
0.0
  0
LINE
  5
102
330
F4
100
AcDbEntity
  8
DIMENSIONS
100
AcDbLine
 10
91.75646197795864
 20
170.9782680935332
 30
0.0
 11
82.11201775074001
 21
170.9782680935332
 31
0.0
  0
HATCH
  5
103
330
F4
100
AcDbEntity
  8
0
 62
     7
100
AcDbHatch
 10
0.0
 20
0.0
 30
0.0
210
0.0
220
0.0
230
1.0
  2
PLNÁ, Plné vyplnění
 70
     0
 71
     0
 91
        2
 92
        0
 93
        3
 72
     1
 10
78.7978248596191
 20
170.4782680935332
 11
75.7978248596191
 21
170.9782680935332
 72
     1
 10
75.7978248596191
 20
170.9782680935332
 11
78.7978248596191
 21
171.4782680935332
 72
     1
 10
78.7978248596191
 20
171.4782680935332
 11
78.7978248596191
 21
170.4782680935332
 97
        0
 92
        0
 93
        3
 72
     1
 10
97.7978248596191
 20
171.4782680935332
 11
100.7978248596191
 21
170.9782680935332
 72
     1
 10
100.7978248596191
 20
170.9782680935332
 11
97.7978248596191
 21
170.4782680935332
 72
     1
 10
97.7978248596191
 20
170.4782680935332
 11
97.7978248596191
 21
171.4782680935332
 97
        0
 75
     0
 76
     0
 52
0.0
 41
1.0
 77
     0
 78
     1
 53
45.0
 43
0.0
 44
0.0
 45
0.0
 46
0.0
 79
     0
 98
        0
  0
ENDBLK
  5
F6
330
F4
100
AcDbEntity
  8
0
100
AcDbBlockEnd
  0
BLOCK
  5
155
330
154
100
AcDbEntity
  8
0
100
AcDbBlockBegin
  2
D6
 70
     0
 10
0.0
 20
0.0
 30
0.0
  3
D6
  1

  0
MTEXT
  5
157
330
154
100
AcDbEntity
  8
DIMENSIONS
100
AcDbMText
 10
177.9377098083498
 20
107.0330734252932
 30
0.0
 40
2.134018756842158
 41
0.0
 46
0.0
 71
     5
 72
     1
  1
{\fCE|b0|i0|c0|p0;13}{\fCE|b0|i0|c0|p0;}
 73
     1
 44
1.0
  0
MTEXT
  5
158
330
154
100
AcDbEntity
  8
DIMENSIONS
100
AcDbMText
 10
177.9377098083498
 20
107.0330734252932
 30
0.0
 40
2.134018756842158
 41
0.0
 46
0.0
 71
     5
 72
     1
  1
{\fCE|b0|i0|c0|p0;}
 73
     1
 44
1.0
  0
MTEXT
  5
159
330
154
100
AcDbEntity
  8
DIMENSIONS
100
AcDbMText
 10
177.9377098083498
 20
107.0330734252932
 30
0.0
 40
2.134018756842158
 41
0.0
 46
0.0
 71
     5
 72
     1
  1
{\fCE|b0|i0|c0|p0;}
 73
     1
 44
1.0
  0
MTEXT
  5
15A
330
154
100
AcDbEntity
  8
DIMENSIONS
100
AcDbMText
 10
175.4682653639054
 20
107.0330734252932
 30
0.0
 40
2.134018756842158
 41
0.0
 46
0.0
 71
     5
 72
     1
  1
{\fCE|b0|i0|c0|p0;}
 73
     1
 44
1.0
  0
MTEXT
  5
15B
330
154
100
AcDbEntity
  8
DIMENSIONS
100
AcDbMText
 10
180.4071542527942
 20
107.0330734252932
 30
0.0
 40
2.134018756842158
 41
0.0
 46
0.0
 71
     5
 72
     1
  1
{\fCE|b0|i0|c0|p0;}
 73
     1
 44
1.0
  0
LINE
  5
15C
330
154
100
AcDbEntity
  8
DIMENSIONS
100
AcDbLine
 10
171.295014858246
 20
112.433532714844
 30
0.0
 11
171.295014858246
 21
103.2691845364043
 31
0.0
  0
LINE
  5
15D
330
154
100
AcDbEntity
  8
DIMENSIONS
100
AcDbLine
 10
184.295014858246
 20
112.433532714844
 30
0.0
 11
184.295014858246
 21
103.2691845364043
 31
0.0
  0
LWPOLYLINE
  5
15E
330
154
100
AcDbEntity
  8
DIMENSIONS
100
AcDbPolyline
 90
        4
 70
     0
 43
0.0
 10
171.295014858246
 20
105.2691845364043
 10
174.295014858246
 20
105.7691845364043
 10
174.295014858246
 20
104.7691845364043
 10
171.295014858246
 20
105.2691845364043
  0
LINE
  5
15F
330
154
100
AcDbEntity
  8
DIMENSIONS
100
AcDbLine
 10
174.295014858246
 20
105.2691845364043
 30
0.0
 11
177.9377098083498
 21
105.2691845364043
 31
0.0
  0
LWPOLYLINE
  5
160
330
154
100
AcDbEntity
  8
DIMENSIONS
100
AcDbPolyline
 90
        4
 70
     0
 43
0.0
 10
184.295014858246
 20
105.2691845364043
 10
181.295014858246
 20
104.7691845364043
 10
181.295014858246
 20
105.7691845364043
 10
184.295014858246
 20
105.2691845364043
  0
LINE
  5
161
330
154
100
AcDbEntity
  8
DIMENSIONS
100
AcDbLine
 10
181.295014858246
 20
105.2691845364043
 30
0.0
 11
177.9377098083498
 21
105.2691845364043
 31
0.0
  0
LINE
  5
162
330
154
100
AcDbEntity
  8
DIMENSIONS
100
AcDbLine
 10
182.407153606415
 20
105.2691845364043
 30
0.0
 11
172.7627081871034
 21
105.2691845364043
 31
0.0
  0
HATCH
  5
163
330
154
100
AcDbEntity
  8
0
 62
     7
100
AcDbHatch
 10
0.0
 20
0.0
 30
0.0
210
0.0
220
0.0
230
1.0
  2
PLNÁ, Plné vyplnění
 70
     0
 71
     0
 91
        2
 92
        0
 93
        3
 72
     1
 10
174.295014858246
 20
104.7691845364043
 11
171.295014858246
 21
105.2691845364043
 72
     1
 10
171.295014858246
 20
105.2691845364043
 11
174.295014858246
 21
105.7691845364043
 72
     1
 10
174.295014858246
 20
105.7691845364043
 11
174.295014858246
 21
104.7691845364043
 97
        0
 92
        0
 93
        3
 72
     1
 10
181.295014858246
 20
105.7691845364043
 11
184.295014858246
 21
105.2691845364043
 72
     1
 10
184.295014858246
 20
105.2691845364043
 11
181.295014858246
 21
104.7691845364043
 72
     1
 10
181.295014858246
 20
104.7691845364043
 11
181.295014858246
 21
105.7691845364043
 97
        0
 75
     0
 76
     0
 52
0.0
 41
1.0
 77
     0
 78
     1
 53
45.0
 43
0.0
 44
0.0
 45
0.0
 46
0.0
 79
     0
 98
        0
  0
ENDBLK
  5
156
330
154
100
AcDbEntity
  8
0
100
AcDbBlockEnd
  0
BLOCK
  5
1D4
330
1D3
100
AcDbEntity
  8
0
100
AcDbBlockBegin
  2
BLOCK1
 70
     0
 10
0.0
 20
0.0
 30
0.0
  3
BLOCK1
  1

  0
LINE
  5
1D6
330
1D3
100
AcDbEntity
  8
CONTINUOUS
100
AcDbLine
 10
9.99999999999998
 20
9.99999999999995
 30
0.0
 11
287.0
 21
10.0
 31
0.0
  0
LINE
  5
1D7
330
1D3
100
AcDbEntity
  8
CONTINUOUS
100
AcDbLine
 10
141.942321777344
 20
5.0
 30
0.0
 11
241.942321777344
 21
5.0
 31
0.0
  0
LINE
  5
1D8
330
1D3
100
AcDbEntity
  8
CONTINUOUS
100
AcDbLine
 10
0.0
 20
0.0
 30
0.0
 11
-0.0000000000000012
 21
10.0
 31
0.0
  0
LINE
  5
1D9
330
1D3
100
AcDbEntity
  8
CONTINUOUS
100
AcDbLine
 10
0.0
 20
0.0
 30
0.0
 11
10.0
 21
0.0000000000000018
 31
0.0
  0
LINE
  5
1DA
330
1D3
100
AcDbEntity
  8
CONTINUOUS
100
AcDbLine
 10
141.942321777344
 20
5.0
 30
0.0
 11
141.942321777344
 21
10.0
 31
0.0
  0
LINE
  5
1DB
330
1D3
100
AcDbEntity
  8
CONTINUOUS
100
AcDbLine
 10
151.942321777344
 20
5.0
 30
0.0
 11
151.942321777344
 21
10.0
 31
0.0
  0
LINE
  5
1DC
330
1D3
100
AcDbEntity
  8
CONTINUOUS
100
AcDbLine
 10
161.942321777344
 20
5.0
 30
0.0
 11
161.942321777344
 21
10.0
 31
0.0
  0
LINE
  5
1DD
330
1D3
100
AcDbEntity
  8
CONTINUOUS
100
AcDbLine
 10
10.0
 20
57.5
 30
0.0
 11
5.0
 21
57.5
 31
0.0
  0
LINE
  5
1DE
330
1D3
100
AcDbEntity
  8
CONTINUOUS
100
AcDbLine
 10
10.0
 20
105.0
 30
0.0
 11
5.0
 21
105.0
 31
0.0
  0
LINE
  5
1DF
330
1D3
100
AcDbEntity
  8
CONTINUOUS
100
AcDbLine
 10
191.942321777344
 20
10.0
 30
0.0
 11
191.942321777344
 21
5.0
 31
0.0
  0
LINE
  5
1E0
330
1D3
100
AcDbEntity
  8
CONTINUOUS
100
AcDbLine
 10
171.942321777344
 20
5.0
 30
0.0
 11
171.942321777344
 21
10.0
 31
0.0
  0
LINE
  5
1E1
330
1D3
100
AcDbEntity
  8
CONTINUOUS
100
AcDbLine
 10
181.942321777344
 20
5.0
 30
0.0
 11
181.942321777344
 21
10.0
 31
0.0
  0
LINE
  5
1E2
330
1D3
100
AcDbEntity
  8
CONTINUOUS
100
AcDbLine
 10
201.942321777344
 20
5.0
 30
0.0
 11
201.942321777344
 21
10.0
 31
0.0
  0
LINE
  5
1E3
330
1D3
100
AcDbEntity
  8
CONTINUOUS
100
AcDbLine
 10
211.942321777344
 20
5.0
 30
0.0
 11
211.942321777344
 21
10.0
 31
0.0
  0
LINE
  5
1E4
330
1D3
100
AcDbEntity
  8
CONTINUOUS
100
AcDbLine
 10
221.942321777344
 20
5.0
 30
0.0
 11
221.942321777344
 21
10.0
 31
0.0
  0
LINE
  5
1E5
330
1D3
100
AcDbEntity
  8
CONTINUOUS
100
AcDbLine
 10
297.0
 20
0.0
 30
0.0
 11
297.0
 21
10.0
 31
0.0
  0
LINE
  5
1E6
330
1D3
100
AcDbEntity
  8
CONTINUOUS
100
AcDbLine
 10
241.942321777344
 20
5.0
 30
0.0
 11
241.942321777344
 21
10.0
 31
0.0
  0
LINE
  5
1E7
330
1D3
100
AcDbEntity
  8
CONTINUOUS
100
AcDbLine
 10
231.942321777344
 20
5.0
 30
0.0
 11
231.942321777344
 21
10.0
 31
0.0
  0
LINE
  5
1E8
330
1D3
100
AcDbEntity
  8
CONTINUOUS
100
AcDbLine
 10
296.942321777344
 20
0.0
 30
0.0
 11
286.942321777344
 21
0.0
 31
0.0
  0
LINE
  5
1E9
330
1D3
100
AcDbEntity
  8
CONTINUOUS
100
AcDbLine
 10
291.942321777344
 20
57.5
 30
0.0
 11
286.942321777344
 21
57.5
 31
0.0
  0
LINE
  5
1EA
330
1D3
100
AcDbEntity
  8
CONTINUOUS
100
AcDbLine
 10
291.942321777344
 20
105.0
 30
0.0
 11
286.942321777344
 21
105.0
 31
0.0
  0
LINE
  5
1EB
330
1D3
100
AcDbEntity
  8
CONTINUOUS
100
AcDbLine
 10
-0.0000000000000249
 20
209.989334106445
 30
0.0
 11
-0.0000000000000249
 21
199.989334106445
 31
0.0
  0
LINE
  5
1EC
330
1D3
100
AcDbEntity
  8
CONTINUOUS
100
AcDbLine
 10
10.0165710449219
 20
209.989334106445
 30
0.0
 11
0.016571044921875
 21
209.989334106445
 31
0.0
  0
LINE
  5
1ED
330
1D3
100
AcDbEntity
  8
CONTINUOUS
100
AcDbLine
 10
194.666666666667
 20
199.989334106445
 30
0.0
 11
194.666666666667
 21
204.989334106445
 31
0.0
  0
LINE
  5
1EE
330
1D3
100
AcDbEntity
  8
CONTINUOUS
100
AcDbLine
 10
297.0
 20
199.989334106445
 30
0.0
 11
297.0
 21
209.989334106445
 31
0.0
  0
LINE
  5
1EF
330
1D3
100
AcDbEntity
  8
CONTINUOUS
100
AcDbLine
 10
240.833333333333
 20
199.989334106445
 30
0.0
 11
240.833333333333
 21
204.989334106445
 31
0.0
  0
LINE
  5
1F0
330
1D3
100
AcDbEntity
  8
CONTINUOUS
100
AcDbLine
 10
296.958892822266
 20
209.989334106445
 30
0.0
 11
286.958892822266
 21
209.989334106445
 31
0.0
  0
LINE
  5
1F1
330
1D3
100
AcDbEntity
  8
CONTINUOUS
100
AcDbLine
 10
286.942321777344
 20
152.5
 30
0.0
 11
291.942321777344
 21
152.5
 31
0.0
  0
LINE
  5
1F2
330
1D3
100
AcDbEntity
  8
CONTINUOUS
100
AcDbLine
 10
5.0
 20
152.5
 30
0.0
 11
10.0
 21
152.5
 31
0.0
  0
LINE
  5
1F3
330
1D3
100
AcDbEntity
  8
CONTINUOUS
100
AcDbLine
 10
287.0
 20
200.0
 30
0.0
 11
9.99999999999998
 21
200.0
 31
0.0
  0
LINE
  5
1F4
330
1D3
100
AcDbEntity
  8
CONTINUOUS
100
AcDbLine
 10
287.0
 20
10.0
 30
0.0
 11
287.0
 21
200.0
 31
0.0
  0
LINE
  5
1F5
330
1D3
100
AcDbEntity
  8
CONTINUOUS
100
AcDbLine
 10
9.99999999999998
 20
200.0
 30
0.0
 11
9.99999999999998
 21
9.99999999999995
 31
0.0
  0
LINE
  5
1F6
330
1D3
100
AcDbEntity
  8
CONTINUOUS
100
AcDbLine
 10
56.1666666666666
 20
200.0
 30
0.0
 11
56.1666666666666
 21
205.0
 31
0.0
  0
LINE
  5
1F7
330
1D3
100
AcDbEntity
  8
CONTINUOUS
100
AcDbLine
 10
102.333333333333
 20
200.0
 30
0.0
 11
102.333333333333
 21
205.0
 31
0.0
  0
LINE
  5
1F8
330
1D3
100
AcDbEntity
  8
CONTINUOUS
100
AcDbLine
 10
148.5
 20
200.0
 30
0.0
 11
148.5
 21
205.0
 31
0.0
  0
LINE
  5
1F9
330
1D3
100
AcDbEntity
  8
CONTINUOUS
100
AcDbLine
 10
56.1666679382324
 20
10.0
 30
0.0
 11
56.1666679382324
 21
5.0
 31
0.0
  0
LINE
  5
1FA
330
1D3
100
AcDbEntity
  8
CONTINUOUS
100
AcDbLine
 10
102.333335876465
 20
10.0
 30
0.0
 11
102.333335876465
 21
5.0
 31
0.0
  0
LINE
  5
1FB
330
1D3
100
AcDbEntity
  8
CONTINUOUS
100
AcDbLine
 10
194.0
 20
10.0
 30
0.0
 11
194.0
 21
48.0
 31
0.0
  0
LINE
  5
1FC
330
1D3
100
AcDbEntity
  8
CONTINUOUS
100
AcDbLine
 10
251.0
 20
10.0
 30
0.0
 11
251.0
 21
20.0
 31
0.0
  0
LINE
  5
1FD
330
1D3
100
AcDbEntity
  8
CONTINUOUS
100
AcDbLine
 10
269.0
 20
10.0
 30
0.0
 11
269.0
 21
20.0
 31
0.0
  0
LINE
  5
1FE
330
1D3
100
AcDbEntity
  8
CONTINUOUS
100
AcDbLine
 10
229.0
 20
9.99999999999999
 30
0.0
 11
229.0
 21
20.0
 31
0.0
  0
LINE
  5
1FF
330
1D3
100
AcDbEntity
  8
CONTINUOUS
100
AcDbLine
 10
241.559921264648
 20
30.0
 30
0.0
 11
241.559921264648
 21
20.0
 31
0.0
  0
LINE
  5
200
330
1D3
100
AcDbEntity
  8
CONTINUOUS
100
AcDbLine
 10
269.0
 20
10.0
 30
0.0
 11
287.0
 21
10.0
 31
0.0
  0
LINE
  5
201
330
1D3
100
AcDbEntity
  8
CONTINUOUS
100
AcDbLine
 10
194.0
 20
48.0
 30
0.0
 11
287.0
 21
48.0
 31
0.0
  0
LINE
  5
202
330
1D3
100
AcDbEntity
  8
CONTINUOUS
100
AcDbLine
 10
194.059921264648
 20
30.0
 30
0.0
 11
287.059921264648
 21
30.0
 31
0.0
  0
LINE
  5
203
330
1D3
100
AcDbEntity
  8
CONTINUOUS
100
AcDbLine
 10
194.059921264648
 20
20.0
 30
0.0
 11
287.059921264648
 21
20.0
 31
0.0
  0
LINE
  5
204
330
1D3
100
AcDbEntity
  8
CONTINUOUS
100
AcDbLine
 10
216.0
 20
30.0
 30
0.0
 11
216.0
 21
48.0
 31
0.0
  0
MTEXT
  5
205
330
1D3
100
AcDbEntity
  8
CONTINUOUS
100
AcDbMText
 10
5.6160912703474
 20
125.886
 30
0.0
 40
3.720853217058121
 41
0.0
 46
0.0
 71
     4
 72
     1
  1
{\fArial|b0|i0|c0|p0;\C7;B}{\fArial|b0|i0|c0|p0;\C7;}
 73
     1
 44
1.0
  0
MTEXT
  5
206
330
1D3
100
AcDbEntity
  8
CONTINUOUS
100
AcDbMText
 10
288.920463256836
 20
33.4667418823242
 30
0.0
 40
3.720853217058121
 41
0.0
 46
0.0
 71
     4
 72
     1
  1
{\fArial|b0|i0|c0|p0;\C7;D}{\fArial|b0|i0|c0|p0;\C7;}
 73
     1
 44
1.0
  0
MTEXT
  5
207
330
1D3
100
AcDbEntity
  8
CONTINUOUS
100
AcDbMText
 10
27.3887158203126
 20
6.7864282951355
 30
0.0
 40
3.720853217058121
 41
0.0
 46
0.0
 71
     4
 72
     1
  1
{\fArial|b0|i0|c0|p0;\C7;1}{\fArial|b0|i0|c0|p0;\C7;}
 73
     1
 44
1.0
  0
MTEXT
  5
208
330
1D3
100
AcDbEntity
  8
CONTINUOUS
100
AcDbMText
 10
81.36409489129
 20
6.84505931157936
 30
0.0
 40
3.720853217058121
 41
0.0
 46
0.0
 71
     4
 72
     1
  1
{\fArial|b0|i0|c0|p0;\C7;2}{\fArial|b0|i0|c0|p0;\C7;}
 73
     1
 44
1.0
  0
MTEXT
  5
209
330
1D3
100
AcDbEntity
  8
CONTINUOUS
100
AcDbMText
 10
5.18862550735474
 20
80.0342772827149
 30
0.0
 40
3.720853217058121
 41
0.0
 46
0.0
 71
     4
 72
     1
  1
{\fArial|b0|i0|c0|p0;\C7;C}{\fArial|b0|i0|c0|p0;\C7;}
 73
     1
 44
1.0
  0
MTEXT
  5
20A
330
1D3
100
AcDbEntity
  8
CONTINUOUS
100
AcDbMText
 10
32.2742214965821
 20
204.252439819336
 30
0.0
 40
3.720853217058121
 41
0.0
 46
0.0
 71
     4
 72
     1
  1
{\fArial|b0|i0|c0|p0;\C7;1}{\fArial|b0|i0|c0|p0;\C7;}
 73
     1
 44
1.0
  0
MTEXT
  5
20B
330
1D3
100
AcDbEntity
  8
CONTINUOUS
100
AcDbMText
 10
77.9621860149715
 20
204.250404272846
 30
0.0
 40
3.720853217058121
 41
0.0
 46
0.0
 71
     4
 72
     1
  1
{\fArial|b0|i0|c0|p0;\C7;2}{\fArial|b0|i0|c0|p0;\C7;}
 73
     1
 44
1.0
  0
MTEXT
  5
20C
330
1D3
100
AcDbEntity
  8
CONTINUOUS
100
AcDbMText
 10
262.082233886719
 20
6.73998626327514
 30
0.0
 40
3.720853217058121
 41
0.0
 46
0.0
 71
     4
 72
     1
  1
{\fArial|b0|i0|c0|p0;\C7;6}{\fArial|b0|i0|c0|p0;\C7;}
 73
     1
 44
1.0
  0
MTEXT
  5
20D
330
1D3
100
AcDbEntity
  8
CONTINUOUS
100
AcDbMText
 10
126.092175294703
 20
6.61010619923708
 30
0.0
 40
3.720853217058121
 41
0.0
 46
0.0
 71
     4
 72
     1
  1
{\fArial|b0|i0|c0|p0;\C7;3}{\fArial|b0|i0|c0|p0;\C7;}
 73
     1
 44
1.0
  0
MTEXT
  5
20E
330
1D3
100
AcDbEntity
  8
CONTINUOUS
100
AcDbMText
 10
5.33690040588379
 20
33.886
 30
0.0
 40
3.720853217058121
 41
0.0
 46
0.0
 71
     4
 72
     1
  1
{\fArial|b0|i0|c0|p0;\C7;D}{\fArial|b0|i0|c0|p0;\C7;}
 73
     1
 44
1.0
  0
MTEXT
  5
20F
330
1D3
100
AcDbEntity
  8
CONTINUOUS
100
AcDbMText
 10
121.245655822681
 20
204.355103698803
 30
0.0
 40
3.720853217058121
 41
0.0
 46
0.0
 71
     4
 72
     1
  1
{\fArial|b0|i0|c0|p0;\C7;3}{\fArial|b0|i0|c0|p0;\C7;}
 73
     1
 44
1.0
  0
MTEXT
  5
210
330
1D3
100
AcDbEntity
  8
CONTINUOUS
100
AcDbMText
 10
265.171810609717
 20
204.240896547217
 30
0.0
 40
3.720853217058121
 41
0.0
 46
0.0
 71
     4
 72
     1
  1
{\fArial|b0|i0|c0|p0;\C7;6}{\fArial|b0|i0|c0|p0;\C7;}
 73
     1
 44
1.0
  0
MTEXT
  5
211
330
1D3
100
AcDbEntity
  8
CONTINUOUS
100
AcDbMText
 10
289.025805015464
 20
125.886
 30
0.0
 40
3.720853217058121
 41
0.0
 46
0.0
 71
     4
 72
     1
  1
{\fArial|b0|i0|c0|p0;\C7;B}{\fArial|b0|i0|c0|p0;\C7;}
 73
     1
 44
1.0
  0
MTEXT
  5
212
330
1D3
100
AcDbEntity
  8
CONTINUOUS
100
AcDbMText
 10
288.710822753907
 20
79.4667495117188
 30
0.0
 40
3.720853217058121
 41
0.0
 46
0.0
 71
     4
 72
     1
  1
{\fArial|b0|i0|c0|p0;\C7;C}{\fArial|b0|i0|c0|p0;\C7;}
 73
     1
 44
1.0
  0
MTEXT
  5
213
330
1D3
100
AcDbEntity
  8
CONTINUOUS
100
AcDbMText
 10
4.984780712209
 20
172.034376464844
 30
0.0
 40
3.720853217058121
 41
0.0
 46
0.0
 71
     4
 72
     1
  1
{\fArial|b0|i0|c0|p0;\C7;A}{\fArial|b0|i0|c0|p0;\C7;}
 73
     1
 44
1.0
  0
MTEXT
  5
214
330
1D3
100
AcDbEntity
  8
CONTINUOUS
100
AcDbMText
 10
216.858890991211
 20
204.29698022461
 30
0.0
 40
3.720853217058121
 41
0.0
 46
0.0
 71
     4
 72
     1
  1
{\fArial|b0|i0|c0|p0;\C7;5}{\fArial|b0|i0|c0|p0;\C7;}
 73
     1
 44
1.0
  0
MTEXT
  5
215
330
1D3
100
AcDbEntity
  8
CONTINUOUS
100
AcDbMText
 10
171.459843139648
 20
204.242353759765
 30
0.0
 40
3.720853217058121
 41
0.0
 46
0.0
 71
     4
 72
     1
  1
{\fArial|b0|i0|c0|p0;\C7;4}{\fArial|b0|i0|c0|p0;\C7;}
 73
     1
 44
1.0
  0
MTEXT
  5
216
330
1D3
100
AcDbEntity
  8
CONTINUOUS
100
AcDbMText
 10
288.594410820089
 20
171.67635949707
 30
0.0
 40
3.720853217058121
 41
0.0
 46
0.0
 71
     4
 72
     1
  1
{\fArial|b0|i0|c0|p0;\C7;A}{\fArial|b0|i0|c0|p0;\C7;}
 73
     1
 44
1.0
  0
MTEXT
  5
217
330
1D3
100
AcDbEntity
  8
CONTINUOUS
100
AcDbMText
 10
241.827730760921
 20
26.8954164123535
 30
0.0
 40
2.251496730059653
 41
0.0
 46
0.0
 71
     4
 72
     1
  1
{\fMonotype Corsiva|b0|i1|c0|p0;\C7;Material }{\fArial|b0|i0|c0|p0;\C7;\H0.7692308x;}
 73
     1
 44
1.0
  0
MTEXT
  5
218
330
1D3
100
AcDbEntity
  8
CONTINUOUS
100
AcDbMText
 10
194.206589508057
 20
27.6925756072998
 30
0.0
 40
2.251496730059653
 41
0.0
 46
0.0
 71
     4
 72
     1
  1
{\fMonotype Corsiva|b0|i1|c0|p0;\C7;Name }{\fArial|b0|i0|c0|p0;\C7;\H0.7692308x;}
 73
     1
 44
1.0
  0
MTEXT
  5
219
330
1D3
100
AcDbEntity
  8
CONTINUOUS
100
AcDbMText
 10
269.000775146485
 20
17.4468976593018
 30
0.0
 40
2.251496730059653
 41
0.0
 46
0.0
 71
     4
 72
     1
  1
{\fMonotype Corsiva|b0|i1|c0|p0;\C7;Scale }{\fArial|b0|i0|c0|p0;\C7;\H0.7692308x;}
 73
     1
 44
1.0
  0
MTEXT
  5
21A
330
1D3
100
AcDbEntity
  8
CONTINUOUS
100
AcDbMText
 10
229.187939453125
 20
17.546260986328
 30
0.0
 40
2.251496730059653
 41
0.0
 46
0.0
 71
     4
 72
     1
  1
{\fMonotype Corsiva|b0|i1|c0|p0;\C7;Date}{\fArial|b0|i0|c0|p0;\C7;\H0.7692308x;}
 73
     1
 44
1.0
  0
MTEXT
  5
21B
330
1D3
100
AcDbEntity
  8
CONTINUOUS
100
AcDbMText
 10
194.738236236572
 20
17.6612302398682
 30
0.0
 40
2.251496730059653
 41
0.0
 46
0.0
 71
     4
 72
     1
  1
{\fMonotype Corsiva|b0|i1|c0|p0;\C7;Treatment  }{\fArial|b0|i0|c0|p0;\C7;\H0.7692308x;}
 73
     1
 44
1.0
  0
MTEXT
  5
21C
330
1D3
100
AcDbEntity
  8
CONTINUOUS
100
AcDbMText
 10
251.201002341357
 20
20.0034076309204
 30
0.0
 40
2.251496730059653
 41
0.0
 46
0.0
 71
     1
 72
     1
  1
{\fMonotype Corsiva|b0|i1|c0|p0;\C7;Quantity}{\fArial|b0|i0|c0|p0;\C7;\H0.7692308x;}
 73
     1
 44
1.0
  0
ENDBLK
  5
1D5
330
1D3
100
AcDbEntity
  8
0
100
AcDbBlockEnd
  0
ENDSEC
  0
SECTION
  2
ENTITIES
  0
CIRCLE
  5
6F
330
1F
100
AcDbEntity
  8
VISIBLE
100
AcDbCircle
 10
75.7978248596191
 20
151.933532714844
 30
0.0
 40
3.0
  0
CIRCLE
  5
70
330
1F
100
AcDbEntity
  8
VISIBLE
100
AcDbCircle
 10
75.7978248596191
 20
151.933532714844
 30
0.0
 40
5.0
  0
ARC
  5
71
330
1F
100
AcDbEntity
  8
VISIBLE
100
AcDbCircle
 10
58.91305346966418
 20
141.699151390116
 30
0.0
 40
27.5
100
AcDbArc
 50
345.1765949624006
 51
12.14234460925374
  0
CIRCLE
  5
72
330
1F
100
AcDbEntity
  8
VISIBLE
100
AcDbCircle
 10
105.7978248596191
 20
139.433532714844
 30
0.0
 40
3.0
  0
ARC
  5
73
330
1F
100
AcDbEntity
  8
VISIBLE
100
AcDbCircle
 10
88.89564980464564
 20
123.9840741711392
 30
0.0
 40
7.999999999999997
100
AcDbArc
 50
75.54317017700735
 51
119.9820140697331
  0
CIRCLE
  5
74
330
1F
100
AcDbEntity
  8
VISIBLE
100
AcDbCircle
 10
88.2978248596191
 20
139.433532714844
 30
0.0
 40
25.0
  0
CIRCLE
  5
75
330
1F
100
AcDbEntity
  8
VISIBLE
100
AcDbCircle
 10
70.7978248596191
 20
139.433532714844
 30
0.0
 40
3.0
  0
ARC
  5
76
330
1F
100
AcDbEntity
  8
VISIBLE
100
AcDbCircle
 10
88.64782485961909
 20
154.9586581318521
 30
0.0
 40
8.000000000000018
100
AcDbArc
 50
249.1299265475056
 51
290.8700734524946
  0
ARC
  5
77
330
1F
100
AcDbEntity
  8
VISIBLE
100
AcDbCircle
 10
70.50537270380066
 20
135.1393250597751
 30
0.0
 40
15.00000000000003
100
AcDbArc
 50
343.6371439367419
 51
358.1823022216132
  0
ARC
  5
78
330
1F
100
AcDbEntity
  8
VISIBLE
100
AcDbCircle
 10
120.100065721647
 20
138.4330179410568
 30
0.0
 40
30.00000000000001
100
AcDbArc
 50
162.4412342932089
 51
187.2182655585985
  0
CIRCLE
  5
79
330
1F
100
AcDbEntity
  8
VISIBLE
100
AcDbCircle
 10
100.7978248596191
 20
151.933532714844
 30
0.0
 40
3.0
  0
CIRCLE
  5
7A
330
1F
100
AcDbEntity
  8
VISIBLE
100
AcDbCircle
 10
100.7978248596191
 20
126.933532714844
 30
0.0
 40
5.0
  0
ARC
  5
7B
330
1F
100
AcDbEntity
  8
VISIBLE
100
AcDbCircle
 10
90.9427836656893
 20
131.9244295129969
 30
0.0
 40
0.1999999999999946
100
AcDbArc
 50
255.5431701770063
 51
16.54298340456431
  0
CIRCLE
  5
7C
330
1F
100
AcDbEntity
  8
VISIBLE
100
AcDbCircle
 10
75.7978248596191
 20
126.933532714844
 30
0.0
 40
5.0
  0
LINE
  5
7D
330
1F
100
AcDbEntity
  8
VISIBLE
100
AcDbLine
 10
90.3378248596191
 20
134.663532714844
 30
0.0
 11
91.13450494493215
 21
131.9813764276235
 31
0.0
  0
CIRCLE
  5
7E
330
1F
100
AcDbEntity
  8
VISIBLE
100
AcDbCircle
 10
100.7978248596191
 20
151.933532714844
 30
0.0
 40
5.0
  0
CIRCLE
  5
7F
330
1F
100
AcDbEntity
  8
VISIBLE
100
AcDbCircle
 10
75.7978248596191
 20
126.933532714844
 30
0.0
 40
3.0
  0
CIRCLE
  5
80
330
1F
100
AcDbEntity
  8
VISIBLE
100
AcDbCircle
 10
100.7978248596191
 20
126.933532714844
 30
0.0
 40
3.0
  0
LINE
  5
82
330
1F
100
AcDbEntity
  8
CENTER
100
AcDbLine
 10
101.2978248596191
 20
126.933532714844
 30
0.0
 11
100.2978248596191
 21
126.933532714844
 31
0.0
  0
LINE
  5
83
330
1F
100
AcDbEntity
  8
CENTER
100
AcDbLine
 10
100.7978248596191
 20
127.433532714844
 30
0.0
 11
100.7978248596191
 21
126.433532714844
 31
0.0
  0
LINE
  5
84
330
1F
100
AcDbEntity
  8
CENTER
100
AcDbLine
 10
101.7978248596191
 20
126.933532714844
 30
0.0
 11
107.3853248596191
 21
126.933532714844
 31
0.0
  0
LINE
  5
85
330
1F
100
AcDbEntity
  8
CENTER
100
AcDbLine
 10
99.7978248596191
 20
126.933532714844
 30
0.0
 11
94.2103248596191
 21
126.933532714844
 31
0.0
  0
LINE
  5
86
330
1F
100
AcDbEntity
  8
CENTER
100
AcDbLine
 10
100.7978248596191
 20
127.933532714844
 30
0.0
 11
100.7978248596191
 21
133.521032714844
 31
0.0
  0
LINE
  5
87
330
1F
100
AcDbEntity
  8
CENTER
100
AcDbLine
 10
100.7978248596191
 20
125.933532714844
 30
0.0
 11
100.7978248596191
 21
120.346032714844
 31
0.0
  0
LINE
  5
88
330
1F
100
AcDbEntity
  8
CENTER
100
AcDbLine
 10
106.2978248596191
 20
139.433532714844
 30
0.0
 11
105.2978248596191
 21
139.433532714844
 31
0.0
  0
LINE
  5
89
330
1F
100
AcDbEntity
  8
CENTER
100
AcDbLine
 10
105.7978248596191
 20
139.933532714844
 30
0.0
 11
105.7978248596191
 21
138.933532714844
 31
0.0
  0
LINE
  5
8A
330
1F
100
AcDbEntity
  8
CENTER
100
AcDbLine
 10
106.7978248596191
 20
139.433532714844
 30
0.0
 11
110.8853248596191
 21
139.433532714844
 31
0.0
  0
LINE
  5
8B
330
1F
100
AcDbEntity
  8
CENTER
100
AcDbLine
 10
104.7978248596191
 20
139.433532714844
 30
0.0
 11
100.7103248596191
 21
139.433532714844
 31
0.0
  0
LINE
  5
8C
330
1F
100
AcDbEntity
  8
CENTER
100
AcDbLine
 10
105.7978248596191
 20
140.433532714844
 30
0.0
 11
105.7978248596191
 21
144.521032714844
 31
0.0
  0
LINE
  5
8D
330
1F
100
AcDbEntity
  8
CENTER
100
AcDbLine
 10
105.7978248596191
 20
138.433532714844
 30
0.0
 11
105.7978248596191
 21
134.346032714844
 31
0.0
  0
LINE
  5
8E
330
1F
100
AcDbEntity
  8
CENTER
100
AcDbLine
 10
71.2978248596191
 20
139.433532714844
 30
0.0
 11
70.2978248596191
 21
139.433532714844
 31
0.0
  0
LINE
  5
8F
330
1F
100
AcDbEntity
  8
CENTER
100
AcDbLine
 10
70.7978248596191
 20
139.933532714844
 30
0.0
 11
70.7978248596191
 21
138.933532714844
 31
0.0
  0
LINE
  5
90
330
1F
100
AcDbEntity
  8
CENTER
100
AcDbLine
 10
71.7978248596191
 20
139.433532714844
 30
0.0
 11
75.8853248596191
 21
139.433532714844
 31
0.0
  0
LINE
  5
91
330
1F
100
AcDbEntity
  8
CENTER
100
AcDbLine
 10
69.7978248596191
 20
139.433532714844
 30
0.0
 11
65.7103248596191
 21
139.433532714844
 31
0.0
  0
LINE
  5
92
330
1F
100
AcDbEntity
  8
CENTER
100
AcDbLine
 10
70.7978248596191
 20
140.433532714844
 30
0.0
 11
70.7978248596191
 21
144.521032714844
 31
0.0
  0
LINE
  5
93
330
1F
100
AcDbEntity
  8
CENTER
100
AcDbLine
 10
70.7978248596191
 20
138.433532714844
 30
0.0
 11
70.7978248596191
 21
134.346032714844
 31
0.0
  0
LINE
  5
94
330
1F
100
AcDbEntity
  8
CENTER
100
AcDbLine
 10
101.2978248596191
 20
151.933532714844
 30
0.0
 11
100.2978248596191
 21
151.933532714844
 31
0.0
  0
LINE
  5
95
330
1F
100
AcDbEntity
  8
CENTER
100
AcDbLine
 10
100.7978248596191
 20
152.433532714844
 30
0.0
 11
100.7978248596191
 21
151.433532714844
 31
0.0
  0
LINE
  5
96
330
1F
100
AcDbEntity
  8
CENTER
100
AcDbLine
 10
101.7978248596191
 20
151.933532714844
 30
0.0
 11
107.3853248596191
 21
151.933532714844
 31
0.0
  0
LINE
  5
97
330
1F
100
AcDbEntity
  8
CENTER
100
AcDbLine
 10
99.7978248596191
 20
151.933532714844
 30
0.0
 11
94.2103248596191
 21
151.933532714844
 31
0.0
  0
LINE
  5
98
330
1F
100
AcDbEntity
  8
CENTER
100
AcDbLine
 10
100.7978248596191
 20
152.933532714844
 30
0.0
 11
100.7978248596191
 21
158.521032714844
 31
0.0
  0
LINE
  5
99
330
1F
100
AcDbEntity
  8
CENTER
100
AcDbLine
 10
100.7978248596191
 20
150.933532714844
 30
0.0
 11
100.7978248596191
 21
145.346032714844
 31
0.0
  0
LINE
  5
9A
330
1F
100
AcDbEntity
  8
CENTER
100
AcDbLine
 10
88.7978248596191
 20
139.433532714844
 30
0.0
 11
87.7978248596191
 21
139.433532714844
 31
0.0
  0
LINE
  5
9B
330
1F
100
AcDbEntity
  8
CENTER
100
AcDbLine
 10
88.2978248596191
 20
139.933532714844
 30
0.0
 11
88.2978248596191
 21
138.933532714844
 31
0.0
  0
LINE
  5
9C
330
1F
100
AcDbEntity
  8
CENTER
100
AcDbLine
 10
89.2978248596191
 20
139.433532714844
 30
0.0
 11
114.8853248596191
 21
139.433532714844
 31
0.0
  0
LINE
  5
9D
330
1F
100
AcDbEntity
  8
CENTER
100
AcDbLine
 10
87.2978248596191
 20
139.433532714844
 30
0.0
 11
61.7103248596191
 21
139.433532714844
 31
0.0
  0
LINE
  5
9E
330
1F
100
AcDbEntity
  8
CENTER
100
AcDbLine
 10
88.2978248596191
 20
140.433532714844
 30
0.0
 11
88.2978248596191
 21
166.021032714844
 31
0.0
  0
LINE
  5
9F
330
1F
100
AcDbEntity
  8
CENTER
100
AcDbLine
 10
88.2978248596191
 20
138.433532714844
 30
0.0
 11
88.2978248596191
 21
112.846032714844
 31
0.0
  0
LINE
  5
A0
330
1F
100
AcDbEntity
  8
CENTER
100
AcDbLine
 10
76.2978248596191
 20
126.933532714844
 30
0.0
 11
75.2978248596191
 21
126.933532714844
 31
0.0
  0
LINE
  5
A1
330
1F
100
AcDbEntity
  8
CENTER
100
AcDbLine
 10
75.7978248596191
 20
127.433532714844
 30
0.0
 11
75.7978248596191
 21
126.433532714844
 31
0.0
  0
LINE
  5
A2
330
1F
100
AcDbEntity
  8
CENTER
100
AcDbLine
 10
76.7978248596191
 20
126.933532714844
 30
0.0
 11
82.3853248596191
 21
126.933532714844
 31
0.0
  0
LINE
  5
A3
330
1F
100
AcDbEntity
  8
CENTER
100
AcDbLine
 10
74.7978248596191
 20
126.933532714844
 30
0.0
 11
69.2103248596191
 21
126.933532714844
 31
0.0
  0
LINE
  5
A4
330
1F
100
AcDbEntity
  8
CENTER
100
AcDbLine
 10
75.7978248596191
 20
127.933532714844
 30
0.0
 11
75.7978248596191
 21
133.521032714844
 31
0.0
  0
LINE
  5
A5
330
1F
100
AcDbEntity
  8
CENTER
100
AcDbLine
 10
75.7978248596191
 20
125.933532714844
 30
0.0
 11
75.7978248596191
 21
120.346032714844
 31
0.0
  0
LINE
  5
A6
330
1F
100
AcDbEntity
  8
CENTER
100
AcDbLine
 10
76.2978248596191
 20
151.933532714844
 30
0.0
 11
75.2978248596191
 21
151.933532714844
 31
0.0
  0
LINE
  5
A7
330
1F
100
AcDbEntity
  8
CENTER
100
AcDbLine
 10
75.7978248596191
 20
152.433532714844
 30
0.0
 11
75.7978248596191
 21
151.433532714844
 31
0.0
  0
LINE
  5
A8
330
1F
100
AcDbEntity
  8
CENTER
100
AcDbLine
 10
76.7978248596191
 20
151.933532714844
 30
0.0
 11
82.3853248596191
 21
151.933532714844
 31
0.0
  0
LINE
  5
A9
330
1F
100
AcDbEntity
  8
CENTER
100
AcDbLine
 10
74.7978248596191
 20
151.933532714844
 30
0.0
 11
69.2103248596191
 21
151.933532714844
 31
0.0
  0
LINE
  5
AA
330
1F
100
AcDbEntity
  8
CENTER
100
AcDbLine
 10
75.7978248596191
 20
152.933532714844
 30
0.0
 11
75.7978248596191
 21
158.521032714844
 31
0.0
  0
LINE
  5
AB
330
1F
100
AcDbEntity
  8
CENTER
100
AcDbLine
 10
75.7978248596191
 20
150.933532714844
 30
0.0
 11
75.7978248596191
 21
145.346032714844
 31
0.0
  0
DIMENSION
  5
AD
330
1F
100
AcDbEntity
  8
DIMENSIONS
100
AcDbDimension
280
     0
  2
D1
 10
0.0
 20
0.0
 30
0.0
 11
169.70077641805
 21
219.8509826660161
 31
0.0
 70
    32
  1
<> -0,2
 71
     5
 42
-1.0
 73
     0
 74
     0
 75
     0
  3
ISO-25
100
AcDbAlignedDimension
 13
113.2978248596191
 23
139.433532714844
 33
0.0
 14
63.2978248596191
 24
139.433532714844
 34
0.0
100
AcDbRotatedDimension
1001
ACAD
1000
DSTYLE
1002
{
1070
    76
1070
     0
1070
    75
1070
     0
1070
   282
1070
     0
1070
   281
1070
     0
1070
    77
1070
     1
1070
    79
1070
     0
1070
    78
1070
     0
1070
   272
1070
     2
1070
   271
1070
     2
1070
   179
1070
     2
1070
   140
1040
2.707850318471337
1070
    71
1070
     0
1070
    72
1070
     0
1070
    48
1040
0.002
1070
    47
1040
0.005
1002
}
  0
DIMENSION
  5
BF
330
1F
100
AcDbEntity
  8
DIMENSIONS
100
AcDbDimension
280
     0
  2
D2
 10
0.0
 20
0.0
 30
0.0
 11
134.0131683349608
 21
272.3517456054693
 31
0.0
 70
    32
  1
<>
 71
     5
 42
-1.0
 73
     0
 74
     0
 75
     0
 53
90.0
  3
ISO-25
100
AcDbAlignedDimension
 13
69.2103248596191
 23
126.933532714844
 33
0.0
 14
69.2103248596191
 24
151.933532714844
 34
0.0
 50
90.0
100
AcDbRotatedDimension
1001
ACAD
1000
DSTYLE
1002
{
1070
    76
1070
     0
1070
    75
1070
     0
1070
   282
1070
     0
1070
   281
1070
     0
1070
    77
1070
     1
1070
    79
1070
     0
1070
    78
1070
     0
1070
   272
1070
     2
1070
   271
1070
     2
1070
   179
1070
     2
1070
   140
1040
2.707850318471337
1070
    71
1070
     0
1070
    72
1070
     0
1070
    48
1040
0.002
1070
    47
1040
0.005
1002
}
  0
DIMENSION
  5
D1
330
1F
100
AcDbEntity
  8
DELIACA
100
AcDbDimension
280
     0
  2
D3
 10
0.0
 20
0.0
 30
0.0
 11
167.0549430847167
 21
229.8956832885747
 31
0.0
 70
    32
  1
<> +/- 0,02
 71
     5
 42
-1.0
 73
     0
 74
     0
 75
     0
 53
180.0
  3
ISO-25
100
AcDbAlignedDimension
 13
70.7978248596191
 23
134.346032714844
 33
0.0
 14
105.7978248596191
 24
134.346032714844
 34
0.0
 50
180.0
100
AcDbRotatedDimension
1001
ACAD
1000
DSTYLE
1002
{
1070
    76
1070
     0
1070
    75
1070
     0
1070
   282
1070
     0
1070
   281
1070
     0
1070
    77
1070
     1
1070
    79
1070
     0
1070
    78
1070
     0
1070
   272
1070
     2
1070
   271
1070
     2
1070
   179
1070
     2
1070
   140
1040
2.707850318471337
1070
    71
1070
     0
1070
    72
1070
     0
1070
    48
1040
0.002
1070
    47
1040
0.005
1002
}
  0
DIMENSION
  5
E2
330
1F
100
AcDbEntity
  8
DELIACA
100
AcDbDimension
280
     0
  2
D4
 10
0.0
 20
0.0
 30
0.0
 11
163.0554161071776
 21
240.795417785645
 31
0.0
 70
    32
  1
<> +/- 0,02
 71
     5
 42
-1.0
 73
     0
 74
     0
 75
     0
 53
180.0
  3
ISO-25
100
AcDbAlignedDimension
 13
88.2978248596191
 23
112.846032714844
 33
0.0
 14
70.7978248596191
 24
134.346032714844
 34
0.0
 50
180.0
100
AcDbRotatedDimension
1001
ACAD
1000
DSTYLE
1002
{
1070
    76
1070
     0
1070
    75
1070
     0
1070
   282
1070
     0
1070
   281
1070
     0
1070
    77
1070
     1
1070
    79
1070
     0
1070
    78
1070
     0
1070
   272
1070
     2
1070
   271
1070
     2
1070
   179
1070
     2
1070
   140
1040
2.707850318471337
1070
    71
1070
     0
1070
    72
1070
     0
1070
    48
1040
0.002
1070
    47
1040
0.005
1002
}
  0
DIMENSION
  5
F3
330
1F
100
AcDbEntity
  8
DIMENSIONS
100
AcDbDimension
280
     0
  2
D5
 10
0.0
 20
0.0
 30
0.0
 11
173.0848426818847
 21
304.6756896972661
 31
0.0
 70
    32
  1
<>
 71
     5
 42
-1.0
 73
     0
 74
     0
 75
     0
 53
180.0
  3
ISO-25
100
AcDbAlignedDimension
 13
75.7978248596191
 23
158.521032714844
 33
0.0
 14
100.7978248596191
 24
158.521032714844
 34
0.0
 50
180.0
100
AcDbRotatedDimension
1001
ACAD
1000
DSTYLE
1002
{
1070
    76
1070
     0
1070
    75
1070
     0
1070
   282
1070
     0
1070
   281
1070
     0
1070
    77
1070
     1
1070
    79
1070
     0
1070
    78
1070
     0
1070
   272
1070
     2
1070
   271
1070
     2
1070
   179
1070
     2
1070
   140
1040
2.707850318471337
1070
    71
1070
     0
1070
    72
1070
     0
1070
    48
1040
0.002
1070
    47
1040
0.005
1002
}
  0
MTEXT
  5
105
330
1F
100
AcDbEntity
  8
CONTINUOUS
100
AcDbMText
 10
39.0678634643555
 20
170.4702376656282
 30
0.0
 40
2.079300327179538
 41
0.0
 46
0.0
 71
     1
 72
     1
  3
{\fMicrosoft Sans Serif|b0|i0|c0|p0;\C7;(4x) }{\fAlibre Symbols|b0|i0|c0|p0;\C7;n}{\fCE|b0|i0|c0|p0;\C7;10,2 }{\fAlibre Symbols|b0|i0|c0|p0;\C7;x}{\fCE|b0|i0|c0|p0;\C7; 7}{\fAlibre Symbols|b0|i0|c0|p0;\C7;v}{\fAlibre Symbols|b0|i0|c0|p0;\C7;\P}{\fMic
  1
rosoft Sans Serif|b0|i0|c0|p0;\C7;        }{\fAlibre Symbols|b0|i0|c0|p0;\C7;n}{\fCE|b0|i0|c0|p0;\C7;8.2 Durch }{\fCE|b0|i0|c0|p0;\C7;}
 73
     1
 44
1.0
  0
LINE
  5
106
330
1F
100
AcDbEntity
  8
CONTINUOUS
100
AcDbLine
 10
70.8772384643555
 20
166.228433566623
 30
0.0
 11
65.7178634643555
 21
166.228433566623
 31
0.0
  0
LINE
  5
107
330
1F
100
AcDbEntity
  8
CONTINUOUS
100
AcDbLine
 10
74.38055805356294
 20
154.8038620066663
 30
0.0
 11
74.38055805356294
 21
154.8038620066663
 31
0.0
  0
LINE
  5
108
330
1F
100
AcDbEntity
  8
CONTINUOUS
100
AcDbLine
 10
74.38055805356294
 20
154.8038620066663
 30
0.0
 11
70.8772384643555
 21
166.228433566623
 31
0.0
  0
LWPOLYLINE
  5
109
330
1F
100
AcDbEntity
  8
CONTINUOUS
100
AcDbPolyline
 90
        4
 70
     0
 43
0.0
 10
75.26007843017578
 20
151.935684204102
 10
73.9025284198022
 20
154.6572752772308
 10
74.85858768732365
 20
154.9504487361017
 10
75.26007843017578
 20
151.935684204102
  0
HATCH
  5
10A
330
1F
100
AcDbEntity
  8
0
 62
     7
100
AcDbHatch
 10
0.0
 20
0.0
 30
0.0
210
0.0
220
0.0
230
1.0
  2
PLNÁ, Plné vyplnění
 70
     0
 71
     0
 91
        1
 92
        0
 93
        3
 72
     1
 10
74.85858768732365
 20
154.9504487361017
 11
75.26007843017578
 21
151.935684204102
 72
     1
 10
75.26007843017578
 20
151.935684204102
 11
73.9025284198022
 21
154.6572752772308
 72
     1
 10
73.9025284198022
 20
154.6572752772308
 11
74.85858768732365
 21
154.9504487361017
 97
        0
 75
     0
 76
     0
 52
0.0
 41
1.0
 77
     0
 78
     1
 53
45.0
 43
0.0
 44
0.0
 45
0.0
 46
0.0
 79
     0
 98
        0
  0
MTEXT
  5
10B
330
1F
100
AcDbEntity
  8
CONTINUOUS
100
AcDbMText
 10
120.26456451416
 20
155.3270797066442
 30
0.0
 40
2.079300327179538
 41
0.0
 46
0.0
 71
     1
 72
     1
  1
{\fCE|b0|i0|c0|p0;\C7;2x }{\fAlibre Symbols|b0|i0|c0|p0;\C7;n}{\fCE|b0|i0|c0|p0;\C7;6 H7}{\fCE|b0|i0|c0|p0;\C7;}
 73
     1
 44
1.0
  0
LINE
  5
10C
330
1F
100
AcDbEntity
  8
CONTINUOUS
100
AcDbLine
 10
114.35518951416
 20
153.378331163194
 30
0.0
 11
119.51456451416
 21
153.378331163194
 31
0.0
  0
LINE
  5
10D
330
1F
100
AcDbEntity
  8
CONTINUOUS
100
AcDbLine
 10
107.5494376128704
 20
142.1780532415923
 30
0.0
 11
107.5494376128704
 21
142.1780532415923
 31
0.0
  0
LINE
  5
10E
330
1F
100
AcDbEntity
  8
CONTINUOUS
100
AcDbLine
 10
107.5494376128704
 20
142.1780532415923
 30
0.0
 11
114.35518951416
 21
153.378331163194
 31
0.0
  0
LWPOLYLINE
  5
10F
330
1F
100
AcDbEntity
  8
CONTINUOUS
100
AcDbPolyline
 90
        4
 70
     0
 43
0.0
 10
105.991569519043
 20
139.6142578125
 10
107.1221383746883
 20
142.4376979238969
 10
107.9767368510524
 20
141.9184085592877
 10
105.991569519043
 20
139.6142578125
  0
HATCH
  5
110
330
1F
100
AcDbEntity
  8
0
 62
     7
100
AcDbHatch
 10
0.0
 20
0.0
 30
0.0
210
0.0
220
0.0
230
1.0
  2
PLNÁ, Plné vyplnění
 70
     0
 71
     0
 91
        1
 92
        0
 93
        3
 72
     1
 10
107.9767368510524
 20
141.9184085592877
 11
105.991569519043
 21
139.6142578125
 72
     1
 10
105.991569519043
 20
139.6142578125
 11
107.1221383746883
 21
142.4376979238969
 72
     1
 10
107.1221383746883
 20
142.4376979238969
 11
107.9767368510524
 21
141.9184085592877
 97
        0
 75
     0
 76
     0
 52
0.0
 41
1.0
 77
     0
 78
     1
 53
45.0
 43
0.0
 44
0.0
 45
0.0
 46
0.0
 79
     0
 98
        0
  0
MTEXT
  5
111
330
1F
100
AcDbEntity
  8
DELIACA
100
AcDbMText
 10
127.451675415039
 20
181.1233901314502
 30
0.0
 40
2.079300327179538
 41
0.0
 46
0.0
 71
     1
 72
     1
  1
{\fCE|b0|i0|c0|p0;\C7;Dxf   na prerezanie v prílohe  povrch  0,8 (3 rezy drôtovou reza^Mkou)}{\fCE|b0|i0|c0|p0;\C7;}
 73
     1
 44
1.0
  0
LINE
  5
112
330
1F
100
AcDbEntity
  8
DELIACA
100
AcDbLine
 10
121.542300415039
 20
179.703808254667
 30
0.0
 11
126.701675415039
 21
179.703808254667
 31
0.0
  0
LINE
  5
113
330
1F
100
AcDbEntity
  8
DELIACA
100
AcDbLine
 10
92.07972405511396
 20
149.2548797543902
 30
0.0
 11
92.07972405511396
 21
149.2548797543902
 31
0.0
  0
LINE
  5
114
330
1F
100
AcDbEntity
  8
DELIACA
100
AcDbLine
 10
92.07972405511396
 20
149.2548797543902
 30
0.0
 11
121.542300415039
 21
179.703808254667
 31
0.0
  0
LWPOLYLINE
  5
115
330
1F
100
AcDbEntity
  8
DELIACA
100
AcDbPolyline
 90
        4
 70
     0
 43
0.0
 10
89.99361073398018
 20
147.098927247634
 10
91.72039863732122
 20
149.6025653079125
 10
92.43904947290662
 20
148.9071942008679
 10
89.99361073398018
 20
147.098927247634
  0
HATCH
  5
116
330
1F
100
AcDbEntity
  8
0
 62
     1
100
AcDbHatch
 10
0.0
 20
0.0
 30
0.0
210
0.0
220
0.0
230
1.0
  2
PLNÁ, Plné vyplnění
 70
     0
 71
     0
 91
        1
 92
        0
 93
        3
 72
     1
 10
92.43904947290662
 20
148.9071942008679
 11
89.99361073398018
 21
147.098927247634
 72
     1
 10
89.99361073398018
 20
147.098927247634
 11
91.72039863732122
 21
149.6025653079125
 72
     1
 10
91.72039863732122
 20
149.6025653079125
 11
92.43904947290662
 21
148.9071942008679
 97
        0
 75
     0
 76
     0
 52
0.0
 41
1.0
 77
     0
 78
     1
 53
45.0
 43
0.0
 44
0.0
 45
0.0
 46
0.0
 79
     0
 98
        0
  0
LINE
  5
117
330
1F
100
AcDbEntity
  8
VISIBLE
100
AcDbLine
 10
113.2978248596191
 20
64.433531284332
 30
0.0
 11
63.2978248596191
 21
64.433531284332
 31
0.0
  0
LINE
  5
118
330
1F
100
AcDbEntity
  8
VISIBLE
100
AcDbLine
 10
63.2978248596191
 20
51.43353128433201
 30
0.0
 11
113.2978248596191
 21
51.43353128433201
 31
0.0
  0
LINE
  5
119
330
1F
100
AcDbEntity
  8
VISIBLE
100
AcDbLine
 10
113.2978248596191
 20
64.433531284332
 30
0.0
 11
113.2978248596191
 21
51.43353128433201
 31
0.0
  0
LINE
  5
11A
330
1F
100
AcDbEntity
  8
VISIBLE
100
AcDbLine
 10
63.2978248596191
 20
64.433531284332
 30
0.0
 11
63.2978248596191
 21
51.43353128433201
 31
0.0
  0
LINE
  5
11B
330
1F
100
AcDbEntity
  8
CENTER
100
AcDbLine
 10
105.7978248596191
 20
57.43353128433201
 30
0.0
 11
105.7978248596191
 21
58.433531284332
 31
0.0
  0
LINE
  5
11C
330
1F
100
AcDbEntity
  8
CENTER
100
AcDbLine
 10
105.7978248596191
 20
56.93353128433201
 30
0.0
 11
105.7978248596191
 21
51.93353128433201
 31
0.0
  0
LINE
  5
11D
330
1F
100
AcDbEntity
  8
CENTER
100
AcDbLine
 10
105.7978248596191
 20
58.933531284332
 30
0.0
 11
105.7978248596191
 21
63.933531284332
 31
0.0
  0
LINE
  5
11E
330
1F
100
AcDbEntity
  8
CENTER
100
AcDbLine
 10
105.7978248596191
 20
51.43353128433201
 30
0.0
 11
105.7978248596191
 21
50.43353128433201
 31
0.0
  0
LINE
  5
11F
330
1F
100
AcDbEntity
  8
CENTER
100
AcDbLine
 10
105.7978248596191
 20
64.43353128433199
 30
0.0
 11
105.7978248596191
 21
65.43353128433199
 31
0.0
  0
LINE
  5
120
330
1F
100
AcDbEntity
  8
CENTER
100
AcDbLine
 10
105.7978248596191
 20
49.93353128433201
 30
0.0
 11
105.7978248596191
 21
48.25853128433199
 31
0.0
  0
LINE
  5
121
330
1F
100
AcDbEntity
  8
CENTER
100
AcDbLine
 10
105.7978248596191
 20
65.93353128433199
 30
0.0
 11
105.7978248596191
 21
67.60853128433202
 31
0.0
  0
LINE
  5
122
330
1F
100
AcDbEntity
  8
CENTER
100
AcDbLine
 10
100.7978248596191
 20
54.43353128433202
 30
0.0
 11
100.7978248596191
 21
55.43353128433201
 31
0.0
  0
LINE
  5
123
330
1F
100
AcDbEntity
  8
CENTER
100
AcDbLine
 10
100.7978248596191
 20
53.93353128433202
 30
0.0
 11
100.7978248596191
 21
48.25853128433199
 31
0.0
  0
LINE
  5
124
330
1F
100
AcDbEntity
  8
CENTER
100
AcDbLine
 10
100.7978248596191
 20
55.93353128433201
 30
0.0
 11
100.7978248596191
 21
61.60853128433202
 31
0.0
  0
LINE
  5
125
330
1F
100
AcDbEntity
  8
CENTER
100
AcDbLine
 10
75.7978248596191
 20
60.93353128433201
 30
0.0
 11
75.7978248596191
 21
61.93353128433201
 31
0.0
  0
LINE
  5
126
330
1F
100
AcDbEntity
  8
CENTER
100
AcDbLine
 10
75.7978248596191
 20
60.43353128433201
 30
0.0
 11
75.7978248596191
 21
55.25853128433199
 31
0.0
  0
LINE
  5
127
330
1F
100
AcDbEntity
  8
CENTER
100
AcDbLine
 10
75.7978248596191
 20
62.43353128433201
 30
0.0
 11
75.7978248596191
 21
67.60853128433202
 31
0.0
  0
LINE
  5
128
330
1F
100
AcDbEntity
  8
CENTER
100
AcDbLine
 10
70.7978248596191
 20
57.43353128433201
 30
0.0
 11
70.7978248596191
 21
58.433531284332
 31
0.0
  0
LINE
  5
129
330
1F
100
AcDbEntity
  8
CENTER
100
AcDbLine
 10
70.7978248596191
 20
56.93353128433201
 30
0.0
 11
70.7978248596191
 21
51.93353128433201
 31
0.0
  0
LINE
  5
12A
330
1F
100
AcDbEntity
  8
CENTER
100
AcDbLine
 10
70.7978248596191
 20
58.933531284332
 30
0.0
 11
70.7978248596191
 21
63.933531284332
 31
0.0
  0
LINE
  5
12B
330
1F
100
AcDbEntity
  8
CENTER
100
AcDbLine
 10
70.7978248596191
 20
51.43353128433201
 30
0.0
 11
70.7978248596191
 21
50.43353128433201
 31
0.0
  0
LINE
  5
12C
330
1F
100
AcDbEntity
  8
CENTER
100
AcDbLine
 10
70.7978248596191
 20
64.43353128433199
 30
0.0
 11
70.7978248596191
 21
65.43353128433199
 31
0.0
  0
LINE
  5
12D
330
1F
100
AcDbEntity
  8
CENTER
100
AcDbLine
 10
70.7978248596191
 20
49.93353128433201
 30
0.0
 11
70.7978248596191
 21
48.25853128433199
 31
0.0
  0
LINE
  5
12E
330
1F
100
AcDbEntity
  8
CENTER
100
AcDbLine
 10
70.7978248596191
 20
65.93353128433199
 30
0.0
 11
70.7978248596191
 21
67.60853128433202
 31
0.0
  0
LINE
  5
12F
330
1F
100
AcDbEntity
  8
CENTER
100
AcDbLine
 10
75.7978248596191
 20
54.43353128433202
 30
0.0
 11
75.7978248596191
 21
55.43353128433201
 31
0.0
  0
LINE
  5
130
330
1F
100
AcDbEntity
  8
CENTER
100
AcDbLine
 10
75.7978248596191
 20
53.93353128433202
 30
0.0
 11
75.7978248596191
 21
48.25853128433199
 31
0.0
  0
LINE
  5
131
330
1F
100
AcDbEntity
  8
CENTER
100
AcDbLine
 10
75.7978248596191
 20
55.93353128433201
 30
0.0
 11
75.7978248596191
 21
61.60853128433202
 31
0.0
  0
LINE
  5
132
330
1F
100
AcDbEntity
  8
CENTER
100
AcDbLine
 10
88.2978248596191
 20
57.43353128433201
 30
0.0
 11
88.2978248596191
 21
58.433531284332
 31
0.0
  0
LINE
  5
133
330
1F
100
AcDbEntity
  8
CENTER
100
AcDbLine
 10
88.2978248596191
 20
56.93353128433201
 30
0.0
 11
88.2978248596191
 21
51.93353128433201
 31
0.0
  0
LINE
  5
134
330
1F
100
AcDbEntity
  8
CENTER
100
AcDbLine
 10
88.2978248596191
 20
58.933531284332
 30
0.0
 11
88.2978248596191
 21
63.933531284332
 31
0.0
  0
LINE
  5
135
330
1F
100
AcDbEntity
  8
CENTER
100
AcDbLine
 10
88.2978248596191
 20
51.43353128433201
 30
0.0
 11
88.2978248596191
 21
50.43353128433201
 31
0.0
  0
LINE
  5
136
330
1F
100
AcDbEntity
  8
CENTER
100
AcDbLine
 10
88.2978248596191
 20
64.43353128433199
 30
0.0
 11
88.2978248596191
 21
65.43353128433199
 31
0.0
  0
LINE
  5
137
330
1F
100
AcDbEntity
  8
CENTER
100
AcDbLine
 10
88.2978248596191
 20
49.93353128433201
 30
0.0
 11
88.2978248596191
 21
48.25853128433199
 31
0.0
  0
LINE
  5
138
330
1F
100
AcDbEntity
  8
CENTER
100
AcDbLine
 10
88.2978248596191
 20
65.93353128433199
 30
0.0
 11
88.2978248596191
 21
67.60853128433202
 31
0.0
  0
LINE
  5
139
330
1F
100
AcDbEntity
  8
CENTER
100
AcDbLine
 10
100.7978248596191
 20
60.93353128433201
 30
0.0
 11
100.7978248596191
 21
61.93353128433201
 31
0.0
  0
LINE
  5
13A
330
1F
100
AcDbEntity
  8
CENTER
100
AcDbLine
 10
100.7978248596191
 20
60.43353128433201
 30
0.0
 11
100.7978248596191
 21
55.25853128433199
 31
0.0
  0
LINE
  5
13B
330
1F
100
AcDbEntity
  8
CENTER
100
AcDbLine
 10
100.7978248596191
 20
62.43353128433201
 30
0.0
 11
100.7978248596191
 21
67.60853128433202
 31
0.0
  0
LINE
  5
13C
330
1F
100
AcDbEntity
  8
VISIBLE
100
AcDbLine
 10
171.295014858246
 20
164.433532714844
 30
0.0
 11
171.295014858246
 21
114.433532714844
 31
0.0
  0
LINE
  5
13D
330
1F
100
AcDbEntity
  8
VISIBLE
100
AcDbLine
 10
184.295014858246
 20
114.433532714844
 30
0.0
 11
184.295014858246
 21
164.433532714844
 31
0.0
  0
LINE
  5
13E
330
1F
100
AcDbEntity
  8
VISIBLE
100
AcDbLine
 10
171.295014858246
 20
164.433532714844
 30
0.0
 11
184.295014858246
 21
164.433532714844
 31
0.0
  0
LINE
  5
13F
330
1F
100
AcDbEntity
  8
VISIBLE
100
AcDbLine
 10
171.295014858246
 20
114.433532714844
 30
0.0
 11
184.295014858246
 21
114.433532714844
 31
0.0
  0
LINE
  5
140
330
1F
100
AcDbEntity
  8
CENTER
100
AcDbLine
 10
177.295014858246
 20
139.433532714844
 30
0.0
 11
178.295014858246
 21
139.433532714844
 31
0.0
  0
LINE
  5
141
330
1F
100
AcDbEntity
  8
CENTER
100
AcDbLine
 10
176.795014858246
 20
139.433532714844
 30
0.0
 11
171.795014858246
 21
139.433532714844
 31
0.0
  0
LINE
  5
142
330
1F
100
AcDbEntity
  8
CENTER
100
AcDbLine
 10
178.795014858246
 20
139.433532714844
 30
0.0
 11
183.795014858246
 21
139.433532714844
 31
0.0
  0
LINE
  5
143
330
1F
100
AcDbEntity
  8
CENTER
100
AcDbLine
 10
171.295014858246
 20
139.433532714844
 30
0.0
 11
170.295014858246
 21
139.433532714844
 31
0.0
  0
LINE
  5
144
330
1F
100
AcDbEntity
  8
CENTER
100
AcDbLine
 10
184.295014858246
 20
139.433532714844
 30
0.0
 11
185.295014858246
 21
139.433532714844
 31
0.0
  0
LINE
  5
145
330
1F
100
AcDbEntity
  8
CENTER
100
AcDbLine
 10
169.795014858246
 20
139.433532714844
 30
0.0
 11
168.120014858246
 21
139.433532714844
 31
0.0
  0
LINE
  5
146
330
1F
100
AcDbEntity
  8
CENTER
100
AcDbLine
 10
185.795014858246
 20
139.433532714844
 30
0.0
 11
187.470014858246
 21
139.433532714844
 31
0.0
  0
LINE
  5
147
330
1F
100
AcDbEntity
  8
CENTER
100
AcDbLine
 10
173.795014858246
 20
151.933532714844
 30
0.0
 11
174.795014858246
 21
151.933532714844
 31
0.0
  0
LINE
  5
148
330
1F
100
AcDbEntity
  8
CENTER
100
AcDbLine
 10
173.295014858246
 20
151.933532714844
 30
0.0
 11
168.120014858246
 21
151.933532714844
 31
0.0
  0
LINE
  5
149
330
1F
100
AcDbEntity
  8
CENTER
100
AcDbLine
 10
175.295014858246
 20
151.933532714844
 30
0.0
 11
180.470014858246
 21
151.933532714844
 31
0.0
  0
LINE
  5
14A
330
1F
100
AcDbEntity
  8
CENTER
100
AcDbLine
 10
180.295014858246
 20
151.933532714844
 30
0.0
 11
181.295014858246
 21
151.933532714844
 31
0.0
  0
LINE
  5
14B
330
1F
100
AcDbEntity
  8
CENTER
100
AcDbLine
 10
179.795014858246
 20
151.933532714844
 30
0.0
 11
174.120014858246
 21
151.933532714844
 31
0.0
  0
LINE
  5
14C
330
1F
100
AcDbEntity
  8
CENTER
100
AcDbLine
 10
181.795014858246
 20
151.933532714844
 30
0.0
 11
187.470014858246
 21
151.933532714844
 31
0.0
  0
LINE
  5
14D
330
1F
100
AcDbEntity
  8
CENTER
100
AcDbLine
 10
173.795014858246
 20
126.933532714844
 30
0.0
 11
174.795014858246
 21
126.933532714844
 31
0.0
  0
LINE
  5
14E
330
1F
100
AcDbEntity
  8
CENTER
100
AcDbLine
 10
173.295014858246
 20
126.933532714844
 30
0.0
 11
168.120014858246
 21
126.933532714844
 31
0.0
  0
LINE
  5
14F
330
1F
100
AcDbEntity
  8
CENTER
100
AcDbLine
 10
175.295014858246
 20
126.933532714844
 30
0.0
 11
180.470014858246
 21
126.933532714844
 31
0.0
  0
LINE
  5
150
330
1F
100
AcDbEntity
  8
CENTER
100
AcDbLine
 10
180.295014858246
 20
126.933532714844
 30
0.0
 11
181.295014858246
 21
126.933532714844
 31
0.0
  0
LINE
  5
151
330
1F
100
AcDbEntity
  8
CENTER
100
AcDbLine
 10
179.795014858246
 20
126.933532714844
 30
0.0
 11
174.120014858246
 21
126.933532714844
 31
0.0
  0
LINE
  5
152
330
1F
100
AcDbEntity
  8
CENTER
100
AcDbLine
 10
181.795014858246
 20
126.933532714844
 30
0.0
 11
187.470014858246
 21
126.933532714844
 31
0.0
  0
DIMENSION
  5
153
330
1F
100
AcDbEntity
  8
DIMENSIONS
100
AcDbDimension
280
     0
  2
D6
 10
0.0
 20
0.0
 30
0.0
 11
294.2327246665958
 21
238.9666061401372
 31
0.0
 70
    32
  1
<>
 71
     5
 42
-1.0
 73
     0
 74
     0
 75
     0
  3
ISO-25
100
AcDbAlignedDimension
 13
171.295014858246
 23
114.433532714844
 33
0.0
 14
184.295014858246
 24
114.433532714844
 34
0.0
100
AcDbRotatedDimension
1001
ACAD
1000
DSTYLE
1002
{
1070
    76
1070
     0
1070
    75
1070
     0
1070
   282
1070
     0
1070
   281
1070
     0
1070
    77
1070
     1
1070
    79
1070
     0
1070
    78
1070
     0
1070
   272
1070
     2
1070
   271
1070
     2
1070
   179
1070
     2
1070
   140
1040
2.707850318471337
1070
    71
1070
     0
1070
    72
1070
     0
1070
    48
1040
0.002
1070
    47
1040
0.005
1002
}
  0
LINE
  5
164
330
1F
100
AcDbEntity
  8
CONTINUOUS
100
AcDbLine
 10
166.451125335693
 20
152.4045300618493
 30
0.0
 11
171.610500335693
 21
155.383209228516
 31
0.0
  0
LINE
  5
165
330
1F
100
AcDbEntity
  8
CONTINUOUS
100
AcDbLine
 10
171.610500335693
 20
155.383209228516
 30
0.0
 11
161.291750335693
 21
161.3405675618493
 31
0.0
  0
LINE
  5
166
330
1F
100
AcDbEntity
  8
CONTINUOUS
100
AcDbLine
 10
166.451125335693
 20
152.4045300618493
 30
0.0
 11
171.610500335693
 21
155.383209228516
 31
0.0
  0
LINE
  5
167
330
1F
100
AcDbEntity
  8
CONTINUOUS
100
AcDbLine
 10
171.610500335693
 20
155.383209228516
 30
0.0
 11
161.291750335693
 21
161.3405675618493
 31
0.0
  0
LINE
  5
168
330
1F
100
AcDbEntity
  8
CONTINUOUS
100
AcDbLine
 10
166.451125335693
 20
152.4045300618493
 30
0.0
 11
166.451125335693
 21
158.3618883951826
 31
0.0
  0
MTEXT
  5
169
330
1F
100
AcDbEntity
  8
CONTINUOUS
100
AcDbMText
 10
174.3621670023597
 20
163.2942508951827
 30
0.0
 40
2.188737186504777
 41
0.0
 46
0.0
 71
     6
 72
     1
  1
{\fCE|b0|i0|c0|p0;\C7;1,6}{\fCE|b0|i0|c0|p0;\C7;\H0.95x;}
 11
-3.491483361109382E-15
 21
1.0
 31
0.0
 73
     1
 44
1.0
  0
MTEXT
  5
16A
330
1F
100
AcDbEntity
  8
CONTINUOUS
100
AcDbMText
 10
171.610500335693
 20
155.0392508951826
 30
0.0
 40
2.188737186504777
 41
0.0
 46
0.0
 71
     4
 72
     1
  1
{\fCE|b0|i0|c0|p0;\C7; }{\fCE|b0|i0|c0|p0;\C7;\H0.95x;}
 11
-3.491483361109382E-15
 21
1.0
 31
0.0
 73
     1
 44
1.0
  0
LINE
  5
16B
330
1F
100
AcDbEntity
  8
CONTINUOUS
100
AcDbLine
 10
189.47663192749
 20
158.5267138346356
 30
0.0
 11
184.31725692749
 21
155.548034667969
 31
0.0
  0
LINE
  5
16C
330
1F
100
AcDbEntity
  8
CONTINUOUS
100
AcDbLine
 10
184.31725692749
 20
155.548034667969
 30
0.0
 11
194.63600692749
 21
149.5906763346356
 31
0.0
  0
LINE
  5
16D
330
1F
100
AcDbEntity
  8
CONTINUOUS
100
AcDbLine
 10
189.47663192749
 20
158.5267138346356
 30
0.0
 11
184.31725692749
 21
155.548034667969
 31
0.0
  0
LINE
  5
16E
330
1F
100
AcDbEntity
  8
CONTINUOUS
100
AcDbLine
 10
184.31725692749
 20
155.548034667969
 30
0.0
 11
194.63600692749
 21
149.5906763346356
 31
0.0
  0
LINE
  5
16F
330
1F
100
AcDbEntity
  8
CONTINUOUS
100
AcDbLine
 10
189.47663192749
 20
158.5267138346356
 30
0.0
 11
189.47663192749
 21
152.5693555013023
 31
0.0
  0
MTEXT
  5
170
330
1F
100
AcDbEntity
  8
CONTINUOUS
100
AcDbMText
 10
187.0689235941567
 20
163.4590763346357
 30
0.0
 40
2.188737186504777
 41
0.0
 46
0.0
 71
     6
 72
     1
  1
{\fCE|b0|i0|c0|p0;\C7;1,6}{\fCE|b0|i0|c0|p0;\C7;\H0.95x;}
 11
-3.491483361109382E-15
 21
-1.0
 31
0.0
 73
     1
 44
1.0
  0
MTEXT
  5
171
330
1F
100
AcDbEntity
  8
CONTINUOUS
100
AcDbMText
 10
184.31725692749
 20
155.2040763346357
 30
0.0
 40
2.188737186504777
 41
0.0
 46
0.0
 71
     4
 72
     1
  1
{\fCE|b0|i0|c0|p0;\C7; }{\fCE|b0|i0|c0|p0;\C7;\H0.95x;}
 11
-3.491483361109382E-15
 21
-1.0
 31
0.0
 73
     1
 44
1.0
  0
ELLIPSE
  5
172
330
1F
100
AcDbEntity
  8
VISIBLE
100
AcDbEllipse
 10
236.7705253711201
 20
83.85387772268538
 30
0.0
 11
2.5
 21
-4.330127018922198
 31
0.0
210
0.0
220
0.0
230
1.0
 40
0.577350269189626
 41
-1.712693381399059
 42
-1.428899272190735
  0
ELLIPSE
  5
173
330
1F
100
AcDbEntity
  8
VISIBLE
100
AcDbEllipse
 10
236.7705253711201
 20
104.2662922458785
 30
0.0
 11
2.5
 21
-4.330127018922198
 31
0.0
210
0.0
220
0.0
230
1.0
 40
0.5773502691896245
 41
-1.712693381399058
 42
-1.428899272190736
  0
ELLIPSE
  5
174
330
1F
100
AcDbEntity
  8
VISIBLE
100
AcDbEllipse
 10
231.8207779028143
 20
101.4085542126315
 30
0.0
 11
2.500000000000029
 21
-4.330127018922184
 31
0.0
210
0.0
220
0.0
230
1.0
 40
0.5773502691896271
 41
0.0
 42
0.7853981633974414
  0
ELLIPSE
  5
175
330
1F
100
AcDbEntity
  8
VISIBLE
100
AcDbEllipse
 10
231.8207779028143
 20
101.4085542126315
 30
0.0
 11
2.500000000000029
 21
-4.330127018922184
 31
0.0
210
0.0
220
0.0
230
1.0
 40
0.5773502691896271
 41
-3.141592653589812
 42
0.0
  0
ELLIPSE
  5
176
330
1F
100
AcDbEntity
  8
VISIBLE
100
AcDbEllipse
 10
231.8207779028143
 20
101.4085542126315
 30
0.0
 11
2.500000000000029
 21
-4.330127018922184
 31
0.0
210
0.0
220
0.0
230
1.0
 40
0.5773502691896271
 41
0.7853981633974414
 42
3.141592653589774
  0
ELLIPSE
  5
177
330
1F
100
AcDbEntity
  8
VISIBLE
100
AcDbEllipse
 10
219.8814415541926
 20
99.94539590790276
 30
0.0
 11
13.75
 21
-23.81569860407205
 31
0.0
210
0.0
220
0.0
230
1.0
 40
0.577350269189626
 41
0.5266809391346228
 42
0.997322055740709
  0
ELLIPSE
  5
178
330
1F
100
AcDbEntity
  8
VISIBLE
100
AcDbEllipse
 10
253.0339813384107
 20
78.95489823711901
 30
0.0
 11
1.5
 21
-2.598076211353316
 31
0.0
210
0.0
220
0.0
230
1.0
 40
0.577350269189625
 41
-3.141592653589806
 42
-2.356194490192354
  0
ELLIPSE
  5
179
330
1F
100
AcDbEntity
  8
VISIBLE
100
AcDbEllipse
 10
253.0339813384107
 20
78.95489823711901
 30
0.0
 11
1.5
 21
-2.598076211353316
 31
0.0
210
0.0
220
0.0
230
1.0
 40
0.577350269189625
 41
0.0
 42
3.14159265358978
  0
ELLIPSE
  5
17A
330
1F
100
AcDbEntity
  8
VISIBLE
100
AcDbEllipse
 10
253.0339813384107
 20
78.95489823711901
 30
0.0
 11
1.5
 21
-2.598076211353316
 31
0.0
210
0.0
220
0.0
230
1.0
 40
0.577350269189625
 41
-2.356194490192354
 42
0.0
  0
ELLIPSE
  5
17B
330
1F
100
AcDbEntity
  8
VISIBLE
100
AcDbEllipse
 10
241.0823387402369
 20
73.24075223031326
 30
0.0
 11
4.0
 21
-6.928203230275486
 31
0.0
210
0.0
220
0.0
230
1.0
 40
0.5773502691896273
 41
-4.179310096798972
 42
-3.403705955091136
  0
ELLIPSE
  5
17C
330
1F
100
AcDbEntity
  8
VISIBLE
100
AcDbEllipse
 10
249.8520008230713
 20
91.40647109626684
 30
0.0
 11
12.5
 21
-21.65063509461098
 31
0.0
210
0.0
220
0.0
230
1.0
 40
0.5773502691896253
 41
0.7853981633974481
 42
3.141592653589795
  0
ELLIPSE
  5
17D
330
1F
100
AcDbEntity
  8
VISIBLE
100
AcDbEllipse
 10
249.8520008230713
 20
91.40647109626684
 30
0.0
 11
12.5
 21
-21.65063509461098
 31
0.0
210
0.0
220
0.0
230
1.0
 40
0.5773502691896253
 41
0.0
 42
0.7853981633974481
  0
ELLIPSE
  5
17E
330
1F
100
AcDbEntity
  8
VISIBLE
100
AcDbEllipse
 10
240.6596126676461
 20
86.09924332023662
 30
0.0
 11
12.49999999999997
 21
-21.65063509461096
 31
0.0
210
0.0
220
0.0
230
1.0
 40
0.5773502691896272
 41
0.0
 42
0.7853981633974474
  0
ELLIPSE
  5
17F
330
1F
100
AcDbEntity
  8
VISIBLE
100
AcDbEllipse
 10
240.6596126676461
 20
86.09924332023662
 30
0.0
 11
12.49999999999997
 21
-21.65063509461096
 31
0.0
210
0.0
220
0.0
230
1.0
 40
0.5773502691896272
 41
-3.141592653589792
 42
0.0
  0
ELLIPSE
  5
180
330
1F
100
AcDbEntity
  8
VISIBLE
100
AcDbEllipse
 10
240.6596126676461
 20
86.09924332023662
 30
0.0
 11
12.49999999999997
 21
-21.65063509461096
 31
0.0
210
0.0
220
0.0
230
1.0
 40
0.5773502691896272
 41
0.7853981633974474
 42
3.141592653589794
  0
ELLIPSE
  5
181
330
1F
100
AcDbEntity
  8
VISIBLE
100
AcDbEllipse
 10
228.2852439968815
 20
93.24358840335424
 30
0.0
 11
1.5
 21
-2.598076211353316
 31
0.0
210
0.0
220
0.0
230
1.0
 40
0.577350269189625
 41
-3.141592653589792
 42
-2.356194490192342
  0
ELLIPSE
  5
182
330
1F
100
AcDbEntity
  8
VISIBLE
100
AcDbEllipse
 10
228.2852439968815
 20
93.24358840335424
 30
0.0
 11
1.5
 21
-2.598076211353316
 31
0.0
210
0.0
220
0.0
230
1.0
 40
0.577350269189625
 41
0.0
 42
3.141592653589794
  0
ELLIPSE
  5
183
330
1F
100
AcDbEntity
  8
VISIBLE
100
AcDbEllipse
 10
228.2852439968815
 20
93.24358840335424
 30
0.0
 11
1.5
 21
-2.598076211353316
 31
0.0
210
0.0
220
0.0
230
1.0
 40
0.577350269189625
 41
-2.356194490192342
 42
0.0
  0
ELLIPSE
  5
184
330
1F
100
AcDbEntity
  8
VISIBLE
100
AcDbEllipse
 10
240.9071000410614
 20
98.6325682400355
 30
0.0
 11
4.000000000000001
 21
-6.928203230275516
 31
0.0
210
0.0
220
0.0
230
1.0
 40
0.5773502691896256
 41
-1.149649660276535
 42
-0.4211466665183569
  0
ELLIPSE
  5
185
330
1F
100
AcDbEntity
  8
VISIBLE
100
AcDbEllipse
 10
228.0784490943297
 20
89.85677562785214
 30
0.0
 11
7.500000000000028
 21
-12.99038105676659
 31
0.0
210
0.0
220
0.0
230
1.0
 40
0.5773502691896271
 41
0.4998124500636778
 42
0.7536733523584103
  0
ELLIPSE
  5
186
330
1F
100
AcDbEntity
  8
VISIBLE
100
AcDbEllipse
 10
254.4481949007838
 20
73.64767046108881
 30
0.0
 11
2.499999999999972
 21
-4.330127018922198
 31
0.0
210
0.0
220
0.0
230
1.0
 40
0.5773502691896197
 41
-1.712693381399051
 42
-1.428899272190727
  0
ELLIPSE
  5
187
330
1F
100
AcDbEntity
  8
VISIBLE
100
AcDbEllipse
 10
263.147192838114
 20
72.29911596342876
 30
0.0
 11
15.0
 21
-25.98076211353316
 31
0.0
210
0.0
220
0.0
230
1.0
 40
0.5773502691896257
 41
-2.662652764362119
 42
-2.230211989911492
  0
ELLIPSE
  5
188
330
1F
100
AcDbEntity
  8
VISIBLE
100
AcDbEllipse
 10
249.498447432478
 20
70.78993242784176
 30
0.0
 11
2.5
 21
-4.330127018922198
 31
0.0
210
0.0
220
0.0
230
1.0
 40
0.577350269189626
 41
0.0
 42
0.7853981633974495
  0
ELLIPSE
  5
189
330
1F
100
AcDbEntity
  8
VISIBLE
100
AcDbEllipse
 10
249.498447432478
 20
70.78993242784176
 30
0.0
 11
2.5
 21
-4.330127018922198
 31
0.0
210
0.0
220
0.0
230
1.0
 40
0.577350269189626
 41
-3.141592653589793
 42
0.0
  0
ELLIPSE
  5
18A
330
1F
100
AcDbEntity
  8
VISIBLE
100
AcDbEllipse
 10
249.498447432478
 20
70.78993242784176
 30
0.0
 11
2.5
 21
-4.330127018922198
 31
0.0
210
0.0
220
0.0
230
1.0
 40
0.577350269189626
 41
0.7853981633974495
 42
3.141592653589793
  0
ELLIPSE
  5
18B
330
1F
100
AcDbEntity
  8
VISIBLE
100
AcDbEllipse
 10
242.5298809753775
 20
78.88828631916954
 30
0.0
 11
0.09999999999999432
 21
-0.1732050807568868
 31
0.0
210
0.0
220
0.0
230
1.0
 40
0.5773502691895754
 41
-1.037717443209235
 42
0.0
  0
ELLIPSE
  5
18C
330
1F
100
AcDbEntity
  8
VISIBLE
100
AcDbEllipse
 10
242.5298809753775
 20
78.88828631916954
 30
0.0
 11
0.09999999999999432
 21
-0.1732050807568868
 31
0.0
210
0.0
220
0.0
230
1.0
 40
0.5773502691895754
 41
0.0
 42
1.074127691909856
  0
ELLIPSE
  5
18D
330
1F
100
AcDbEntity
  8
VISIBLE
100
AcDbEllipse
 10
254.4481949007838
 20
94.06008498428194
 30
0.0
 11
2.500000000000029
 21
-4.330127018922184
 31
0.0
210
0.0
220
0.0
230
1.0
 40
0.5773502691896321
 41
-1.712693381399064
 42
-1.428899272190735
  0
ELLIPSE
  5
18E
330
1F
100
AcDbEntity
  8
VISIBLE
100
AcDbEllipse
 10
231.8207779028143
 20
80.99613968943834
 30
0.0
 11
2.5
 21
-4.330127018922184
 31
0.0
210
0.0
220
0.0
230
1.0
 40
0.5773502691896274
 41
0.0
 42
0.7853981633974462
  0
ELLIPSE
  5
18F
330
1F
100
AcDbEntity
  8
VISIBLE
100
AcDbEllipse
 10
231.8207779028143
 20
80.99613968943834
 30
0.0
 11
2.5
 21
-4.330127018922184
 31
0.0
210
0.0
220
0.0
230
1.0
 40
0.5773502691896274
 41
-3.141592653589796
 42
0.0
  0
ELLIPSE
  5
190
330
1F
100
AcDbEntity
  8
VISIBLE
100
AcDbEllipse
 10
231.8207779028143
 20
80.99613968943834
 30
0.0
 11
2.5
 21
-4.330127018922184
 31
0.0
210
0.0
220
0.0
230
1.0
 40
0.5773502691896274
 41
0.7853981633974462
 42
3.14159265358979
  0
LINE
  5
191
330
1F
100
AcDbEntity
  8
VISIBLE
100
AcDbLine
 10
242.1021105012667
 20
81.37172811666508
 30
0.0
 11
242.6654483920278
 21
78.85651339576009
 31
0.0
  0
ELLIPSE
  5
192
330
1F
100
AcDbEntity
  8
VISIBLE
100
AcDbEllipse
 10
249.498447432478
 20
91.20234695103491
 30
0.0
 11
2.5
 21
-4.330127018922198
 31
0.0
210
0.0
220
0.0
230
1.0
 40
0.577350269189626
 41
0.0
 42
0.7853981633974495
  0
ELLIPSE
  5
193
330
1F
100
AcDbEntity
  8
VISIBLE
100
AcDbEllipse
 10
249.498447432478
 20
91.20234695103491
 30
0.0
 11
2.5
 21
-4.330127018922198
 31
0.0
210
0.0
220
0.0
230
1.0
 40
0.577350269189626
 41
-3.14159265358979
 42
0.0
  0
ELLIPSE
  5
194
330
1F
100
AcDbEntity
  8
VISIBLE
100
AcDbEllipse
 10
249.498447432478
 20
91.20234695103491
 30
0.0
 11
2.5
 21
-4.330127018922198
 31
0.0
210
0.0
220
0.0
230
1.0
 40
0.577350269189626
 41
0.7853981633974495
 42
3.141592653589793
  0
LINE
  5
195
330
1F
100
AcDbEntity
  8
VISIBLE
100
AcDbLine
 10
241.9928853086129
 20
82.68854614405198
 30
0.0
 11
238.2554496116119
 21
80.53073663830952
 31
0.0
  0
LINE
  5
196
330
1F
100
AcDbEntity
  8
VISIBLE
100
AcDbLine
 10
241.9423989356517
 20
85.23136205295494
 30
0.0
 11
238.6797136803238
 21
83.34764984251038
 31
0.0
  0
LINE
  5
197
330
1F
100
AcDbEntity
  8
VISIBLE
100
AcDbLine
 10
262.3520008230713
 20
69.75583600165587
 30
0.0
 11
253.1596126676461
 21
64.44860822562566
 31
0.0
  0
LINE
  5
198
330
1F
100
AcDbEntity
  8
VISIBLE
100
AcDbLine
 10
237.3520008230713
 20
113.0571061908778
 30
0.0
 11
228.1596126676461
 21
107.7498784148476
 31
0.0
  0
LINE
  5
19A
330
1F
100
AcDbEntity
  8
TANGENT EDGES
100
AcDbLine
 10
242.6668243682374
 20
78.84998976561477
 30
0.0
 11
242.4945750672033
 21
78.750541585295
 31
0.0
  0
LINE
  5
19B
330
1F
100
AcDbEntity
  8
CENTER
100
AcDbLine
 10
251.5403084647387
 20
71.96880144446529
 30
0.0
 11
252.4063338685231
 21
72.46880144446529
 31
0.0
  0
LINE
  5
19C
330
1F
100
AcDbEntity
  8
CENTER
100
AcDbLine
 10
251.1072957628464
 20
71.71880144446529
 30
0.0
 11
246.7771687439242
 21
69.2188014444653
 31
0.0
  0
LINE
  5
19D
330
1F
100
AcDbEntity
  8
CENTER
100
AcDbLine
 10
252.8393465704153
 20
72.71880144446529
 30
0.0
 11
257.1694735893375
 21
75.21880144446527
 31
0.0
  0
LINE
  5
19E
330
1F
100
AcDbEntity
  8
CENTER
100
AcDbLine
 10
246.344156042032
 20
68.9688014444653
 30
0.0
 11
245.4781306382476
 21
68.4688014444653
 31
0.0
  0
LINE
  5
19F
330
1F
100
AcDbEntity
  8
CENTER
100
AcDbLine
 10
257.6024862912298
 20
75.46880144446527
 30
0.0
 11
258.4685116950142
 21
75.96880144446527
 31
0.0
  0
LINE
  5
1A0
330
1F
100
AcDbEntity
  8
CENTER
100
AcDbLine
 10
245.0451179363554
 20
68.2188014444653
 30
0.0
 11
243.2132828695296
 21
67.16119097552246
 31
0.0
  0
LINE
  5
1A1
330
1F
100
AcDbEntity
  8
CENTER
100
AcDbLine
 10
258.9015243969064
 20
76.21880144446527
 30
0.0
 11
260.7333594637321
 21
77.27641191340811
 31
0.0
  0
LINE
  5
1A2
330
1F
100
AcDbEntity
  8
CENTER
100
AcDbLine
 10
256.1365025424512
 20
74.62241533248039
 30
0.0
 11
257.0025279462357
 21
75.12241533248039
 31
0.0
  0
LINE
  5
1A3
330
1F
100
AcDbEntity
  8
CENTER
100
AcDbLine
 10
255.703489840559
 20
74.37241533248039
 30
0.0
 11
251.3733628216368
 21
71.8724153324804
 31
0.0
  0
LINE
  5
1A4
330
1F
100
AcDbEntity
  8
CENTER
100
AcDbLine
 10
257.4355406481279
 20
75.37241533248039
 30
0.0
 11
261.7656676670501
 21
77.87241533248039
 31
0.0
  0
LINE
  5
1A5
330
1F
100
AcDbEntity
  8
CENTER
100
AcDbLine
 10
250.9403501197446
 20
71.6224153324804
 30
0.0
 11
249.5772439002086
 21
70.83542558969722
 31
0.0
  0
LINE
  5
1A6
330
1F
100
AcDbEntity
  8
CENTER
100
AcDbLine
 10
262.1986803689423
 20
78.12241533248039
 30
0.0
 11
263.5617865884783
 21
78.90940507526356
 31
0.0
  0
LINE
  5
1A7
330
1F
100
AcDbEntity
  8
CENTER
100
AcDbLine
 10
238.4588330127876
 20
105.2410371172701
 30
0.0
 11
239.324858416572
 21
105.7410371172701
 31
0.0
  0
LINE
  5
1A8
330
1F
100
AcDbEntity
  8
CENTER
100
AcDbLine
 10
238.0258203108953
 20
104.9910371172701
 30
0.0
 11
233.6956932919731
 21
102.4910371172701
 31
0.0
  0
LINE
  5
1A9
330
1F
100
AcDbEntity
  8
CENTER
100
AcDbLine
 10
239.7578711184642
 20
105.9910371172701
 30
0.0
 11
244.0879981373864
 21
108.4910371172701
 31
0.0
  0
LINE
  5
1AA
330
1F
100
AcDbEntity
  8
CENTER
100
AcDbLine
 10
233.2626805900809
 20
102.2410371172701
 30
0.0
 11
231.8995743705449
 21
101.4540473744869
 31
0.0
  0
LINE
  5
1AB
330
1F
100
AcDbEntity
  8
CENTER
100
AcDbLine
 10
244.5210108392786
 20
108.7410371172701
 30
0.0
 11
245.8841170588146
 21
109.5280268600533
 31
0.0
  0
LINE
  5
1AC
330
1F
100
AcDbEntity
  8
CENTER
100
AcDbLine
 10
244.8227940434665
 20
88.50285720825174
 30
0.0
 11
245.6888194472509
 21
89.00285720825174
 31
0.0
  0
LINE
  5
1AD
330
1F
100
AcDbEntity
  8
CENTER
100
AcDbLine
 10
244.3897813415743
 20
88.25285720825174
 30
0.0
 11
240.0596543226521
 21
85.75285720825174
 31
0.0
  0
LINE
  5
1AE
330
1F
100
AcDbEntity
  8
CENTER
100
AcDbLine
 10
246.1218321491431
 20
89.25285720825174
 30
0.0
 11
250.4519591680653
 21
91.75285720825174
 31
0.0
  0
LINE
  5
1AF
330
1F
100
AcDbEntity
  8
CENTER
100
AcDbLine
 10
239.6266416207599
 20
85.50285720825174
 30
0.0
 11
238.7606162169754
 21
85.00285720825174
 31
0.0
  0
LINE
  5
1B0
330
1F
100
AcDbEntity
  8
CENTER
100
AcDbLine
 10
250.8849718699576
 20
92.00285720825174
 30
0.0
 11
251.750997273742
 21
92.50285720825174
 31
0.0
  0
LINE
  5
1B1
330
1F
100
AcDbEntity
  8
CENTER
100
AcDbLine
 10
238.3276035150832
 20
84.75285720825175
 30
0.0
 11
233.997476496161
 21
82.25285720825175
 31
0.0
  0
LINE
  5
1B2
330
1F
100
AcDbEntity
  8
CENTER
100
AcDbLine
 10
252.1840099756342
 20
92.75285720825173
 30
0.0
 11
256.5141369945564
 21
95.25285720825173
 31
0.0
  0
LINE
  5
1B3
330
1F
100
AcDbEntity
  8
CENTER
100
AcDbLine
 10
233.5644637942688
 20
82.00285720825175
 30
0.0
 11
232.6984383904843
 21
81.50285720825175
 31
0.0
  0
LINE
  5
1B4
330
1F
100
AcDbEntity
  8
CENTER
100
AcDbLine
 10
256.9471496964486
 20
95.50285720825173
 30
0.0
 11
257.8131751002331
 21
96.00285720825173
 31
0.0
  0
LINE
  5
1B5
330
1F
100
AcDbEntity
  8
CENTER
100
AcDbLine
 10
232.2654256885921
 20
81.25285720825175
 30
0.0
 11
227.9352986696699
 21
78.75285720825175
 31
0.0
  0
LINE
  5
1B6
330
1F
100
AcDbEntity
  8
CENTER
100
AcDbLine
 10
258.2461878021253
 20
96.25285720825173
 30
0.0
 11
262.5763148210475
 21
98.75285720825173
 31
0.0
  0
LINE
  5
1B7
330
1F
100
AcDbEntity
  8
CENTER
100
AcDbLine
 10
227.5022859677777
 20
78.50285720825175
 30
0.0
 11
226.6362605639933
 21
78.00285720825175
 31
0.0
  0
LINE
  5
1B8
330
1F
100
AcDbEntity
  8
CENTER
100
AcDbLine
 10
263.0093275229397
 20
99.00285720825173
 30
0.0
 11
263.8753529267241
 21
99.50285720825173
 31
0.0
  0
LINE
  5
1B9
330
1F
100
AcDbEntity
  8
CENTER
100
AcDbLine
 10
226.2032478621011
 20
77.75285720825175
 30
0.0
 11
221.8731208431789
 21
75.25285720825175
 31
0.0
  0
LINE
  5
1BA
330
1F
100
AcDbEntity
  8
CENTER
100
AcDbLine
 10
264.3083656286163
 20
99.75285720825173
 30
0.0
 11
268.6384926475386
 21
102.2528572082517
 31
0.0
  0
LINE
  5
1BB
330
1F
100
AcDbEntity
  8
CENTER
100
AcDbLine
 10
221.4401081412866
 20
75.00285720825175
 30
0.0
 11
220.2323124809669
 21
74.30553605864007
 31
0.0
  0
LINE
  5
1BC
330
1F
100
AcDbEntity
  8
CENTER
100
AcDbLine
 10
269.0715053494308
 20
102.5028572082517
 30
0.0
 11
270.2793010097506
 21
103.2001783578634
 31
0.0
  0
LINE
  5
1BD
330
1F
100
AcDbEntity
  8
CENTER
100
AcDbLine
 10
233.862638935075
 20
102.587423229255
 30
0.0
 11
234.7286643388594
 21
103.087423229255
 31
0.0
  0
LINE
  5
1BE
330
1F
100
AcDbEntity
  8
CENTER
100
AcDbLine
 10
233.4296262331828
 20
102.337423229255
 30
0.0
 11
229.0994992142606
 21
99.83742322925501
 31
0.0
  0
LINE
  5
1BF
330
1F
100
AcDbEntity
  8
CENTER
100
AcDbLine
 10
235.1616770407516
 20
103.337423229255
 30
0.0
 11
239.4918040596738
 21
105.837423229255
 31
0.0
  0
LINE
  5
1C0
330
1F
100
AcDbEntity
  8
CENTER
100
AcDbLine
 10
228.6664865123684
 20
99.58742322925501
 30
0.0
 11
227.8004611085839
 21
99.08742322925501
 31
0.0
  0
LINE
  5
1C1
330
1F
100
AcDbEntity
  8
CENTER
100
AcDbLine
 10
239.9248167615661
 20
106.087423229255
 30
0.0
 11
240.7908421653505
 21
106.587423229255
 31
0.0
  0
LINE
  5
1C2
330
1F
100
AcDbEntity
  8
CENTER
100
AcDbLine
 10
227.3674484066917
 20
98.83742322925501
 30
0.0
 11
225.535613339866
 21
97.77981276031218
 31
0.0
  0
LINE
  5
1C3
330
1F
100
AcDbEntity
  8
CENTER
100
AcDbLine
 10
241.2238548672427
 20
106.837423229255
 30
0.0
 11
243.0556899340685
 21
107.8950336981978
 31
0.0
  0
LINE
  5
1C4
330
1F
100
AcDbEntity
  8
CENTER
100
AcDbLine
 10
232.4484253727019
 20
95.64720229136934
 30
0.0
 11
233.3144507764864
 21
96.14720229136934
 31
0.0
  0
LINE
  5
1C5
330
1F
100
AcDbEntity
  8
CENTER
100
AcDbLine
 10
232.0154126708097
 20
95.39720229136934
 30
0.0
 11
227.6852856518875
 21
92.89720229136935
 31
0.0
  0
LINE
  5
1C6
330
1F
100
AcDbEntity
  8
CENTER
100
AcDbLine
 10
233.7474634783786
 20
96.39720229136934
 30
0.0
 11
238.0775904973007
 21
98.89720229136934
 31
0.0
  0
LINE
  5
1C7
330
1F
100
AcDbEntity
  8
CENTER
100
AcDbLine
 10
227.2522729499953
 20
92.64720229136935
 30
0.0
 11
226.3862475462108
 21
92.14720229136935
 31
0.0
  0
LINE
  5
1C8
330
1F
100
AcDbEntity
  8
CENTER
100
AcDbLine
 10
238.510603199193
 20
99.14720229136934
 30
0.0
 11
239.3766286029774
 21
99.64720229136934
 31
0.0
  0
LINE
  5
1C9
330
1F
100
AcDbEntity
  8
CENTER
100
AcDbLine
 10
225.9532348443186
 20
91.89720229136935
 30
0.0
 11
223.4142929963063
 21
90.43134353196265
 31
0.0
  0
LINE
  5
1CA
330
1F
100
AcDbEntity
  8
CENTER
100
AcDbLine
 10
239.8096413048696
 20
99.89720229136934
 30
0.0
 11
242.3485831528819
 21
101.363061050776
 31
0.0
  0
LINE
  5
1CB
330
1F
100
AcDbEntity
  8
CENTER
100
AcDbLine
 10
257.1971627142311
 20
81.35851212513413
 30
0.0
 11
258.0631881180155
 21
81.85851212513413
 31
0.0
  0
LINE
  5
1CC
330
1F
100
AcDbEntity
  8
CENTER
100
AcDbLine
 10
256.7641500123389
 20
81.10851212513413
 30
0.0
 11
252.4340229934166
 21
78.60851212513414
 31
0.0
  0
LINE
  5
1CD
330
1F
100
AcDbEntity
  8
CENTER
100
AcDbLine
 10
258.4962008199077
 20
82.10851212513413
 30
0.0
 11
262.8263278388299
 21
84.60851212513413
 31
0.0
  0
LINE
  5
1CE
330
1F
100
AcDbEntity
  8
CENTER
100
AcDbLine
 10
252.0010102915244
 20
78.35851212513414
 30
0.0
 11
251.13498488774
 21
77.85851212513414
 31
0.0
  0
LINE
  5
1CF
330
1F
100
AcDbEntity
  8
CENTER
100
AcDbLine
 10
263.2593405407221
 20
84.85851212513413
 30
0.0
 11
264.1253659445066
 21
85.35851212513413
 31
0.0
  0
LINE
  5
1D0
330
1F
100
AcDbEntity
  8
CENTER
100
AcDbLine
 10
250.7019721858478
 20
77.60851212513414
 30
0.0
 11
248.1630303378355
 21
76.14265336572744
 31
0.0
  0
LINE
  5
1D1
330
1F
100
AcDbEntity
  8
CENTER
100
AcDbLine
 10
264.5583786463988
 20
85.60851212513413
 30
0.0
 11
267.0973204944111
 21
87.07437088454083
 31
0.0
  0
INSERT
  5
1D2
330
1F
100
AcDbEntity
  8
CONTINUOUS
100
AcDbBlockReference
  2
BLOCK1
 10
0.0
 20
0.0
 30
0.0
  0
MTEXT
  5
21D
330
1F
100
AcDbEntity
  8
CONTINUOUS
100
AcDbMText
 10
261.673034667969
 20
24.61209862754262
 30
0.0
 40
2.079300327179538
 41
0.0
 46
0.0
 71
     1
 72
     1
  1
{\fCE|b0|i0|c0|p0;\C7;1.4301}{\fCE|b0|i0|c0|p0;\C7;}
 73
     1
 44
1.0
  0
MTEXT
  5
21E
330
1F
100
AcDbEntity
  8
CONTINUOUS
100
AcDbMText
 10
258.865661621094
 20
13.16659348533072
 30
0.0
 40
2.079300327179538
 41
0.0
 46
0.0
 71
     1
 72
     1
  1
{\fCE|b0|i0|c0|p0;\C7;1x}{\fCE|b0|i0|c0|p0;\C7;}
 73
     1
 44
1.0
  0
MTEXT
  5
21F
330
1F
100
AcDbEntity
  8
CONTINUOUS
100
AcDbMText
 10
275.925964355469
 20
15.32612412497922
 30
0.0
 40
2.079300327179538
 41
0.0
 46
0.0
 71
     1
 72
     1
  1
{\fCE|b0|i0|c0|p0;\C7;1:1}{\fCE|b0|i0|c0|p0;\C7;}
 73
     1
 44
1.0
  0
MTEXT
  5
220
330
1F
100
AcDbEntity
  8
CONTINUOUS
100
AcDbMText
 10
201.206253051758
 20
14.03040116355342
 30
0.0
 40
2.079300327179538
 41
0.0
 46
0.0
 71
     1
 72
     1
  1
{\fCE|b0|i0|c0|p0;\C7;-------------}{\fCE|b0|i0|c0|p0;\C7;}
 73
     1
 44
1.0
  0
MTEXT
  5
221
330
1F
100
AcDbEntity
  8
CONTINUOUS
100
AcDbMText
 10
232.303482055664
 20
14.03040116355342
 30
0.0
 40
2.079300327179538
 41
0.0
 46
0.0
 71
     1
 72
     1
  1
{\fCE|b0|i0|c0|p0;\C7;23.09.2019}{\fCE|b0|i0|c0|p0;\C7;}
 73
     1
 44
1.0
  0
MTEXT
  5
222
330
1F
100
AcDbEntity
  8
CONTINUOUS
100
AcDbMText
 10
207.468933105469
 20
25.47590821311392
 30
0.0
 40
2.079300327179538
 41
0.0
 46
0.0
 71
     1
 72
     1
  1
{\fCE|b0|i0|c0|p0;\C7;Koncové V2 S2019092}{\fCE|b0|i0|c0|p0;\C7;}
 73
     1
 44
1.0
  0
ENDSEC
  0
SECTION
  2
OBJECTS
  0
DICTIONARY
  5
C
330
0
100
AcDbDictionary
281
     1
  3
ACAD_DETAILVIEWSTYLE
350
22A
  3
ACAD_GROUP
350
D
  3
ACAD_LAYOUT
350
1A
  3
ACAD_MATERIAL
350
43
  3
ACAD_MLEADERSTYLE
350
6B
  3
ACAD_MLINESTYLE
350
17
  3
ACAD_PLOTSETTINGS
350
19
  3
ACAD_PLOTSTYLENAME
350
E
  3
ACAD_SCALELIST
350
47
  3
ACAD_SECTIONVIEWSTYLE
350
22B
  3
ACAD_TABLESTYLE
350
69
  3
ACAD_VISUALSTYLE
350
2A
  3
ACDB_RECOMPOSE_DATA
350
227
  3
AcDbVariableDictionary
350
223
  0
SUN
  5
6D
330
29
100
AcDbSun
 90
        1
290
     0
 63
     7
421
 16777215
 40
1.0
291
     1
 91
  2455826
 92
 54000000
292
     0
 70
     2
 71
   256
280
     1
  0
DICTIONARY
  5
22A
102
{ACAD_REACTORS
330
C
102
}
330
C
100
AcDbDictionary
281
     1
  0
DICTIONARY
  5
D
102
{ACAD_REACTORS
330
C
102
}
330
C
100
AcDbDictionary
281
     1
  0
DICTIONARY
  5
1A
102
{ACAD_REACTORS
330
C
102
}
330
C
100
AcDbDictionary
281
     1
  3
Layout1
350
1E
  3
Layout2
350
26
  3
Model
350
22
  0
DICTIONARY
  5
43
102
{ACAD_REACTORS
330
C
102
}
330
C
100
AcDbDictionary
281
     1
  3
ByBlock
350
45
  3
ByLayer
350
44
  3
Global
350
46
  0
DICTIONARY
  5
6B
102
{ACAD_REACTORS
330
C
102
}
330
C
100
AcDbDictionary
281
     1
  3
Standard
350
6C
  0
DICTIONARY
  5
17
102
{ACAD_REACTORS
330
C
102
}
330
C
100
AcDbDictionary
281
     1
  3
Standard
350
18
  0
DICTIONARY
  5
19
102
{ACAD_REACTORS
330
C
102
}
330
C
100
AcDbDictionary
281
     1
  0
ACDBDICTIONARYWDFLT
  5
E
102
{ACAD_REACTORS
330
C
102
}
330
C
100
AcDbDictionary
281
     1
  3
Normal
350
F
100
AcDbDictionaryWithDefault
340
F
  0
DICTIONARY
  5
47
102
{ACAD_REACTORS
330
C
102
}
330
C
100
AcDbDictionary
281
     1
  3
A0
350
48
  3
A1
350
49
  3
A2
350
4A
  3
A3
350
4B
  3
A4
350
4C
  3
A5
350
4D
  3
A6
350
4E
  3
A7
350
4F
  3
A8
350
50
  3
A9
350
51
  3
B0
350
52
  3
B1
350
53
  3
B2
350
54
  3
B3
350
55
  3
B4
350
56
  3
B5
350
57
  3
B6
350
58
  3
B7
350
59
  3
B8
350
5A
  3
B9
350
5B
  3
C0
350
5C
  3
C1
350
5D
  3
C2
350
5E
  3
C3
350
5F
  3
C4
350
60
  3
C5
350
61
  3
C6
350
62
  3
C7
350
63
  3
C8
350
64
  3
C9
350
65
  3
D0
350
66
  3
D1
350
67
  3
D2
350
68
  0
DICTIONARY
  5
22B
102
{ACAD_REACTORS
330
C
102
}
330
C
100
AcDbDictionary
281
     1
  0
DICTIONARY
  5
69
102
{ACAD_REACTORS
330
C
102
}
330
C
100
AcDbDictionary
281
     1
  3
Standard
350
6A
  0
DICTIONARY
  5
2A
102
{ACAD_REACTORS
330
C
102
}
330
C
100
AcDbDictionary
281
     1
  3
2dWireframe
350
2F
  3
Basic
350
32
  3
Brighten
350
36
  3
ColorChange
350
3A
  3
Conceptual
350
34
  3
Dim
350
35
  3
EdgeColorOff
350
3D
  3
Facepattern
350
39
  3
Flat
350
2B
  3
FlatWithEdges
350
2C
  3
Gouraud
350
2D
  3
GouraudWithEdges
350
2E
  3
Hidden
350
31
  3
JitterOff
350
3B
  3
Linepattern
350
38
  3
OverhangOff
350
3C
  3
Realistic
350
33
  3
Shaded
350
42
  3
Shaded with edges
350
41
  3
Shades of Gray
350
3E
  3
Sketchy
350
3F
  3
Thicken
350
37
  3
Wireframe
350
30
  3
X-Ray
350
40
  0
XRECORD
  5
227
102
{ACAD_REACTORS
330
C
102
}
330
C
100
AcDbXrecord
280
     1
 90
        1
330
6A
  0
DICTIONARY
  5
223
102
{ACAD_REACTORS
330
C
102
}
330
C
100
AcDbDictionary
281
     1
  3
CANNOSCALE
350
224
  3
CENTEREXE
350
22C
  3
CENTERLTYPEFILE
350
22D
  3
CMLEADERSTYLE
350
229
  3
CTABLESTYLE
350
228
  0
LAYOUT
  5
1E
102
{ACAD_REACTORS
330
1A
102
}
330
1A
100
AcDbPlotSettings
  1

  2
none_device
  4

  6

 40
0.0
 41
0.0
 42
0.0
 43
0.0
 44
0.0
 45
0.0
 46
0.0
 47
0.0
 48
0.0
 49
0.0
140
0.0
141
0.0
142
1.0
143
1.0
 70
   688
 72
     1
 73
     0
 74
     5
  7

 75
    16
 76
     0
 77
     2
 78
   300
147
1.0
148
0.0
149
0.0
100
AcDbLayout
  1
Layout1
 70
     1
 71
     1
 10
0.0
 20
0.0
 11
420.0
 21
297.0
 12
0.0
 22
0.0
 32
0.0
 14
1.000000000000000E+20
 24
1.000000000000000E+20
 34
1.000000000000000E+20
 15
-1.000000000000000E+20
 25
-1.000000000000000E+20
 35
-1.000000000000000E+20
146
0.0
 13
0.0
 23
0.0
 33
0.0
 16
1.0
 26
0.0
 36
0.0
 17
0.0
 27
1.0
 37
0.0
 76
     0
330
1B
  0
LAYOUT
  5
26
102
{ACAD_REACTORS
330
1A
102
}
330
1A
100
AcDbPlotSettings
  1

  2
none_device
  4

  6

 40
0.0
 41
0.0
 42
0.0
 43
0.0
 44
0.0
 45
0.0
 46
0.0
 47
0.0
 48
0.0
 49
0.0
140
0.0
141
0.0
142
1.0
143
1.0
 70
   688
 72
     1
 73
     0
 74
     5
  7

 75
    16
 76
     0
 77
     2
 78
   300
147
1.0
148
0.0
149
0.0
100
AcDbLayout
  1
Layout2
 70
     1
 71
     2
 10
0.0
 20
0.0
 11
0.0
 21
0.0
 12
0.0
 22
0.0
 32
0.0
 14
0.0
 24
0.0
 34
0.0
 15
0.0
 25
0.0
 35
0.0
146
0.0
 13
0.0
 23
0.0
 33
0.0
 16
1.0
 26
0.0
 36
0.0
 17
0.0
 27
1.0
 37
0.0
 76
     0
330
23
  0
LAYOUT
  5
22
102
{ACAD_REACTORS
330
1A
102
}
330
1A
100
AcDbPlotSettings
  1

  2
none_device
  4
Letter_(8.50_x_11.00_Inches)
  6

 40
6.35
 41
6.35
 42
6.35000508
 43
6.35000508
 44
215.9
 45
279.4
 46
0.0
 47
0.0
 48
0.0
 49
0.0
140
0.0
141
0.0
142
1.0
143
1.0
 70
  1712
 72
     1
 73
     0
 74
     0
  7

 75
     0
 76
     0
 77
     2
 78
   300
147
1.0
148
0.0
149
0.0
100
AcDbLayout
  1
Model
 70
     1
 71
     0
 10
0.0
 20
0.0
 11
420.0
 21
297.0
 12
0.0
 22
0.0
 32
0.0
 14
1.000000000000000E+20
 24
1.000000000000000E+20
 34
1.000000000000000E+20
 15
-1.000000000000000E+20
 25
-1.000000000000000E+20
 35
-1.000000000000000E+20
146
0.0
 13
0.0
 23
0.0
 33
0.0
 16
1.0
 26
0.0
 36
0.0
 17
0.0
 27
1.0
 37
0.0
 76
     0
330
1F
331
29
  0
MATERIAL
  5
45
102
{ACAD_REACTORS
330
43
102
}
330
43
100
AcDbMaterial
  1
ByBlock
 72
     1
 94
      127
  0
MATERIAL
  5
44
102
{ACAD_REACTORS
330
43
102
}
330
43
100
AcDbMaterial
  1
ByLayer
 72
     1
 94
      127
  0
MATERIAL
  5
46
102
{ACAD_REACTORS
330
43
102
}
330
43
100
AcDbMaterial
  1
Global
 72
     1
 94
      127
  0
MLEADERSTYLE
  5
6C
102
{ACAD_REACTORS
330
6B
102
}
330
6B
100
AcDbMLeaderStyle
179
     2
170
     2
171
     1
172
     0
 90
        2
 40
0.0
 41
0.0
173
     1
 91
-1056964608
340
14
 92
       -2
290
     1
 42
2.0
291
     1
 43
8.0
  3
Standard
341
0
 44
4.0
300

342
11
174
     1
178
     6
175
     1
176
     0
 93
-1056964608
 45
4.0
292
     0
297
     0
 46
4.0
343
0
 94
-1056964608
 47
1.0
 49
1.0
140
1.0
293
     1
141
0.0
294
     1
177
     0
142
1.0
295
     0
296
     0
143
3.75
271
     0
272
     9
273
     9
298
     0
  0
MLINESTYLE
  5
18
102
{ACAD_REACTORS
330
17
102
}
330
17
100
AcDbMlineStyle
  2
Standard
 70
     0
  3

 62
   256
 51
90.0
 52
90.0
 71
     2
 49
0.5
 62
   256
  6
BYLAYER
 49
-0.5
 62
   256
  6
BYLAYER
  0
ACDBPLACEHOLDER
  5
F
102
{ACAD_REACTORS
330
E
102
}
330
E
  0
SCALE
  5
48
102
{ACAD_REACTORS
330
47
102
}
330
47
100
AcDbScale
 70
     0
300
1:1
140
1.0
141
1.0
290
     1
  0
SCALE
  5
49
102
{ACAD_REACTORS
330
47
102
}
330
47
100
AcDbScale
 70
     0
300
1:2
140
1.0
141
2.0
290
     0
  0
SCALE
  5
4A
102
{ACAD_REACTORS
330
47
102
}
330
47
100
AcDbScale
 70
     0
300
1:4
140
1.0
141
4.0
290
     0
  0
SCALE
  5
4B
102
{ACAD_REACTORS
330
47
102
}
330
47
100
AcDbScale
 70
     0
300
1:5
140
1.0
141
5.0
290
     0
  0
SCALE
  5
4C
102
{ACAD_REACTORS
330
47
102
}
330
47
100
AcDbScale
 70
     0
300
1:8
140
1.0
141
8.0
290
     0
  0
SCALE
  5
4D
102
{ACAD_REACTORS
330
47
102
}
330
47
100
AcDbScale
 70
     0
300
1:10
140
1.0
141
10.0
290
     0
  0
SCALE
  5
4E
102
{ACAD_REACTORS
330
47
102
}
330
47
100
AcDbScale
 70
     0
300
1:16
140
1.0
141
16.0
290
     0
  0
SCALE
  5
4F
102
{ACAD_REACTORS
330
47
102
}
330
47
100
AcDbScale
 70
     0
300
1:20
140
1.0
141
20.0
290
     0
  0
SCALE
  5
50
102
{ACAD_REACTORS
330
47
102
}
330
47
100
AcDbScale
 70
     0
300
1:30
140
1.0
141
30.0
290
     0
  0
SCALE
  5
51
102
{ACAD_REACTORS
330
47
102
}
330
47
100
AcDbScale
 70
     0
300
1:40
140
1.0
141
40.0
290
     0
  0
SCALE
  5
52
102
{ACAD_REACTORS
330
47
102
}
330
47
100
AcDbScale
 70
     0
300
1:50
140
1.0
141
50.0
290
     0
  0
SCALE
  5
53
102
{ACAD_REACTORS
330
47
102
}
330
47
100
AcDbScale
 70
     0
300
1:100
140
1.0
141
100.0
290
     0
  0
SCALE
  5
54
102
{ACAD_REACTORS
330
47
102
}
330
47
100
AcDbScale
 70
     0
300
2:1
140
2.0
141
1.0
290
     0
  0
SCALE
  5
55
102
{ACAD_REACTORS
330
47
102
}
330
47
100
AcDbScale
 70
     0
300
4:1
140
4.0
141
1.0
290
     0
  0
SCALE
  5
56
102
{ACAD_REACTORS
330
47
102
}
330
47
100
AcDbScale
 70
     0
300
8:1
140
8.0
141
1.0
290
     0
  0
SCALE
  5
57
102
{ACAD_REACTORS
330
47
102
}
330
47
100
AcDbScale
 70
     0
300
10:1
140
10.0
141
1.0
290
     0
  0
SCALE
  5
58
102
{ACAD_REACTORS
330
47
102
}
330
47
100
AcDbScale
 70
     0
300
100:1
140
100.0
141
1.0
290
     0
  0
SCALE
  5
59
102
{ACAD_REACTORS
330
47
102
}
330
47
100
AcDbScale
 70
     0
300
1/128" = 1'-0"
140
0.0078125
141
12.0
290
     0
  0
SCALE
  5
5A
102
{ACAD_REACTORS
330
47
102
}
330
47
100
AcDbScale
 70
     0
300
1/64" = 1'-0"
140
0.015625
141
12.0
290
     0
  0
SCALE
  5
5B
102
{ACAD_REACTORS
330
47
102
}
330
47
100
AcDbScale
 70
     0
300
1/32" = 1'-0"
140
0.03125
141
12.0
290
     0
  0
SCALE
  5
5C
102
{ACAD_REACTORS
330
47
102
}
330
47
100
AcDbScale
 70
     0
300
1/16" = 1'-0"
140
0.0625
141
12.0
290
     0
  0
SCALE
  5
5D
102
{ACAD_REACTORS
330
47
102
}
330
47
100
AcDbScale
 70
     0
300
3/32" = 1'-0"
140
0.09375
141
12.0
290
     0
  0
SCALE
  5
5E
102
{ACAD_REACTORS
330
47
102
}
330
47
100
AcDbScale
 70
     0
300
1/8" = 1'-0"
140
0.125
141
12.0
290
     0
  0
SCALE
  5
5F
102
{ACAD_REACTORS
330
47
102
}
330
47
100
AcDbScale
 70
     0
300
3/16" = 1'-0"
140
0.1875
141
12.0
290
     0
  0
SCALE
  5
60
102
{ACAD_REACTORS
330
47
102
}
330
47
100
AcDbScale
 70
     0
300
1/4" = 1'-0"
140
0.25
141
12.0
290
     0
  0
SCALE
  5
61
102
{ACAD_REACTORS
330
47
102
}
330
47
100
AcDbScale
 70
     0
300
3/8" = 1'-0"
140
0.375
141
12.0
290
     0
  0
SCALE
  5
62
102
{ACAD_REACTORS
330
47
102
}
330
47
100
AcDbScale
 70
     0
300
1/2" = 1'-0"
140
0.5
141
12.0
290
     0
  0
SCALE
  5
63
102
{ACAD_REACTORS
330
47
102
}
330
47
100
AcDbScale
 70
     0
300
3/4" = 1'-0"
140
0.75
141
12.0
290
     0
  0
SCALE
  5
64
102
{ACAD_REACTORS
330
47
102
}
330
47
100
AcDbScale
 70
     0
300
1" = 1'-0"
140
1.0
141
12.0
290
     0
  0
SCALE
  5
65
102
{ACAD_REACTORS
330
47
102
}
330
47
100
AcDbScale
 70
     0
300
1-1/2" = 1'-0"
140
1.5
141
12.0
290
     0
  0
SCALE
  5
66
102
{ACAD_REACTORS
330
47
102
}
330
47
100
AcDbScale
 70
     0
300
3" = 1'-0"
140
3.0
141
12.0
290
     0
  0
SCALE
  5
67
102
{ACAD_REACTORS
330
47
102
}
330
47
100
AcDbScale
 70
     0
300
6" = 1'-0"
140
6.0
141
12.0
290
     0
  0
SCALE
  5
68
102
{ACAD_REACTORS
330
47
102
}
330
47
100
AcDbScale
 70
     0
300
1'-0" = 1'-0"
140
12.0
141
12.0
290
     0
  0
TABLESTYLE
  5
6A
102
{ACAD_REACTORS
330
69
102
}
102
{ACAD_XDICTIONARY
360
225
102
}
330
69
100
AcDbTableStyle
  3
Standard
 70
     0
 71
     0
 40
0.06
 41
0.06
280
     0
281
     0
  7
Standard
140
4.5
170
     2
 62
     0
 63
   257
283
     0
 90
        4
 91
        0
  1

274
    -2
284
     1
 64
     0
275
    -2
285
     1
 65
     0
276
    -2
286
     1
 66
     0
277
    -2
287
     1
 67
     0
278
    -2
288
     1
 68
     0
279
    -2
289
     1
 69
     0
  7
Standard
140
6.0
170
     5
 62
     0
 63
   257
283
     0
 90
        4
 91
        0
  1

274
    -2
284
     1
 64
     0
275
    -2
285
     1
 65
     0
276
    -2
286
     1
 66
     0
277
    -2
287
     1
 67
     0
278
    -2
288
     1
 68
     0
279
    -2
289
     1
 69
     0
  7
Standard
140
4.5
170
     5
 62
     0
 63
   257
283
     0
 90
        4
 91
        0
  1

274
    -2
284
     1
 64
     0
275
    -2
285
     1
 65
     0
276
    -2
286
     1
 66
     0
277
    -2
287
     1
 67
     0
278
    -2
288
     1
 68
     0
279
    -2
289
     1
 69
     0
  0
VISUALSTYLE
  5
2F
102
{ACAD_REACTORS
330
2A
102
}
330
2A
100
AcDbVisualStyle
  2
2dWireframe
 70
     4
177
     3
291
     0
 70
    58
 90
        0
176
     1
 90
        2
176
     1
 90
        0
176
     1
 90
        0
176
     1
 40
0.6
176
     1
 40
30.0
176
     1
 62
     7
420
 16777215
176
     1
 90
        1
176
     1
 90
        4
176
     1
 62
     7
176
     1
 62
   257
176
     1
 90
        1
176
     1
 90
        1
176
     1
 40
1.0
176
     1
 90
        0
176
     1
 62
   257
176
     1
 40
1.0
176
     1
 90
        1
176
     1
 90
        6
176
     1
 90
        2
176
     1
 62
     7
176
     1
 90
        5
176
     1
 90
        0
176
     1
 90
        0
176
     1
290
     0
176
     1
 90
        1
176
     1
 40
0.0
176
     1
 90
        0
176
     1
290
     1
176
     1
290
     1
176
     1
290
     0
176
     1
290
     0
176
     1
290
     0
176
     1
290
     0
176
     1
290
     0
176
     1
290
     0
176
     1
290
     0
176
     1
 90
       50
176
     1
 40
0.0
176
     1
 40
1.0
176
     1
 90
        0
176
     1
 62
    18
420
        0
176
     1
 90
       50
176
     1
 90
        3
176
     1
 62
     5
420
      255
176
     1
290
     0
176
     1
 90
       50
176
     1
 90
       50
176
     1
 90
       50
176
     1
290
     0
176
     1
 90
       50
176
     1
 62
   256
176
     0
 40
1.0
176
     0
 90
        2
176
     1
  1
strokes_ogs.tif
176
     1
290
     0
176
     1
 40
1.0
176
     1
 40
1.0
176
     1
  0
VISUALSTYLE
  5
32
102
{ACAD_REACTORS
330
2A
102
}
330
2A
100
AcDbVisualStyle
  2
Basic
 70
     7
177
     3
291
     1
 70
    58
 90
        1
176
     1
 90
        0
176
     1
 90
        1
176
     1
 90
        0
176
     1
 40
0.6
176
     1
 40
30.0
176
     1
 62
     7
420
 16777215
176
     1
 90
        0
176
     1
 90
        4
176
     1
 62
     7
176
     1
 62
   257
176
     1
 90
        1
176
     1
 90
        1
176
     1
 40
1.0
176
     1
 90
        8
176
     1
 62
     7
176
     1
 40
1.0
176
     1
 90
        1
176
     1
 90
        6
176
     1
 90
        2
176
     1
 62
     7
176
     1
 90
        5
176
     1
 90
        0
176
     1
 90
        0
176
     1
290
     0
176
     1
 90
        1
176
     1
 40
0.0
176
     1
 90
        0
176
     1
290
     0
176
     1
290
     1
176
     1
290
     1
176
     1
290
     0
176
     1
290
     0
176
     1
290
     0
176
     1
290
     0
176
     1
290
     0
176
     1
290
     0
176
     1
 90
       50
176
     1
 40
0.0
176
     1
 40
1.0
176
     1
 90
        0
176
     1
 62
    18
420
        0
176
     1
 90
       50
176
     1
 90
        3
176
     1
 62
     5
420
      255
176
     1
290
     0
176
     1
 90
       50
176
     1
 90
       50
176
     1
 90
       50
176
     1
290
     0
176
     1
 90
       50
176
     1
 62
   256
176
     0
 40
1.0
176
     0
 90
        2
176
     1
  1
strokes_ogs.tif
176
     1
290
     0
176
     1
 40
1.0
176
     1
 40
1.0
176
     1
  0
VISUALSTYLE
  5
36
102
{ACAD_REACTORS
330
2A
102
}
330
2A
100
AcDbVisualStyle
  2
Brighten
 70
    12
177
     3
291
     1
 70
    58
 90
        2
176
     1
 90
        2
176
     1
 90
        0
176
     1
 90
        0
176
     1
 40
0.6
176
     1
 40
30.0
176
     1
 62
     7
420
 16777215
176
     1
 90
        1
176
     1
 90
        4
176
     1
 62
     7
176
     1
 62
   257
176
     1
 90
        1
176
     1
 90
        1
176
     1
 40
1.0
176
     1
 90
        8
176
     1
 62
     7
176
     1
 40
1.0
176
     1
 90
        1
176
     1
 90
        6
176
     1
 90
        2
176
     1
 62
     7
176
     1
 90
        5
176
     1
 90
        0
176
     1
 90
        0
176
     1
290
     0
176
     1
 90
        1
176
     1
 40
50.0
176
     1
 90
        0
176
     1
290
     0
176
     1
290
     1
176
     1
290
     1
176
     1
290
     0
176
     1
290
     0
176
     1
290
     0
176
     1
290
     0
176
     1
290
     0
176
     1
290
     0
176
     1
 90
       50
176
     1
 40
0.0
176
     1
 40
1.0
176
     1
 90
        0
176
     1
 62
    18
420
        0
176
     1
 90
       50
176
     1
 90
        3
176
     1
 62
     5
420
      255
176
     1
290
     0
176
     1
 90
       50
176
     1
 90
       50
176
     1
 90
       50
176
     1
290
     0
176
     1
 90
       50
176
     1
 62
   256
176
     0
 40
1.0
176
     0
 90
        2
176
     1
  1
strokes_ogs.tif
176
     1
290
     0
176
     1
 40
1.0
176
     1
 40
1.0
176
     1
  0
VISUALSTYLE
  5
3A
102
{ACAD_REACTORS
330
2A
102
}
330
2A
100
AcDbVisualStyle
  2
ColorChange
 70
    16
177
     3
291
     1
 70
    58
 90
        2
176
     1
 90
        2
176
     1
 90
        3
176
     1
 90
        0
176
     1
 40
0.6
176
     1
 40
30.0
176
     1
 62
     8
420
  8421504
176
     1
 90
        1
176
     1
 90
        4
176
     1
 62
     7
176
     1
 62
   257
176
     1
 90
        1
176
     1
 90
        1
176
     1
 40
1.0
176
     1
 90
        8
176
     1
 62
     8
420
  8421504
176
     1
 40
1.0
176
     1
 90
        1
176
     1
 90
        6
176
     1
 90
        2
176
     1
 62
     7
176
     1
 90
        5
176
     1
 90
        0
176
     1
 90
        0
176
     1
290
     0
176
     1
 90
        1
176
     1
 40
0.0
176
     1
 90
        0
176
     1
290
     0
176
     1
290
     1
176
     1
290
     1
176
     1
290
     0
176
     1
290
     0
176
     1
290
     0
176
     1
290
     0
176
     1
290
     0
176
     1
290
     0
176
     1
 90
       50
176
     1
 40
0.0
176
     1
 40
1.0
176
     1
 90
        0
176
     1
 62
    18
420
        0
176
     1
 90
       50
176
     1
 90
        3
176
     1
 62
     5
420
      255
176
     1
290
     0
176
     1
 90
       50
176
     1
 90
       50
176
     1
 90
       50
176
     1
290
     0
176
     1
 90
       50
176
     1
 62
   256
176
     0
 40
1.0
176
     0
 90
        2
176
     1
  1
strokes_ogs.tif
176
     1
290
     0
176
     1
 40
1.0
176
     1
 40
1.0
176
     1
  0
VISUALSTYLE
  5
34
102
{ACAD_REACTORS
330
2A
102
}
330
2A
100
AcDbVisualStyle
  2
Conceptual
 70
     9
177
     3
291
     0
 70
    58
 90
        3
176
     1
 90
        2
176
     1
 90
        0
176
     1
 90
        0
176
     1
 40
0.6
176
     1
 40
30.0
176
     1
 62
     7
420
 16777215
176
     1
 90
        2
176
     1
 90
        2
176
     1
 62
     7
176
     1
 62
   257
176
     1
 90
        1
176
     1
 90
        1
176
     1
 40
179.0
176
     1
 90
        8
176
     1
 62
     7
176
     1
 40
1.0
176
     1
 90
        1
176
     1
 90
        6
176
     1
 90
        2
176
     1
 62
     7
176
     1
 90
        3
176
     1
 90
        0
176
     1
 90
        0
176
     1
290
     0
176
     1
 90
        1
176
     1
 40
0.0
176
     1
 90
        0
176
     1
290
     0
176
     1
290
     1
176
     1
290
     1
176
     1
290
     0
176
     1
290
     0
176
     1
290
     0
176
     1
290
     0
176
     1
290
     0
176
     1
290
     0
176
     1
 90
       50
176
     1
 40
0.0
176
     1
 40
1.0
176
     1
 90
        0
176
     1
 62
    18
420
        0
176
     1
 90
       50
176
     1
 90
        3
176
     1
 62
     5
420
      255
176
     1
290
     0
176
     1
 90
       50
176
     1
 90
       50
176
     1
 90
       50
176
     1
290
     0
176
     1
 90
       50
176
     1
 62
   256
176
     0
 40
1.0
176
     0
 90
        2
176
     1
  1
strokes_ogs.tif
176
     1
290
     0
176
     1
 40
1.0
176
     1
 40
1.0
176
     1
  0
VISUALSTYLE
  5
35
102
{ACAD_REACTORS
330
2A
102
}
330
2A
100
AcDbVisualStyle
  2
Dim
 70
    11
177
     3
291
     1
 70
    58
 90
        2
176
     1
 90
        2
176
     1
 90
        0
176
     1
 90
        0
176
     1
 40
0.6
176
     1
 40
30.0
176
     1
 62
     7
420
 16777215
176
     1
 90
        1
176
     1
 90
        4
176
     1
 62
     7
176
     1
 62
   257
176
     1
 90
        1
176
     1
 90
        1
176
     1
 40
1.0
176
     1
 90
        8
176
     1
 62
     7
176
     1
 40
1.0
176
     1
 90
        1
176
     1
 90
        6
176
     1
 90
        2
176
     1
 62
     7
176
     1
 90
        5
176
     1
 90
        0
176
     1
 90
        0
176
     1
290
     0
176
     1
 90
        1
176
     1
 40
-50.0
176
     1
 90
        0
176
     1
290
     0
176
     1
290
     1
176
     1
290
     1
176
     1
290
     0
176
     1
290
     0
176
     1
290
     0
176
     1
290
     0
176
     1
290
     0
176
     1
290
     0
176
     1
 90
       50
176
     1
 40
0.0
176
     1
 40
1.0
176
     1
 90
        0
176
     1
 62
    18
420
        0
176
     1
 90
       50
176
     1
 90
        3
176
     1
 62
     5
420
      255
176
     1
290
     0
176
     1
 90
       50
176
     1
 90
       50
176
     1
 90
       50
176
     1
290
     0
176
     1
 90
       50
176
     1
 62
   256
176
     0
 40
1.0
176
     0
 90
        2
176
     1
  1
strokes_ogs.tif
176
     1
290
     0
176
     1
 40
1.0
176
     1
 40
1.0
176
     1
  0
VISUALSTYLE
  5
3D
102
{ACAD_REACTORS
330
2A
102
}
330
2A
100
AcDbVisualStyle
  2
EdgeColorOff
 70
    22
177
     3
291
     1
 70
    58
 90
        2
176
     0
 90
        2
176
     0
 90
        0
176
     0
 90
        0
176
     0
 40
0.6
176
     0
 40
30.0
176
     0
 62
     7
420
 16777215
176
     0
 90
        1
176
     0
 90
        4
176
     0
 62
     7
176
     0
 62
   257
176
     0
 90
        1
176
     0
 90
        1
176
     0
 40
1.0
176
     0
 90
        8
176
     2
 62
     7
176
     0
 40
1.0
176
     0
 90
        1
176
     0
 90
        6
176
     0
 90
        2
176
     0
 62
     7
176
     0
 90
        5
176
     0
 90
        0
176
     0
 90
        0
176
     0
290
     0
176
     0
 90
        1
176
     0
 40
0.0
176
     0
 90
        0
176
     0
290
     0
176
     0
290
     1
176
     0
290
     1
176
     0
290
     0
176
     0
290
     0
176
     0
290
     0
176
     0
290
     0
176
     0
290
     0
176
     0
290
     0
176
     0
 90
       50
176
     0
 40
0.0
176
     0
 40
1.0
176
     0
 90
        0
176
     0
 62
    18
420
        0
176
     0
 90
       50
176
     0
 90
        3
176
     0
 62
     5
420
      255
176
     0
290
     0
176
     0
 90
       50
176
     0
 90
       50
176
     0
 90
       50
176
     0
290
     0
176
     0
 90
       50
176
     0
 62
   256
176
     0
 40
1.0
176
     0
 90
        2
176
     0
  1
strokes_ogs.tif
176
     0
290
     0
176
     0
 40
1.0
176
     0
 40
1.0
176
     0
  0
VISUALSTYLE
  5
39
102
{ACAD_REACTORS
330
2A
102
}
330
2A
100
AcDbVisualStyle
  2
Facepattern
 70
    15
177
     3
291
     1
 70
    58
 90
        2
176
     1
 90
        2
176
     1
 90
        0
176
     1
 90
        0
176
     1
 40
0.6
176
     1
 40
30.0
176
     1
 62
     7
420
 16777215
176
     1
 90
        1
176
     1
 90
        4
176
     1
 62
     7
176
     1
 62
   257
176
     1
 90
        1
176
     1
 90
        1
176
     1
 40
1.0
176
     1
 90
        8
176
     1
 62
     7
176
     1
 40
1.0
176
     1
 90
        1
176
     1
 90
        6
176
     1
 90
        2
176
     1
 62
     7
176
     1
 90
        5
176
     1
 90
        0
176
     1
 90
        0
176
     1
290
     0
176
     1
 90
        1
176
     1
 40
0.0
176
     1
 90
        0
176
     1
290
     0
176
     1
290
     1
176
     1
290
     1
176
     1
290
     0
176
     1
290
     0
176
     1
290
     0
176
     1
290
     0
176
     1
290
     0
176
     1
290
     0
176
     1
 90
       50
176
     1
 40
0.0
176
     1
 40
1.0
176
     1
 90
        0
176
     1
 62
    18
420
        0
176
     1
 90
       50
176
     1
 90
        3
176
     1
 62
     5
420
      255
176
     1
290
     0
176
     1
 90
       50
176
     1
 90
       50
176
     1
 90
       50
176
     1
290
     0
176
     1
 90
       50
176
     1
 62
   256
176
     0
 40
1.0
176
     0
 90
        2
176
     1
  1
strokes_ogs.tif
176
     1
290
     0
176
     1
 40
1.0
176
     1
 40
1.0
176
     1
  0
VISUALSTYLE
  5
2B
102
{ACAD_REACTORS
330
2A
102
}
330
2A
100
AcDbVisualStyle
  2
Flat
 70
     0
177
     3
291
     1
 70
    58
 90
        2
176
     1
 90
        1
176
     1
 90
        1
176
     1
 90
        2
176
     1
 40
0.6
176
     1
 40
30.0
176
     1
 62
     7
420
 16777215
176
     1
 90
        0
176
     1
 90
        0
176
     1
 62
     7
176
     1
 62
   257
176
     1
 90
        1
176
     1
 90
        1
176
     1
 40
1.0
176
     1
 90
        8
176
     1
 62
     7
176
     1
 40
1.0
176
     1
 90
        1
176
     1
 90
        6
176
     1
 90
        2
176
     1
 62
     7
176
     1
 90
        5
176
     1
 90
        0
176
     1
 90
        0
176
     1
290
     0
176
     1
 90
       13
176
     1
 40
0.0
176
     1
 90
        0
176
     1
290
     0
176
     1
290
     1
176
     1
290
     1
176
     1
290
     0
176
     1
290
     0
176
     1
290
     0
176
     1
290
     0
176
     1
290
     0
176
     1
290
     0
176
     1
 90
       50
176
     1
 40
0.0
176
     1
 40
1.0
176
     1
 90
        0
176
     1
 62
    18
420
        0
176
     1
 90
       50
176
     1
 90
        3
176
     1
 62
     5
420
      255
176
     1
290
     0
176
     1
 90
       50
176
     1
 90
       50
176
     1
 90
       50
176
     1
290
     0
176
     1
 90
       50
176
     1
 62
   256
176
     0
 40
1.0
176
     0
 90
        2
176
     1
  1
strokes_ogs.tif
176
     1
290
     0
176
     1
 40
1.0
176
     1
 40
1.0
176
     1
  0
VISUALSTYLE
  5
2C
102
{ACAD_REACTORS
330
2A
102
}
330
2A
100
AcDbVisualStyle
  2
FlatWithEdges
 70
     1
177
     3
291
     1
 70
    58
 90
        2
176
     1
 90
        1
176
     1
 90
        1
176
     1
 90
        2
176
     1
 40
0.6
176
     1
 40
30.0
176
     1
 62
     7
420
 16777215
176
     1
 90
        1
176
     1
 90
        0
176
     1
 62
     7
176
     1
 62
   257
176
     1
 90
        1
176
     1
 90
        1
176
     1
 40
1.0
176
     1
 90
        0
176
     1
 62
   257
176
     1
 40
1.0
176
     1
 90
        1
176
     1
 90
        6
176
     1
 90
        2
176
     1
 62
     7
176
     1
 90
        5
176
     1
 90
        0
176
     1
 90
        0
176
     1
290
     0
176
     1
 90
       13
176
     1
 40
0.0
176
     1
 90
        0
176
     1
290
     0
176
     1
290
     1
176
     1
290
     1
176
     1
290
     0
176
     1
290
     0
176
     1
290
     0
176
     1
290
     0
176
     1
290
     0
176
     1
290
     0
176
     1
 90
       50
176
     1
 40
0.0
176
     1
 40
1.0
176
     1
 90
        0
176
     1
 62
    18
420
        0
176
     1
 90
       50
176
     1
 90
        3
176
     1
 62
     5
420
      255
176
     1
290
     0
176
     1
 90
       50
176
     1
 90
       50
176
     1
 90
       50
176
     1
290
     0
176
     1
 90
       50
176
     1
 62
   256
176
     0
 40
1.0
176
     0
 90
        2
176
     1
  1
strokes_ogs.tif
176
     1
290
     0
176
     1
 40
1.0
176
     1
 40
1.0
176
     1
  0
VISUALSTYLE
  5
2D
102
{ACAD_REACTORS
330
2A
102
}
330
2A
100
AcDbVisualStyle
  2
Gouraud
 70
     2
177
     3
291
     1
 70
    58
 90
        2
176
     1
 90
        2
176
     1
 90
        1
176
     1
 90
        2
176
     1
 40
0.6
176
     1
 40
30.0
176
     1
 62
     7
420
 16777215
176
     1
 90
        0
176
     1
 90
        0
176
     1
 62
     7
176
     1
 62
   257
176
     1
 90
        1
176
     1
 90
        1
176
     1
 40
1.0
176
     1
 90
        0
176
     1
 62
     7
176
     1
 40
1.0
176
     1
 90
        1
176
     1
 90
        6
176
     1
 90
        2
176
     1
 62
     7
176
     1
 90
        5
176
     1
 90
        0
176
     1
 90
        0
176
     1
290
     0
176
     1
 90
       13
176
     1
 40
0.0
176
     1
 90
        0
176
     1
290
     0
176
     1
290
     1
176
     1
290
     1
176
     1
290
     0
176
     1
290
     0
176
     1
290
     0
176
     1
290
     0
176
     1
290
     0
176
     1
290
     0
176
     1
 90
       50
176
     1
 40
0.0
176
     1
 40
1.0
176
     1
 90
        0
176
     1
 62
    18
420
        0
176
     1
 90
       50
176
     1
 90
        3
176
     1
 62
     5
420
      255
176
     1
290
     0
176
     1
 90
       50
176
     1
 90
       50
176
     1
 90
       50
176
     1
290
     0
176
     1
 90
       50
176
     1
 62
   256
176
     0
 40
1.0
176
     0
 90
        2
176
     1
  1
strokes_ogs.tif
176
     1
290
     0
176
     1
 40
1.0
176
     1
 40
1.0
176
     1
  0
VISUALSTYLE
  5
2E
102
{ACAD_REACTORS
330
2A
102
}
330
2A
100
AcDbVisualStyle
  2
GouraudWithEdges
 70
     3
177
     3
291
     1
 70
    58
 90
        2
176
     1
 90
        2
176
     1
 90
        1
176
     1
 90
        2
176
     1
 40
0.6
176
     1
 40
30.0
176
     1
 62
     7
420
 16777215
176
     1
 90
        1
176
     1
 90
        0
176
     1
 62
     7
176
     1
 62
   257
176
     1
 90
        1
176
     1
 90
        1
176
     1
 40
1.0
176
     1
 90
        0
176
     1
 62
   257
176
     1
 40
1.0
176
     1
 90
        1
176
     1
 90
        6
176
     1
 90
        2
176
     1
 62
     7
176
     1
 90
        5
176
     1
 90
        0
176
     1
 90
        0
176
     1
290
     0
176
     1
 90
       13
176
     1
 40
0.0
176
     1
 90
        0
176
     1
290
     0
176
     1
290
     1
176
     1
290
     1
176
     1
290
     0
176
     1
290
     0
176
     1
290
     0
176
     1
290
     0
176
     1
290
     0
176
     1
290
     0
176
     1
 90
       50
176
     1
 40
0.0
176
     1
 40
1.0
176
     1
 90
        0
176
     1
 62
    18
420
        0
176
     1
 90
       50
176
     1
 90
        3
176
     1
 62
     5
420
      255
176
     1
290
     0
176
     1
 90
       50
176
     1
 90
       50
176
     1
 90
       50
176
     1
290
     0
176
     1
 90
       50
176
     1
 62
   256
176
     0
 40
1.0
176
     0
 90
        2
176
     1
  1
strokes_ogs.tif
176
     1
290
     0
176
     1
 40
1.0
176
     1
 40
1.0
176
     1
  0
VISUALSTYLE
  5
31
102
{ACAD_REACTORS
330
2A
102
}
330
2A
100
AcDbVisualStyle
  2
Hidden
 70
     6
177
     3
291
     0
 70
    58
 90
        1
176
     1
 90
        2
176
     1
 90
        2
176
     1
 90
        0
176
     1
 40
0.6
176
     1
 40
30.0
176
     1
 62
     7
420
 16777215
176
     1
 90
        2
176
     1
 90
        2
176
     1
 62
     7
176
     1
 62
   257
176
     1
 90
        2
176
     1
 90
        1
176
     1
 40
40.0
176
     1
 90
        0
176
     1
 62
   257
176
     1
 40
1.0
176
     1
 90
        1
176
     1
 90
        6
176
     1
 90
        2
176
     1
 62
     7
176
     1
 90
        3
176
     1
 90
        0
176
     1
 90
        0
176
     1
290
     0
176
     1
 90
        1
176
     1
 40
0.0
176
     1
 90
        0
176
     1
290
     0
176
     1
290
     1
176
     1
290
     1
176
     1
290
     0
176
     1
290
     0
176
     1
290
     0
176
     1
290
     0
176
     1
290
     0
176
     1
290
     0
176
     1
 90
       50
176
     1
 40
0.0
176
     1
 40
1.0
176
     1
 90
        0
176
     1
 62
    18
420
        0
176
     1
 90
       50
176
     1
 90
        3
176
     1
 62
     5
420
      255
176
     1
290
     0
176
     1
 90
       50
176
     1
 90
       50
176
     1
 90
       50
176
     1
290
     0
176
     1
 90
       50
176
     1
 62
   256
176
     0
 40
1.0
176
     0
 90
        2
176
     1
  1
strokes_ogs.tif
176
     1
290
     0
176
     1
 40
1.0
176
     1
 40
1.0
176
     1
  0
VISUALSTYLE
  5
3B
102
{ACAD_REACTORS
330
2A
102
}
330
2A
100
AcDbVisualStyle
  2
JitterOff
 70
    20
177
     3
291
     1
 70
    58
 90
        2
176
     0
 90
        2
176
     0
 90
        0
176
     0
 90
        0
176
     0
 40
0.6
176
     0
 40
30.0
176
     0
 62
     7
420
 16777215
176
     0
 90
        1
176
     0
 90
        4
176
     0
 62
     7
176
     0
 62
   257
176
     0
 90
        1
176
     0
 90
        1
176
     0
 40
1.0
176
     0
 90
       10
176
     2
 62
     7
176
     0
 40
1.0
176
     0
 90
        1
176
     0
 90
        6
176
     0
 90
        2
176
     0
 62
     7
176
     0
 90
        5
176
     0
 90
        0
176
     0
 90
        0
176
     0
290
     0
176
     0
 90
        1
176
     0
 40
0.0
176
     0
 90
        0
176
     0
290
     0
176
     0
290
     1
176
     0
290
     1
176
     0
290
     0
176
     0
290
     0
176
     0
290
     0
176
     0
290
     0
176
     0
290
     0
176
     0
290
     0
176
     0
 90
       50
176
     0
 40
0.0
176
     0
 40
1.0
176
     0
 90
        0
176
     0
 62
    18
420
        0
176
     0
 90
       50
176
     0
 90
        3
176
     0
 62
     5
420
      255
176
     0
290
     0
176
     0
 90
       50
176
     0
 90
       50
176
     0
 90
       50
176
     0
290
     0
176
     0
 90
       50
176
     0
 62
   256
176
     0
 40
1.0
176
     0
 90
        2
176
     0
  1
strokes_ogs.tif
176
     0
290
     0
176
     0
 40
1.0
176
     0
 40
1.0
176
     0
  0
VISUALSTYLE
  5
38
102
{ACAD_REACTORS
330
2A
102
}
330
2A
100
AcDbVisualStyle
  2
Linepattern
 70
    14
177
     3
291
     1
 70
    58
 90
        2
176
     1
 90
        2
176
     1
 90
        0
176
     1
 90
        0
176
     1
 40
0.6
176
     1
 40
30.0
176
     1
 62
     7
420
 16777215
176
     1
 90
        1
176
     1
 90
        4
176
     1
 62
     7
176
     1
 62
   257
176
     1
 90
        7
176
     1
 90
        7
176
     1
 40
1.0
176
     1
 90
        8
176
     1
 62
     7
176
     1
 40
1.0
176
     1
 90
        1
176
     1
 90
        6
176
     1
 90
        2
176
     1
 62
     7
176
     1
 90
        5
176
     1
 90
        0
176
     1
 90
        0
176
     1
290
     0
176
     1
 90
        1
176
     1
 40
0.0
176
     1
 90
        0
176
     1
290
     0
176
     1
290
     1
176
     1
290
     1
176
     1
290
     0
176
     1
290
     0
176
     1
290
     0
176
     1
290
     0
176
     1
290
     0
176
     1
290
     0
176
     1
 90
       50
176
     1
 40
0.0
176
     1
 40
1.0
176
     1
 90
        0
176
     1
 62
    18
420
        0
176
     1
 90
       50
176
     1
 90
        3
176
     1
 62
     5
420
      255
176
     1
290
     0
176
     1
 90
       50
176
     1
 90
       50
176
     1
 90
       50
176
     1
290
     0
176
     1
 90
       50
176
     1
 62
   256
176
     0
 40
1.0
176
     0
 90
        2
176
     1
  1
strokes_ogs.tif
176
     1
290
     0
176
     1
 40
1.0
176
     1
 40
1.0
176
     1
  0
VISUALSTYLE
  5
3C
102
{ACAD_REACTORS
330
2A
102
}
330
2A
100
AcDbVisualStyle
  2
OverhangOff
 70
    21
177
     3
291
     1
 70
    58
 90
        2
176
     0
 90
        2
176
     0
 90
        0
176
     0
 90
        0
176
     0
 40
0.6
176
     0
 40
30.0
176
     0
 62
     7
420
 16777215
176
     0
 90
        1
176
     0
 90
        4
176
     0
 62
     7
176
     0
 62
   257
176
     0
 90
        1
176
     0
 90
        1
176
     0
 40
1.0
176
     0
 90
        9
176
     2
 62
     7
176
     0
 40
1.0
176
     0
 90
        1
176
     0
 90
        6
176
     0
 90
        2
176
     0
 62
     7
176
     0
 90
        5
176
     0
 90
        0
176
     0
 90
        0
176
     0
290
     0
176
     0
 90
        1
176
     0
 40
0.0
176
     0
 90
        0
176
     0
290
     0
176
     0
290
     1
176
     0
290
     1
176
     0
290
     0
176
     0
290
     0
176
     0
290
     0
176
     0
290
     0
176
     0
290
     0
176
     0
290
     0
176
     0
 90
       50
176
     0
 40
0.0
176
     0
 40
1.0
176
     0
 90
        0
176
     0
 62
    18
420
        0
176
     0
 90
       50
176
     0
 90
        3
176
     0
 62
     5
420
      255
176
     0
290
     0
176
     0
 90
       50
176
     0
 90
       50
176
     0
 90
       50
176
     0
290
     0
176
     0
 90
       50
176
     0
 62
   256
176
     0
 40
1.0
176
     0
 90
        2
176
     0
  1
strokes_ogs.tif
176
     0
290
     0
176
     0
 40
1.0
176
     0
 40
1.0
176
     0
  0
VISUALSTYLE
  5
33
102
{ACAD_REACTORS
330
2A
102
}
330
2A
100
AcDbVisualStyle
  2
Realistic
 70
     8
177
     3
291
     0
 70
    58
 90
        2
176
     1
 90
        3
176
     1
 90
        0
176
     1
 90
        2
176
     1
 40
0.6
176
     1
 40
30.0
176
     1
 62
     7
420
 16777215
176
     1
 90
        0
176
     1
 90
        0
176
     1
 62
     7
176
     1
 62
   257
176
     1
 90
        1
176
     1
 90
        1
176
     1
 40
1.0
176
     1
 90
        8
176
     1
 62
   257
176
     1
 40
1.0
176
     1
 90
        1
176
     1
 90
        6
176
     1
 90
        2
176
     1
 62
     7
176
     1
 90
        3
176
     1
 90
        0
176
     1
 90
        0
176
     1
290
     0
176
     1
 90
       13
176
     1
 40
0.0
176
     1
 90
        0
176
     1
290
     0
176
     1
290
     1
176
     1
290
     1
176
     1
290
     0
176
     1
290
     0
176
     1
290
     0
176
     1
290
     0
176
     1
290
     0
176
     1
290
     0
176
     1
 90
       50
176
     1
 40
0.0
176
     1
 40
1.0
176
     1
 90
        0
176
     1
 62
    18
420
        0
176
     1
 90
       50
176
     1
 90
        3
176
     1
 62
     5
420
      255
176
     1
290
     0
176
     1
 90
       50
176
     1
 90
       50
176
     1
 90
       50
176
     1
290
     0
176
     1
 90
       50
176
     1
 62
   256
176
     0
 40
1.0
176
     0
 90
        2
176
     1
  1
strokes_ogs.tif
176
     1
290
     0
176
     1
 40
1.0
176
     1
 40
1.0
176
     1
  0
VISUALSTYLE
  5
42
102
{ACAD_REACTORS
330
2A
102
}
330
2A
100
AcDbVisualStyle
  2
Shaded
 70
    27
177
     3
291
     0
 70
    58
 90
        2
176
     1
 90
        2
176
     1
 90
        1
176
     1
 90
        2
176
     1
 40
0.6
176
     1
 40
30.0
176
     1
 62
     7
420
 16777215
176
     1
 90
        0
176
     1
 90
        4
176
     1
 62
     7
176
     1
 62
   257
176
     1
 90
        1
176
     1
 90
        1
176
     1
 40
1.0
176
     1
 90
        8
176
     1
 62
   257
176
     1
 40
1.0
176
     1
 90
        1
176
     1
 90
        6
176
     1
 90
        2
176
     1
 62
     8
420
  7895160
176
     1
 90
        3
176
     1
 90
        0
176
     1
 90
        0
176
     1
290
     0
176
     1
 90
        5
176
     1
 40
0.0
176
     1
 90
        0
176
     1
290
     0
176
     1
290
     1
176
     1
290
     1
176
     1
290
     0
176
     1
290
     0
176
     1
290
     0
176
     1
290
     0
176
     1
290
     0
176
     1
290
     0
176
     1
 90
       50
176
     1
 40
0.0
176
     1
 40
1.0
176
     1
 90
        0
176
     1
 62
    18
420
        0
176
     1
 90
       50
176
     1
 90
        3
176
     1
 62
     5
420
      255
176
     1
290
     0
176
     1
 90
       50
176
     1
 90
       50
176
     1
 90
       50
176
     1
290
     0
176
     1
 90
       50
176
     1
 62
   256
176
     0
 40
1.0
176
     0
 90
        2
176
     1
  1
strokes_ogs.tif
176
     1
290
     0
176
     1
 40
1.0
176
     1
 40
1.0
176
     1
  0
VISUALSTYLE
  5
41
102
{ACAD_REACTORS
330
2A
102
}
330
2A
100
AcDbVisualStyle
  2
Shaded with edges
 70
    26
177
     3
291
     0
 70
    58
 90
        2
176
     1
 90
        2
176
     1
 90
        1
176
     1
 90
        2
176
     1
 40
0.6
176
     1
 40
30.0
176
     1
 62
     7
420
 16777215
176
     1
 90
        1
176
     1
 90
       10
176
     1
 62
     7
176
     1
 62
   257
176
     1
 90
        2
176
     1
 90
        1
176
     1
 40
1.0
176
     1
 90
        8
176
     1
 62
   257
176
     1
 40
1.0
176
     1
 90
        1
176
     1
 90
        6
176
     1
 90
        2
176
     1
 62
     7
176
     1
 90
        3
176
     1
 90
        0
176
     1
 90
        0
176
     1
290
     0
176
     1
 90
        5
176
     1
 40
0.0
176
     1
 90
        0
176
     1
290
     0
176
     1
290
     1
176
     1
290
     1
176
     1
290
     0
176
     1
290
     0
176
     1
290
     0
176
     1
290
     0
176
     1
290
     0
176
     1
290
     0
176
     1
 90
       50
176
     1
 40
0.0
176
     1
 40
1.0
176
     1
 90
        0
176
     1
 62
    18
420
        0
176
     1
 90
       50
176
     1
 90
        3
176
     1
 62
     5
420
      255
176
     1
290
     0
176
     1
 90
       50
176
     1
 90
       50
176
     1
 90
       50
176
     1
290
     0
176
     1
 90
       50
176
     1
 62
   256
176
     0
 40
1.0
176
     0
 90
        2
176
     1
  1
strokes_ogs.tif
176
     1
290
     0
176
     1
 40
1.0
176
     1
 40
1.0
176
     1
  0
VISUALSTYLE
  5
3E
102
{ACAD_REACTORS
330
2A
102
}
330
2A
100
AcDbVisualStyle
  2
Shades of Gray
 70
    23
177
     3
291
     0
 70
    58
 90
        2
176
     1
 90
        2
176
     1
 90
        3
176
     1
 90
        0
176
     1
 40
0.6
176
     1
 40
30.0
176
     1
 62
     7
420
 16777215
176
     1
 90
        2
176
     1
 90
        2
176
     1
 62
     7
176
     1
 62
     7
176
     1
 90
        1
176
     1
 90
        1
176
     1
 40
40.0
176
     1
 90
        8
176
     1
 62
     7
176
     1
 40
1.0
176
     1
 90
        1
176
     1
 90
        6
176
     1
 90
        2
176
     1
 62
     7
176
     1
 90
        3
176
     1
 90
        0
176
     1
 90
        0
176
     1
290
     0
176
     1
 90
        1
176
     1
 40
0.0
176
     1
 90
        0
176
     1
290
     0
176
     1
290
     1
176
     1
290
     1
176
     1
290
     0
176
     1
290
     0
176
     1
290
     0
176
     1
290
     0
176
     1
290
     0
176
     1
290
     0
176
     1
 90
       50
176
     1
 40
0.0
176
     1
 40
1.0
176
     1
 90
        0
176
     1
 62
    18
420
        0
176
     1
 90
       50
176
     1
 90
        3
176
     1
 62
     5
420
      255
176
     1
290
     0
176
     1
 90
       50
176
     1
 90
       50
176
     1
 90
       50
176
     1
290
     0
176
     1
 90
       50
176
     1
 62
   256
176
     0
 40
1.0
176
     0
 90
        2
176
     1
  1
strokes_ogs.tif
176
     1
290
     0
176
     1
 40
1.0
176
     1
 40
1.0
176
     1
  0
VISUALSTYLE
  5
3F
102
{ACAD_REACTORS
330
2A
102
}
330
2A
100
AcDbVisualStyle
  2
Sketchy
 70
    24
177
     3
291
     0
 70
    58
 90
        1
176
     1
 90
        2
176
     1
 90
        2
176
     1
 90
        0
176
     1
 40
0.6
176
     1
 40
30.0
176
     1
 62
     7
420
 16777215
176
     1
 90
        2
176
     1
 90
        2
176
     1
 62
     7
176
     1
 62
     7
176
     1
 90
        1
176
     1
 90
        1
176
     1
 40
40.0
176
     1
 90
       11
176
     1
 62
     7
176
     1
 40
1.0
176
     1
 90
        1
176
     1
 90
        6
176
     1
 90
        2
176
     1
 62
     7
176
     1
 90
        6
176
     1
 90
        0
176
     1
 90
        0
176
     1
290
     0
176
     1
 90
        1
176
     1
 40
0.0
176
     1
 90
        0
176
     1
290
     0
176
     1
290
     1
176
     1
290
     1
176
     1
290
     0
176
     1
290
     0
176
     1
290
     0
176
     1
290
     0
176
     1
290
     0
176
     1
290
     0
176
     1
 90
       50
176
     1
 40
0.0
176
     1
 40
1.0
176
     1
 90
        0
176
     1
 62
    18
420
        0
176
     1
 90
       50
176
     1
 90
        3
176
     1
 62
     5
420
      255
176
     1
290
     0
176
     1
 90
       50
176
     1
 90
       50
176
     1
 90
       50
176
     1
290
     0
176
     1
 90
       50
176
     1
 62
   256
176
     0
 40
1.0
176
     0
 90
        2
176
     1
  1
strokes_ogs.tif
176
     1
290
     0
176
     1
 40
1.0
176
     1
 40
1.0
176
     1
  0
VISUALSTYLE
  5
37
102
{ACAD_REACTORS
330
2A
102
}
330
2A
100
AcDbVisualStyle
  2
Thicken
 70
    13
177
     3
291
     1
 70
    58
 90
        2
176
     1
 90
        2
176
     1
 90
        0
176
     1
 90
        0
176
     1
 40
0.6
176
     1
 40
30.0
176
     1
 62
     7
420
 16777215
176
     1
 90
        1
176
     1
 90
        4
176
     1
 62
     7
176
     1
 62
   257
176
     1
 90
        1
176
     1
 90
        1
176
     1
 40
1.0
176
     1
 90
       12
176
     1
 62
     7
176
     1
 40
1.0
176
     1
 90
        1
176
     1
 90
        6
176
     1
 90
        2
176
     1
 62
     7
176
     1
 90
        5
176
     1
 90
        0
176
     1
 90
        0
176
     1
290
     0
176
     1
 90
        1
176
     1
 40
0.0
176
     1
 90
        0
176
     1
290
     0
176
     1
290
     1
176
     1
290
     1
176
     1
290
     0
176
     1
290
     0
176
     1
290
     0
176
     1
290
     0
176
     1
290
     0
176
     1
290
     0
176
     1
 90
       50
176
     1
 40
0.0
176
     1
 40
1.0
176
     1
 90
        0
176
     1
 62
    18
420
        0
176
     1
 90
       50
176
     1
 90
        3
176
     1
 62
     5
420
      255
176
     1
290
     0
176
     1
 90
       50
176
     1
 90
       50
176
     1
 90
       50
176
     1
290
     0
176
     1
 90
       50
176
     1
 62
   256
176
     0
 40
1.0
176
     0
 90
        2
176
     1
  1
strokes_ogs.tif
176
     1
290
     0
176
     1
 40
1.0
176
     1
 40
1.0
176
     1
  0
VISUALSTYLE
  5
30
102
{ACAD_REACTORS
330
2A
102
}
330
2A
100
AcDbVisualStyle
  2
Wireframe
 70
     5
177
     3
291
     0
 70
    58
 90
        0
176
     1
 90
        2
176
     1
 90
        0
176
     1
 90
        0
176
     1
 40
0.6
176
     1
 40
30.0
176
     1
 62
     7
420
 16777215
176
     1
 90
        1
176
     1
 90
        4
176
     1
 62
     7
176
     1
 62
   257
176
     1
 90
        1
176
     1
 90
        1
176
     1
 40
1.0
176
     1
 90
        0
176
     1
 62
   257
176
     1
 40
1.0
176
     1
 90
        1
176
     1
 90
        6
176
     1
 90
        2
176
     1
 62
     7
176
     1
 90
        3
176
     1
 90
        0
176
     1
 90
        0
176
     1
290
     0
176
     1
 90
        1
176
     1
 40
0.0
176
     1
 90
        0
176
     1
290
     0
176
     1
290
     1
176
     1
290
     1
176
     1
290
     0
176
     1
290
     0
176
     1
290
     0
176
     1
290
     0
176
     1
290
     0
176
     1
290
     0
176
     1
 90
       50
176
     1
 40
0.0
176
     1
 40
1.0
176
     1
 90
        0
176
     1
 62
    18
420
        0
176
     1
 90
       50
176
     1
 90
        3
176
     1
 62
     5
420
      255
176
     1
290
     0
176
     1
 90
       50
176
     1
 90
       50
176
     1
 90
       50
176
     1
290
     0
176
     1
 90
       50
176
     1
 62
   256
176
     0
 40
1.0
176
     0
 90
        2
176
     1
  1
strokes_ogs.tif
176
     1
290
     0
176
     1
 40
1.0
176
     1
 40
1.0
176
     1
  0
VISUALSTYLE
  5
40
102
{ACAD_REACTORS
330
2A
102
}
330
2A
100
AcDbVisualStyle
  2
X-Ray
 70
    25
177
     3
291
     0
 70
    58
 90
        2
176
     1
 90
        2
176
     1
 90
        1
176
     1
 90
        1
176
     1
 40
0.5
176
     1
 40
30.0
176
     1
 62
     7
420
 16777215
176
     1
 90
        1
176
     1
 90
        0
176
     1
 62
     7
176
     1
 62
   257
176
     1
 90
        1
176
     1
 90
        1
176
     1
 40
1.0
176
     1
 90
        8
176
     1
 62
     7
176
     1
 40
1.0
176
     1
 90
        1
176
     1
 90
        6
176
     1
 90
        2
176
     1
 62
     7
176
     1
 90
        3
176
     1
 90
        0
176
     1
 90
        0
176
     1
290
     0
176
     1
 90
       13
176
     1
 40
0.0
176
     1
 90
        0
176
     1
290
     0
176
     1
290
     1
176
     1
290
     1
176
     1
290
     0
176
     1
290
     0
176
     1
290
     0
176
     1
290
     0
176
     1
290
     0
176
     1
290
     0
176
     1
 90
       50
176
     1
 40
0.0
176
     1
 40
1.0
176
     1
 90
        0
176
     1
 62
    18
420
        0
176
     1
 90
       50
176
     1
 90
        3
176
     1
 62
     5
420
      255
176
     1
290
     0
176
     1
 90
       50
176
     1
 90
       50
176
     1
 90
       50
176
     1
290
     0
176
     1
 90
       50
176
     1
 62
   256
176
     0
 40
1.0
176
     0
 90
        2
176
     1
  1
strokes_ogs.tif
176
     1
290
     0
176
     1
 40
1.0
176
     1
 40
1.0
176
     1
  0
DICTIONARYVAR
  5
224
102
{ACAD_REACTORS
330
223
102
}
330
223
100
DictionaryVariables
280
     0
  1
1:1
  0
DICTIONARYVAR
  5
22C
102
{ACAD_REACTORS
330
223
102
}
330
223
100
DictionaryVariables
280
     0
  1
3.500000
  0
DICTIONARYVAR
  5
22D
102
{ACAD_REACTORS
330
223
102
}
330
223
100
DictionaryVariables
280
     0
  1
acadiso.lin
  0
DICTIONARYVAR
  5
229
102
{ACAD_REACTORS
330
223
102
}
330
223
100
DictionaryVariables
280
     0
  1
Standard
  0
DICTIONARYVAR
  5
228
102
{ACAD_REACTORS
330
223
102
}
330
223
100
DictionaryVariables
280
     0
  1
Standard
  0
DICTIONARY
  5
225
330
6A
100
AcDbDictionary
280
     1
281
     1
  3
ACAD_ROUNDTRIP_2008_TABLESTYLE_CELLSTYLEMAP
360
226
  0
CELLSTYLEMAP
  5
226
102
{ACAD_REACTORS
330
225
102
}
330
225
100
AcDbCellStyleMap
 90
        3
300
CELLSTYLE
  1
TABLEFORMAT_BEGIN
 90
        5
170
     1
 91
        0
 92
    32768
 62
   257
 93
        1
300
CONTENTFORMAT
  1
CONTENTFORMAT_BEGIN
 90
        0
 91
        0
 92
        4
 93
        0
300

 40
0.0
140
1.0
 94
        5
 62
     0
340
11
144
6.0
309
CONTENTFORMAT_END
171
     1
301
MARGIN
  1
CELLMARGIN_BEGIN
 40
1.5
 40
1.5
 40
1.5
 40
1.5
 40
1.5
 40
1.5
309
CELLMARGIN_END
 94
        6
 95
        1
302
GRIDFORMAT
  1
GRIDFORMAT_BEGIN
 90
        0
 91
        1
 62
     0
 92
       -2
340
14
 93
        0
 40
0.045
309
GRIDFORMAT_END
 95
        2
302
GRIDFORMAT
  1
GRIDFORMAT_BEGIN
 90
        0
 91
        1
 62
     0
 92
       -2
340
14
 93
        0
 40
0.045
309
GRIDFORMAT_END
 95
        4
302
GRIDFORMAT
  1
GRIDFORMAT_BEGIN
 90
        0
 91
        1
 62
     0
 92
       -2
340
14
 93
        0
 40
0.045
309
GRIDFORMAT_END
 95
        8
302
GRIDFORMAT
  1
GRIDFORMAT_BEGIN
 90
        0
 91
        1
 62
     0
 92
       -2
340
14
 93
        0
 40
0.045
309
GRIDFORMAT_END
 95
       16
302
GRIDFORMAT
  1
GRIDFORMAT_BEGIN
 90
        0
 91
        1
 62
     0
 92
       -2
340
14
 93
        0
 40
0.045
309
GRIDFORMAT_END
 95
       32
302
GRIDFORMAT
  1
GRIDFORMAT_BEGIN
 90
        0
 91
        1
 62
     0
 92
       -2
340
14
 93
        0
 40
0.045
309
GRIDFORMAT_END
309
TABLEFORMAT_END
  1
CELLSTYLE_BEGIN
 90
        1
 91
        1
300
_TITLE
309
CELLSTYLE_END
300
CELLSTYLE
  1
TABLEFORMAT_BEGIN
 90
        5
170
     1
 91
        0
 92
        0
 62
   257
 93
        1
300
CONTENTFORMAT
  1
CONTENTFORMAT_BEGIN
 90
        0
 91
        0
 92
        4
 93
        0
300

 40
0.0
140
1.0
 94
        5
 62
     0
340
11
144
4.5
309
CONTENTFORMAT_END
171
     1
301
MARGIN
  1
CELLMARGIN_BEGIN
 40
1.5
 40
1.5
 40
1.5
 40
1.5
 40
1.5
 40
1.5
309
CELLMARGIN_END
 94
        6
 95
        1
302
GRIDFORMAT
  1
GRIDFORMAT_BEGIN
 90
        0
 91
        1
 62
     0
 92
       -2
340
14
 93
        0
 40
0.045
309
GRIDFORMAT_END
 95
        2
302
GRIDFORMAT
  1
GRIDFORMAT_BEGIN
 90
        0
 91
        1
 62
     0
 92
       -2
340
14
 93
        0
 40
0.045
309
GRIDFORMAT_END
 95
        4
302
GRIDFORMAT
  1
GRIDFORMAT_BEGIN
 90
        0
 91
        1
 62
     0
 92
       -2
340
14
 93
        0
 40
0.045
309
GRIDFORMAT_END
 95
        8
302
GRIDFORMAT
  1
GRIDFORMAT_BEGIN
 90
        0
 91
        1
 62
     0
 92
       -2
340
14
 93
        0
 40
0.045
309
GRIDFORMAT_END
 95
       16
302
GRIDFORMAT
  1
GRIDFORMAT_BEGIN
 90
        0
 91
        1
 62
     0
 92
       -2
340
14
 93
        0
 40
0.045
309
GRIDFORMAT_END
 95
       32
302
GRIDFORMAT
  1
GRIDFORMAT_BEGIN
 90
        0
 91
        1
 62
     0
 92
       -2
340
14
 93
        0
 40
0.045
309
GRIDFORMAT_END
309
TABLEFORMAT_END
  1
CELLSTYLE_BEGIN
 90
        2
 91
        1
300
_HEADER
309
CELLSTYLE_END
300
CELLSTYLE
  1
TABLEFORMAT_BEGIN
 90
        5
170
     1
 91
        0
 92
        0
 62
   257
 93
        1
300
CONTENTFORMAT
  1
CONTENTFORMAT_BEGIN
 90
        0
 91
        0
 92
        4
 93
        0
300

 40
0.0
140
1.0
 94
        2
 62
     0
340
11
144
4.5
309
CONTENTFORMAT_END
171
     1
301
MARGIN
  1
CELLMARGIN_BEGIN
 40
1.5
 40
1.5
 40
1.5
 40
1.5
 40
1.5
 40
1.5
309
CELLMARGIN_END
 94
        6
 95
        1
302
GRIDFORMAT
  1
GRIDFORMAT_BEGIN
 90
        0
 91
        1
 62
     0
 92
       -2
340
14
 93
        0
 40
0.045
309
GRIDFORMAT_END
 95
        2
302
GRIDFORMAT
  1
GRIDFORMAT_BEGIN
 90
        0
 91
        1
 62
     0
 92
       -2
340
14
 93
        0
 40
0.045
309
GRIDFORMAT_END
 95
        4
302
GRIDFORMAT
  1
GRIDFORMAT_BEGIN
 90
        0
 91
        1
 62
     0
 92
       -2
340
14
 93
        0
 40
0.045
309
GRIDFORMAT_END
 95
        8
302
GRIDFORMAT
  1
GRIDFORMAT_BEGIN
 90
        0
 91
        1
 62
     0
 92
       -2
340
14
 93
        0
 40
0.045
309
GRIDFORMAT_END
 95
       16
302
GRIDFORMAT
  1
GRIDFORMAT_BEGIN
 90
        0
 91
        1
 62
     0
 92
       -2
340
14
 93
        0
 40
0.045
309
GRIDFORMAT_END
 95
       32
302
GRIDFORMAT
  1
GRIDFORMAT_BEGIN
 90
        0
 91
        1
 62
     0
 92
       -2
340
14
 93
        0
 40
0.045
309
GRIDFORMAT_END
309
TABLEFORMAT_END
  1
CELLSTYLE_BEGIN
 90
        3
 91
        2
300
_DATA
309
CELLSTYLE_END
  0
ENDSEC
  0
EOF
