  0
SECTION
  2
HEADER
  9
$ACADVER
  1
AC1027
  9
$ACADMAINTVER
 70
   105
  9
$DWGCODEPAGE
  3
ANSI_1250
  9
$REQUIREDVERSIONS
160
                 0
  9
$INSBASE
 10
0.0
 20
0.0
 30
0.0
  9
$EXTMIN
 10
1.000000000000000E+20
 20
1.000000000000000E+20
 30
1.000000000000000E+20
  9
$EXTMAX
 10
-1.000000000000000E+20
 20
-1.000000000000000E+20
 30
-1.000000000000000E+20
  9
$LIMMIN
 10
0.0
 20
0.0
  9
$LIMMAX
 10
420.0
 20
297.0
  9
$ORTHOMODE
 70
     0
  9
$REGENMODE
 70
     1
  9
$FILLMODE
 70
     1
  9
$QTEXTMODE
 70
     0
  9
$MIRRTEXT
 70
     1
  9
$LTSCALE
 40
1.0
  9
$ATTMODE
 70
     1
  9
$TEXTSIZE
 40
2.5
  9
$TRACEWID
 40
1.0
  9
$TEXTSTYLE
  7
Standard
  9
$CLAYER
  8
0
  9
$CELTYPE
  6
ByLayer
  9
$CECOLOR
 62
   256
  9
$CELTSCALE
 40
1.0
  9
$DISPSILH
 70
     0
  9
$DIMSCALE
 40
1.0
  9
$DIMASZ
 40
3.0
  9
$DIMEXO
 40
0.625
  9
$DIMDLI
 40
3.75
  9
$DIMRND
 40
0.0
  9
$DIMDLE
 40
0.0
  9
$DIMEXE
 40
1.25
  9
$DIMTP
 40
0.0
  9
$DIMTM
 40
0.0
  9
$DIMTXT
 40
1.336918010447422
  9
$DIMCEN
 40
2.5
  9
$DIMTSZ
 40
0.0
  9
$DIMTOL
 70
     0
  9
$DIMLIM
 70
     0
  9
$DIMTIH
 70
     0
  9
$DIMTOH
 70
     0
  9
$DIMSE1
 70
     0
  9
$DIMSE2
 70
     0
  9
$DIMTAD
 70
     1
  9
$DIMZIN
 70
     8
  9
$DIMBLK
  1

  9
$DIMASO
 70
     1
  9
$DIMSHO
 70
     1
  9
$DIMPOST
  1

  9
$DIMAPOST
  1

  9
$DIMALT
 70
     0
  9
$DIMALTD
 70
     3
  9
$DIMALTF
 40
0.03937007874016
  9
$DIMLFAC
 40
1.0
  9
$DIMTOFL
 70
     1
  9
$DIMTVP
 40
0.0
  9
$DIMTIX
 70
     0
  9
$DIMSOXD
 70
     0
  9
$DIMSAH
 70
     0
  9
$DIMBLK1
  1

  9
$DIMBLK2
  1

  9
$DIMSTYLE
  2
ISO-25
  9
$DIMCLRD
 70
     0
  9
$DIMCLRE
 70
     0
  9
$DIMCLRT
 70
     0
  9
$DIMTFAC
 40
1.0
  9
$DIMGAP
 40
0.625
  9
$DIMJUST
 70
     0
  9
$DIMSD1
 70
     0
  9
$DIMSD2
 70
     0
  9
$DIMTOLJ
 70
     0
  9
$DIMTZIN
 70
     8
  9
$DIMALTZ
 70
     0
  9
$DIMALTTZ
 70
     0
  9
$DIMUPT
 70
     0
  9
$DIMDEC
 70
     2
  9
$DIMTDEC
 70
     2
  9
$DIMALTU
 70
     2
  9
$DIMALTTD
 70
     3
  9
$DIMTXSTY
  7
Standard
  9
$DIMAUNIT
 70
     0
  9
$DIMADEC
 70
     0
  9
$DIMALTRND
 40
0.0
  9
$DIMAZIN
 70
     0
  9
$DIMDSEP
 70
    44
  9
$DIMATFIT
 70
     3
  9
$DIMFRAC
 70
     0
  9
$DIMLDRBLK
  1

  9
$DIMLUNIT
 70
     2
  9
$DIMLWD
 70
    -2
  9
$DIMLWE
 70
    -2
  9
$DIMTMOVE
 70
     0
  9
$DIMFXL
 40
1.0
  9
$DIMFXLON
 70
     0
  9
$DIMJOGANG
 40
0.7853981633974483
  9
$DIMTFILL
 70
     0
  9
$DIMTFILLCLR
 70
     0
  9
$DIMARCSYM
 70
     0
  9
$DIMLTYPE
  6

  9
$DIMLTEX1
  6

  9
$DIMLTEX2
  6

  9
$DIMTXTDIRECTION
 70
     0
  9
$LUNITS
 70
     2
  9
$LUPREC
 70
     4
  9
$SKETCHINC
 40
1.0
  9
$FILLETRAD
 40
10.0
  9
$AUNITS
 70
     0
  9
$AUPREC
 70
     0
  9
$MENU
  1
.
  9
$ELEVATION
 40
0.0
  9
$PELEVATION
 40
0.0
  9
$THICKNESS
 40
0.0
  9
$LIMCHECK
 70
     0
  9
$CHAMFERA
 40
0.0
  9
$CHAMFERB
 40
0.0
  9
$CHAMFERC
 40
0.0
  9
$CHAMFERD
 40
0.0
  9
$SKPOLY
 70
     0
  9
$TDCREATE
 40
2458367.467771852
  9
$TDUCREATE
 40
2458367.384438518
  9
$TDUPDATE
 40
2458367.467775266
  9
$TDUUPDATE
 40
2458367.384441933
  9
$TDINDWG
 40
0.0000000116
  9
$TDUSRTIMER
 40
0.0000000116
  9
$USRTIMER
 70
     1
  9
$ANGBASE
 50
0.0
  9
$ANGDIR
 70
     0
  9
$PDMODE
 70
     0
  9
$PDSIZE
 40
0.0
  9
$PLINEWID
 40
0.0
  9
$SPLFRAME
 70
     0
  9
$SPLINETYPE
 70
     6
  9
$SPLINESEGS
 70
     8
  9
$HANDSEED
  5
227
  9
$SURFTAB1
 70
     6
  9
$SURFTAB2
 70
     6
  9
$SURFTYPE
 70
     6
  9
$SURFU
 70
     6
  9
$SURFV
 70
     6
  9
$UCSBASE
  2

  9
$UCSNAME
  2

  9
$UCSORG
 10
0.0
 20
0.0
 30
0.0
  9
$UCSXDIR
 10
1.0
 20
0.0
 30
0.0
  9
$UCSYDIR
 10
0.0
 20
1.0
 30
0.0
  9
$UCSORTHOREF
  2

  9
$UCSORTHOVIEW
 70
     0
  9
$UCSORGTOP
 10
0.0
 20
0.0
 30
0.0
  9
$UCSORGBOTTOM
 10
0.0
 20
0.0
 30
0.0
  9
$UCSORGLEFT
 10
0.0
 20
0.0
 30
0.0
  9
$UCSORGRIGHT
 10
0.0
 20
0.0
 30
0.0
  9
$UCSORGFRONT
 10
0.0
 20
0.0
 30
0.0
  9
$UCSORGBACK
 10
0.0
 20
0.0
 30
0.0
  9
$PUCSBASE
  2

  9
$PUCSNAME
  2

  9
$PUCSORG
 10
0.0
 20
0.0
 30
0.0
  9
$PUCSXDIR
 10
1.0
 20
0.0
 30
0.0
  9
$PUCSYDIR
 10
0.0
 20
1.0
 30
0.0
  9
$PUCSORTHOREF
  2

  9
$PUCSORTHOVIEW
 70
     0
  9
$PUCSORGTOP
 10
0.0
 20
0.0
 30
0.0
  9
$PUCSORGBOTTOM
 10
0.0
 20
0.0
 30
0.0
  9
$PUCSORGLEFT
 10
0.0
 20
0.0
 30
0.0
  9
$PUCSORGRIGHT
 10
0.0
 20
0.0
 30
0.0
  9
$PUCSORGFRONT
 10
0.0
 20
0.0
 30
0.0
  9
$PUCSORGBACK
 10
0.0
 20
0.0
 30
0.0
  9
$USERI1
 70
     0
  9
$USERI2
 70
     0
  9
$USERI3
 70
     0
  9
$USERI4
 70
     0
  9
$USERI5
 70
     0
  9
$USERR1
 40
0.0
  9
$USERR2
 40
0.0
  9
$USERR3
 40
0.0
  9
$USERR4
 40
0.0
  9
$USERR5
 40
0.0
  9
$WORLDVIEW
 70
     1
  9
$SHADEDGE
 70
     3
  9
$SHADEDIF
 70
    70
  9
$TILEMODE
 70
     1
  9
$MAXACTVP
 70
    64
  9
$PINSBASE
 10
0.0
 20
0.0
 30
0.0
  9
$PLIMCHECK
 70
     0
  9
$PEXTMIN
 10
1.000000000000000E+20
 20
1.000000000000000E+20
 30
1.000000000000000E+20
  9
$PEXTMAX
 10
-1.000000000000000E+20
 20
-1.000000000000000E+20
 30
-1.000000000000000E+20
  9
$PLIMMIN
 10
0.0
 20
0.0
  9
$PLIMMAX
 10
420.0
 20
297.0
  9
$UNITMODE
 70
     0
  9
$VISRETAIN
 70
     1
  9
$PLINEGEN
 70
     0
  9
$PSLTSCALE
 70
     1
  9
$TREEDEPTH
 70
  3020
  9
$CMLSTYLE
  2
Standard
  9
$CMLJUST
 70
     0
  9
$CMLSCALE
 40
20.0
  9
$PROXYGRAPHICS
 70
     1
  9
$MEASUREMENT
 70
     1
  9
$CELWEIGHT
370
    -1
  9
$ENDCAPS
280
     0
  9
$JOINSTYLE
280
     0
  9
$LWDISPLAY
290
     0
  9
$INSUNITS
 70
     4
  9
$HYPERLINKBASE
  1

  9
$STYLESHEET
  1

  9
$XEDIT
290
     1
  9
$CEPSNTYPE
380
     0
  9
$PSTYLEMODE
290
     1
  9
$FINGERPRINTGUID
  2
{f1614bf4-5038-4436-9365-d8f2c55f71cf}
  9
$VERSIONGUID
  2
{FAEB1C32-E019-11D5-929B-00C0DF256EC4}
  9
$EXTNAMES
290
     1
  9
$PSVPSCALE
 40
0.0
  9
$OLESTARTUP
290
     0
  9
$SORTENTS
280
   127
  9
$INDEXCTL
280
     0
  9
$HIDETEXT
280
     1
  9
$XCLIPFRAME
280
     2
  9
$HALOGAP
280
     0
  9
$OBSCOLOR
 70
   257
  9
$OBSLTYPE
280
     0
  9
$INTERSECTIONDISPLAY
280
     0
  9
$INTERSECTIONCOLOR
 70
   257
  9
$DIMASSOC
280
     2
  9
$PROJECTNAME
  1

  9
$CAMERADISPLAY
290
     0
  9
$LENSLENGTH
 40
50.0
  9
$CAMERAHEIGHT
 40
0.0
  9
$STEPSPERSEC
 40
2.0
  9
$STEPSIZE
 40
6.0
  9
$3DDWFPREC
 40
2.0
  9
$PSOLWIDTH
 40
5.0
  9
$PSOLHEIGHT
 40
80.0
  9
$LOFTANG1
 40
1.570796326794897
  9
$LOFTANG2
 40
1.570796326794897
  9
$LOFTMAG1
 40
0.0
  9
$LOFTMAG2
 40
0.0
  9
$LOFTPARAM
 70
     7
  9
$LOFTNORMALS
280
     1
  9
$LATITUDE
 40
37.795
  9
$LONGITUDE
 40
-122.394
  9
$NORTHDIRECTION
 40
0.0
  9
$TIMEZONE
 70
 -8000
  9
$LIGHTGLYPHDISPLAY
280
     1
  9
$TILEMODELIGHTSYNCH
280
     1
  9
$CMATERIAL
347
44
  9
$SOLIDHIST
280
     0
  9
$SHOWHIST
280
     1
  9
$DWFFRAME
280
     2
  9
$DGNFRAME
280
     2
  9
$REALWORLDSCALE
290
     1
  9
$INTERFERECOLOR
 62
   256
  9
$CSHADOW
280
     0
  9
$SHADOWPLANELOCATION
 40
0.0
  0
ENDSEC
  0
SECTION
  2
CLASSES
  0
CLASS
  1
ACDBDICTIONARYWDFLT
  2
AcDbDictionaryWithDefault
  3
ObjectDBX Classes
 90
        0
 91
        3
280
     0
281
     0
  0
CLASS
  1
VISUALSTYLE
  2
AcDbVisualStyle
  3
ObjectDBX Classes
 90
     4095
 91
        3
280
     0
281
     0
  0
CLASS
  1
MATERIAL
  2
AcDbMaterial
  3
ObjectDBX Classes
 90
     1153
 91
        3
280
     0
281
     0
  0
CLASS
  1
SCALE
  2
AcDbScale
  3
ObjectDBX Classes
 90
     1153
 91
        3
280
     0
281
     0
  0
CLASS
  1
TABLESTYLE
  2
AcDbTableStyle
  3
ObjectDBX Classes
 90
     4095
 91
        3
280
     0
281
     0
  0
CLASS
  1
MLEADERSTYLE
  2
AcDbMLeaderStyle
  3
ACDB_MLEADERSTYLE_CLASS
 90
     4095
 91
        3
280
     0
281
     0
  0
CLASS
  1
SUN
  2
AcDbSun
  3
SCENEOE
 90
     1153
 91
        3
280
     0
281
     0
  0
CLASS
  1
DICTIONARYVAR
  2
AcDbDictionaryVar
  3
ObjectDBX Classes
 90
        0
 91
        3
280
     0
281
     0
  0
CLASS
  1
CELLSTYLEMAP
  2
AcDbCellStyleMap
  3
ObjectDBX Classes
 90
     1152
 91
        3
280
     0
281
     0
  0
ENDSEC
  0
SECTION
  2
TABLES
  0
TABLE
  2
VPORT
  5
8
330
0
100
AcDbSymbolTable
 70
     1
  0
VPORT
  5
29
330
8
100
AcDbSymbolTableRecord
100
AcDbViewportTableRecord
  2
*Active
 70
     0
 10
0.0
 20
0.0
 11
1.0
 21
1.0
 12
344.1869158878504
 22
148.5
 13
0.0
 23
0.0
 14
10.0
 24
10.0
 15
10.0
 25
10.0
 16
0.0
 26
0.0
 36
1.0
 17
0.0
 27
0.0
 37
0.0
 40
297.0
 41
1.972972972850329
 42
50.0
 43
0.0
 44
0.0
 50
0.0
 51
0.0
 71
     0
 72
   100
 73
     1
 74
     3
 75
     0
 76
     0
 77
     0
 78
     0
281
     0
 65
     1
110
0.0
120
0.0
130
0.0
111
1.0
121
0.0
131
0.0
112
0.0
122
1.0
132
0.0
 79
     0
146
0.0
348
2F
 60
     3
 61
     5
292
     1
282
     1
141
0.0
142
0.0
 63
   250
361
6D
  0
ENDTAB
  0
TABLE
  2
LTYPE
  5
5
330
0
100
AcDbSymbolTable
 70
     2
  0
LTYPE
  5
14
330
5
100
AcDbSymbolTableRecord
100
AcDbLinetypeTableRecord
  2
ByBlock
 70
     0
  3

 72
    65
 73
     0
 40
0.0
  0
LTYPE
  5
15
330
5
100
AcDbSymbolTableRecord
100
AcDbLinetypeTableRecord
  2
ByLayer
 70
     0
  3

 72
    65
 73
     0
 40
0.0
  0
LTYPE
  5
16
330
5
100
AcDbSymbolTableRecord
100
AcDbLinetypeTableRecord
  2
Continuous
 70
     0
  3
Solid line
 72
    65
 73
     0
 40
0.0
  0
LTYPE
  5
7D
330
5
100
AcDbSymbolTableRecord
100
AcDbLinetypeTableRecord
  2
HIDDEN
 70
     0
  3
Hidden __ __ __ __ __ __ __ __ __ __ __ __ __ __
 72
    65
 73
     2
 40
9.524999999999999
 49
6.35
 74
     0
 49
-3.175
 74
     0
  0
ENDTAB
  0
TABLE
  2
LAYER
  5
2
330
0
100
AcDbSymbolTable
 70
     6
  0
LAYER
  5
10
330
2
100
AcDbSymbolTableRecord
100
AcDbLayerTableRecord
  2
0
 70
     0
 62
     7
  6
Continuous
370
    -3
390
F
347
46
348
0
  0
LAYER
  5
6E
330
2
100
AcDbSymbolTableRecord
100
AcDbLayerTableRecord
  2
VISIBLE
 70
     0
 62
     7
  6
Continuous
370
     0
390
F
347
46
348
0
  0
LAYER
  5
7E
330
2
100
AcDbSymbolTableRecord
100
AcDbLayerTableRecord
  2
HIDDEN
 70
     0
 62
   253
  6
HIDDEN
370
     0
390
F
347
46
348
0
  0
LAYER
  5
88
330
2
100
AcDbSymbolTableRecord
100
AcDbLayerTableRecord
  2
CENTER
 70
     0
 62
   204
  6
Continuous
370
     0
390
F
347
46
348
0
  0
LAYER
  5
95
330
2
100
AcDbSymbolTableRecord
100
AcDbLayerTableRecord
  2
DIMENSIONS
 70
     0
 62
     7
  6
Continuous
370
     0
390
F
347
46
348
0
  0
LAYER
  5
DC
330
2
100
AcDbSymbolTableRecord
100
AcDbLayerTableRecord
  2
CONTINUOUS
 70
     0
 62
     7
  6
Continuous
370
     0
390
F
347
46
348
0
  0
ENDTAB
  0
TABLE
  2
STYLE
  5
3
330
0
100
AcDbSymbolTable
 70
     1
  0
STYLE
  5
11
330
3
100
AcDbSymbolTableRecord
100
AcDbTextStyleTableRecord
  2
Standard
 70
     0
 40
0.0
 41
1.0
 50
0.0
 71
     0
 42
2.5
  3
txt
  4

  0
ENDTAB
  0
TABLE
  2
VIEW
  5
6
330
0
100
AcDbSymbolTable
 70
     0
  0
ENDTAB
  0
TABLE
  2
UCS
  5
7
330
0
100
AcDbSymbolTable
 70
     0
  0
ENDTAB
  0
TABLE
  2
APPID
  5
9
330
0
100
AcDbSymbolTable
 70
     1
  0
APPID
  5
12
330
9
100
AcDbSymbolTableRecord
100
AcDbRegAppTableRecord
  2
ACAD
 70
     0
  0
ENDTAB
  0
TABLE
  2
DIMSTYLE
  5
A
330
0
100
AcDbSymbolTable
 70
     1
100
AcDbDimStyleTable
  0
DIMSTYLE
105
27
102
{ACAD_REACTORS
330
96
330
A7
330
B8
330
CA
330
116
330
127
102
}
330
A
100
AcDbSymbolTableRecord
100
AcDbDimStyleTableRecord
  2
ISO-25
 70
     0
 41
2.5
 42
0.625
 43
3.75
 44
1.25
 73
     0
 74
     0
 77
     1
 78
     8
140
2.5
141
2.5
143
0.03937007874016
147
0.625
171
     3
172
     1
178
     0
271
     2
272
     2
274
     3
278
    44
283
     0
284
     8
340
11
  0
ENDTAB
  0
TABLE
  2
BLOCK_RECORD
  5
1
330
0
100
AcDbSymbolTable
 70
     8
  0
BLOCK_RECORD
  5
1F
330
1
100
AcDbSymbolTableRecord
100
AcDbBlockTableRecord
  2
*Model_Space
340
22
 70
     0
280
     1
281
     0
  0
BLOCK_RECORD
  5
1B
330
1
100
AcDbSymbolTableRecord
100
AcDbBlockTableRecord
  2
*Paper_Space
340
1E
 70
     0
280
     1
281
     0
  0
BLOCK_RECORD
  5
23
330
1
100
AcDbSymbolTableRecord
100
AcDbBlockTableRecord
  2
*Paper_Space0
340
26
 70
     0
280
     1
281
     0
  0
BLOCK_RECORD
  5
97
330
1
100
AcDbSymbolTableRecord
100
AcDbBlockTableRecord
  2
D1
340
0
 70
     0
280
     1
281
     0
  0
BLOCK_RECORD
  5
A8
330
1
100
AcDbSymbolTableRecord
100
AcDbBlockTableRecord
  2
D2
340
0
 70
     0
280
     1
281
     0
  0
BLOCK_RECORD
  5
B9
330
1
100
AcDbSymbolTableRecord
100
AcDbBlockTableRecord
  2
D3
340
0
 70
     0
280
     1
281
     0
  0
BLOCK_RECORD
  5
CB
330
1
100
AcDbSymbolTableRecord
100
AcDbBlockTableRecord
  2
D4
340
0
 70
     0
280
     1
281
     0
  0
BLOCK_RECORD
  5
117
330
1
100
AcDbSymbolTableRecord
100
AcDbBlockTableRecord
  2
D5
340
0
 70
     0
280
     1
281
     0
  0
BLOCK_RECORD
  5
128
330
1
100
AcDbSymbolTableRecord
100
AcDbBlockTableRecord
  2
D6
340
0
 70
     0
280
     1
281
     0
  0
BLOCK_RECORD
  5
1CB
330
1
100
AcDbSymbolTableRecord
100
AcDbBlockTableRecord
  2
BLOCK0
340
0
102
{BLKREFS
331
1CA
102
}
 70
     0
280
     1
281
     0
  0
ENDTAB
  0
ENDSEC
  0
SECTION
  2
BLOCKS
  0
BLOCK
  5
20
330
1F
100
AcDbEntity
  8
0
100
AcDbBlockBegin
  2
*Model_Space
 70
     0
 10
0.0
 20
0.0
 30
0.0
  3
*Model_Space
  1

  0
ENDBLK
  5
21
330
1F
100
AcDbEntity
  8
0
100
AcDbBlockEnd
  0
BLOCK
  5
1C
330
1B
100
AcDbEntity
 67
     1
  8
0
100
AcDbBlockBegin
  2
*Paper_Space
 70
     0
 10
0.0
 20
0.0
 30
0.0
  3
*Paper_Space
  1

  0
ENDBLK
  5
1D
330
1B
100
AcDbEntity
 67
     1
  8
0
100
AcDbBlockEnd
  0
BLOCK
  5
24
330
23
100
AcDbEntity
  8
0
100
AcDbBlockBegin
  2
*Paper_Space0
 70
     0
 10
0.0
 20
0.0
 30
0.0
  3
*Paper_Space0
  1

  0
ENDBLK
  5
25
330
23
100
AcDbEntity
  8
0
100
AcDbBlockEnd
  0
BLOCK
  5
98
330
97
100
AcDbEntity
  8
0
100
AcDbBlockBegin
  2
D1
 70
     0
 10
0.0
 20
0.0
 30
0.0
  3
D1
  1

  0
MTEXT
  5
9A
330
97
100
AcDbEntity
  8
DIMENSIONS
100
AcDbMText
 10
129.8362503051758
 20
143.6538085937504
 30
0.0
 40
2.134018756842158
 41
0.0
 46
0.0
 71
     5
 72
     1
  1
{\fCE|b0|i0|c0|p0;25}{\fCE|b0|i0|c0|p0;}
 11
6.123031769111886E-17
 21
1.0
 31
0.0
 73
     1
 44
1.0
  0
MTEXT
  5
9B
330
97
100
AcDbEntity
  8
DIMENSIONS
100
AcDbMText
 10
129.8362503051758
 20
143.6538085937504
 30
0.0
 40
2.134018756842158
 41
0.0
 46
0.0
 71
     5
 72
     1
  1
{\fCE|b0|i0|c0|p0;}
 11
6.123031769111886E-17
 21
1.0
 31
0.0
 73
     1
 44
1.0
  0
MTEXT
  5
9C
330
97
100
AcDbEntity
  8
DIMENSIONS
100
AcDbMText
 10
129.8362503051758
 20
143.6538085937504
 30
0.0
 40
2.134018756842158
 41
0.0
 46
0.0
 71
     5
 72
     1
  1
{\fCE|b0|i0|c0|p0;}
 11
6.123031769111886E-17
 21
1.0
 31
0.0
 73
     1
 44
1.0
  0
MTEXT
  5
9D
330
97
100
AcDbEntity
  8
DIMENSIONS
100
AcDbMText
 10
129.8362503051758
 20
141.184364149306
 30
0.0
 40
2.134018756842158
 41
0.0
 46
0.0
 71
     5
 72
     1
  1
{\fCE|b0|i0|c0|p0;}
 11
6.123031769111886E-17
 21
1.0
 31
0.0
 73
     1
 44
1.0
  0
MTEXT
  5
9E
330
97
100
AcDbEntity
  8
DIMENSIONS
100
AcDbMText
 10
129.8362503051758
 20
146.1232530381948
 30
0.0
 40
2.134018756842158
 41
0.0
 46
0.0
 71
     5
 72
     1
  1
{\fCE|b0|i0|c0|p0;}
 11
6.123031769111886E-17
 21
1.0
 31
0.0
 73
     1
 44
1.0
  0
LINE
  5
9F
330
97
100
AcDbEntity
  8
DIMENSIONS
100
AcDbLine
 10
110.0994071960449
 20
156.717407226563
 30
0.0
 11
133.6001391940647
 21
156.717407226563
 31
0.0
  0
LINE
  5
A0
330
97
100
AcDbEntity
  8
DIMENSIONS
100
AcDbLine
 10
110.1394071960449
 20
131.717407226563
 30
0.0
 11
133.6001391940647
 21
131.717407226563
 31
0.0
  0
LWPOLYLINE
  5
A1
330
97
100
AcDbEntity
  8
DIMENSIONS
100
AcDbPolyline
 90
        4
 70
     0
 43
0.0
 10
131.6001391940647
 20
156.717407226563
 10
132.1001391940647
 20
153.717407226563
 10
131.1001391940647
 20
153.717407226563
 10
131.6001391940647
 20
156.717407226563
  0
LINE
  5
A2
330
97
100
AcDbEntity
  8
DIMENSIONS
100
AcDbLine
 10
131.6001391940647
 20
153.717407226563
 30
0.0
 11
131.6001391940647
 21
143.6538085937504
 31
0.0
  0
LWPOLYLINE
  5
A3
330
97
100
AcDbEntity
  8
DIMENSIONS
100
AcDbPolyline
 90
        4
 70
     0
 43
0.0
 10
131.6001391940647
 20
131.717407226563
 10
131.1001391940647
 20
134.717407226563
 10
132.1001391940647
 20
134.717407226563
 10
131.6001391940647
 20
131.717407226563
  0
LINE
  5
A4
330
97
100
AcDbEntity
  8
DIMENSIONS
100
AcDbLine
 10
131.6001391940647
 20
134.717407226563
 30
0.0
 11
131.6001391940647
 21
143.6538085937504
 31
0.0
  0
LINE
  5
A5
330
97
100
AcDbEntity
  8
DIMENSIONS
100
AcDbLine
 10
131.6001391940647
 20
138.8315871357923
 30
0.0
 11
131.6001391940647
 21
148.476030170918
 31
0.0
  0
HATCH
  5
A6
330
97
100
AcDbEntity
  8
0
 62
     7
100
AcDbHatch
 10
0.0
 20
0.0
 30
0.0
210
0.0
220
0.0
230
1.0
  2
SOLID
 70
     1
 71
     0
 91
        2
 92
        0
 93
        3
 72
     1
 10
131.1001391940647
 20
153.717407226563
 11
131.6001391940647
 21
156.717407226563
 72
     1
 10
131.6001391940647
 20
156.717407226563
 11
132.1001391940647
 21
153.717407226563
 72
     1
 10
132.1001391940647
 20
153.717407226563
 11
131.1001391940647
 21
153.717407226563
 97
        0
 92
        0
 93
        3
 72
     1
 10
132.1001391940647
 20
134.717407226563
 11
131.6001391940647
 21
131.717407226563
 72
     1
 10
131.6001391940647
 20
131.717407226563
 11
131.1001391940647
 21
134.717407226563
 72
     1
 10
131.1001391940647
 20
134.717407226563
 11
132.1001391940647
 21
134.717407226563
 97
        0
 75
     0
 76
     1
 98
        0
  0
ENDBLK
  5
99
330
97
100
AcDbEntity
  8
0
100
AcDbBlockEnd
  0
BLOCK
  5
A9
330
A8
100
AcDbEntity
  8
0
100
AcDbBlockBegin
  2
D2
 70
     0
 10
0.0
 20
0.0
 30
0.0
  3
D2
  1

  0
MTEXT
  5
AB
330
A8
100
AcDbEntity
  8
DIMENSIONS
100
AcDbMText
 10
95.63940719604489
 20
109.7675357394752
 30
0.0
 40
2.134018756842158
 41
0.0
 46
0.0
 71
     5
 72
     1
  1
{\fCE|b0|i0|c0|p0;25}{\fCE|b0|i0|c0|p0;}
 73
     1
 44
1.0
  0
MTEXT
  5
AC
330
A8
100
AcDbEntity
  8
DIMENSIONS
100
AcDbMText
 10
95.63940719604489
 20
109.7675357394752
 30
0.0
 40
2.134018756842158
 41
0.0
 46
0.0
 71
     5
 72
     1
  1
{\fCE|b0|i0|c0|p0;}
 73
     1
 44
1.0
  0
MTEXT
  5
AD
330
A8
100
AcDbEntity
  8
DIMENSIONS
100
AcDbMText
 10
95.63940719604489
 20
109.7675357394752
 30
0.0
 40
2.134018756842158
 41
0.0
 46
0.0
 71
     5
 72
     1
  1
{\fCE|b0|i0|c0|p0;}
 73
     1
 44
1.0
  0
MTEXT
  5
AE
330
A8
100
AcDbEntity
  8
DIMENSIONS
100
AcDbMText
 10
93.16996275160044
 20
109.7675357394752
 30
0.0
 40
2.134018756842158
 41
0.0
 46
0.0
 71
     5
 72
     1
  1
{\fCE|b0|i0|c0|p0;}
 73
     1
 44
1.0
  0
MTEXT
  5
AF
330
A8
100
AcDbEntity
  8
DIMENSIONS
100
AcDbMText
 10
98.10885164048933
 20
109.7675357394752
 30
0.0
 40
2.134018756842158
 41
0.0
 46
0.0
 71
     5
 72
     1
  1
{\fCE|b0|i0|c0|p0;}
 73
     1
 44
1.0
  0
LINE
  5
B0
330
A8
100
AcDbEntity
  8
DIMENSIONS
100
AcDbLine
 10
108.1394071960449
 20
129.717407226563
 30
0.0
 11
108.1394071960449
 21
106.0036468505863
 31
0.0
  0
LINE
  5
B1
330
A8
100
AcDbEntity
  8
DIMENSIONS
100
AcDbLine
 10
83.13940719604489
 20
129.717407226563
 30
0.0
 11
83.13940719604489
 21
106.0036468505863
 31
0.0
  0
LWPOLYLINE
  5
B2
330
A8
100
AcDbEntity
  8
DIMENSIONS
100
AcDbPolyline
 90
        4
 70
     0
 43
0.0
 10
108.1394071960449
 20
108.0036468505863
 10
105.1394071960449
 20
107.5036468505863
 10
105.1394071960449
 20
108.5036468505863
 10
108.1394071960449
 20
108.0036468505863
  0
LINE
  5
B3
330
A8
100
AcDbEntity
  8
DIMENSIONS
100
AcDbLine
 10
105.1394071960449
 20
108.0036468505863
 30
0.0
 11
95.63940719604489
 21
108.0036468505863
 31
0.0
  0
LWPOLYLINE
  5
B4
330
A8
100
AcDbEntity
  8
DIMENSIONS
100
AcDbPolyline
 90
        4
 70
     0
 43
0.0
 10
83.13940719604489
 20
108.0036468505863
 10
86.1394071960449
 20
108.5036468505863
 10
86.1394071960449
 20
107.5036468505863
 10
83.13940719604489
 20
108.0036468505863
  0
LINE
  5
B5
330
A8
100
AcDbEntity
  8
DIMENSIONS
100
AcDbLine
 10
86.1394071960449
 20
108.0036468505863
 30
0.0
 11
95.63940719604489
 21
108.0036468505863
 31
0.0
  0
LINE
  5
B6
330
A8
100
AcDbEntity
  8
DIMENSIONS
100
AcDbLine
 10
90.46440732479093
 20
108.0036468505863
 30
0.0
 11
100.1088515520096
 21
108.0036468505863
 31
0.0
  0
HATCH
  5
B7
330
A8
100
AcDbEntity
  8
0
 62
     7
100
AcDbHatch
 10
0.0
 20
0.0
 30
0.0
210
0.0
220
0.0
230
1.0
  2
SOLID
 70
     1
 71
     0
 91
        2
 92
        0
 93
        3
 72
     1
 10
105.1394071960449
 20
108.5036468505863
 11
108.1394071960449
 21
108.0036468505863
 72
     1
 10
108.1394071960449
 20
108.0036468505863
 11
105.1394071960449
 21
107.5036468505863
 72
     1
 10
105.1394071960449
 20
107.5036468505863
 11
105.1394071960449
 21
108.5036468505863
 97
        0
 92
        0
 93
        3
 72
     1
 10
86.1394071960449
 20
107.5036468505863
 11
83.13940719604489
 21
108.0036468505863
 72
     1
 10
83.13940719604489
 20
108.0036468505863
 11
86.1394071960449
 21
108.5036468505863
 72
     1
 10
86.1394071960449
 20
108.5036468505863
 11
86.1394071960449
 21
107.5036468505863
 97
        0
 75
     0
 76
     1
 98
        0
  0
ENDBLK
  5
AA
330
A8
100
AcDbEntity
  8
0
100
AcDbBlockEnd
  0
BLOCK
  5
BA
330
B9
100
AcDbEntity
  8
0
100
AcDbBlockBegin
  2
D3
 70
     0
 10
0.0
 20
0.0
 30
0.0
  3
D3
  1

  0
MTEXT
  5
BC
330
B9
100
AcDbEntity
  8
DIMENSIONS
100
AcDbMText
 10
94.52449035644528
 20
93.47692108154331
 30
0.0
 40
2.134018756842158
 41
0.0
 46
0.0
 71
     5
 72
     1
  1
{\fAlibre Symbols|b0|i0|c0|p0;n}{\fCE|b0|i0|c0|p0;\H0.95x;48}{\fCE|b0|i0|c0|p0;\H0.95x;}
 73
     1
 44
1.0
  0
MTEXT
  5
BD
330
B9
100
AcDbEntity
  8
DIMENSIONS
100
AcDbMText
 10
94.52449035644528
 20
93.47692108154331
 30
0.0
 40
2.134018756842158
 41
0.0
 46
0.0
 71
     5
 72
     1
  1
{\fCE|b0|i0|c0|p0;}
 73
     1
 44
1.0
  0
MTEXT
  5
BE
330
B9
100
AcDbEntity
  8
DIMENSIONS
100
AcDbMText
 10
94.52449035644528
 20
93.47692108154331
 30
0.0
 40
2.134018756842158
 41
0.0
 46
0.0
 71
     5
 72
     1
  1
{\fCE|b0|i0|c0|p0;}
 73
     1
 44
1.0
  0
MTEXT
  5
BF
330
B9
100
AcDbEntity
  8
DIMENSIONS
100
AcDbMText
 10
90.82032368977862
 20
93.47692108154331
 30
0.0
 40
2.134018756842158
 41
0.0
 46
0.0
 71
     5
 72
     1
  1
{\fCE|b0|i0|c0|p0;}
 73
     1
 44
1.0
  0
MTEXT
  5
C0
330
B9
100
AcDbEntity
  8
DIMENSIONS
100
AcDbMText
 10
98.22865702311195
 20
93.47692108154331
 30
0.0
 40
2.134018756842158
 41
0.0
 46
0.0
 71
     5
 72
     1
  1
{\fCE|b0|i0|c0|p0;}
 73
     1
 44
1.0
  0
LINE
  5
C1
330
B9
100
AcDbEntity
  8
DIMENSIONS
100
AcDbLine
 10
119.5994071960449
 20
142.217407226563
 30
0.0
 11
119.5994071960449
 21
89.00747663709888
 31
0.0
  0
LINE
  5
C2
330
B9
100
AcDbEntity
  8
DIMENSIONS
100
AcDbLine
 10
71.5994071960449
 20
142.217407226563
 30
0.0
 11
71.5994071960449
 21
89.00747663709888
 31
0.0
  0
LWPOLYLINE
  5
C3
330
B9
100
AcDbEntity
  8
DIMENSIONS
100
AcDbPolyline
 90
        4
 70
     0
 43
0.0
 10
119.5994071960449
 20
91.00747663709888
 10
116.5994071960449
 20
90.50747663709888
 10
116.5994071960449
 20
91.50747663709888
 10
119.5994071960449
 20
91.00747663709888
  0
LINE
  5
C4
330
B9
100
AcDbEntity
  8
DIMENSIONS
100
AcDbLine
 10
116.5994071960449
 20
91.00747663709888
 30
0.0
 11
94.52449035644528
 21
91.00747663709888
 31
0.0
  0
LWPOLYLINE
  5
C5
330
B9
100
AcDbEntity
  8
DIMENSIONS
100
AcDbPolyline
 90
        4
 70
     0
 43
0.0
 10
71.5994071960449
 20
91.00747663709888
 10
74.5994071960449
 20
91.50747663709888
 10
74.5994071960449
 20
90.50747663709888
 10
71.5994071960449
 20
91.00747663709888
  0
LINE
  5
C6
330
B9
100
AcDbEntity
  8
DIMENSIONS
100
AcDbLine
 10
74.5994071960449
 20
91.00747663709888
 30
0.0
 11
94.52449035644528
 21
91.00747663709888
 31
0.0
  0
LINE
  5
C7
330
B9
100
AcDbEntity
  8
DIMENSIONS
100
AcDbLine
 10
100.2286574840545
 20
91.00747663709888
 30
0.0
 11
88.11476838588712
 21
91.00747663709888
 31
0.0
  0
LWPOLYLINE
  5
C8
330
B9
100
AcDbEntity
  8
DIMENSIONS
100
AcDbPolyline
 90
        5
 70
     0
 43
0.0
 10
95.5994071960449
 20
144.217407226563
 10
95.5994071960449
 20
144.217407226563
 10
95.5994071960449
 20
144.217407226563
 10
95.5994071960449
 20
144.217407226563
 10
95.5994071960449
 20
144.217407226563
  0
HATCH
  5
C9
330
B9
100
AcDbEntity
  8
0
 62
     7
100
AcDbHatch
 10
0.0
 20
0.0
 30
0.0
210
0.0
220
0.0
230
1.0
  2
SOLID
 70
     1
 71
     0
 91
        2
 92
        0
 93
        3
 72
     1
 10
116.5994071960449
 20
91.50747663709888
 11
119.5994071960449
 21
91.00747663709888
 72
     1
 10
119.5994071960449
 20
91.00747663709888
 11
116.5994071960449
 21
90.50747663709888
 72
     1
 10
116.5994071960449
 20
90.50747663709888
 11
116.5994071960449
 21
91.50747663709888
 97
        0
 92
        0
 93
        3
 72
     1
 10
74.5994071960449
 20
90.50747663709888
 11
71.5994071960449
 21
91.00747663709888
 72
     1
 10
71.5994071960449
 20
91.00747663709888
 11
74.5994071960449
 21
91.50747663709888
 72
     1
 10
74.5994071960449
 20
91.50747663709888
 11
74.5994071960449
 21
90.50747663709888
 97
        0
 75
     0
 76
     1
 98
        0
  0
ENDBLK
  5
BB
330
B9
100
AcDbEntity
  8
0
100
AcDbBlockEnd
  0
BLOCK
  5
CC
330
CB
100
AcDbEntity
  8
0
100
AcDbBlockBegin
  2
D4
 70
     0
 10
0.0
 20
0.0
 30
0.0
  3
D4
  1

  0
MTEXT
  5
CE
330
CB
100
AcDbEntity
  8
DIMENSIONS
100
AcDbMText
 10
96.52436828613278
 20
84.20474243164101
 30
0.0
 40
2.134018756842158
 41
0.0
 46
0.0
 71
     5
 72
     1
  1
{\fCE|b0|i0|c0|p0;Ø}{\fCE|b0|i0|c0|p0;}
 73
     1
 44
1.0
  0
MTEXT
  5
CF
330
CB
100
AcDbEntity
  8
DIMENSIONS
100
AcDbMText
 10
96.52436828613278
 20
84.20474243164101
 30
0.0
 40
2.134018756842158
 41
0.0
 46
0.0
 71
     5
 72
     1
  1
{\fCE|b0|i0|c0|p0;}
 73
     1
 44
1.0
  0
MTEXT
  5
D0
330
CB
100
AcDbEntity
  8
DIMENSIONS
100
AcDbMText
 10
96.52436828613278
 20
84.20474243164101
 30
0.0
 40
2.134018756842158
 41
0.0
 46
0.0
 71
     5
 72
     1
  1
{\fCE|b0|i0|c0|p0;}
 73
     1
 44
1.0
  0
MTEXT
  5
D1
330
CB
100
AcDbEntity
  8
DIMENSIONS
100
AcDbMText
 10
92.82020161946612
 20
84.20474243164101
 30
0.0
 40
2.134018756842158
 41
0.0
 46
0.0
 71
     5
 72
     1
  1
{\fCE|b0|i0|c0|p0;}
 73
     1
 44
1.0
  0
MTEXT
  5
D2
330
CB
100
AcDbEntity
  8
DIMENSIONS
100
AcDbMText
 10
100.2285349527994
 20
84.20474243164101
 30
0.0
 40
2.134018756842158
 41
0.0
 46
0.0
 71
     5
 72
     1
  1
{\fCE|b0|i0|c0|p0;}
 73
     1
 44
1.0
  0
LINE
  5
D3
330
CB
100
AcDbEntity
  8
DIMENSIONS
100
AcDbLine
 10
122.9494071960449
 20
142.217407226563
 30
0.0
 11
122.9494071960449
 21
80.44085354275212
 31
0.0
  0
LINE
  5
D4
330
CB
100
AcDbEntity
  8
DIMENSIONS
100
AcDbLine
 10
68.2494071960449
 20
142.217407226563
 30
0.0
 11
68.2494071960449
 21
80.44085354275212
 31
0.0
  0
LWPOLYLINE
  5
D5
330
CB
100
AcDbEntity
  8
DIMENSIONS
100
AcDbPolyline
 90
        4
 70
     0
 43
0.0
 10
122.9494071960449
 20
82.44085354275214
 10
119.9494071960449
 20
81.94085354275212
 10
119.9494071960449
 20
82.94085354275214
 10
122.9494071960449
 20
82.44085354275214
  0
LINE
  5
D6
330
CB
100
AcDbEntity
  8
DIMENSIONS
100
AcDbLine
 10
119.9494071960449
 20
82.44085354275212
 30
0.0
 11
96.52436828613278
 21
82.44085354275214
 31
0.0
  0
LWPOLYLINE
  5
D7
330
CB
100
AcDbEntity
  8
DIMENSIONS
100
AcDbPolyline
 90
        4
 70
     0
 43
0.0
 10
68.2494071960449
 20
82.44085354275212
 10
71.2494071960449
 20
82.94085354275212
 10
71.2494071960449
 20
81.94085354275211
 10
68.2494071960449
 20
82.44085354275212
  0
LINE
  5
D8
330
CB
100
AcDbEntity
  8
DIMENSIONS
100
AcDbLine
 10
71.2494071960449
 20
82.44085354275212
 30
0.0
 11
96.52436828613278
 21
82.44085354275214
 31
0.0
  0
LINE
  5
D9
330
CB
100
AcDbEntity
  8
DIMENSIONS
100
AcDbLine
 10
102.2285351753235
 20
82.44085354275212
 30
0.0
 11
90.11464607715604
 21
82.44085354275212
 31
0.0
  0
LWPOLYLINE
  5
DA
330
CB
100
AcDbEntity
  8
DIMENSIONS
100
AcDbPolyline
 90
        5
 70
     0
 43
0.0
 10
95.5994071960449
 20
144.217407226563
 10
95.5994071960449
 20
144.217407226563
 10
95.5994071960449
 20
144.217407226563
 10
95.5994071960449
 20
144.217407226563
 10
95.5994071960449
 20
144.217407226563
  0
HATCH
  5
DB
330
CB
100
AcDbEntity
  8
0
 62
     7
100
AcDbHatch
 10
0.0
 20
0.0
 30
0.0
210
0.0
220
0.0
230
1.0
  2
SOLID
 70
     1
 71
     0
 91
        2
 92
        0
 93
        3
 72
     1
 10
119.9494071960449
 20
82.94085354275214
 11
122.9494071960449
 21
82.44085354275214
 72
     1
 10
122.9494071960449
 20
82.44085354275214
 11
119.9494071960449
 21
81.94085354275212
 72
     1
 10
119.9494071960449
 20
81.94085354275212
 11
119.9494071960449
 21
82.94085354275214
 97
        0
 92
        0
 93
        3
 72
     1
 10
71.2494071960449
 20
81.94085354275211
 11
68.2494071960449
 21
82.44085354275212
 72
     1
 10
68.2494071960449
 20
82.44085354275212
 11
71.2494071960449
 21
82.94085354275212
 72
     1
 10
71.2494071960449
 20
82.94085354275212
 11
71.2494071960449
 21
81.94085354275211
 97
        0
 75
     0
 76
     1
 98
        0
  0
ENDBLK
  5
CD
330
CB
100
AcDbEntity
  8
0
100
AcDbBlockEnd
  0
BLOCK
  5
118
330
117
100
AcDbEntity
  8
0
100
AcDbBlockBegin
  2
D5
 70
     0
 10
0.0
 20
0.0
 30
0.0
  3
D5
  1

  0
MTEXT
  5
11A
330
117
100
AcDbEntity
  8
DIMENSIONS
100
AcDbMText
 10
208.6266632080081
 20
100.196426391602
 30
0.0
 40
2.134018756842158
 41
0.0
 46
0.0
 71
     5
 72
     1
  1
{\fCE|b0|i0|c0|p0;37}{\fCE|b0|i0|c0|p0;}
 73
     1
 44
1.0
  0
MTEXT
  5
11B
330
117
100
AcDbEntity
  8
DIMENSIONS
100
AcDbMText
 10
208.6266632080081
 20
100.196426391602
 30
0.0
 40
2.134018756842158
 41
0.0
 46
0.0
 71
     5
 72
     1
  1
{\fCE|b0|i0|c0|p0;}
 73
     1
 44
1.0
  0
MTEXT
  5
11C
330
117
100
AcDbEntity
  8
DIMENSIONS
100
AcDbMText
 10
208.6266632080081
 20
100.196426391602
 30
0.0
 40
2.134018756842158
 41
0.0
 46
0.0
 71
     5
 72
     1
  1
{\fCE|b0|i0|c0|p0;}
 73
     1
 44
1.0
  0
MTEXT
  5
11D
330
117
100
AcDbEntity
  8
DIMENSIONS
100
AcDbMText
 10
206.1572187635637
 20
100.196426391602
 30
0.0
 40
2.134018756842158
 41
0.0
 46
0.0
 71
     5
 72
     1
  1
{\fCE|b0|i0|c0|p0;}
 73
     1
 44
1.0
  0
MTEXT
  5
11E
330
117
100
AcDbEntity
  8
DIMENSIONS
100
AcDbMText
 10
211.0961076524525
 20
100.196426391602
 30
0.0
 40
2.134018756842158
 41
0.0
 46
0.0
 71
     5
 72
     1
  1
{\fCE|b0|i0|c0|p0;}
 73
     1
 44
1.0
  0
LINE
  5
11F
330
117
100
AcDbEntity
  8
DIMENSIONS
100
AcDbLine
 10
226.774543166161
 20
118.217407226563
 30
0.0
 11
226.774543166161
 21
96.43253750271313
 31
0.0
  0
LINE
  5
120
330
117
100
AcDbEntity
  8
DIMENSIONS
100
AcDbLine
 10
189.774543166161
 20
114.867407226563
 30
0.0
 11
189.774543166161
 21
96.43253750271313
 31
0.0
  0
LWPOLYLINE
  5
121
330
117
100
AcDbEntity
  8
DIMENSIONS
100
AcDbPolyline
 90
        4
 70
     0
 43
0.0
 10
226.774543166161
 20
98.43253750271313
 10
223.774543166161
 20
97.93253750271313
 10
223.774543166161
 20
98.93253750271313
 10
226.774543166161
 20
98.43253750271313
  0
LINE
  5
122
330
117
100
AcDbEntity
  8
DIMENSIONS
100
AcDbLine
 10
223.774543166161
 20
98.43253750271313
 30
0.0
 11
208.6266632080081
 21
98.43253750271313
 31
0.0
  0
LWPOLYLINE
  5
123
330
117
100
AcDbEntity
  8
DIMENSIONS
100
AcDbPolyline
 90
        4
 70
     0
 43
0.0
 10
189.774543166161
 20
98.43253750271313
 10
192.774543166161
 20
98.93253750271313
 10
192.774543166161
 20
97.93253750271313
 10
189.774543166161
 20
98.43253750271313
  0
LINE
  5
124
330
117
100
AcDbEntity
  8
DIMENSIONS
100
AcDbLine
 10
192.774543166161
 20
98.43253750271313
 30
0.0
 11
208.6266632080081
 21
98.43253750271313
 31
0.0
  0
LINE
  5
125
330
117
100
AcDbEntity
  8
DIMENSIONS
100
AcDbLine
 10
203.4516626596455
 20
98.43253750271313
 30
0.0
 11
213.0961068868641
 21
98.43253750271313
 31
0.0
  0
HATCH
  5
126
330
117
100
AcDbEntity
  8
0
 62
     7
100
AcDbHatch
 10
0.0
 20
0.0
 30
0.0
210
0.0
220
0.0
230
1.0
  2
SOLID
 70
     1
 71
     0
 91
        2
 92
        0
 93
        3
 72
     1
 10
223.774543166161
 20
98.93253750271313
 11
226.774543166161
 21
98.43253750271313
 72
     1
 10
226.774543166161
 20
98.43253750271313
 11
223.774543166161
 21
97.93253750271313
 72
     1
 10
223.774543166161
 20
97.93253750271313
 11
223.774543166161
 21
98.93253750271313
 97
        0
 92
        0
 93
        3
 72
     1
 10
192.774543166161
 20
97.93253750271313
 11
189.774543166161
 21
98.43253750271313
 72
     1
 10
189.774543166161
 20
98.43253750271313
 11
192.774543166161
 21
98.93253750271313
 72
     1
 10
192.774543166161
 20
98.93253750271313
 11
192.774543166161
 21
97.93253750271313
 97
        0
 75
     0
 76
     1
 98
        0
  0
ENDBLK
  5
119
330
117
100
AcDbEntity
  8
0
100
AcDbBlockEnd
  0
BLOCK
  5
129
330
128
100
AcDbEntity
  8
0
100
AcDbBlockBegin
  2
D6
 70
     0
 10
0.0
 20
0.0
 30
0.0
  3
D6
  1

  0
MTEXT
  5
12B
330
128
100
AcDbEntity
  8
DIMENSIONS
100
AcDbMText
 10
197.5173950195315
 20
86.26573944091831
 30
0.0
 40
2.134018756842158
 41
0.0
 46
0.0
 71
     5
 72
     1
  1
{\fCE|b0|i0|c0|p0;55}{\fCE|b0|i0|c0|p0;}
 73
     1
 44
1.0
  0
MTEXT
  5
12C
330
128
100
AcDbEntity
  8
DIMENSIONS
100
AcDbMText
 10
197.5173950195315
 20
86.26573944091831
 30
0.0
 40
2.134018756842158
 41
0.0
 46
0.0
 71
     5
 72
     1
  1
{\fCE|b0|i0|c0|p0;}
 73
     1
 44
1.0
  0
MTEXT
  5
12D
330
128
100
AcDbEntity
  8
DIMENSIONS
100
AcDbMText
 10
197.5173950195315
 20
86.26573944091831
 30
0.0
 40
2.134018756842158
 41
0.0
 46
0.0
 71
     5
 72
     1
  1
{\fCE|b0|i0|c0|p0;}
 73
     1
 44
1.0
  0
MTEXT
  5
12E
330
128
100
AcDbEntity
  8
DIMENSIONS
100
AcDbMText
 10
195.0479505750871
 20
86.26573944091831
 30
0.0
 40
2.134018756842158
 41
0.0
 46
0.0
 71
     5
 72
     1
  1
{\fCE|b0|i0|c0|p0;}
 73
     1
 44
1.0
  0
MTEXT
  5
12F
330
128
100
AcDbEntity
  8
DIMENSIONS
100
AcDbMText
 10
199.9868394639759
 20
86.26573944091831
 30
0.0
 40
2.134018756842158
 41
0.0
 46
0.0
 71
     5
 72
     1
  1
{\fCE|b0|i0|c0|p0;}
 73
     1
 44
1.0
  0
LINE
  5
130
330
128
100
AcDbEntity
  8
DIMENSIONS
100
AcDbLine
 10
226.774543166161
 20
118.217407226563
 30
0.0
 11
226.774543166161
 21
82.50185055202941
 31
0.0
  0
LINE
  5
131
330
128
100
AcDbEntity
  8
DIMENSIONS
100
AcDbLine
 10
171.774543166161
 20
114.867407226563
 30
0.0
 11
171.774543166161
 21
82.50185055202941
 31
0.0
  0
LWPOLYLINE
  5
132
330
128
100
AcDbEntity
  8
DIMENSIONS
100
AcDbPolyline
 90
        4
 70
     0
 43
0.0
 10
226.774543166161
 20
84.5018505520294
 10
223.774543166161
 20
84.0018505520294
 10
223.774543166161
 20
85.0018505520294
 10
226.774543166161
 20
84.5018505520294
  0
LINE
  5
133
330
128
100
AcDbEntity
  8
DIMENSIONS
100
AcDbLine
 10
223.774543166161
 20
84.50185055202942
 30
0.0
 11
197.5173950195315
 21
84.50185055202942
 31
0.0
  0
LWPOLYLINE
  5
134
330
128
100
AcDbEntity
  8
DIMENSIONS
100
AcDbPolyline
 90
        4
 70
     0
 43
0.0
 10
171.774543166161
 20
84.50185055202942
 10
174.774543166161
 20
85.00185055202941
 10
174.774543166161
 20
84.00185055202942
 10
171.774543166161
 20
84.50185055202942
  0
LINE
  5
135
330
128
100
AcDbEntity
  8
DIMENSIONS
100
AcDbLine
 10
174.774543166161
 20
84.50185055202942
 30
0.0
 11
197.5173950195315
 21
84.50185055202942
 31
0.0
  0
LINE
  5
136
330
128
100
AcDbEntity
  8
DIMENSIONS
100
AcDbLine
 10
192.3423948884015
 20
84.50185055202942
 30
0.0
 11
201.9868394136433
 21
84.50185055202942
 31
0.0
  0
HATCH
  5
137
330
128
100
AcDbEntity
  8
0
 62
     7
100
AcDbHatch
 10
0.0
 20
0.0
 30
0.0
210
0.0
220
0.0
230
1.0
  2
SOLID
 70
     1
 71
     0
 91
        2
 92
        0
 93
        3
 72
     1
 10
223.774543166161
 20
85.0018505520294
 11
226.774543166161
 21
84.5018505520294
 72
     1
 10
226.774543166161
 20
84.5018505520294
 11
223.774543166161
 21
84.0018505520294
 72
     1
 10
223.774543166161
 20
84.0018505520294
 11
223.774543166161
 21
85.0018505520294
 97
        0
 92
        0
 93
        3
 72
     1
 10
174.774543166161
 20
84.00185055202942
 11
171.774543166161
 21
84.50185055202942
 72
     1
 10
171.774543166161
 20
84.50185055202942
 11
174.774543166161
 21
85.00185055202941
 72
     1
 10
174.774543166161
 20
85.00185055202941
 11
174.774543166161
 21
84.00185055202942
 97
        0
 75
     0
 76
     1
 98
        0
  0
ENDBLK
  5
12A
330
128
100
AcDbEntity
  8
0
100
AcDbBlockEnd
  0
BLOCK
  5
1CC
330
1CB
100
AcDbEntity
  8
0
100
AcDbBlockBegin
  2
BLOCK0
 70
     0
 10
0.0
 20
0.0
 30
0.0
  3
BLOCK0
  1

  0
LINE
  5
1CE
330
1CB
100
AcDbEntity
  8
CONTINUOUS
100
AcDbLine
 10
9.99999999999998
 20
9.99999999999995
 30
0.0
 11
287.0
 21
10.0
 31
0.0
  0
LINE
  5
1CF
330
1CB
100
AcDbEntity
  8
CONTINUOUS
100
AcDbLine
 10
141.942321777344
 20
5.0
 30
0.0
 11
241.942321777344
 21
5.0
 31
0.0
  0
LINE
  5
1D0
330
1CB
100
AcDbEntity
  8
CONTINUOUS
100
AcDbLine
 10
0.0
 20
0.0
 30
0.0
 11
-0.0000000000000012
 21
10.0
 31
0.0
  0
LINE
  5
1D1
330
1CB
100
AcDbEntity
  8
CONTINUOUS
100
AcDbLine
 10
0.0
 20
0.0
 30
0.0
 11
10.0
 21
0.0000000000000018
 31
0.0
  0
LINE
  5
1D2
330
1CB
100
AcDbEntity
  8
CONTINUOUS
100
AcDbLine
 10
141.942321777344
 20
5.0
 30
0.0
 11
141.942321777344
 21
10.0
 31
0.0
  0
LINE
  5
1D3
330
1CB
100
AcDbEntity
  8
CONTINUOUS
100
AcDbLine
 10
151.942321777344
 20
5.0
 30
0.0
 11
151.942321777344
 21
10.0
 31
0.0
  0
LINE
  5
1D4
330
1CB
100
AcDbEntity
  8
CONTINUOUS
100
AcDbLine
 10
161.942321777344
 20
5.0
 30
0.0
 11
161.942321777344
 21
10.0
 31
0.0
  0
LINE
  5
1D5
330
1CB
100
AcDbEntity
  8
CONTINUOUS
100
AcDbLine
 10
10.0
 20
57.5
 30
0.0
 11
5.0
 21
57.5
 31
0.0
  0
LINE
  5
1D6
330
1CB
100
AcDbEntity
  8
CONTINUOUS
100
AcDbLine
 10
10.0
 20
105.0
 30
0.0
 11
5.0
 21
105.0
 31
0.0
  0
LINE
  5
1D7
330
1CB
100
AcDbEntity
  8
CONTINUOUS
100
AcDbLine
 10
191.942321777344
 20
10.0
 30
0.0
 11
191.942321777344
 21
5.0
 31
0.0
  0
LINE
  5
1D8
330
1CB
100
AcDbEntity
  8
CONTINUOUS
100
AcDbLine
 10
171.942321777344
 20
5.0
 30
0.0
 11
171.942321777344
 21
10.0
 31
0.0
  0
LINE
  5
1D9
330
1CB
100
AcDbEntity
  8
CONTINUOUS
100
AcDbLine
 10
181.942321777344
 20
5.0
 30
0.0
 11
181.942321777344
 21
10.0
 31
0.0
  0
LINE
  5
1DA
330
1CB
100
AcDbEntity
  8
CONTINUOUS
100
AcDbLine
 10
201.942321777344
 20
5.0
 30
0.0
 11
201.942321777344
 21
10.0
 31
0.0
  0
LINE
  5
1DB
330
1CB
100
AcDbEntity
  8
CONTINUOUS
100
AcDbLine
 10
211.942321777344
 20
5.0
 30
0.0
 11
211.942321777344
 21
10.0
 31
0.0
  0
LINE
  5
1DC
330
1CB
100
AcDbEntity
  8
CONTINUOUS
100
AcDbLine
 10
221.942321777344
 20
5.0
 30
0.0
 11
221.942321777344
 21
10.0
 31
0.0
  0
LINE
  5
1DD
330
1CB
100
AcDbEntity
  8
CONTINUOUS
100
AcDbLine
 10
297.0
 20
0.0
 30
0.0
 11
297.0
 21
10.0
 31
0.0
  0
LINE
  5
1DE
330
1CB
100
AcDbEntity
  8
CONTINUOUS
100
AcDbLine
 10
241.942321777344
 20
5.0
 30
0.0
 11
241.942321777344
 21
10.0
 31
0.0
  0
LINE
  5
1DF
330
1CB
100
AcDbEntity
  8
CONTINUOUS
100
AcDbLine
 10
231.942321777344
 20
5.0
 30
0.0
 11
231.942321777344
 21
10.0
 31
0.0
  0
LINE
  5
1E0
330
1CB
100
AcDbEntity
  8
CONTINUOUS
100
AcDbLine
 10
296.942321777344
 20
0.0
 30
0.0
 11
286.942321777344
 21
0.0
 31
0.0
  0
LINE
  5
1E1
330
1CB
100
AcDbEntity
  8
CONTINUOUS
100
AcDbLine
 10
291.942321777344
 20
57.5
 30
0.0
 11
286.942321777344
 21
57.5
 31
0.0
  0
LINE
  5
1E2
330
1CB
100
AcDbEntity
  8
CONTINUOUS
100
AcDbLine
 10
291.942321777344
 20
105.0
 30
0.0
 11
286.942321777344
 21
105.0
 31
0.0
  0
LINE
  5
1E3
330
1CB
100
AcDbEntity
  8
CONTINUOUS
100
AcDbLine
 10
-0.0000000000000249
 20
209.989334106445
 30
0.0
 11
-0.0000000000000249
 21
199.989334106445
 31
0.0
  0
LINE
  5
1E4
330
1CB
100
AcDbEntity
  8
CONTINUOUS
100
AcDbLine
 10
10.0165710449219
 20
209.989334106445
 30
0.0
 11
0.016571044921875
 21
209.989334106445
 31
0.0
  0
LINE
  5
1E5
330
1CB
100
AcDbEntity
  8
CONTINUOUS
100
AcDbLine
 10
194.666666666667
 20
199.989334106445
 30
0.0
 11
194.666666666667
 21
204.989334106445
 31
0.0
  0
LINE
  5
1E6
330
1CB
100
AcDbEntity
  8
CONTINUOUS
100
AcDbLine
 10
297.0
 20
199.989334106445
 30
0.0
 11
297.0
 21
209.989334106445
 31
0.0
  0
LINE
  5
1E7
330
1CB
100
AcDbEntity
  8
CONTINUOUS
100
AcDbLine
 10
240.833333333333
 20
199.989334106445
 30
0.0
 11
240.833333333333
 21
204.989334106445
 31
0.0
  0
LINE
  5
1E8
330
1CB
100
AcDbEntity
  8
CONTINUOUS
100
AcDbLine
 10
296.958892822266
 20
209.989334106445
 30
0.0
 11
286.958892822266
 21
209.989334106445
 31
0.0
  0
LINE
  5
1E9
330
1CB
100
AcDbEntity
  8
CONTINUOUS
100
AcDbLine
 10
286.942321777344
 20
152.5
 30
0.0
 11
291.942321777344
 21
152.5
 31
0.0
  0
LINE
  5
1EA
330
1CB
100
AcDbEntity
  8
CONTINUOUS
100
AcDbLine
 10
5.0
 20
152.5
 30
0.0
 11
10.0
 21
152.5
 31
0.0
  0
LINE
  5
1EB
330
1CB
100
AcDbEntity
  8
CONTINUOUS
100
AcDbLine
 10
287.0
 20
200.0
 30
0.0
 11
9.99999999999998
 21
200.0
 31
0.0
  0
LINE
  5
1EC
330
1CB
100
AcDbEntity
  8
CONTINUOUS
100
AcDbLine
 10
287.0
 20
10.0
 30
0.0
 11
287.0
 21
200.0
 31
0.0
  0
LINE
  5
1ED
330
1CB
100
AcDbEntity
  8
CONTINUOUS
100
AcDbLine
 10
9.99999999999998
 20
200.0
 30
0.0
 11
9.99999999999998
 21
9.99999999999995
 31
0.0
  0
LINE
  5
1EE
330
1CB
100
AcDbEntity
  8
CONTINUOUS
100
AcDbLine
 10
56.1666666666666
 20
200.0
 30
0.0
 11
56.1666666666666
 21
205.0
 31
0.0
  0
LINE
  5
1EF
330
1CB
100
AcDbEntity
  8
CONTINUOUS
100
AcDbLine
 10
102.333333333333
 20
200.0
 30
0.0
 11
102.333333333333
 21
205.0
 31
0.0
  0
LINE
  5
1F0
330
1CB
100
AcDbEntity
  8
CONTINUOUS
100
AcDbLine
 10
148.5
 20
200.0
 30
0.0
 11
148.5
 21
205.0
 31
0.0
  0
LINE
  5
1F1
330
1CB
100
AcDbEntity
  8
CONTINUOUS
100
AcDbLine
 10
56.1666679382324
 20
10.0
 30
0.0
 11
56.1666679382324
 21
5.0
 31
0.0
  0
LINE
  5
1F2
330
1CB
100
AcDbEntity
  8
CONTINUOUS
100
AcDbLine
 10
102.333335876465
 20
10.0
 30
0.0
 11
102.333335876465
 21
5.0
 31
0.0
  0
LINE
  5
1F3
330
1CB
100
AcDbEntity
  8
CONTINUOUS
100
AcDbLine
 10
194.0
 20
10.0
 30
0.0
 11
194.0
 21
48.0
 31
0.0
  0
LINE
  5
1F4
330
1CB
100
AcDbEntity
  8
CONTINUOUS
100
AcDbLine
 10
251.0
 20
10.0
 30
0.0
 11
251.0
 21
20.0
 31
0.0
  0
LINE
  5
1F5
330
1CB
100
AcDbEntity
  8
CONTINUOUS
100
AcDbLine
 10
269.0
 20
10.0
 30
0.0
 11
269.0
 21
20.0
 31
0.0
  0
LINE
  5
1F6
330
1CB
100
AcDbEntity
  8
CONTINUOUS
100
AcDbLine
 10
229.0
 20
9.99999999999999
 30
0.0
 11
229.0
 21
20.0
 31
0.0
  0
LINE
  5
1F7
330
1CB
100
AcDbEntity
  8
CONTINUOUS
100
AcDbLine
 10
241.559921264648
 20
30.0
 30
0.0
 11
241.559921264648
 21
20.0
 31
0.0
  0
LINE
  5
1F8
330
1CB
100
AcDbEntity
  8
CONTINUOUS
100
AcDbLine
 10
269.0
 20
10.0
 30
0.0
 11
287.0
 21
10.0
 31
0.0
  0
LINE
  5
1F9
330
1CB
100
AcDbEntity
  8
CONTINUOUS
100
AcDbLine
 10
194.0
 20
48.0
 30
0.0
 11
287.0
 21
48.0
 31
0.0
  0
LINE
  5
1FA
330
1CB
100
AcDbEntity
  8
CONTINUOUS
100
AcDbLine
 10
194.059921264648
 20
30.0
 30
0.0
 11
287.059921264648
 21
30.0
 31
0.0
  0
LINE
  5
1FB
330
1CB
100
AcDbEntity
  8
CONTINUOUS
100
AcDbLine
 10
194.059921264648
 20
20.0
 30
0.0
 11
287.059921264648
 21
20.0
 31
0.0
  0
LINE
  5
1FC
330
1CB
100
AcDbEntity
  8
CONTINUOUS
100
AcDbLine
 10
216.0
 20
30.0
 30
0.0
 11
216.0
 21
48.0
 31
0.0
  0
MTEXT
  5
1FD
330
1CB
100
AcDbEntity
  8
CONTINUOUS
100
AcDbMText
 10
195.902451324463
 20
18.2433377838135
 30
0.0
 40
2.251496730059653
 41
0.0
 46
0.0
 71
     4
 72
     1
  1
{\fMonotype Corsiva|b0|i1|c0|p0;\C7;Treatment  }{\fArial|b0|i0|c0|p0;\C7;\H0.7692308x;}
 73
     1
 44
1.0
  0
MTEXT
  5
1FE
330
1CB
100
AcDbEntity
  8
CONTINUOUS
100
AcDbMText
 10
5.33690040588379
 20
33.886
 30
0.0
 40
3.720853217058121
 41
0.0
 46
0.0
 71
     4
 72
     1
  1
{\fArial|b0|i0|c0|p0;\C7;D}{\fArial|b0|i0|c0|p0;\C7;}
 73
     1
 44
1.0
  0
MTEXT
  5
1FF
330
1CB
100
AcDbEntity
  8
CONTINUOUS
100
AcDbMText
 10
77.9621860149715
 20
204.250404272846
 30
0.0
 40
3.720853217058121
 41
0.0
 46
0.0
 71
     4
 72
     1
  1
{\fArial|b0|i0|c0|p0;\C7;2}{\fArial|b0|i0|c0|p0;\C7;}
 73
     1
 44
1.0
  0
MTEXT
  5
200
330
1CB
100
AcDbEntity
  8
CONTINUOUS
100
AcDbMText
 10
121.245655822681
 20
204.355103698803
 30
0.0
 40
3.720853217058121
 41
0.0
 46
0.0
 71
     4
 72
     1
  1
{\fArial|b0|i0|c0|p0;\C7;3}{\fArial|b0|i0|c0|p0;\C7;}
 73
     1
 44
1.0
  0
MTEXT
  5
201
330
1CB
100
AcDbEntity
  8
CONTINUOUS
100
AcDbMText
 10
262.082233886719
 20
6.73998626327514
 30
0.0
 40
3.720853217058121
 41
0.0
 46
0.0
 71
     4
 72
     1
  1
{\fArial|b0|i0|c0|p0;\C7;6}{\fArial|b0|i0|c0|p0;\C7;}
 73
     1
 44
1.0
  0
MTEXT
  5
202
330
1CB
100
AcDbEntity
  8
CONTINUOUS
100
AcDbMText
 10
4.984780712209
 20
172.034376464844
 30
0.0
 40
3.720853217058121
 41
0.0
 46
0.0
 71
     4
 72
     1
  1
{\fArial|b0|i0|c0|p0;\C7;A}{\fArial|b0|i0|c0|p0;\C7;}
 73
     1
 44
1.0
  0
MTEXT
  5
203
330
1CB
100
AcDbEntity
  8
CONTINUOUS
100
AcDbMText
 10
195.142121124268
 20
28.0459958648682
 30
0.0
 40
2.251496730059653
 41
0.0
 46
0.0
 71
     4
 72
     1
  1
{\fMonotype Corsiva|b0|i1|c0|p0;\C7;Name }{\fArial|b0|i0|c0|p0;\C7;\H0.7692308x;}
 73
     1
 44
1.0
  0
MTEXT
  5
204
330
1CB
100
AcDbEntity
  8
CONTINUOUS
100
AcDbMText
 10
288.920463256836
 20
33.4667418823242
 30
0.0
 40
3.720853217058121
 41
0.0
 46
0.0
 71
     4
 72
     1
  1
{\fArial|b0|i0|c0|p0;\C7;D}{\fArial|b0|i0|c0|p0;\C7;}
 73
     1
 44
1.0
  0
MTEXT
  5
205
330
1CB
100
AcDbEntity
  8
CONTINUOUS
100
AcDbMText
 10
171.459843139648
 20
204.242353759765
 30
0.0
 40
3.720853217058121
 41
0.0
 46
0.0
 71
     4
 72
     1
  1
{\fArial|b0|i0|c0|p0;\C7;4}{\fArial|b0|i0|c0|p0;\C7;}
 73
     1
 44
1.0
  0
MTEXT
  5
206
330
1CB
100
AcDbEntity
  8
CONTINUOUS
100
AcDbMText
 10
5.18862550735474
 20
80.0342772827149
 30
0.0
 40
3.720853217058121
 41
0.0
 46
0.0
 71
     4
 72
     1
  1
{\fArial|b0|i0|c0|p0;\C7;C}{\fArial|b0|i0|c0|p0;\C7;}
 73
     1
 44
1.0
  0
MTEXT
  5
207
330
1CB
100
AcDbEntity
  8
CONTINUOUS
100
AcDbMText
 10
265.171810609717
 20
204.240896547217
 30
0.0
 40
3.720853217058121
 41
0.0
 46
0.0
 71
     4
 72
     1
  1
{\fArial|b0|i0|c0|p0;\C7;6}{\fArial|b0|i0|c0|p0;\C7;}
 73
     1
 44
1.0
  0
MTEXT
  5
208
330
1CB
100
AcDbEntity
  8
CONTINUOUS
100
AcDbMText
 10
242.754122362484
 20
27.7861882781982
 30
0.0
 40
2.251496730059653
 41
0.0
 46
0.0
 71
     4
 72
     1
  1
{\fMonotype Corsiva|b0|i1|c0|p0;\C7;Material }{\fArial|b0|i0|c0|p0;\C7;\H0.7692308x;}
 73
     1
 44
1.0
  0
MTEXT
  5
209
330
1CB
100
AcDbEntity
  8
CONTINUOUS
100
AcDbMText
 10
244.748741149902
 20
7.15205116271974
 30
0.0
 40
1.969863467854299
 41
0.0
 46
0.0
 71
     4
 72
     1
  1
{\fArial|b0|i0|c0|p0;\C7;}
 73
     1
 44
1.0
  0
MTEXT
  5
20A
330
1CB
100
AcDbEntity
  8
CONTINUOUS
100
AcDbMText
 10
251.799879294482
 20
18.3564797973633
 30
0.0
 40
2.251496730059653
 41
0.0
 46
0.0
 71
     4
 72
     1
  1
{\fMonotype Corsiva|b0|i1|c0|p0;\C7;Pieces}{\fArial|b0|i0|c0|p0;\C7;\H0.7692308x;}
 73
     1
 44
1.0
  0
MTEXT
  5
20B
330
1CB
100
AcDbEntity
  8
CONTINUOUS
100
AcDbMText
 10
32.2742214965821
 20
204.252439819336
 30
0.0
 40
3.720853217058121
 41
0.0
 46
0.0
 71
     4
 72
     1
  1
{\fArial|b0|i0|c0|p0;\C7;1}{\fArial|b0|i0|c0|p0;\C7;}
 73
     1
 44
1.0
  0
MTEXT
  5
20C
330
1CB
100
AcDbEntity
  8
CONTINUOUS
100
AcDbMText
 10
5.6160912703474
 20
125.886
 30
0.0
 40
3.720853217058121
 41
0.0
 46
0.0
 71
     4
 72
     1
  1
{\fArial|b0|i0|c0|p0;\C7;B}{\fArial|b0|i0|c0|p0;\C7;}
 73
     1
 44
1.0
  0
MTEXT
  5
20D
330
1CB
100
AcDbEntity
  8
CONTINUOUS
100
AcDbMText
 10
81.36409489129
 20
6.84505931157936
 30
0.0
 40
3.720853217058121
 41
0.0
 46
0.0
 71
     4
 72
     1
  1
{\fArial|b0|i0|c0|p0;\C7;2}{\fArial|b0|i0|c0|p0;\C7;}
 73
     1
 44
1.0
  0
MTEXT
  5
20E
330
1CB
100
AcDbEntity
  8
CONTINUOUS
100
AcDbMText
 10
269.737866210938
 20
18.1238347625733
 30
0.0
 40
2.251496730059653
 41
0.0
 46
0.0
 71
     4
 72
     1
  1
{\fMonotype Corsiva|b0|i1|c0|p0;\C7;Scale }{\fArial|b0|i0|c0|p0;\C7;\H0.7692308x;}
 73
     1
 44
1.0
  0
MTEXT
  5
20F
330
1CB
100
AcDbEntity
  8
CONTINUOUS
100
AcDbMText
 10
27.3887158203126
 20
6.7864282951355
 30
0.0
 40
3.720853217058121
 41
0.0
 46
0.0
 71
     4
 72
     1
  1
{\fArial|b0|i0|c0|p0;\C7;1}{\fArial|b0|i0|c0|p0;\C7;}
 73
     1
 44
1.0
  0
MTEXT
  5
210
330
1CB
100
AcDbEntity
  8
CONTINUOUS
100
AcDbMText
 10
229.826260375977
 20
18.2757760620116
 30
0.0
 40
2.251496730059653
 41
0.0
 46
0.0
 71
     4
 72
     1
  1
{\fMonotype Corsiva|b0|i1|c0|p0;\C7;Date}{\fArial|b0|i0|c0|p0;\C7;\H0.7692308x;}
 73
     1
 44
1.0
  0
MTEXT
  5
211
330
1CB
100
AcDbEntity
  8
CONTINUOUS
100
AcDbMText
 10
126.092175294703
 20
6.61010619923708
 30
0.0
 40
3.720853217058121
 41
0.0
 46
0.0
 71
     4
 72
     1
  1
{\fArial|b0|i0|c0|p0;\C7;3}{\fArial|b0|i0|c0|p0;\C7;}
 73
     1
 44
1.0
  0
MTEXT
  5
212
330
1CB
100
AcDbEntity
  8
CONTINUOUS
100
AcDbMText
 10
288.594410820089
 20
171.67635949707
 30
0.0
 40
3.720853217058121
 41
0.0
 46
0.0
 71
     4
 72
     1
  1
{\fArial|b0|i0|c0|p0;\C7;A}{\fArial|b0|i0|c0|p0;\C7;}
 73
     1
 44
1.0
  0
MTEXT
  5
213
330
1CB
100
AcDbEntity
  8
CONTINUOUS
100
AcDbMText
 10
288.710822753907
 20
79.4667495117188
 30
0.0
 40
3.720853217058121
 41
0.0
 46
0.0
 71
     4
 72
     1
  1
{\fArial|b0|i0|c0|p0;\C7;C}{\fArial|b0|i0|c0|p0;\C7;}
 73
     1
 44
1.0
  0
MTEXT
  5
214
330
1CB
100
AcDbEntity
  8
CONTINUOUS
100
AcDbMText
 10
216.858890991211
 20
204.29698022461
 30
0.0
 40
3.720853217058121
 41
0.0
 46
0.0
 71
     4
 72
     1
  1
{\fArial|b0|i0|c0|p0;\C7;5}{\fArial|b0|i0|c0|p0;\C7;}
 73
     1
 44
1.0
  0
MTEXT
  5
215
330
1CB
100
AcDbEntity
  8
CONTINUOUS
100
AcDbMText
 10
289.025805015464
 20
125.886
 30
0.0
 40
3.720853217058121
 41
0.0
 46
0.0
 71
     4
 72
     1
  1
{\fArial|b0|i0|c0|p0;\C7;B}{\fArial|b0|i0|c0|p0;\C7;}
 73
     1
 44
1.0
  0
ENDBLK
  5
1CD
330
1CB
100
AcDbEntity
  8
0
100
AcDbBlockEnd
  0
ENDSEC
  0
SECTION
  2
ENTITIES
  0
CIRCLE
  5
6F
330
1F
100
AcDbEntity
  8
VISIBLE
100
AcDbCircle
 10
83.13940719604489
 20
131.717407226563
 30
0.0
 40
4.000000000000014
  0
CIRCLE
  5
70
330
1F
100
AcDbEntity
  8
VISIBLE
100
AcDbCircle
 10
95.5994071960449
 20
144.217407226563
 30
0.0
 40
27.34999999999999
  0
CIRCLE
  5
71
330
1F
100
AcDbEntity
  8
VISIBLE
100
AcDbCircle
 10
108.1394071960449
 20
131.717407226563
 30
0.0
 40
4.0
  0
CIRCLE
  5
72
330
1F
100
AcDbEntity
  8
VISIBLE
100
AcDbCircle
 10
95.5994071960449
 20
144.217407226563
 30
0.0
 40
24.0
  0
CIRCLE
  5
73
330
1F
100
AcDbEntity
  8
VISIBLE
100
AcDbCircle
 10
108.0994071960449
 20
156.717407226563
 30
0.0
 40
3.0
  0
LINE
  5
74
330
1F
100
AcDbEntity
  8
VISIBLE
100
AcDbLine
 10
93.19940719604489
 20
126.317407226563
 30
0.0
 11
93.5994071960449
 21
151.7504133978087
 31
0.0
  0
CIRCLE
  5
75
330
1F
100
AcDbEntity
  8
VISIBLE
100
AcDbCircle
 10
83.0994071960449
 20
156.717407226563
 30
0.0
 40
3.0
  0
LINE
  5
76
330
1F
100
AcDbEntity
  8
VISIBLE
100
AcDbLine
 10
97.9994071960449
 20
126.317407226563
 30
0.0
 11
93.19940719604489
 21
126.317407226563
 31
0.0
  0
CIRCLE
  5
77
330
1F
100
AcDbEntity
  8
VISIBLE
100
AcDbCircle
 10
83.13940719604489
 20
131.717407226563
 30
0.0
 40
3.000000000000014
  0
LINE
  5
78
330
1F
100
AcDbEntity
  8
VISIBLE
100
AcDbLine
 10
97.5994071960449
 20
151.7504133978087
 30
0.0
 11
97.99940719604488
 21
126.317407226563
 31
0.0
  0
SPLINE
  5
79
330
1F
100
AcDbEntity
  8
VISIBLE
100
AcDbSpline
210
0.0
220
0.0
230
1.0
 70
     8
 71
     3
 72
    18
 73
    14
 74
     0
 42
0.000000001
 43
0.000001
 40
-4.36655324314714
 40
-4.36655324314714
 40
-4.36655324314714
 40
-4.36655324314714
 40
-3.8423488213311
 40
-3.31814439951505
 40
-2.793939977699
 40
-2.26973555588296
 40
-1.74553113406691
 40
-1.22132671225087
 40
-0.697122290434821
 40
-0.172917868618775
 40
0.35128655319727
 40
0.875490975013316
 40
1.22496058955735
 40
1.22496058955735
 40
1.22496058955735
 40
1.22496058955735
 10
93.5994071960449
 20
151.7504133978087
 30
0.0
 10
92.62952843391102
 20
152.0880834350983
 30
0.0
 10
90.87859305081957
 20
153.2655012403961
 30
0.0
 10
89.51919069607287
 20
156.0649097388597
 30
0.0
 10
89.79266183366803
 20
159.1457696263546
 30
0.0
 10
91.6255643795121
 20
161.6807000943286
 30
0.0
 10
94.52566290396818
 20
162.9889324948029
 30
0.0
 10
97.71412099458496
 20
162.7191342710271
 30
0.0
 10
100.3346617905542
 20
160.943761127147
 30
0.0
 10
101.6835255488878
 20
158.1395986752656
 30
0.0
 10
101.3984679521687
 20
155.0597192008738
 30
0.0
 10
99.76045717232995
 20
152.8131853800274
 30
0.0
 10
98.2459930374678
 20
151.9755267560018
 30
0.0
 10
97.5994071960449
 20
151.7504133978087
 30
0.0
  0
CIRCLE
  5
7A
330
1F
100
AcDbEntity
  8
VISIBLE
100
AcDbCircle
 10
108.1394071960449
 20
131.717407226563
 30
0.0
 40
3.000000000000014
  0
CIRCLE
  5
7B
330
1F
100
AcDbEntity
  8
VISIBLE
100
AcDbCircle
 10
108.0994071960449
 20
156.717407226563
 30
0.0
 40
4.0
  0
CIRCLE
  5
7C
330
1F
100
AcDbEntity
  8
VISIBLE
100
AcDbCircle
 10
83.0994071960449
 20
156.717407226563
 30
0.0
 40
4.0
  0
CIRCLE
  5
7F
330
1F
100
AcDbEntity
  8
HIDDEN
100
AcDbCircle
 10
95.5994071960449
 20
144.217407226563
 30
0.0
 40
22.5
  0
LINE
  5
80
330
1F
100
AcDbEntity
  8
HIDDEN
100
AcDbLine
 10
93.19940719604489
 20
126.317407226563
 30
0.0
 11
91.17881329275491
 21
124.3283425154072
 31
0.0
  0
ELLIPSE
  5
81
330
1F
100
AcDbEntity
  8
HIDDEN
100
AcDbEllipse
 10
95.5994071960449
 20
123.88388526041
 30
0.0
 11
-9.574043402426767
 21
0.0
 31
0.0
210
0.0
220
0.0
230
1.0
 40
0.0523359562429575
 41
-2.050737453680151
 42
-1.090855199909641
  0
LINE
  5
82
330
1F
100
AcDbEntity
  8
HIDDEN
100
AcDbLine
 10
97.9994071960449
 20
126.317407226563
 30
0.0
 11
100.0200010993349
 21
124.3283425154071
 31
0.0
  0
ELLIPSE
  5
83
330
1F
100
AcDbEntity
  8
HIDDEN
100
AcDbEllipse
 10
91.00501218344462
 20
144.2896660068527
 30
0.0
 11
0.3463494657244155
 21
22.02177024793832
 31
0.0
210
0.0
220
0.0
230
1.0
 40
0.0523359562429434
 41
3.578445534035026
 42
5.015776362729489
  0
ELLIPSE
  5
84
330
1F
100
AcDbEntity
  8
HIDDEN
100
AcDbEllipse
 10
100.1938022086452
 20
144.2896660068529
 30
0.0
 11
0.3463494657244297
 21
-22.02177024793923
 31
0.0
210
0.0
220
0.0
230
1.0
 40
0.0523359562429432
 41
-1.87418370913968
 42
-0.4368528804452718
  0
SPLINE
  5
85
330
1F
100
AcDbEntity
  8
HIDDEN
100
AcDbSpline
210
0.0
220
0.0
230
1.0
 70
     8
 71
     3
 72
    38
 73
    34
 74
     0
 42
0.000000001
 43
0.000001
 40
-5.42685917266451
 40
-5.42685917266451
 40
-5.42685917266451
 40
-5.42685917266451
 40
-5.36530270803226
 40
-5.36530270803226
 40
-5.18248442522728
 40
-5.18248442522728
 40
-4.80855076170366
 40
-4.80855076170366
 40
-4.33872372897746
 40
-4.33872372897746
 40
-3.79201825647616
 40
-3.79201825647616
 40
-3.31915583623256
 40
-3.31915583623256
 40
-2.99219610321477
 40
-2.99219610321477
 40
-2.75930820871507
 40
-2.75930820871507
 40
-2.53240934645236
 40
-2.53240934645236
 40
-2.26412058691958
 40
-2.26412058691958
 40
-1.88062224299011
 40
-1.88062224299011
 40
-1.37015820195222
 40
-1.37015820195222
 40
-0.93677499974483
 40
-0.93677499974483
 40
-0.574993739815642
 40
-0.574993739815642
 40
-0.269898969038382
 40
-0.269898969038382
 40
-0.105380583719873
 40
-0.105380583719873
 40
-0.105380583719873
 40
-0.105380583719873
 10
92.2083793691977
 20
150.8514740809029
 30
0.0
 10
92.05194996241282
 20
150.9286984574763
 30
0.0
 10
91.89893024346384
 20
151.010954967385
 30
0.0
 10
91.3059235845637
 20
151.3563764940292
 30
0.0
 10
90.8980552895237
 20
151.6545658802956
 30
0.0
 10
89.77492505291109
 20
152.657723999103
 30
0.0
 10
89.19660974955728
 20
153.44965596733
 30
0.0
 10
88.2873359198541
 20
155.3521400593293
 30
0.0
 10
88.06491227215723
 20
156.4737643321281
 30
0.0
 10
88.11522325819026
 20
158.8322724155388
 30
0.0
 10
88.47470150025406
 20
160.0548227018833
 30
0.0
 10
89.65039350027655
 20
162.0484598860095
 30
0.0
 10
90.36890414072433
 20
162.8102089108002
 30
0.0
 10
91.7302648791784
 20
163.7954801774568
 30
0.0
 10
92.37512242453616
 20
164.14578998021
 30
0.0
 10
93.60440114730449
 20
164.5799210872977
 30
0.0
 10
94.15591034634805
 20
164.7128188297135
 30
0.0
 10
95.30873716253369
 20
164.8456760591533
 30
0.0
 10
95.87848357032645
 20
164.8461308179034
 30
0.0
 10
97.1207181404768
 20
164.704874383833
 30
0.0
 10
97.75066771149149
 20
164.5411365314133
 30
0.0
 10
99.14693270672058
 20
163.9988501199026
 30
0.0
 10
99.91901452555044
 20
163.5337627081999
 30
0.0
 10
101.5005544671635
 20
162.1370963322845
 30
0.0
 10
102.2442686377096
 20
161.0941427282436
 30
0.0
 10
103.0598266544383
 20
158.8163252209065
 30
0.0
 10
103.1997836499356
 20
157.6774275205144
 30
0.0
 10
102.9400257238957
 20
155.5671891757056
 30
0.0
 10
102.6257730513822
 20
154.6049161024629
 30
0.0
 10
101.6443241823864
 20
152.9552823075375
 30
0.0
 10
101.0455394012283
 20
152.2589425848346
 30
0.0
 10
99.8999897122083
 20
151.3613502002471
 30
0.0
 10
99.46123927879135
 20
151.0838855154751
 30
0.0
 10
98.99045272958946
 20
150.851465573316
 30
0.0
  0
SPLINE
  5
86
330
1F
100
AcDbEntity
  8
HIDDEN
100
AcDbSpline
210
0.0
220
0.0
230
1.0
 70
     8
 71
     3
 72
     8
 73
     4
 74
     0
 42
0.000000001
 43
0.000001
 40
-2.60075589406046
 40
-2.60075589406046
 40
-2.60075589406046
 40
-2.60075589406046
 40
0.0
 40
0.0
 40
0.0
 40
0.0
 10
92.20837999544071
 20
150.8514731853641
 30
0.0
 10
92.67160619420959
 20
151.1296960596008
 30
0.0
 10
93.14092487320747
 20
151.4299418556089
 30
0.0
 10
93.5994071960449
 20
151.7504133978087
 30
0.0
  0
SPLINE
  5
87
330
1F
100
AcDbEntity
  8
HIDDEN
100
AcDbSpline
210
0.0
220
0.0
230
1.0
 70
     8
 71
     3
 72
     8
 73
     4
 74
     0
 42
0.000000001
 43
0.000001
 40
4.35395808908857
 40
4.35395808908857
 40
4.35395808908857
 40
4.35395808908857
 40
6.95213711546695
 40
6.95213711546695
 40
6.95213711546695
 40
6.95213711546695
 10
98.99043439571267
 20
150.8514732521415
 30
0.0
 10
98.5271316690595
 20
151.129742177927
 30
0.0
 10
98.05782587616855
 20
151.4299863408107
 30
0.0
 10
97.5994071960449
 20
151.7504133978087
 30
0.0
  0
LINE
  5
89
330
1F
100
AcDbEntity
  8
CENTER
100
AcDbLine
 10
96.0994071960449
 20
144.217407226563
 30
0.0
 11
95.0994071960449
 21
144.217407226563
 31
0.0
  0
LINE
  5
8A
330
1F
100
AcDbEntity
  8
CENTER
100
AcDbLine
 10
95.5994071960449
 20
144.717407226563
 30
0.0
 11
95.5994071960449
 21
143.717407226563
 31
0.0
  0
LINE
  5
8B
330
1F
100
AcDbEntity
  8
CENTER
100
AcDbLine
 10
96.5994071960449
 20
144.217407226563
 30
0.0
 11
124.5369071960449
 21
144.217407226563
 31
0.0
  0
LINE
  5
8C
330
1F
100
AcDbEntity
  8
CENTER
100
AcDbLine
 10
94.5994071960449
 20
144.217407226563
 30
0.0
 11
66.6619071960449
 21
144.217407226563
 31
0.0
  0
LINE
  5
8D
330
1F
100
AcDbEntity
  8
CENTER
100
AcDbLine
 10
95.5994071960449
 20
145.217407226563
 30
0.0
 11
95.5994071960449
 21
173.154907226563
 31
0.0
  0
LINE
  5
8E
330
1F
100
AcDbEntity
  8
CENTER
100
AcDbLine
 10
95.5994071960449
 20
143.217407226563
 30
0.0
 11
95.5994071960449
 21
115.279907226563
 31
0.0
  0
LINE
  5
8F
330
1F
100
AcDbEntity
  8
CENTER
100
AcDbLine
 10
96.0994071960449
 20
144.217407226563
 30
0.0
 11
95.0994071960449
 21
144.217407226563
 31
0.0
  0
LINE
  5
90
330
1F
100
AcDbEntity
  8
CENTER
100
AcDbLine
 10
95.5994071960449
 20
144.717407226563
 30
0.0
 11
95.5994071960449
 21
143.717407226563
 31
0.0
  0
LINE
  5
91
330
1F
100
AcDbEntity
  8
CENTER
100
AcDbLine
 10
96.5994071960449
 20
144.217407226563
 30
0.0
 11
121.1869071960449
 21
144.217407226563
 31
0.0
  0
LINE
  5
92
330
1F
100
AcDbEntity
  8
CENTER
100
AcDbLine
 10
94.5994071960449
 20
144.217407226563
 30
0.0
 11
70.01190719604489
 21
144.217407226563
 31
0.0
  0
LINE
  5
93
330
1F
100
AcDbEntity
  8
CENTER
100
AcDbLine
 10
95.5994071960449
 20
145.217407226563
 30
0.0
 11
95.5994071960449
 21
169.804907226563
 31
0.0
  0
LINE
  5
94
330
1F
100
AcDbEntity
  8
CENTER
100
AcDbLine
 10
95.5994071960449
 20
143.217407226563
 30
0.0
 11
95.5994071960449
 21
118.629907226563
 31
0.0
  0
DIMENSION
  5
96
330
1F
100
AcDbEntity
  8
DIMENSIONS
100
AcDbDimension
280
     0
  2
D1
 10
0.0
 20
0.0
 30
0.0
 11
225.4356575012207
 21
287.8712158203134
 31
0.0
 70
    32
  1
<>
 71
     5
 42
-1.0
 73
     0
 74
     0
 75
     0
 53
90.0
  3
ISO-25
100
AcDbAlignedDimension
 13
108.0994071960449
 23
156.717407226563
 33
0.0
 14
108.1394071960449
 24
131.717407226563
 34
0.0
 50
90.0
100
AcDbRotatedDimension
1001
ACAD
1000
DSTYLE
1002
{
1070
    76
1070
     0
1070
    75
1070
     0
1070
   282
1070
     0
1070
   281
1070
     0
1070
    77
1070
     1
1070
    79
1070
     0
1070
    78
1070
     0
1070
   272
1070
     2
1070
   271
1070
     2
1070
   179
1070
     2
1070
   140
1040
2.707850318471337
1070
    71
1070
     0
1070
    72
1070
     0
1070
    48
1040
0.002
1070
    47
1040
0.005
1002
}
  0
DIMENSION
  5
A7
330
1F
100
AcDbEntity
  8
DIMENSIONS
100
AcDbDimension
280
     0
  2
D2
 10
0.0
 20
0.0
 30
0.0
 11
191.2388143920898
 21
253.9849429660382
 31
0.0
 70
    32
  1
<>
 71
     5
 42
-1.0
 73
     0
 74
     0
 75
     0
 53
180.0
  3
ISO-25
100
AcDbAlignedDimension
 13
108.1394071960449
 23
131.717407226563
 33
0.0
 14
83.13940719604489
 24
131.717407226563
 34
0.0
 50
180.0
100
AcDbRotatedDimension
1001
ACAD
1000
DSTYLE
1002
{
1070
    76
1070
     0
1070
    75
1070
     0
1070
   282
1070
     0
1070
   281
1070
     0
1070
    77
1070
     1
1070
    79
1070
     0
1070
    78
1070
     0
1070
   272
1070
     2
1070
   271
1070
     2
1070
   179
1070
     2
1070
   140
1040
2.707850318471337
1070
    71
1070
     0
1070
    72
1070
     0
1070
    48
1040
0.002
1070
    47
1040
0.005
1002
}
  0
DIMENSION
  5
B8
330
1F
100
AcDbEntity
  8
DIMENSIONS
100
AcDbDimension
280
     0
  2
D3
 10
0.0
 20
0.0
 30
0.0
 11
190.1238975524902
 21
237.6943283081063
 31
0.0
 70
    32
  1
<>
 71
     5
 42
-1.0
 73
     0
 74
     0
 75
     0
  3
ISO-25
100
AcDbAlignedDimension
 13
119.5994071960449
 23
144.217407226563
 33
0.0
 14
71.5994071960449
 24
144.217407226563
 34
0.0
100
AcDbRotatedDimension
1001
ACAD
1000
DSTYLE
1002
{
1070
    76
1070
     0
1070
    75
1070
     0
1070
   282
1070
     0
1070
   281
1070
     0
1070
    77
1070
     1
1070
    79
1070
     0
1070
    78
1070
     0
1070
   272
1070
     2
1070
   271
1070
     2
1070
   179
1070
     2
1070
   140
1040
2.707850318471337
1070
    71
1070
     0
1070
    72
1070
     0
1070
    48
1040
0.002
1070
    47
1040
0.005
1002
}
  0
DIMENSION
  5
CA
330
1F
100
AcDbEntity
  8
DIMENSIONS
100
AcDbDimension
280
     0
  2
D4
 10
0.0
 20
0.0
 30
0.0
 11
192.1237754821777
 21
228.422149658204
 31
0.0
 70
    32
  1
<>
 71
     5
 42
-1.0
 73
     0
 74
     0
 75
     0
  3
ISO-25
100
AcDbAlignedDimension
 13
122.9494071960449
 23
144.217407226563
 33
0.0
 14
68.2494071960449
 24
144.217407226563
 34
0.0
100
AcDbRotatedDimension
1001
ACAD
1000
DSTYLE
1002
{
1070
    76
1070
     0
1070
    75
1070
     0
1070
   282
1070
     0
1070
   281
1070
     0
1070
    77
1070
     1
1070
    79
1070
     0
1070
    78
1070
     0
1070
   272
1070
     2
1070
   271
1070
     2
1070
   179
1070
     2
1070
   140
1040
2.707850318471337
1070
    71
1070
     0
1070
    72
1070
     0
1070
    48
1040
0.002
1070
    47
1040
0.005
1002
}
  0
MTEXT
  5
DD
330
1F
100
AcDbEntity
  8
CONTINUOUS
100
AcDbMText
 10
48.3489608764648
 20
166.7468855310484
 30
0.0
 40
2.188737186504777
 41
0.0
 46
0.0
 71
     1
 72
     1
  1
{\fCE|b0|i0|c0|p0;\C7;(4x) M6}{\fAlibre Symbols|b0|i0|c0|p0;\C7;x}{\fCE|b0|i0|c0|p0;\C7;15     }{\fCE|b0|i0|c0|p0;\C7;}
 73
     1
 44
1.0
  0
LINE
  5
DE
330
1F
100
AcDbEntity
  8
CONTINUOUS
100
AcDbLine
 10
76.2777803209093
 20
164.639869520399
 30
0.0
 11
71.1184053209093
 21
164.639869520399
 31
0.0
  0
LINE
  5
DF
330
1F
100
AcDbEntity
  8
CONTINUOUS
100
AcDbLine
 10
79.35222259960253
 20
161.3794185955756
 30
0.0
 11
79.35222259960253
 21
161.3794185955756
 31
0.0
  0
LINE
  5
E0
330
1F
100
AcDbEntity
  8
CONTINUOUS
100
AcDbLine
 10
79.35222259960253
 20
161.3794185955756
 30
0.0
 11
76.2777803209093
 21
164.639869520399
 31
0.0
  0
LWPOLYLINE
  5
E1
330
1F
100
AcDbEntity
  8
CONTINUOUS
100
AcDbPolyline
 90
        4
 70
     0
 43
0.0
 10
81.41036852525036
 20
159.196751569037
 10
78.98844476184604
 20
161.0363942746343
 10
79.7160004373589
 20
161.722442916517
 10
81.41036852525036
 20
159.196751569037
  0
HATCH
  5
E2
330
1F
100
AcDbEntity
  8
0
 62
     7
100
AcDbHatch
 10
0.0
 20
0.0
 30
0.0
210
0.0
220
0.0
230
1.0
  2
SOLID
 70
     1
 71
     0
 91
        1
 92
        0
 93
        3
 72
     1
 10
79.7160004373589
 20
161.722442916517
 11
81.41036852525036
 21
159.196751569037
 72
     1
 10
81.41036852525036
 20
159.196751569037
 11
78.98844476184604
 21
161.0363942746343
 72
     1
 10
78.98844476184604
 20
161.0363942746343
 11
79.7160004373589
 21
161.722442916517
 97
        0
 75
     0
 76
     1
 98
        0
  0
LINE
  5
E3
330
1F
100
AcDbEntity
  8
VISIBLE
100
AcDbLine
 10
189.774543166161
 20
144.217407226563
 30
0.0
 11
189.774543166161
 21
171.567407226563
 31
0.0
  0
LINE
  5
E4
330
1F
100
AcDbEntity
  8
VISIBLE
100
AcDbLine
 10
189.774543166161
 20
116.867407226563
 30
0.0
 11
189.774543166161
 21
144.217407226563
 31
0.0
  0
LINE
  5
E5
330
1F
100
AcDbEntity
  8
VISIBLE
100
AcDbLine
 10
226.774543166161
 20
120.217407226563
 30
0.0
 11
226.774543166161
 21
168.217407226563
 31
0.0
  0
LINE
  5
E6
330
1F
100
AcDbEntity
  8
VISIBLE
100
AcDbLine
 10
171.774543166161
 20
144.217407226563
 30
0.0
 11
171.774543166161
 21
116.867407226563
 31
0.0
  0
LINE
  5
E7
330
1F
100
AcDbEntity
  8
VISIBLE
100
AcDbLine
 10
171.774543166161
 20
171.567407226563
 30
0.0
 11
171.774543166161
 21
144.217407226563
 31
0.0
  0
LINE
  5
E8
330
1F
100
AcDbEntity
  8
VISIBLE
100
AcDbLine
 10
189.774543166161
 20
116.867407226563
 30
0.0
 11
171.774543166161
 21
116.867407226563
 31
0.0
  0
LINE
  5
E9
330
1F
100
AcDbEntity
  8
VISIBLE
100
AcDbLine
 10
189.774543166161
 20
120.217407226563
 30
0.0
 11
226.774543166161
 21
120.217407226563
 31
0.0
  0
LINE
  5
EA
330
1F
100
AcDbEntity
  8
VISIBLE
100
AcDbLine
 10
189.774543166161
 20
168.217407226563
 30
0.0
 11
226.774543166161
 21
168.217407226563
 31
0.0
  0
LINE
  5
EB
330
1F
100
AcDbEntity
  8
VISIBLE
100
AcDbLine
 10
189.774543166161
 20
171.567407226563
 30
0.0
 11
171.774543166161
 21
171.567407226563
 31
0.0
  0
LINE
  5
EC
330
1F
100
AcDbEntity
  8
HIDDEN
100
AcDbLine
 10
226.774543166161
 20
126.317407226563
 30
0.0
 11
188.8209275318594
 21
124.3283425154071
 31
0.0
  0
LINE
  5
ED
330
1F
100
AcDbEntity
  8
HIDDEN
100
AcDbLine
 10
225.774543166161
 20
153.717407226563
 30
0.0
 11
225.774543166161
 21
159.717407226563
 31
0.0
  0
LINE
  5
EE
330
1F
100
AcDbEntity
  8
HIDDEN
100
AcDbLine
 10
225.774543166161
 20
128.717407226563
 30
0.0
 11
225.774543166161
 21
134.717407226563
 31
0.0
  0
ELLIPSE
  5
EF
330
1F
100
AcDbEntity
  8
HIDDEN
100
AcDbEllipse
 10
179.5153549836671
 20
144.2896660068528
 30
0.0
 11
-6.329916088043378
 21
21.09527162953208
 31
0.0
210
0.0
220
0.0
230
1.0
 40
0.9985060485507932
 41
3.286518882909499
 42
4.723849711603947
  0
LINE
  5
F0
330
1F
100
AcDbEntity
  8
HIDDEN
100
AcDbLine
 10
209.274543166161
 20
134.717407226563
 30
0.0
 11
209.274543166161
 21
128.717407226563
 31
0.0
  0
SPLINE
  5
F1
330
1F
100
AcDbEntity
  8
HIDDEN
100
AcDbSpline
210
0.0
220
0.0
230
1.0
 70
     8
 71
     3
 72
    24
 73
    20
 74
     0
 42
0.000000001
 43
0.000001
 40
-5.42685917266451
 40
-5.42685917266451
 40
-5.42685917266451
 40
-5.42685917266451
 40
-5.36530270803226
 40
-5.36530270803226
 40
-5.18248442522728
 40
-5.18248442522728
 40
-4.80855076170366
 40
-4.80855076170366
 40
-4.33872372897746
 40
-4.33872372897746
 40
-3.79201825647616
 40
-3.79201825647616
 40
-3.31915583623256
 40
-3.31915583623256
 40
-2.99219610321477
 40
-2.99219610321477
 40
-2.75930820871507
 40
-2.75930820871507
 40
-2.64509371132382
 40
-2.64509371132382
 40
-2.64509371132382
 40
-2.64509371132382
 10
200.5051887459836
 20
150.8514740809029
 30
0.0
 10
200.4560706854153
 20
150.9286984574763
 30
0.0
 10
200.4036028974225
 20
151.010954967385
 30
0.0
 10
200.1824858165231
 20
151.3563764940292
 30
0.0
 10
199.989927353058
 20
151.6545658802956
 30
0.0
 10
199.3320764873146
 20
152.657723999103
 30
0.0
 10
198.8000482253117
 20
153.44965596733
 30
0.0
 10
197.4606946130231
 20
155.3521400593293
 30
0.0
 10
196.6300121701011
 20
156.4737643321281
 30
0.0
 10
194.7432860814151
 20
158.8322724155388
 30
0.0
 10
193.6725074474676
 20
160.0548227018833
 30
0.0
 10
191.7198315722695
 20
162.0484598860095
 30
0.0
 10
190.8794183719944
 20
162.8102089108002
 30
0.0
 10
189.6996718997179
 20
163.7954801774568
 30
0.0
 10
189.2451007594008
 20
164.14578998021
 30
0.0
 10
188.6549667731213
 20
164.5799210872977
 30
0.0
 10
188.4647182049554
 20
164.7128188297135
 30
0.0
 10
188.3201829155041
 20
164.8131154594887
 30
0.0
 10
188.2963924276083
 20
164.8296207766268
 30
0.0
 10
188.2963916044244
 20
164.829619618928
 30
0.0
  0
SPLINE
  5
F2
330
1F
100
AcDbEntity
  8
HIDDEN
100
AcDbSpline
210
0.0
220
0.0
230
1.0
 70
     8
 71
     3
 72
     8
 73
     4
 74
     0
 42
0.000000001
 43
0.000001
 40
-2.60075589406046
 40
-2.60075589406046
 40
-2.60075589406046
 40
-2.60075589406046
 40
0.0
 40
0.0
 40
0.0
 40
0.0
 10
200.5051840663531
 20
150.8514731853641
 30
0.0
 10
209.2594890403435
 20
151.1296960596008
 30
0.0
 10
218.1234228173816
 20
151.4299418556089
 30
0.0
 10
226.774543166161
 20
151.7504133978087
 30
0.0
  0
LINE
  5
F3
330
1F
100
AcDbEntity
  8
HIDDEN
100
AcDbLine
 10
209.274543166161
 20
159.717407226563
 30
0.0
 11
209.274543166161
 21
153.717407226563
 31
0.0
  0
LINE
  5
F4
330
1F
100
AcDbEntity
  8
HIDDEN
100
AcDbLine
 10
225.774543166161
 20
128.717407226563
 30
0.0
 11
209.274543166161
 21
128.717407226563
 31
0.0
  0
LINE
  5
F5
330
1F
100
AcDbEntity
  8
HIDDEN
100
AcDbLine
 10
225.774543166161
 20
153.717407226563
 30
0.0
 11
226.774543166161
 21
152.717407226563
 31
0.0
  0
LINE
  5
F6
330
1F
100
AcDbEntity
  8
HIDDEN
100
AcDbLine
 10
225.774543166161
 20
128.717407226563
 30
0.0
 11
226.774543166161
 21
127.717407226563
 31
0.0
  0
LINE
  5
F7
330
1F
100
AcDbEntity
  8
HIDDEN
100
AcDbLine
 10
225.774543166161
 20
159.717407226563
 30
0.0
 11
209.274543166161
 21
159.717407226563
 31
0.0
  0
LINE
  5
F8
330
1F
100
AcDbEntity
  8
HIDDEN
100
AcDbLine
 10
225.774543166161
 20
134.717407226563
 30
0.0
 11
209.274543166161
 21
134.717407226563
 31
0.0
  0
LINE
  5
F9
330
1F
100
AcDbEntity
  8
HIDDEN
100
AcDbLine
 10
225.774543166161
 20
134.717407226563
 30
0.0
 11
226.774543166161
 21
135.717407226563
 31
0.0
  0
LINE
  5
FA
330
1F
100
AcDbEntity
  8
HIDDEN
100
AcDbLine
 10
188.2962971762366
 20
164.8294899593119
 30
0.0
 11
226.774543166161
 21
162.8129305362734
 31
0.0
  0
ARC
  5
FB
330
1F
100
AcDbEntity
  8
HIDDEN
100
AcDbCircle
 10
179.274543166161
 20
144.2174072265631
 30
0.0
 40
22.49999999999987
100
AcDbArc
 50
66.36136545530655
 51
90.0
  0
LINE
  5
FC
330
1F
100
AcDbEntity
  8
HIDDEN
100
AcDbLine
 10
179.274543166161
 20
166.717407226563
 30
0.0
 11
171.774543166161
 21
166.717407226563
 31
0.0
  0
LINE
  5
FD
330
1F
100
AcDbEntity
  8
HIDDEN
100
AcDbLine
 10
225.774543166161
 20
153.717407226563
 30
0.0
 11
209.274543166161
 21
153.717407226563
 31
0.0
  0
LINE
  5
FE
330
1F
100
AcDbEntity
  8
HIDDEN
100
AcDbLine
 10
225.774543166161
 20
159.717407226563
 30
0.0
 11
226.774543166161
 21
160.717407226563
 31
0.0
  0
LINE
  5
FF
330
1F
100
AcDbEntity
  8
HIDDEN
100
AcDbLine
 10
179.274543166161
 20
121.717407226563
 30
0.0
 11
171.7745431661646
 21
121.717407226563
 31
0.0
  0
ARC
  5
100
330
1F
100
AcDbEntity
  8
HIDDEN
100
AcDbCircle
 10
179.274543166161
 20
144.217407226563
 30
0.0
 40
22.5
100
AcDbArc
 50
270.0
 51
298.1831414976446
  0
LINE
  5
101
330
1F
100
AcDbEntity
  8
HIDDEN
100
AcDbLine
 10
179.2745431661646
 20
121.717407226563
 30
0.0
 11
179.2745431661646
 21
166.717407226563
 31
0.0
  0
LINE
  5
102
330
1F
100
AcDbEntity
  8
CENTER
100
AcDbLine
 10
180.274543166161
 20
144.217407226563
 30
0.0
 11
181.274543166161
 21
144.217407226563
 31
0.0
  0
LINE
  5
103
330
1F
100
AcDbEntity
  8
CENTER
100
AcDbLine
 10
179.774543166161
 20
144.217407226563
 30
0.0
 11
174.774543166161
 21
144.217407226563
 31
0.0
  0
LINE
  5
104
330
1F
100
AcDbEntity
  8
CENTER
100
AcDbLine
 10
181.774543166161
 20
144.217407226563
 30
0.0
 11
186.774543166161
 21
144.217407226563
 31
0.0
  0
LINE
  5
105
330
1F
100
AcDbEntity
  8
CENTER
100
AcDbLine
 10
174.274543166161
 20
144.217407226563
 30
0.0
 11
173.274543166161
 21
144.217407226563
 31
0.0
  0
LINE
  5
106
330
1F
100
AcDbEntity
  8
CENTER
100
AcDbLine
 10
187.274543166161
 20
144.217407226563
 30
0.0
 11
188.274543166161
 21
144.217407226563
 31
0.0
  0
LINE
  5
107
330
1F
100
AcDbEntity
  8
CENTER
100
AcDbLine
 10
172.774543166161
 20
144.217407226563
 30
0.0
 11
168.599543166161
 21
144.217407226563
 31
0.0
  0
LINE
  5
108
330
1F
100
AcDbEntity
  8
CENTER
100
AcDbLine
 10
188.774543166161
 20
144.217407226563
 30
0.0
 11
192.949543166161
 21
144.217407226563
 31
0.0
  0
LINE
  5
109
330
1F
100
AcDbEntity
  8
CENTER
100
AcDbLine
 10
207.774543166161
 20
144.217407226563
 30
0.0
 11
208.774543166161
 21
144.217407226563
 31
0.0
  0
LINE
  5
10A
330
1F
100
AcDbEntity
  8
CENTER
100
AcDbLine
 10
207.274543166161
 20
144.217407226563
 30
0.0
 11
202.274543166161
 21
144.217407226563
 31
0.0
  0
LINE
  5
10B
330
1F
100
AcDbEntity
  8
CENTER
100
AcDbLine
 10
209.274543166161
 20
144.217407226563
 30
0.0
 11
214.274543166161
 21
144.217407226563
 31
0.0
  0
LINE
  5
10C
330
1F
100
AcDbEntity
  8
CENTER
100
AcDbLine
 10
201.774543166161
 20
144.217407226563
 30
0.0
 11
200.774543166161
 21
144.217407226563
 31
0.0
  0
LINE
  5
10D
330
1F
100
AcDbEntity
  8
CENTER
100
AcDbLine
 10
214.774543166161
 20
144.217407226563
 30
0.0
 11
215.774543166161
 21
144.217407226563
 31
0.0
  0
LINE
  5
10E
330
1F
100
AcDbEntity
  8
CENTER
100
AcDbLine
 10
200.274543166161
 20
144.217407226563
 30
0.0
 11
195.274543166161
 21
144.217407226563
 31
0.0
  0
LINE
  5
10F
330
1F
100
AcDbEntity
  8
CENTER
100
AcDbLine
 10
216.274543166161
 20
144.217407226563
 30
0.0
 11
221.274543166161
 21
144.217407226563
 31
0.0
  0
LINE
  5
110
330
1F
100
AcDbEntity
  8
CENTER
100
AcDbLine
 10
194.774543166161
 20
144.217407226563
 30
0.0
 11
193.774543166161
 21
144.217407226563
 31
0.0
  0
LINE
  5
111
330
1F
100
AcDbEntity
  8
CENTER
100
AcDbLine
 10
221.774543166161
 20
144.217407226563
 30
0.0
 11
222.774543166161
 21
144.217407226563
 31
0.0
  0
LINE
  5
112
330
1F
100
AcDbEntity
  8
CENTER
100
AcDbLine
 10
193.274543166161
 20
144.217407226563
 30
0.0
 11
188.274543166161
 21
144.217407226563
 31
0.0
  0
LINE
  5
113
330
1F
100
AcDbEntity
  8
CENTER
100
AcDbLine
 10
223.274543166161
 20
144.217407226563
 30
0.0
 11
228.274543166161
 21
144.217407226563
 31
0.0
  0
LINE
  5
114
330
1F
100
AcDbEntity
  8
CENTER
100
AcDbLine
 10
187.774543166161
 20
144.217407226563
 30
0.0
 11
186.599543166161
 21
144.217407226563
 31
0.0
  0
LINE
  5
115
330
1F
100
AcDbEntity
  8
CENTER
100
AcDbLine
 10
228.774543166161
 20
144.217407226563
 30
0.0
 11
229.949543166161
 21
144.217407226563
 31
0.0
  0
DIMENSION
  5
116
330
1F
100
AcDbEntity
  8
DIMENSIONS
100
AcDbDimension
280
     0
  2
D5
 10
0.0
 20
0.0
 30
0.0
 11
398.4012063741691
 21
244.413833618165
 31
0.0
 70
    32
  1
<>
 71
     5
 42
-1.0
 73
     0
 74
     0
 75
     0
 53
180.0
  3
ISO-25
100
AcDbAlignedDimension
 13
226.774543166161
 23
120.217407226563
 33
0.0
 14
189.774543166161
 24
116.867407226563
 34
0.0
 50
180.0
100
AcDbRotatedDimension
1001
ACAD
1000
DSTYLE
1002
{
1070
    76
1070
     0
1070
    75
1070
     0
1070
   282
1070
     0
1070
   281
1070
     0
1070
    77
1070
     1
1070
    79
1070
     0
1070
    78
1070
     0
1070
   272
1070
     2
1070
   271
1070
     2
1070
   179
1070
     2
1070
   140
1040
2.707850318471337
1070
    71
1070
     0
1070
    72
1070
     0
1070
    48
1040
0.002
1070
    47
1040
0.005
1002
}
  0
DIMENSION
  5
127
330
1F
100
AcDbEntity
  8
DIMENSIONS
100
AcDbDimension
280
     0
  2
D6
 10
0.0
 20
0.0
 30
0.0
 11
387.2919381856925
 21
230.4831466674813
 31
0.0
 70
    32
  1
<>
 71
     5
 42
-1.0
 73
     0
 74
     0
 75
     0
 53
180.0
  3
ISO-25
100
AcDbAlignedDimension
 13
226.774543166161
 23
120.217407226563
 33
0.0
 14
171.774543166161
 24
116.867407226563
 34
0.0
 50
180.0
100
AcDbRotatedDimension
1001
ACAD
1000
DSTYLE
1002
{
1070
    76
1070
     0
1070
    75
1070
     0
1070
   282
1070
     0
1070
   281
1070
     0
1070
    77
1070
     1
1070
    79
1070
     0
1070
    78
1070
     0
1070
   272
1070
     2
1070
   271
1070
     2
1070
   179
1070
     2
1070
   140
1040
2.707850318471337
1070
    71
1070
     0
1070
    72
1070
     0
1070
    48
1040
0.002
1070
    47
1040
0.005
1002
}
  0
LINE
  5
138
330
1F
100
AcDbEntity
  8
CONTINUOUS
100
AcDbLine
 10
232.481438446045
 20
150.8451647623696
 30
0.0
 11
227.322063446045
 21
147.866485595703
 31
0.0
  0
LINE
  5
139
330
1F
100
AcDbEntity
  8
CONTINUOUS
100
AcDbLine
 10
227.322063446045
 20
147.866485595703
 30
0.0
 11
237.640813446045
 21
141.9091272623697
 31
0.0
  0
LINE
  5
13A
330
1F
100
AcDbEntity
  8
CONTINUOUS
100
AcDbLine
 10
232.481438446045
 20
150.8451647623696
 30
0.0
 11
227.322063446045
 21
147.866485595703
 31
0.0
  0
LINE
  5
13B
330
1F
100
AcDbEntity
  8
CONTINUOUS
100
AcDbLine
 10
227.322063446045
 20
147.866485595703
 30
0.0
 11
237.640813446045
 21
141.9091272623697
 31
0.0
  0
LINE
  5
13C
330
1F
100
AcDbEntity
  8
CONTINUOUS
100
AcDbLine
 10
232.481438446045
 20
150.8451647623696
 30
0.0
 11
232.481438446045
 21
144.8878064290363
 31
0.0
  0
MTEXT
  5
13D
330
1F
100
AcDbEntity
  8
CONTINUOUS
100
AcDbMText
 10
230.0737301127117
 20
155.7775272623697
 30
0.0
 40
2.188737186504777
 41
0.0
 46
0.0
 71
     6
 72
     1
  1
{\fCE|b0|i0|c0|p0;\C7;1,6}{\fCE|b0|i0|c0|p0;\C7;\H0.95x;}
 11
-3.491483361109382E-15
 21
-1.0
 31
0.0
 73
     1
 44
1.0
  0
MTEXT
  5
13E
330
1F
100
AcDbEntity
  8
CONTINUOUS
100
AcDbMText
 10
227.322063446045
 20
147.5225272623697
 30
0.0
 40
2.188737186504777
 41
0.0
 46
0.0
 71
     4
 72
     1
  1
{\fCE|b0|i0|c0|p0;\C7; }{\fCE|b0|i0|c0|p0;\C7;\H0.95x;}
 11
-3.491483361109382E-15
 21
-1.0
 31
0.0
 73
     1
 44
1.0
  0
ELLIPSE
  5
13F
330
1F
100
AcDbEntity
  8
VISIBLE
100
AcDbEllipse
 10
154.94038346042
 20
29.39786590651011
 30
0.0
 11
1.0
 21
1.732050807568854
 31
0.0
210
0.0
220
0.0
230
1.0
 40
0.5773502691896335
 41
-0.7853981633974361
 42
0.7853981633974483
  0
ELLIPSE
  5
140
330
1F
100
AcDbEntity
  8
VISIBLE
100
AcDbEllipse
 10
154.94038346042
 20
29.39786590651011
 30
0.0
 11
-1.000000000000028
 21
-1.732050807568879
 31
0.0
210
0.0
220
0.0
230
1.0
 40
0.5773502691896083
 41
-2.356194490192316
 42
-0.7853981633974361
  0
ELLIPSE
  5
141
330
1F
100
AcDbEntity
  8
VISIBLE
100
AcDbEllipse
 10
154.94038346042
 20
29.39786590651011
 30
0.0
 11
-1.000000000000028
 21
-1.732050807568889
 31
0.0
210
0.0
220
0.0
230
1.0
 40
0.5773502691896214
 41
-0.7853981633974298
 42
2.356194490192351
  0
ELLIPSE
  5
142
330
1F
100
AcDbEntity
  8
VISIBLE
100
AcDbEllipse
 10
146.264183255261
 20
44.59694976047973
 30
0.0
 11
-6.837500000000006
 21
-11.84289739675218
 31
0.0
210
0.0
220
0.0
230
1.0
 40
0.5773502691896248
 41
-3.141592653589793
 42
-0.7853981633974474
  0
ELLIPSE
  5
143
330
1F
100
AcDbEntity
  8
VISIBLE
100
AcDbEllipse
 10
146.2641832552596
 20
44.59694976047765
 30
0.0
 11
-6.837500000001484
 21
-11.84289739675422
 31
0.0
210
0.0
220
0.0
230
1.0
 40
0.5773502691895736
 41
-3.641736245630695
 42
-3.141592653589779
  0
ELLIPSE
  5
144
330
1F
100
AcDbEntity
  8
VISIBLE
100
AcDbEllipse
 10
146.2641832552621
 20
44.59694976048191
 30
0.0
 11
6.837500000001226
 21
11.84289739675435
 31
0.0
210
0.0
220
0.0
230
1.0
 40
0.577350269189574
 41
3.141592653589809
 42
3.641736245630723
  0
ELLIPSE
  5
145
330
1F
100
AcDbEntity
  8
VISIBLE
100
AcDbEllipse
 10
146.2641832552609
 20
44.59694976047975
 30
0.0
 11
-6.83749999999992
 21
-11.84289739675226
 31
0.0
210
0.0
220
0.0
230
1.0
 40
0.5773502691896233
 41
-0.7853981633974543
 42
0.0
  0
ELLIPSE
  5
146
330
1F
100
AcDbEntity
  8
VISIBLE
100
AcDbEllipse
 10
163.7792182252518
 20
34.50096953730835
 30
0.0
 11
1.0
 21
1.732050807568889
 31
0.0
210
0.0
220
0.0
230
1.0
 40
0.577350269189622
 41
-0.7853981633974214
 42
0.7853981633974481
  0
ELLIPSE
  5
147
330
1F
100
AcDbEntity
  8
VISIBLE
100
AcDbEllipse
 10
163.7792182252518
 20
34.50096953730834
 30
0.0
 11
-1.0
 21
-1.732050807568868
 31
0.0
210
0.0
220
0.0
230
1.0
 40
0.5773502691896449
 41
-2.356194490192359
 42
-0.7853981633974549
  0
ELLIPSE
  5
148
330
1F
100
AcDbEntity
  8
VISIBLE
100
AcDbEllipse
 10
163.7792182252518
 20
34.50096953730836
 30
0.0
 11
-0.9999999999999432
 21
-1.732050807568875
 31
0.0
210
0.0
220
0.0
230
1.0
 40
0.5773502691896266
 41
-0.7853981633974715
 42
2.356194490192328
  0
ELLIPSE
  5
149
330
1F
100
AcDbEntity
  8
VISIBLE
100
AcDbEllipse
 10
159.3456587072122
 20
37.04435638689821
 30
0.0
 11
6.0
 21
10.39230484541326
 31
0.0
210
0.0
220
0.0
230
1.0
 40
0.5773502691896235
 41
3.141592653589793
 42
5.49778714378214
  0
ELLIPSE
  5
14A
330
1F
100
AcDbEntity
  8
VISIBLE
100
AcDbEllipse
 10
159.3456587072122
 20
37.04435638689821
 30
0.0
 11
-6.0
 21
-10.39230484541327
 31
0.0
210
0.0
220
0.0
230
1.0
 40
0.5773502691896277
 41
-3.141592653589792
 42
0.0
  0
ELLIPSE
  5
14B
330
1F
100
AcDbEntity
  8
VISIBLE
100
AcDbEllipse
 10
159.3456587072115
 20
37.04435638689754
 30
0.0
 11
6.000000000000711
 21
10.39230484541391
 31
0.0
210
0.0
220
0.0
230
1.0
 40
0.5773502691896034
 41
-0.785398163397405
 42
0.0
  0
ELLIPSE
  5
14C
330
1F
100
AcDbEntity
  8
VISIBLE
100
AcDbEllipse
 10
146.264183255261
 20
44.59694976047969
 30
0.0
 11
-6.0
 21
-10.39230484541327
 31
0.0
210
0.0
220
0.0
230
1.0
 40
0.5773502691896253
 41
-3.141592653589794
 42
0.0
  0
ELLIPSE
  5
14D
330
1F
100
AcDbEntity
  8
VISIBLE
100
AcDbEllipse
 10
163.4115226990348
 20
44.90313597832759
 30
0.0
 11
0.7499999999999716
 21
1.299038105676651
 31
0.0
210
0.0
220
0.0
230
1.0
 40
0.5773502691896305
 41
3.14159265358977
 42
5.497787143782131
  0
ELLIPSE
  5
14E
330
1F
100
AcDbEntity
  8
VISIBLE
100
AcDbEllipse
 10
163.4115226990342
 20
44.90313597832672
 30
0.0
 11
-0.7499999999993463
 21
-1.299038105675805
 31
0.0
210
0.0
220
0.0
230
1.0
 40
0.5773502691898303
 41
-0.6301372460648473
 42
0.0
  0
ELLIPSE
  5
14F
330
1F
100
AcDbEntity
  8
VISIBLE
100
AcDbEllipse
 10
163.4115226990354
 20
44.90313597832866
 30
0.0
 11
-0.7499999999993179
 21
-1.299038105675649
 31
0.0
210
0.0
220
0.0
230
1.0
 40
0.5773502691898997
 41
-3.141592653589935
 42
-2.511455407525104
  0
ELLIPSE
  5
150
330
1F
100
AcDbEntity
  8
VISIBLE
100
AcDbEllipse
 10
163.4115226990358
 20
44.90313597832863
 30
0.0
 11
0.7499999999987779
 21
1.299038105675734
 31
0.0
210
0.0
220
0.0
230
1.0
 40
0.5773502691898381
 41
-0.7853981633980833
 42
0.0
  0
LINE
  5
151
330
1F
100
AcDbEntity
  8
VISIBLE
100
AcDbLine
 10
160.194186844636
 20
30.2266099361517
 30
0.0
 11
158.5234306025076
 21
31.19291428636572
 31
0.0
  0
LINE
  5
152
330
1F
100
AcDbEntity
  8
VISIBLE
100
AcDbLine
 10
158.4971305697883
 20
29.24681403903845
 30
0.0
 11
158.6385519260256
 21
39.71144498789918
 31
0.0
  0
ELLIPSE
  5
153
330
1F
100
AcDbEntity
  8
VISIBLE
100
AcDbEllipse
 10
154.5726879342029
 20
39.80003234752931
 30
0.0
 11
0.75
 21
1.299038105676651
 31
0.0
210
0.0
220
0.0
230
1.0
 40
0.5773502691896274
 41
3.141592653589798
 42
5.497787143782147
  0
ELLIPSE
  5
154
330
1F
100
AcDbEntity
  8
VISIBLE
100
AcDbEllipse
 10
154.5726879342033
 20
39.80003234752963
 30
0.0
 11
-0.7500000000004549
 21
-1.299038105676921
 31
0.0
210
0.0
220
0.0
230
1.0
 40
0.5773502691895537
 41
-0.6301372460643643
 42
0.0
  0
ELLIPSE
  5
155
330
1F
100
AcDbEntity
  8
VISIBLE
100
AcDbEllipse
 10
154.5726879342026
 20
39.80003234752789
 30
0.0
 11
-0.7500000000006254
 21
-1.299038105677887
 31
0.0
210
0.0
220
0.0
230
1.0
 40
0.5773502691894732
 41
-3.141592653589369
 42
-2.511455407525311
  0
ELLIPSE
  5
156
330
1F
100
AcDbEntity
  8
VISIBLE
100
AcDbEllipse
 10
154.5726879342025
 20
39.80003234752881
 30
0.0
 11
0.7500000000004263
 21
1.299038105677141
 31
0.0
210
0.0
220
0.0
230
1.0
 40
0.5773502691894996
 41
-0.7853981633972354
 42
0.0
  0
LINE
  5
157
330
1F
100
AcDbEntity
  8
VISIBLE
100
AcDbLine
 10
160.194186844636
 20
30.2266099361517
 30
0.0
 11
158.4971305697883
 21
29.24681403903843
 31
0.0
  0
ELLIPSE
  5
158
330
1F
100
AcDbEntity
  8
VISIBLE
100
AcDbEllipse
 10
154.5868300698267
 20
29.601990051742
 30
0.0
 11
0.7499999999999716
 21
1.299038105676669
 31
0.0
210
0.0
220
0.0
230
1.0
 40
0.5773502691896422
 41
3.141592653589725
 42
5.49778714378213
  0
ELLIPSE
  5
159
330
1F
100
AcDbEntity
  8
VISIBLE
100
AcDbEllipse
 10
154.5868300698259
 20
29.60199005174156
 30
0.0
 11
-0.7499999999990052
 21
-1.299038105676331
 31
0.0
210
0.0
220
0.0
230
1.0
 40
0.577350269189728
 41
-0.6301372460649961
 42
0.0
  0
ELLIPSE
  5
15A
330
1F
100
AcDbEntity
  8
VISIBLE
100
AcDbEllipse
 10
154.5868300698282
 20
29.60199005174734
 30
0.0
 11
-0.7499999999973284
 21
-1.299038105671965
 31
0.0
210
0.0
220
0.0
230
1.0
 40
0.5773502691905085
 41
-3.141592653591307
 42
-2.511455407525068
  0
ELLIPSE
  5
15B
330
1F
100
AcDbEntity
  8
VISIBLE
100
AcDbEllipse
 10
154.5868300698278
 20
29.60199005174317
 30
0.0
 11
0.7499999999987494
 21
1.299038105675542
 31
0.0
210
0.0
220
0.0
230
1.0
 40
0.5773502691898594
 41
-0.7853981633980817
 42
0.0
  0
ELLIPSE
  5
15C
330
1F
100
AcDbEntity
  8
VISIBLE
100
AcDbEllipse
 10
139.9002222245826
 20
48.27118437465516
 30
0.0
 11
-6.837500000000574
 21
-11.84289739675283
 31
0.0
210
0.0
220
0.0
230
1.0
 40
0.5773502691896077
 41
-0.785398163397414
 42
0.0
  0
ELLIPSE
  5
15D
330
1F
100
AcDbEntity
  8
VISIBLE
100
AcDbEllipse
 10
139.9002222245821
 20
48.27118437465447
 30
0.0
 11
-6.837500000000005
 21
-11.84289739675219
 31
0.0
210
0.0
220
0.0
230
1.0
 40
0.577350269189627
 41
-3.141592653589792
 42
-0.785398163397447
  0
LINE
  5
15E
330
1F
100
AcDbEntity
  8
VISIBLE
100
AcDbLine
 10
160.0527654883987
 20
40.52794156882688
 30
0.0
 11
160.194186844636
 21
30.22660993615173
 31
0.0
  0
SPLINE
  5
15F
330
1F
100
AcDbEntity
  8
VISIBLE
100
AcDbSpline
210
0.0
220
0.0
230
1.0
 70
     8
 71
     3
 72
     8
 73
     4
 74
     0
 42
0.000000001
 43
0.000001
 40
-4.36655324314714
 40
-4.36655324314714
 40
-4.36655324314714
 40
-4.36655324314714
 40
-3.94684289172167
 40
-3.94684289172167
 40
-3.94684289172167
 40
-3.94684289172167
 10
158.6385519260256
 20
39.71144498789916
 30
0.0
 10
158.3640019207214
 20
39.66330724457566
 30
0.0
 10
158.1108500507446
 20
39.6932234132631
 30
0.0
 10
157.9002838377544
 20
39.7969089071142
 30
0.0
  0
SPLINE
  5
160
330
1F
100
AcDbEntity
  8
VISIBLE
100
AcDbSpline
210
0.0
220
0.0
230
1.0
 70
     8
 71
     3
 72
    14
 73
    10
 74
     0
 42
0.000000001
 43
0.000001
 40
-3.94684289172167
 40
-3.94684289172167
 40
-3.94684289172167
 40
-3.94684289172167
 40
-3.8423488213311
 40
-3.31814439951505
 40
-2.793939977699
 40
-2.26973555588296
 40
-1.74553113406691
 40
-1.22132671225087
 40
-0.731161371656971
 40
-0.731161371656971
 40
-0.731161371656971
 40
-0.731161371656971
 10
157.9002838377544
 20
39.7969089071142
 30
0.0
 10
157.8478597776678
 20
39.82272318416541
 30
0.0
 10
157.5483271835668
 20
40.00554849426553
 30
0.0
 10
157.1959775481058
 20
40.63996003792782
 30
0.0
 10
157.292664196032
 20
41.95353788236351
 30
0.0
 10
157.9406931057422
 20
43.36255857782248
 30
0.0
 10
158.9660327721182
 20
44.48862235123854
 30
0.0
 10
160.0689228403911
 20
45.01761563735116
 30
0.0
 10
160.6707411493429
 20
44.91044038313708
 30
0.0
 10
160.8983886086071
 20
44.75913679576421
 30
0.0
  0
SPLINE
  5
161
330
1F
100
AcDbEntity
  8
VISIBLE
100
AcDbSpline
210
0.0
220
0.0
230
1.0
 70
     8
 71
     3
 72
    12
 73
     8
 74
     0
 42
0.000000001
 43
0.000001
 40
-0.731161371656971
 40
-0.731161371656971
 40
-0.731161371656971
 40
-0.731161371656971
 40
-0.697122290434821
 40
-0.172917868618775
 40
0.35128655319727
 40
0.875490975013316
 40
1.22496058955735
 40
1.22496058955735
 40
1.22496058955735
 40
1.22496058955735
 10
160.8983886086071
 20
44.75913679576421
 30
0.0
 10
160.9141973770249
 20
44.74862965730854
 30
0.0
 10
161.1684667831668
 20
44.5684413109063
 30
0.0
 10
161.4967193796305
 20
43.96998270360564
 30
0.0
 10
161.3959362997961
 20
42.65444003507831
 30
0.0
 10
160.8168120347557
 20
41.40293889293323
 30
0.0
 10
160.2813681049433
 20
40.75182749466929
 30
0.0
 10
160.0527654883987
 20
40.52794156882688
 30
0.0
  0
ELLIPSE
  5
162
330
1F
100
AcDbEntity
  8
VISIBLE
100
AcDbEllipse
 10
163.4256648346585
 20
34.70509368254032
 30
0.0
 11
0.7500000000000284
 21
1.299038105676658
 31
0.0
210
0.0
220
0.0
230
1.0
 40
0.5773502691896243
 41
3.141592653589825
 42
5.497787143782134
  0
ELLIPSE
  5
163
330
1F
100
AcDbEntity
  8
VISIBLE
100
AcDbEllipse
 10
163.4256648346598
 20
34.70509368254228
 30
0.0
 11
-0.7500000000013642
 21
-1.299038105678598
 31
0.0
210
0.0
220
0.0
230
1.0
 40
0.5773502691891792
 41
-0.6301372460639614
 42
0.0
  0
ELLIPSE
  5
164
330
1F
100
AcDbEntity
  8
VISIBLE
100
AcDbEllipse
 10
163.4256648346582
 20
34.70509368254034
 30
0.0
 11
-0.7500000000001137
 21
-1.299038105676743
 31
0.0
210
0.0
220
0.0
230
1.0
 40
0.5773502691895441
 41
-3.141592653590067
 42
-2.511455407525438
  0
ELLIPSE
  5
165
330
1F
100
AcDbEntity
  8
VISIBLE
100
AcDbEllipse
 10
163.4256648346584
 20
34.70509368254014
 30
0.0
 11
0.7500000000001991
 21
1.299038105676772
 31
0.0
210
0.0
220
0.0
230
1.0
 40
0.5773502691895959
 41
-0.7853981633973156
 42
0.0
  0
ELLIPSE
  5
166
330
1F
100
AcDbEntity
  8
VISIBLE
100
AcDbEllipse
 10
163.765076089628
 20
44.69901183309562
 30
0.0
 11
1.000000000000028
 21
1.732050807568918
 31
0.0
210
0.0
220
0.0
230
1.0
 40
0.5773502691896126
 41
-0.7853981633974536
 42
0.7853981633974625
  0
ELLIPSE
  5
167
330
1F
100
AcDbEntity
  8
VISIBLE
100
AcDbEllipse
 10
163.7650760896281
 20
44.69901183309565
 30
0.0
 11
-1.0
 21
-1.732050807568889
 31
0.0
210
0.0
220
0.0
230
1.0
 40
0.5773502691896378
 41
-2.356194490192359
 42
-0.78539816339745
  0
ELLIPSE
  5
168
330
1F
100
AcDbEntity
  8
VISIBLE
100
AcDbEllipse
 10
163.7650760896281
 20
44.69901183309566
 30
0.0
 11
-1.0
 21
-1.732050807568875
 31
0.0
210
0.0
220
0.0
230
1.0
 40
0.5773502691896273
 41
-0.7853981633974504
 42
2.356194490192339
  0
ELLIPSE
  5
169
330
1F
100
AcDbEntity
  8
VISIBLE
100
AcDbEllipse
 10
154.9262413247962
 20
39.59590820229737
 30
0.0
 11
1.0
 21
1.732050807568875
 31
0.0
210
0.0
220
0.0
230
1.0
 40
0.5773502691896273
 41
-0.7853981633974502
 42
0.7853981633974477
  0
ELLIPSE
  5
16A
330
1F
100
AcDbEntity
  8
VISIBLE
100
AcDbEllipse
 10
154.9262413247962
 20
39.59590820229737
 30
0.0
 11
-1.000000000000028
 21
-1.732050807568882
 31
0.0
210
0.0
220
0.0
230
1.0
 40
0.5773502691896233
 41
-2.35619449019233
 42
-0.7853981633974558
  0
ELLIPSE
  5
16B
330
1F
100
AcDbEntity
  8
VISIBLE
100
AcDbEllipse
 10
154.9262413247962
 20
39.59590820229736
 30
0.0
 11
-1.0
 21
-1.732050807568868
 31
0.0
210
0.0
220
0.0
230
1.0
 40
0.5773502691896449
 41
-0.7853981633974464
 42
2.356194490192369
  0
SPLINE
  5
16C
330
1F
100
AcDbEntity
  8
VISIBLE
100
AcDbSpline
210
0.0
220
0.0
230
1.0
 70
     8
 71
     3
 72
     8
 73
     4
 74
     0
 42
0.000000001
 43
0.000001
 40
-0.325820611501448
 40
-0.325820611501448
 40
-0.325820611501448
 40
-0.325820611501448
 40
0.0
 40
0.0
 40
0.0
 40
0.0
 10
157.4245930118736
 20
40.2930011814328
 30
0.0
 10
157.8303297300833
 20
40.09845323266021
 30
0.0
 10
158.2350613418206
 20
39.9045607756688
 30
0.0
 10
158.6385519260256
 20
39.71144498789916
 30
0.0
  0
SPLINE
  5
16D
330
1F
100
AcDbEntity
  8
VISIBLE
100
AcDbSpline
210
0.0
220
0.0
230
1.0
 70
     8
 71
     3
 72
     8
 73
     4
 74
     0
 42
0.000000001
 43
0.000001
 40
6.17058895548877
 40
6.17058895548877
 40
6.17058895548877
 40
6.17058895548877
 40
6.95213711546695
 40
6.95213711546695
 40
6.95213711546695
 40
6.95213711546695
 10
157.4227040513788
 20
42.10052126634935
 30
0.0
 10
158.3039260812486
 20
41.57267393173693
 30
0.0
 10
159.1815909851539
 20
41.04786026887606
 30
0.0
 10
160.0527654883987
 20
40.52794156882688
 30
0.0
  0
LINE
  5
16E
330
1F
100
AcDbEntity
  8
VISIBLE
100
AcDbLine
 10
152.264183255261
 20
54.98925460589295
 30
0.0
 11
165.3456587072121
 21
47.43666123231148
 31
0.0
  0
LINE
  5
16F
330
1F
100
AcDbEntity
  8
VISIBLE
100
AcDbLine
 10
153.101683255261
 20
56.4398471572319
 30
0.0
 11
146.7377222245821
 21
60.11408177140667
 31
0.0
  0
LINE
  5
170
330
1F
100
AcDbEntity
  8
VISIBLE
100
AcDbLine
 10
140.264183255261
 20
34.20464491506645
 30
0.0
 11
153.3456587072122
 21
26.65205154148498
 31
0.0
  0
LINE
  5
171
330
1F
100
AcDbEntity
  8
VISIBLE
100
AcDbLine
 10
139.426683255261
 20
32.7540523637275
 30
0.0
 11
133.0627222245821
 21
36.42828697790229
 31
0.0
  0
LINE
  5
172
330
1F
100
AcDbEntity
  8
HIDDEN
100
AcDbLine
 10
158.4971305697883
 20
29.24681403903845
 30
0.0
 11
144.3641132514867
 21
35.76957911753025
 31
0.0
  0
ELLIPSE
  5
173
330
1F
100
AcDbEntity
  8
HIDDEN
100
AcDbEllipse
 10
146.264183255261
 20
44.5969497604797
 30
0.0
 11
6.837499999999977
 21
11.84289739675222
 31
0.0
210
0.0
220
0.0
230
1.0
 40
0.5773502691896252
 41
3.641736245630752
 42
5.783041715138622
  0
ELLIPSE
  5
174
330
1F
100
AcDbEntity
  8
HIDDEN
100
AcDbEllipse
 10
142.9286314263987
 20
38.22160592497796
 30
0.0
 11
4.782346672290316
 21
0.2115114037534056
 31
0.0
210
0.0
220
0.0
230
1.0
 40
0.5463428522860955
 41
4.993001618129862
 42
5.952883871900489
  0
ELLIPSE
  5
175
330
1F
100
AcDbEntity
  8
HIDDEN
100
AcDbEllipse
 10
146.2641832552609
 20
44.59694976047956
 30
0.0
 11
6.000000000000085
 21
10.39230484541339
 31
0.0
210
0.0
220
0.0
230
1.0
 40
0.5773502691896187
 41
-0.7853981633974437
 42
0.0
  0
ELLIPSE
  5
176
330
1F
100
AcDbEntity
  8
HIDDEN
100
AcDbEllipse
 10
146.264183255261
 20
44.59694976047971
 30
0.0
 11
6.0
 21
10.39230484541324
 31
0.0
210
0.0
220
0.0
230
1.0
 40
0.5773502691896268
 41
3.141592653589794
 42
5.49778714378214
  0
ELLIPSE
  5
177
330
1F
100
AcDbEntity
  8
HIDDEN
100
AcDbEllipse
 10
157.5778917542455
 20
48.27118437465428
 30
0.0
 11
0.7500000000003127
 21
1.2990381056768
 31
0.0
210
0.0
220
0.0
230
1.0
 40
0.577350269189607
 41
-0.7853981633972889
 42
0.0
  0
ELLIPSE
  5
178
330
1F
100
AcDbEntity
  8
HIDDEN
100
AcDbEllipse
 10
157.5778917542457
 20
48.27118437465445
 30
0.0
 11
-0.75
 21
-1.299038105676658
 31
0.0
210
0.0
220
0.0
230
1.0
 40
0.577350269189625
 41
-3.141592653589785
 42
0.0
  0
ELLIPSE
  5
179
330
1F
100
AcDbEntity
  8
HIDDEN
100
AcDbEllipse
 10
157.5778917542458
 20
48.27118437465447
 30
0.0
 11
0.75
 21
1.299038105676665
 31
0.0
210
0.0
220
0.0
230
1.0
 40
0.5773502691896437
 41
3.141592653589761
 42
5.497787143782142
  0
ELLIPSE
  5
17A
330
1F
100
AcDbEntity
  8
HIDDEN
100
AcDbEllipse
 10
163.4115226986368
 20
44.90313597806162
 30
0.0
 11
-0.7499999995679616
 21
-1.299038105411746
 31
0.0
210
0.0
220
0.0
230
1.0
 40
0.5773502692066983
 41
-0.7853981635982829
 42
-0.6301372462361375
  0
ELLIPSE
  5
17B
330
1F
100
AcDbEntity
  8
HIDDEN
100
AcDbEllipse
 10
163.4115226990348
 20
44.9031359783276
 30
0.0
 11
-0.7500000000000283
 21
-1.299038105676637
 31
0.0
210
0.0
220
0.0
230
1.0
 40
0.5773502691896337
 41
-2.356194490192325
 42
-0.7853981633974172
  0
ELLIPSE
  5
17C
330
1F
100
AcDbEntity
  8
HIDDEN
100
AcDbEllipse
 10
163.4115226990544
 20
44.90313597851888
 30
0.0
 11
-0.7499999999889156
 21
-1.299038105473983
 31
0.0
210
0.0
220
0.0
230
1.0
 40
0.577350269200131
 41
-2.511455407456948
 42
-2.356194490130823
  0
LINE
  5
17D
330
1F
100
AcDbEntity
  8
HIDDEN
100
AcDbLine
 10
158.5234306025076
 20
31.19291428636576
 30
0.0
 11
147.489945177375
 21
37.57427902138336
 31
0.0
  0
ELLIPSE
  5
17E
330
1F
100
AcDbEntity
  8
HIDDEN
100
AcDbEllipse
 10
154.5726879344953
 20
39.80003234771981
 30
0.0
 11
-0.7500000003166747
 21
-1.29903810586729
 31
0.0
210
0.0
220
0.0
230
1.0
 40
0.5773502691793984
 41
-0.7853981632508269
 42
-0.6301372459393079
  0
ELLIPSE
  5
17F
330
1F
100
AcDbEntity
  8
HIDDEN
100
AcDbEllipse
 10
154.572687934203
 20
39.80003234752928
 30
0.0
 11
-0.7500000000000284
 21
-1.299038105676672
 31
0.0
210
0.0
220
0.0
230
1.0
 40
0.577350269189643
 41
-2.356194490192346
 42
-0.7853981633974603
  0
ELLIPSE
  5
180
330
1F
100
AcDbEntity
  8
HIDDEN
100
AcDbEllipse
 10
154.5726879341761
 20
39.80003234713251
 30
0.0
 11
-0.7500000000114824
 21
-1.299038106097498
 31
0.0
210
0.0
220
0.0
230
1.0
 40
0.577350269174993
 41
-2.511455407667981
 42
-2.356194490334
  0
ELLIPSE
  5
181
330
1F
100
AcDbEntity
  8
HIDDEN
100
AcDbEllipse
 10
157.5920338898697
 20
38.07314207886717
 30
0.0
 11
0.749999999999801
 21
1.299038105676651
 31
0.0
210
0.0
220
0.0
230
1.0
 40
0.5773502691895831
 41
-0.7853981633975353
 42
0.0
  0
ELLIPSE
  5
182
330
1F
100
AcDbEntity
  8
HIDDEN
100
AcDbEllipse
 10
157.5920338898695
 20
38.07314207886716
 30
0.0
 11
-0.7500000000000284
 21
-1.29903810567663
 31
0.0
210
0.0
220
0.0
230
1.0
 40
0.5773502691896385
 41
-3.141592653589756
 42
0.0
  0
ELLIPSE
  5
183
330
1F
100
AcDbEntity
  8
HIDDEN
100
AcDbEllipse
 10
157.5920338898695
 20
38.07314207886716
 30
0.0
 11
0.75
 21
1.299038105676658
 31
0.0
210
0.0
220
0.0
230
1.0
 40
0.577350269189625
 41
3.141592653589789
 42
5.497787143782148
  0
ELLIPSE
  5
184
330
1F
100
AcDbEntity
  8
HIDDEN
100
AcDbEllipse
 10
154.5868300696634
 20
29.60199005163149
 30
0.0
 11
-0.7499999998212843
 21
-1.299038105569053
 31
0.0
210
0.0
220
0.0
230
1.0
 40
0.5773502691972807
 41
-0.7853981634818185
 42
-0.6301372461371949
  0
ELLIPSE
  5
185
330
1F
100
AcDbEntity
  8
HIDDEN
100
AcDbEllipse
 10
154.5868300698266
 20
29.60199005174201
 30
0.0
 11
-0.7499999999999716
 21
-1.299038105676669
 31
0.0
210
0.0
220
0.0
230
1.0
 40
0.5773502691895999
 41
-2.356194490192346
 42
-0.785398163397474
  0
ELLIPSE
  5
186
330
1F
100
AcDbEntity
  8
HIDDEN
100
AcDbEllipse
 10
154.5868300698606
 20
29.60199005241502
 30
0.0
 11
-0.7499999999916724
 21
-1.299038104962488
 31
0.0
210
0.0
220
0.0
230
1.0
 40
0.5773502692083862
 41
-2.511455407281117
 42
-2.356194489939259
  0
ELLIPSE
  5
187
330
1F
100
AcDbEntity
  8
HIDDEN
100
AcDbEllipse
 10
139.9002222245821
 20
48.27118437465448
 30
0.0
 11
5.624999999999091
 21
9.742785792575475
 31
0.0
210
0.0
220
0.0
230
1.0
 40
0.577350269189722
 41
3.92699081698705
 42
6.283185307179586
  0
ELLIPSE
  5
188
330
1F
100
AcDbEntity
  8
HIDDEN
100
AcDbEllipse
 10
139.9002222245821
 20
48.27118437465443
 30
0.0
 11
-5.624999999999119
 21
-9.742785792575503
 31
0.0
210
0.0
220
0.0
230
1.0
 40
0.5773502691897175
 41
-3.141592653589787
 42
0.0
  0
ELLIPSE
  5
189
330
1F
100
AcDbEntity
  8
HIDDEN
100
AcDbEllipse
 10
139.9002222245821
 20
48.27118437465427
 30
0.0
 11
5.624999999999005
 21
9.742785792575319
 31
0.0
210
0.0
220
0.0
230
1.0
 40
0.5773502691897195
 41
3.141592653589773
 42
3.926990816987052
  0
ELLIPSE
  5
18A
330
1F
100
AcDbEntity
  8
HIDDEN
100
AcDbEllipse
 10
141.0126485541352
 20
45.7827703478274
 30
0.0
 11
-5.816667416468448
 21
9.35071980491103
 31
0.0
210
0.0
220
0.0
230
1.0
 40
0.6157706795046355
 41
2.773008020979947
 42
2.977588733051905
  0
ELLIPSE
  5
18B
330
1F
100
AcDbEntity
  8
HIDDEN
100
AcDbEllipse
 10
141.0126485541761
 20
45.78277034772438
 30
0.0
 11
-5.816667416437129
 21
9.350719804801885
 31
0.0
210
0.0
220
0.0
230
1.0
 40
0.6157706795073516
 41
2.977588733049366
 42
4.210338849670807
  0
ELLIPSE
  5
18C
330
1F
100
AcDbEntity
  8
HIDDEN
100
AcDbEllipse
 10
144.2613764230354
 20
47.65842425733413
 30
0.0
 11
-5.210645995568312
 21
9.701481794562325
 31
0.0
210
0.0
220
0.0
230
1.0
 40
0.5372047923291888
 41
3.275049616443329
 42
4.247094158577546
  0
ELLIPSE
  5
18D
330
1F
100
AcDbEntity
  8
HIDDEN
100
AcDbEllipse
 10
144.2613764230368
 20
47.65842425733189
 30
0.0
 11
-5.210645995566836
 21
9.701481794560095
 31
0.0
210
0.0
220
0.0
230
1.0
 40
0.5372047923292453
 41
2.809763329883078
 42
3.275049616443361
  0
ELLIPSE
  5
18E
330
1F
100
AcDbEntity
  8
HIDDEN
100
AcDbEllipse
 10
139.9002222245821
 20
48.27118437465452
 30
0.0
 11
6.837500000000063
 21
11.84289739675221
 31
0.0
210
0.0
220
0.0
230
1.0
 40
0.5773502691896261
 41
3.141592653589798
 42
6.283185307179586
  0
ELLIPSE
  5
18F
330
1F
100
AcDbEntity
  8
HIDDEN
100
AcDbEllipse
 10
148.7531991250377
 20
32.97003844806892
 30
0.0
 11
0.7499999999999432
 21
1.299038105676651
 31
0.0
210
0.0
220
0.0
230
1.0
 40
0.57735026918965
 41
-0.7853981633975038
 42
0.0
  0
ELLIPSE
  5
190
330
1F
100
AcDbEntity
  8
HIDDEN
100
AcDbEllipse
 10
148.7531991250376
 20
32.9700384480689
 30
0.0
 11
-0.7499999999999716
 21
-1.299038105676669
 31
0.0
210
0.0
220
0.0
230
1.0
 40
0.5773502691896222
 41
-3.141592653589831
 42
0.0
  0
ELLIPSE
  5
191
330
1F
100
AcDbEntity
  8
HIDDEN
100
AcDbEllipse
 10
148.7531991250376
 20
32.97003844806886
 30
0.0
 11
0.75
 21
1.299038105676658
 31
0.0
210
0.0
220
0.0
230
1.0
 40
0.577350269189625
 41
3.141592653589794
 42
5.497787143782129
  0
SPLINE
  5
192
330
1F
100
AcDbEntity
  8
HIDDEN
100
AcDbSpline
210
0.0
220
0.0
230
1.0
 70
     8
 71
     3
 72
    10
 73
     6
 74
     0
 42
0.000000001
 43
0.000001
 40
-5.42685917266451
 40
-5.42685917266451
 40
-5.42685917266451
 40
-5.42685917266451
 40
-5.36530270803226
 40
-5.36530270803226
 40
-5.18569109474748
 40
-5.18569109474748
 40
-5.18569109474748
 40
-5.18569109474748
 10
148.859129997484
 20
44.42272169920598
 30
0.0
 10
148.7864579934735
 20
44.43234358210403
 30
0.0
 10
148.7138071886696
 20
44.44539958469595
 30
0.0
 10
148.4297479480836
 20
44.50965137213151
 30
0.0
 10
148.221135972186
 20
44.58557126629447
 30
0.0
 10
148.0178104217904
 20
44.68617102068182
 30
0.0
  0
SPLINE
  5
193
330
1F
100
AcDbEntity
  8
HIDDEN
100
AcDbSpline
210
0.0
220
0.0
230
1.0
 70
     8
 71
     3
 72
    28
 73
    24
 74
     0
 42
0.000000001
 43
0.000001
 40
-5.18569109474748
 40
-5.18569109474748
 40
-5.18569109474748
 40
-5.18569109474748
 40
-5.18248442522728
 40
-5.18248442522728
 40
-4.80855076170366
 40
-4.80855076170366
 40
-4.33872372897746
 40
-4.33872372897746
 40
-3.79201825647616
 40
-3.79201825647616
 40
-3.31915583623256
 40
-3.31915583623256
 40
-2.99219610321477
 40
-2.99219610321477
 40
-2.75930820871507
 40
-2.75930820871507
 40
-2.53240934645236
 40
-2.53240934645236
 40
-2.26412058691958
 40
-2.26412058691958
 40
-1.88062224299011
 40
-1.88062224299011
 40
-1.73154432890007
 40
-1.73154432890007
 40
-1.73154432890007
 40
-1.73154432890007
 10
148.0178104217904
 20
44.68617102068182
 30
0.0
 10
148.0141803789819
 20
44.68796706360039
 30
0.0
 10
148.0105520211803
 20
44.68977097303217
 30
0.0
 10
147.5840161565081
 20
44.90285389525062
 30
0.0
 10
147.1914504242528
 20
45.21671046469188
 30
0.0
 10
146.3964405679556
 20
46.08118601088709
 30
0.0
 10
146.0241113389628
 20
46.66324750945513
 30
0.0
 10
145.3748405528832
 20
48.02150043971229
 30
0.0
 10
145.1233578876023
 20
48.81255446639646
 30
0.0
 10
144.8486526040977
 20
50.26502885712161
 30
0.0
 10
144.8055535407488
 20
50.89422559072415
 30
0.0
 10
144.869763880336
 20
51.815162238313
 30
0.0
 10
144.9370402840219
 20
52.1825955571265
 30
0.0
 10
145.1630120726874
 20
52.73121490349075
 30
0.0
 10
145.290736993622
 20
52.93688084983931
 30
0.0
 10
145.630632318156
 20
53.26552050642655
 30
0.0
 10
145.8318293685772
 20
53.38214298666735
 30
0.0
 10
146.3430106765982
 20
53.53648476276945
 30
0.0
 10
146.6485898677108
 20
53.55038867163245
 30
0.0
 10
147.3998587061333
 20
53.46527870243125
 30
0.0
 10
147.8829665275746
 20
53.31168621356615
 30
0.0
 10
148.5517779136926
 20
52.97051144945535
 30
0.0
 10
148.7390606805608
 20
52.86087481925395
 30
0.0
 10
148.9240728685532
 20
52.73757147866525
 30
0.0
  0
SPLINE
  5
194
330
1F
100
AcDbEntity
  8
HIDDEN
100
AcDbSpline
210
0.0
220
0.0
230
1.0
 70
     8
 71
     3
 72
    16
 73
    12
 74
     0
 42
0.000000001
 43
0.000001
 40
-1.73154432890007
 40
-1.73154432890007
 40
-1.73154432890007
 40
-1.73154432890007
 40
-1.37015820195222
 40
-1.37015820195222
 40
-0.93677499974483
 40
-0.93677499974483
 40
-0.574993739815642
 40
-0.574993739815642
 40
-0.269898969038382
 40
-0.269898969038382
 40
-0.105380583719873
 40
-0.105380583719873
 40
-0.105380583719873
 40
-0.105380583719873
 10
148.9240728685532
 20
52.73757147866525
 30
0.0
 10
149.3725688007968
 20
52.4386665941485
 30
0.0
 10
149.8077217500768
 20
52.05944973024405
 30
0.0
 10
150.6620450670269
 20
51.0635298634432
 30
0.0
 10
151.0423390581946
 20
50.43615119022326
 30
0.0
 10
151.5211717526255
 20
49.19215007921711
 30
0.0
 10
151.6546618569484
 20
48.59394007811402
 30
0.0
 10
151.7104819051624
 20
47.48757735863654
 30
0.0
 10
151.6620862028988
 20
46.98678626572692
 30
0.0
 10
151.4634068610814
 20
46.26738457848258
 30
0.0
 10
151.3711602292221
 20
46.02824959861337
 30
0.0
 10
151.2569702394079
 20
45.80709437203016
 30
0.0
  0
ELLIPSE
  5
195
330
1F
100
AcDbEntity
  8
HIDDEN
100
AcDbEllipse
 10
163.4256648354622
 20
34.70509368307473
 30
0.0
 11
-0.7500000008714097
 21
-1.299038106210709
 31
0.0
210
0.0
220
0.0
230
1.0
 40
0.5773502691564233
 41
-0.7853981629933219
 42
-0.6301372457196023
  0
ELLIPSE
  5
196
330
1F
100
AcDbEntity
  8
HIDDEN
100
AcDbEllipse
 10
163.4256648346585
 20
34.70509368254028
 30
0.0
 11
-0.7499999999999716
 21
-1.299038105676694
 31
0.0
210
0.0
220
0.0
230
1.0
 40
0.5773502691896326
 41
-2.356194490192383
 42
-0.7853981633974945
  0
ELLIPSE
  5
197
330
1F
100
AcDbEntity
  8
HIDDEN
100
AcDbEllipse
 10
163.4256648346363
 20
34.70509368222076
 30
0.0
 11
-0.7500000000113118
 21
-1.299038106015502
 31
0.0
210
0.0
220
0.0
230
1.0
 40
0.5773502691776545
 41
-2.511455407638937
 42
-2.356194490304857
  0
SPLINE
  5
198
330
1F
100
AcDbEntity
  8
HIDDEN
100
AcDbSpline
210
0.0
220
0.0
230
1.0
 70
     8
 71
     3
 72
     8
 73
     4
 74
     0
 42
0.000000001
 43
0.000001
 40
-2.60075589406046
 40
-2.60075589406046
 40
-2.60075589406046
 40
-2.60075589406046
 40
-0.325820611501448
 40
-0.325820611501448
 40
-0.325820611501448
 40
-0.325820611501448
 10
148.8591285643951
 20
44.42272241666069
 30
0.0
 10
151.709746914521
 20
43.04169103501512
 30
0.0
 10
154.5916697924625
 20
41.65136826193367
 30
0.0
 10
157.4245930118736
 20
40.2930011814328
 30
0.0
  0
SPLINE
  5
199
330
1F
100
AcDbEntity
  8
HIDDEN
100
AcDbSpline
210
0.0
220
0.0
230
1.0
 70
     8
 71
     3
 72
     8
 73
     4
 74
     0
 42
0.000000001
 43
0.000001
 40
4.35395808908857
 40
4.35395808908857
 40
4.35395808908857
 40
4.35395808908857
 40
6.17058895548877
 40
6.17058895548877
 40
6.17058895548877
 40
6.17058895548877
 10
151.2569468920315
 20
45.80710350173774
 30
0.0
 10
153.3068597769675
 20
44.57076882710872
 30
0.0
 10
155.3743912005648
 20
43.32744982930672
 30
0.0
 10
157.4227040513788
 20
42.10052126634935
 30
0.0
  0
ELLIPSE
  5
19A
330
1F
100
AcDbEntity
  8
HIDDEN
100
AcDbEllipse
 10
148.7390569894137
 20
43.16808074385598
 30
0.0
 11
0.750000000000199
 21
1.299038105676843
 31
0.0
210
0.0
220
0.0
230
1.0
 40
0.5773502691895674
 41
-0.7853981633973636
 42
0.0
  0
ELLIPSE
  5
19B
330
1F
100
AcDbEntity
  8
HIDDEN
100
AcDbEllipse
 10
148.7390569894139
 20
43.16808074385618
 30
0.0
 11
-0.75
 21
-1.299038105676658
 31
0.0
210
0.0
220
0.0
230
1.0
 40
0.577350269189625
 41
-3.141592653589794
 42
0.0
  0
ELLIPSE
  5
19C
330
1F
100
AcDbEntity
  8
HIDDEN
100
AcDbEllipse
 10
148.7390569894139
 20
43.16808074385618
 30
0.0
 11
0.75
 21
1.299038105676658
 31
0.0
210
0.0
220
0.0
230
1.0
 40
0.577350269189625
 41
3.141592653589794
 42
5.497787143782129
  0
LINE
  5
19D
330
1F
100
AcDbEntity
  8
HIDDEN
100
AcDbLine
 10
164.1756648346585
 20
36.00413178821695
 30
0.0
 11
158.3420338898695
 21
39.37218018454383
 31
0.0
  0
LINE
  5
19E
330
1F
100
AcDbEntity
  8
HIDDEN
100
AcDbLine
 10
153.8226879342029
 20
38.50099424185265
 30
0.0
 11
147.9890569894139
 21
41.86904263817953
 31
0.0
  0
LINE
  5
19F
330
1F
100
AcDbEntity
  8
HIDDEN
100
AcDbLine
 10
162.3650046628787
 20
34.0927212468445
 30
0.0
 11
162.3650046628787
 21
33.68447295638064
 31
0.0
  0
LINE
  5
1A0
330
1F
100
AcDbEntity
  8
HIDDEN
100
AcDbLine
 10
153.5261698980468
 20
28.9896176160462
 30
0.0
 11
153.5261698980468
 21
28.58136932558234
 31
0.0
  0
LINE
  5
1A1
330
1F
100
AcDbEntity
  8
HIDDEN
100
AcDbLine
 10
164.1615226990348
 20
46.20217408400425
 30
0.0
 11
158.3278917542458
 21
49.57022248033113
 31
0.0
  0
LINE
  5
1A2
330
1F
100
AcDbEntity
  8
HIDDEN
100
AcDbLine
 10
162.6756648346585
 20
33.40605557686365
 30
0.0
 11
156.8420338898695
 21
36.77410397319053
 31
0.0
  0
LINE
  5
1A3
330
1F
100
AcDbEntity
  8
HIDDEN
100
AcDbLine
 10
153.5120277624231
 20
39.1876599118335
 30
0.0
 11
153.5120277624231
 21
38.77941162136964
 31
0.0
  0
ARC
  5
1A4
330
1F
100
AcDbEntity
  8
HIDDEN
100
AcDbCircle
 10
142.5518726540315
 20
46.74025328541504
 30
0.0
 40
11.25000000000014
100
AcDbArc
 50
312.2717574580691
 51
59.99999999999932
  0
LINE
  5
1A5
330
1F
100
AcDbEntity
  8
HIDDEN
100
AcDbLine
 10
153.8368300698266
 20
28.30295194606535
 30
0.0
 11
148.0031991250376
 21
31.67100034239223
 31
0.0
  0
LINE
  5
1A6
330
1F
100
AcDbEntity
  8
HIDDEN
100
AcDbLine
 10
155.3226879342029
 20
41.09907045320597
 30
0.0
 11
149.4890569894139
 21
44.46711884953285
 31
0.0
  0
ARC
  5
1A7
330
1F
100
AcDbEntity
  8
HIDDEN
100
AcDbCircle
 10
142.5518726540316
 20
46.74025328541517
 30
0.0
 40
11.25000000000016
100
AcDbArc
 50
240.0000000000005
 51
286.840936919892
  0
LINE
  5
1A8
330
1F
100
AcDbEntity
  8
HIDDEN
100
AcDbLine
 10
162.3508625272549
 20
44.2907635426318
 30
0.0
 11
162.3508625272549
 21
43.88251525216793
 31
0.0
  0
LINE
  5
1A9
330
1F
100
AcDbEntity
  8
HIDDEN
100
AcDbLine
 10
163.4115226990348
 20
46.12788084971918
 30
0.0
 11
163.7650760896281
 21
46.33200499495111
 31
0.0
  0
LINE
  5
1AA
330
1F
100
AcDbEntity
  8
HIDDEN
100
AcDbLine
 10
163.4256648346585
 20
35.9298385539319
 30
0.0
 11
163.7792182252518
 21
36.13396269916383
 31
0.0
  0
LINE
  5
1AB
330
1F
100
AcDbEntity
  8
HIDDEN
100
AcDbLine
 10
162.6615226990348
 20
43.60409787265093
 30
0.0
 11
156.8278917542458
 21
46.97214626897781
 31
0.0
  0
LINE
  5
1AC
330
1F
100
AcDbEntity
  8
HIDDEN
100
AcDbLine
 10
148.1768726540316
 20
56.4830390779899
 30
0.0
 11
145.5252222245821
 21
58.0139701672294
 31
0.0
  0
LINE
  5
1AD
330
1F
100
AcDbEntity
  8
HIDDEN
100
AcDbLine
 10
148.9242111611005
 20
52.7375655961515
 30
0.0
 11
160.8984498393731
 21
44.75926473391937
 31
0.0
  0
LINE
  5
1AE
330
1F
100
AcDbEntity
  8
HIDDEN
100
AcDbLine
 10
154.5726879342029
 20
41.0247772189209
 30
0.0
 11
154.9262413247962
 21
41.22890136415283
 31
0.0
  0
LINE
  5
1AF
330
1F
100
AcDbEntity
  8
HIDDEN
100
AcDbLine
 10
136.9268726540316
 20
36.99746749284005
 30
0.0
 11
134.2752222245821
 21
38.52839858207954
 31
0.0
  0
LINE
  5
1B0
330
1F
100
AcDbEntity
  8
HIDDEN
100
AcDbLine
 10
155.3368300698266
 20
30.90102815741865
 30
0.0
 11
149.5031991250376
 21
34.26907655374553
 31
0.0
  0
LINE
  5
1B1
330
1F
100
AcDbEntity
  8
HIDDEN
100
AcDbLine
 10
154.5868300698266
 20
30.8267349231336
 30
0.0
 11
154.9403834604199
 21
31.03085906836553
 31
0.0
  0
LINE
  5
1B2
330
1F
100
AcDbEntity
  8
HIDDEN
100
AcDbLine
 10
157.9002292369297
 20
39.79662518430731
 30
0.0
 11
148.0178104187973
 21
44.68617102013827
 31
0.0
  0
ELLIPSE
  5
1B3
330
1F
100
AcDbEntity
  8
HIDDEN
100
AcDbEllipse
 10
142.5518726540316
 20
46.74025328541498
 30
0.0
 11
5.624999999999091
 21
9.742785792575461
 31
0.0
210
0.0
220
0.0
230
1.0
 40
0.5773502691897202
 41
0.0
 42
6.283185307179586
  0
LINE
  5
1B4
330
1F
100
AcDbEntity
  8
CENTER
100
AcDbLine
 10
142.6491900380293
 20
46.68406706756709
 30
0.0
 11
143.5152154418138
 21
46.18406706756709
 31
0.0
  0
LINE
  5
1B5
330
1F
100
AcDbEntity
  8
CENTER
100
AcDbLine
 10
142.2161773361371
 20
46.93406706756709
 30
0.0
 11
137.8860503172149
 21
49.43406706756709
 31
0.0
  0
LINE
  5
1B6
330
1F
100
AcDbEntity
  8
CENTER
100
AcDbLine
 10
143.948228143706
 20
45.93406706756709
 30
0.0
 11
148.2783551626282
 21
43.43406706756709
 31
0.0
  0
LINE
  5
1B7
330
1F
100
AcDbEntity
  8
CENTER
100
AcDbLine
 10
137.4530376153227
 20
49.68406706756709
 30
0.0
 11
136.5870122115383
 21
50.18406706756709
 31
0.0
  0
LINE
  5
1B8
330
1F
100
AcDbEntity
  8
CENTER
100
AcDbLine
 10
148.7113678645204
 20
43.18406706756709
 30
0.0
 11
149.5773932683048
 21
42.68406706756709
 31
0.0
  0
LINE
  5
1B9
330
1F
100
AcDbEntity
  8
CENTER
100
AcDbLine
 10
136.153999509646
 20
50.43406706756709
 30
0.0
 11
131.8238724907239
 21
52.93406706756709
 31
0.0
  0
LINE
  5
1BA
330
1F
100
AcDbEntity
  8
CENTER
100
AcDbLine
 10
150.010405970197
 20
42.43406706756709
 30
0.0
 11
154.3405329891193
 21
39.93406706756709
 31
0.0
  0
LINE
  5
1BB
330
1F
100
AcDbEntity
  8
CENTER
100
AcDbLine
 10
131.3908597888316
 20
53.18406706756709
 30
0.0
 11
130.5248343850472
 21
53.68406706756709
 31
0.0
  0
LINE
  5
1BC
330
1F
100
AcDbEntity
  8
CENTER
100
AcDbLine
 10
154.7735456910115
 20
39.68406706756709
 30
0.0
 11
155.6395710947959
 21
39.18406706756709
 31
0.0
  0
LINE
  5
1BD
330
1F
100
AcDbEntity
  8
CENTER
100
AcDbLine
 10
130.091821683155
 20
53.93406706756709
 30
0.0
 11
127.4809063348405
 21
55.4414797467478
 31
0.0
  0
LINE
  5
1BE
330
1F
100
AcDbEntity
  8
CENTER
100
AcDbLine
 10
156.0725837966881
 20
38.93406706756709
 30
0.0
 11
158.6834991450026
 21
37.42665438838637
 31
0.0
  0
LINE
  5
1BF
330
1F
100
AcDbEntity
  8
CENTER
100
AcDbLine
 10
152.3719082793444
 20
41.07065307368897
 30
0.0
 11
153.2379336831288
 21
40.57065307368897
 31
0.0
  0
LINE
  5
1C0
330
1F
100
AcDbEntity
  8
CENTER
100
AcDbLine
 10
151.9388955774521
 20
41.32065307368897
 30
0.0
 11
147.6087685585299
 21
43.82065307368898
 31
0.0
  0
LINE
  5
1C1
330
1F
100
AcDbEntity
  8
CENTER
100
AcDbLine
 10
153.670946385021
 20
40.32065307368897
 30
0.0
 11
158.0010734039432
 21
37.82065307368897
 31
0.0
  0
LINE
  5
1C2
330
1F
100
AcDbEntity
  8
CENTER
100
AcDbLine
 10
147.1757558566377
 20
44.07065307368898
 30
0.0
 11
146.3097304528533
 21
44.57065307368898
 31
0.0
  0
LINE
  5
1C3
330
1F
100
AcDbEntity
  8
CENTER
100
AcDbLine
 10
158.4340861058354
 20
37.57065307368897
 30
0.0
 11
159.3001115096199
 21
37.07065307368897
 31
0.0
  0
LINE
  5
1C4
330
1F
100
AcDbEntity
  8
CENTER
100
AcDbLine
 10
145.8767177509611
 20
44.82065307368898
 30
0.0
 11
141.5465907320389
 21
47.32065307368898
 31
0.0
  0
LINE
  5
1C5
330
1F
100
AcDbEntity
  8
CENTER
100
AcDbLine
 10
159.7331242115121
 20
36.82065307368897
 30
0.0
 11
164.0632512304343
 21
34.32065307368897
 31
0.0
  0
LINE
  5
1C6
330
1F
100
AcDbEntity
  8
CENTER
100
AcDbLine
 10
141.1135780301466
 20
47.57065307368898
 30
0.0
 11
140.2475526263622
 21
48.07065307368898
 31
0.0
  0
LINE
  5
1C7
330
1F
100
AcDbEntity
  8
CENTER
100
AcDbLine
 10
164.4962639323265
 20
34.07065307368897
 30
0.0
 11
165.3622893361109
 21
33.57065307368897
 31
0.0
  0
LINE
  5
1C8
330
1F
100
AcDbEntity
  8
CENTER
100
AcDbLine
 10
139.81453992447
 20
48.32065307368898
 30
0.0
 11
135.0292712240069
 21
51.08342924604607
 31
0.0
  0
LINE
  5
1C9
330
1F
100
AcDbEntity
  8
CENTER
100
AcDbLine
 10
165.7953020380031
 20
33.32065307368897
 30
0.0
 11
170.5805707384663
 21
30.55787690133189
 31
0.0
  0
INSERT
  5
1CA
330
1F
100
AcDbEntity
  8
CONTINUOUS
100
AcDbBlockReference
  2
BLOCK0
 10
0.0
 20
0.0
 30
0.0
  0
MTEXT
  5
216
330
1F
100
AcDbEntity
  8
CONTINUOUS
100
AcDbMText
 10
206.465576171875
 20
12.63839649448814
 30
0.0
 40
2.188737186504777
 41
0.0
 46
0.0
 71
     1
 72
     1
  1
{\fCE|b0|i0|c0|p0;\C7;-------------       }{\fCE|b0|i0|c0|p0;\C7;}
 73
     1
 44
1.0
  0
MTEXT
  5
217
330
1F
100
AcDbEntity
  8
CONTINUOUS
100
AcDbMText
 10
275.652648925781
 20
14.74349903355064
 30
0.0
 40
2.188737186504777
 41
0.0
 46
0.0
 71
     1
 72
     1
  1
{\fCE|b0|i0|c0|p0;\C7;1:1  }{\fCE|b0|i0|c0|p0;\C7;}
 73
     1
 44
1.0
  0
MTEXT
  5
218
330
1F
100
AcDbEntity
  8
CONTINUOUS
100
AcDbMText
 10
257.838562011719
 20
14.43369220982014
 30
0.0
 40
2.188737186504777
 41
0.0
 46
0.0
 71
     1
 72
     1
  1
{\fCE|b0|i0|c0|p0;\C7;1x}{\fCE|b0|i0|c0|p0;\C7;}
 73
     1
 44
1.0
  0
MTEXT
  5
219
330
1F
100
AcDbEntity
  8
CONTINUOUS
100
AcDbMText
 10
260.380828857422
 20
24.83822654972494
 30
0.0
 40
2.188737186504777
 41
0.0
 46
0.0
 71
     1
 72
     1
  1
{\fCE|b0|i0|c0|p0;\C7;1.4301}{\fCE|b0|i0|c0|p0;\C7;}
 73
     1
 44
1.0
  0
MTEXT
  5
21A
330
1F
100
AcDbEntity
  8
CONTINUOUS
100
AcDbMText
 10
196.795471191406
 20
24.6329551871719
 30
0.0
 40
1.969863467854299
 41
0.0
 46
0.0
 71
     1
 72
     1
  1
{\fCE|b0|i0|c0|p0;\C7;Základný diel 80x200       }{\fCE|b0|i0|c0|p0;\C7;\H1.111111x;}
 73
     1
 44
1.0
  0
MTEXT
  5
21B
330
1F
100
AcDbEntity
  8
CONTINUOUS
100
AcDbMText
 10
232.597625732421
 20
13.03193592319904
 30
0.0
 40
2.188737186504777
 41
0.0
 46
0.0
 71
     1
 72
     1
  1
{\fCE|b0|i0|c0|p0;\C7;05.09.2018}{\fCE|b0|i0|c0|p0;\C7;}
 73
     1
 44
1.0
  0
ENDSEC
  0
SECTION
  2
OBJECTS
  0
DICTIONARY
  5
C
330
0
100
AcDbDictionary
281
     1
  3
ACAD_DETAILVIEWSTYLE
350
223
  3
ACAD_GROUP
350
D
  3
ACAD_LAYOUT
350
1A
  3
ACAD_MATERIAL
350
43
  3
ACAD_MLEADERSTYLE
350
6B
  3
ACAD_MLINESTYLE
350
17
  3
ACAD_PLOTSETTINGS
350
19
  3
ACAD_PLOTSTYLENAME
350
E
  3
ACAD_SCALELIST
350
47
  3
ACAD_SECTIONVIEWSTYLE
350
224
  3
ACAD_TABLESTYLE
350
69
  3
ACAD_VISUALSTYLE
350
2A
  3
ACDB_RECOMPOSE_DATA
350
220
  3
AcDbVariableDictionary
350
21C
  0
SUN
  5
6D
330
29
100
AcDbSun
 90
        1
290
     0
 63
     7
421
 16777215
 40
1.0
291
     1
 91
  2455826
 92
 54000000
292
     0
 70
     2
 71
   256
280
     1
  0
DICTIONARY
  5
223
102
{ACAD_REACTORS
330
C
102
}
330
C
100
AcDbDictionary
281
     1
  0
DICTIONARY
  5
D
102
{ACAD_REACTORS
330
C
102
}
330
C
100
AcDbDictionary
281
     1
  0
DICTIONARY
  5
1A
102
{ACAD_REACTORS
330
C
102
}
330
C
100
AcDbDictionary
281
     1
  3
Layout1
350
1E
  3
Layout2
350
26
  3
Model
350
22
  0
DICTIONARY
  5
43
102
{ACAD_REACTORS
330
C
102
}
330
C
100
AcDbDictionary
281
     1
  3
ByBlock
350
45
  3
ByLayer
350
44
  3
Global
350
46
  0
DICTIONARY
  5
6B
102
{ACAD_REACTORS
330
C
102
}
330
C
100
AcDbDictionary
281
     1
  3
Standard
350
6C
  0
DICTIONARY
  5
17
102
{ACAD_REACTORS
330
C
102
}
330
C
100
AcDbDictionary
281
     1
  3
Standard
350
18
  0
DICTIONARY
  5
19
102
{ACAD_REACTORS
330
C
102
}
330
C
100
AcDbDictionary
281
     1
  0
ACDBDICTIONARYWDFLT
  5
E
102
{ACAD_REACTORS
330
C
102
}
330
C
100
AcDbDictionary
281
     1
  3
Normal
350
F
100
AcDbDictionaryWithDefault
340
F
  0
DICTIONARY
  5
47
102
{ACAD_REACTORS
330
C
102
}
330
C
100
AcDbDictionary
281
     1
  3
A0
350
48
  3
A1
350
49
  3
A2
350
4A
  3
A3
350
4B
  3
A4
350
4C
  3
A5
350
4D
  3
A6
350
4E
  3
A7
350
4F
  3
A8
350
50
  3
A9
350
51
  3
B0
350
52
  3
B1
350
53
  3
B2
350
54
  3
B3
350
55
  3
B4
350
56
  3
B5
350
57
  3
B6
350
58
  3
B7
350
59
  3
B8
350
5A
  3
B9
350
5B
  3
C0
350
5C
  3
C1
350
5D
  3
C2
350
5E
  3
C3
350
5F
  3
C4
350
60
  3
C5
350
61
  3
C6
350
62
  3
C7
350
63
  3
C8
350
64
  3
C9
350
65
  3
D0
350
66
  3
D1
350
67
  3
D2
350
68
  0
DICTIONARY
  5
224
102
{ACAD_REACTORS
330
C
102
}
330
C
100
AcDbDictionary
281
     1
  0
DICTIONARY
  5
69
102
{ACAD_REACTORS
330
C
102
}
330
C
100
AcDbDictionary
281
     1
  3
Standard
350
6A
  0
DICTIONARY
  5
2A
102
{ACAD_REACTORS
330
C
102
}
330
C
100
AcDbDictionary
281
     1
  3
2dWireframe
350
2F
  3
Basic
350
32
  3
Brighten
350
36
  3
ColorChange
350
3A
  3
Conceptual
350
34
  3
Dim
350
35
  3
EdgeColorOff
350
3D
  3
Facepattern
350
39
  3
Flat
350
2B
  3
FlatWithEdges
350
2C
  3
Gouraud
350
2D
  3
GouraudWithEdges
350
2E
  3
Hidden
350
31
  3
JitterOff
350
3B
  3
Linepattern
350
38
  3
OverhangOff
350
3C
  3
Realistic
350
33
  3
Shaded
350
42
  3
Shaded with edges
350
41
  3
Shades of Gray
350
3E
  3
Sketchy
350
3F
  3
Thicken
350
37
  3
Wireframe
350
30
  3
X-Ray
350
40
  0
XRECORD
  5
220
102
{ACAD_REACTORS
330
C
102
}
330
C
100
AcDbXrecord
280
     1
 90
        1
330
6A
  0
DICTIONARY
  5
21C
102
{ACAD_REACTORS
330
C
102
}
330
C
100
AcDbDictionary
281
     1
  3
CANNOSCALE
350
21D
  3
CENTEREXE
350
225
  3
CENTERLTYPEFILE
350
226
  3
CMLEADERSTYLE
350
222
  3
CTABLESTYLE
350
221
  0
LAYOUT
  5
1E
102
{ACAD_REACTORS
330
1A
102
}
330
1A
100
AcDbPlotSettings
  1

  2
none_device
  4

  6

 40
0.0
 41
0.0
 42
0.0
 43
0.0
 44
0.0
 45
0.0
 46
0.0
 47
0.0
 48
0.0
 49
0.0
140
0.0
141
0.0
142
1.0
143
1.0
 70
   688
 72
     1
 73
     0
 74
     5
  7

 75
    16
 76
     0
 77
     2
 78
   300
147
1.0
148
0.0
149
0.0
100
AcDbLayout
  1
Layout1
 70
     1
 71
     1
 10
0.0
 20
0.0
 11
420.0
 21
297.0
 12
0.0
 22
0.0
 32
0.0
 14
1.000000000000000E+20
 24
1.000000000000000E+20
 34
1.000000000000000E+20
 15
-1.000000000000000E+20
 25
-1.000000000000000E+20
 35
-1.000000000000000E+20
146
0.0
 13
0.0
 23
0.0
 33
0.0
 16
1.0
 26
0.0
 36
0.0
 17
0.0
 27
1.0
 37
0.0
 76
     0
330
1B
  0
LAYOUT
  5
26
102
{ACAD_REACTORS
330
1A
102
}
330
1A
100
AcDbPlotSettings
  1

  2
none_device
  4

  6

 40
0.0
 41
0.0
 42
0.0
 43
0.0
 44
0.0
 45
0.0
 46
0.0
 47
0.0
 48
0.0
 49
0.0
140
0.0
141
0.0
142
1.0
143
1.0
 70
   688
 72
     1
 73
     0
 74
     5
  7

 75
    16
 76
     0
 77
     2
 78
   300
147
1.0
148
0.0
149
0.0
100
AcDbLayout
  1
Layout2
 70
     1
 71
     2
 10
0.0
 20
0.0
 11
0.0
 21
0.0
 12
0.0
 22
0.0
 32
0.0
 14
0.0
 24
0.0
 34
0.0
 15
0.0
 25
0.0
 35
0.0
146
0.0
 13
0.0
 23
0.0
 33
0.0
 16
1.0
 26
0.0
 36
0.0
 17
0.0
 27
1.0
 37
0.0
 76
     0
330
23
  0
LAYOUT
  5
22
102
{ACAD_REACTORS
330
1A
102
}
330
1A
100
AcDbPlotSettings
  1

  2
none_device
  4
Letter_(8.50_x_11.00_Inches)
  6

 40
6.35
 41
6.35
 42
6.35000508
 43
6.35000508
 44
215.9
 45
279.4
 46
0.0
 47
0.0
 48
0.0
 49
0.0
140
0.0
141
0.0
142
1.0
143
1.0
 70
  1712
 72
     1
 73
     0
 74
     0
  7

 75
     0
 76
     0
 77
     2
 78
   300
147
1.0
148
0.0
149
0.0
100
AcDbLayout
  1
Model
 70
     1
 71
     0
 10
0.0
 20
0.0
 11
420.0
 21
297.0
 12
0.0
 22
0.0
 32
0.0
 14
1.000000000000000E+20
 24
1.000000000000000E+20
 34
1.000000000000000E+20
 15
-1.000000000000000E+20
 25
-1.000000000000000E+20
 35
-1.000000000000000E+20
146
0.0
 13
0.0
 23
0.0
 33
0.0
 16
1.0
 26
0.0
 36
0.0
 17
0.0
 27
1.0
 37
0.0
 76
     0
330
1F
331
29
  0
MATERIAL
  5
45
102
{ACAD_REACTORS
330
43
102
}
330
43
100
AcDbMaterial
  1
ByBlock
 72
     1
 94
      127
  0
MATERIAL
  5
44
102
{ACAD_REACTORS
330
43
102
}
330
43
100
AcDbMaterial
  1
ByLayer
 72
     1
 94
      127
  0
MATERIAL
  5
46
102
{ACAD_REACTORS
330
43
102
}
330
43
100
AcDbMaterial
  1
Global
 72
     1
 94
      127
  0
MLEADERSTYLE
  5
6C
102
{ACAD_REACTORS
330
6B
102
}
330
6B
100
AcDbMLeaderStyle
179
     2
170
     2
171
     1
172
     0
 90
        2
 40
0.0
 41
0.0
173
     1
 91
-1056964608
340
14
 92
       -2
290
     1
 42
2.0
291
     1
 43
8.0
  3
Standard
341
0
 44
4.0
300

342
11
174
     1
178
     6
175
     1
176
     0
 93
-1056964608
 45
4.0
292
     0
297
     0
 46
4.0
343
0
 94
-1056964608
 47
1.0
 49
1.0
140
1.0
293
     1
141
0.0
294
     1
177
     0
142
1.0
295
     0
296
     0
143
3.75
271
     0
272
     9
273
     9
298
     0
  0
MLINESTYLE
  5
18
102
{ACAD_REACTORS
330
17
102
}
330
17
100
AcDbMlineStyle
  2
Standard
 70
     0
  3

 62
   256
 51
90.0
 52
90.0
 71
     2
 49
0.5
 62
   256
  6
BYLAYER
 49
-0.5
 62
   256
  6
BYLAYER
  0
ACDBPLACEHOLDER
  5
F
102
{ACAD_REACTORS
330
E
102
}
330
E
  0
SCALE
  5
48
102
{ACAD_REACTORS
330
47
102
}
330
47
100
AcDbScale
 70
     0
300
1:1
140
1.0
141
1.0
290
     1
  0
SCALE
  5
49
102
{ACAD_REACTORS
330
47
102
}
330
47
100
AcDbScale
 70
     0
300
1:2
140
1.0
141
2.0
290
     0
  0
SCALE
  5
4A
102
{ACAD_REACTORS
330
47
102
}
330
47
100
AcDbScale
 70
     0
300
1:4
140
1.0
141
4.0
290
     0
  0
SCALE
  5
4B
102
{ACAD_REACTORS
330
47
102
}
330
47
100
AcDbScale
 70
     0
300
1:5
140
1.0
141
5.0
290
     0
  0
SCALE
  5
4C
102
{ACAD_REACTORS
330
47
102
}
330
47
100
AcDbScale
 70
     0
300
1:8
140
1.0
141
8.0
290
     0
  0
SCALE
  5
4D
102
{ACAD_REACTORS
330
47
102
}
330
47
100
AcDbScale
 70
     0
300
1:10
140
1.0
141
10.0
290
     0
  0
SCALE
  5
4E
102
{ACAD_REACTORS
330
47
102
}
330
47
100
AcDbScale
 70
     0
300
1:16
140
1.0
141
16.0
290
     0
  0
SCALE
  5
4F
102
{ACAD_REACTORS
330
47
102
}
330
47
100
AcDbScale
 70
     0
300
1:20
140
1.0
141
20.0
290
     0
  0
SCALE
  5
50
102
{ACAD_REACTORS
330
47
102
}
330
47
100
AcDbScale
 70
     0
300
1:30
140
1.0
141
30.0
290
     0
  0
SCALE
  5
51
102
{ACAD_REACTORS
330
47
102
}
330
47
100
AcDbScale
 70
     0
300
1:40
140
1.0
141
40.0
290
     0
  0
SCALE
  5
52
102
{ACAD_REACTORS
330
47
102
}
330
47
100
AcDbScale
 70
     0
300
1:50
140
1.0
141
50.0
290
     0
  0
SCALE
  5
53
102
{ACAD_REACTORS
330
47
102
}
330
47
100
AcDbScale
 70
     0
300
1:100
140
1.0
141
100.0
290
     0
  0
SCALE
  5
54
102
{ACAD_REACTORS
330
47
102
}
330
47
100
AcDbScale
 70
     0
300
2:1
140
2.0
141
1.0
290
     0
  0
SCALE
  5
55
102
{ACAD_REACTORS
330
47
102
}
330
47
100
AcDbScale
 70
     0
300
4:1
140
4.0
141
1.0
290
     0
  0
SCALE
  5
56
102
{ACAD_REACTORS
330
47
102
}
330
47
100
AcDbScale
 70
     0
300
8:1
140
8.0
141
1.0
290
     0
  0
SCALE
  5
57
102
{ACAD_REACTORS
330
47
102
}
330
47
100
AcDbScale
 70
     0
300
10:1
140
10.0
141
1.0
290
     0
  0
SCALE
  5
58
102
{ACAD_REACTORS
330
47
102
}
330
47
100
AcDbScale
 70
     0
300
100:1
140
100.0
141
1.0
290
     0
  0
SCALE
  5
59
102
{ACAD_REACTORS
330
47
102
}
330
47
100
AcDbScale
 70
     0
300
1/128" = 1'-0"
140
0.0078125
141
12.0
290
     0
  0
SCALE
  5
5A
102
{ACAD_REACTORS
330
47
102
}
330
47
100
AcDbScale
 70
     0
300
1/64" = 1'-0"
140
0.015625
141
12.0
290
     0
  0
SCALE
  5
5B
102
{ACAD_REACTORS
330
47
102
}
330
47
100
AcDbScale
 70
     0
300
1/32" = 1'-0"
140
0.03125
141
12.0
290
     0
  0
SCALE
  5
5C
102
{ACAD_REACTORS
330
47
102
}
330
47
100
AcDbScale
 70
     0
300
1/16" = 1'-0"
140
0.0625
141
12.0
290
     0
  0
SCALE
  5
5D
102
{ACAD_REACTORS
330
47
102
}
330
47
100
AcDbScale
 70
     0
300
3/32" = 1'-0"
140
0.09375
141
12.0
290
     0
  0
SCALE
  5
5E
102
{ACAD_REACTORS
330
47
102
}
330
47
100
AcDbScale
 70
     0
300
1/8" = 1'-0"
140
0.125
141
12.0
290
     0
  0
SCALE
  5
5F
102
{ACAD_REACTORS
330
47
102
}
330
47
100
AcDbScale
 70
     0
300
3/16" = 1'-0"
140
0.1875
141
12.0
290
     0
  0
SCALE
  5
60
102
{ACAD_REACTORS
330
47
102
}
330
47
100
AcDbScale
 70
     0
300
1/4" = 1'-0"
140
0.25
141
12.0
290
     0
  0
SCALE
  5
61
102
{ACAD_REACTORS
330
47
102
}
330
47
100
AcDbScale
 70
     0
300
3/8" = 1'-0"
140
0.375
141
12.0
290
     0
  0
SCALE
  5
62
102
{ACAD_REACTORS
330
47
102
}
330
47
100
AcDbScale
 70
     0
300
1/2" = 1'-0"
140
0.5
141
12.0
290
     0
  0
SCALE
  5
63
102
{ACAD_REACTORS
330
47
102
}
330
47
100
AcDbScale
 70
     0
300
3/4" = 1'-0"
140
0.75
141
12.0
290
     0
  0
SCALE
  5
64
102
{ACAD_REACTORS
330
47
102
}
330
47
100
AcDbScale
 70
     0
300
1" = 1'-0"
140
1.0
141
12.0
290
     0
  0
SCALE
  5
65
102
{ACAD_REACTORS
330
47
102
}
330
47
100
AcDbScale
 70
     0
300
1-1/2" = 1'-0"
140
1.5
141
12.0
290
     0
  0
SCALE
  5
66
102
{ACAD_REACTORS
330
47
102
}
330
47
100
AcDbScale
 70
     0
300
3" = 1'-0"
140
3.0
141
12.0
290
     0
  0
SCALE
  5
67
102
{ACAD_REACTORS
330
47
102
}
330
47
100
AcDbScale
 70
     0
300
6" = 1'-0"
140
6.0
141
12.0
290
     0
  0
SCALE
  5
68
102
{ACAD_REACTORS
330
47
102
}
330
47
100
AcDbScale
 70
     0
300
1'-0" = 1'-0"
140
12.0
141
12.0
290
     0
  0
TABLESTYLE
  5
6A
102
{ACAD_REACTORS
330
69
102
}
102
{ACAD_XDICTIONARY
360
21E
102
}
330
69
100
AcDbTableStyle
  3
Standard
 70
     0
 71
     0
 40
0.06
 41
0.06
280
     0
281
     0
  7
Standard
140
4.5
170
     2
 62
     0
 63
   257
283
     0
 90
        4
 91
        0
  1

274
    -2
284
     1
 64
     0
275
    -2
285
     1
 65
     0
276
    -2
286
     1
 66
     0
277
    -2
287
     1
 67
     0
278
    -2
288
     1
 68
     0
279
    -2
289
     1
 69
     0
  7
Standard
140
6.0
170
     5
 62
     0
 63
   257
283
     0
 90
        4
 91
        0
  1

274
    -2
284
     1
 64
     0
275
    -2
285
     1
 65
     0
276
    -2
286
     1
 66
     0
277
    -2
287
     1
 67
     0
278
    -2
288
     1
 68
     0
279
    -2
289
     1
 69
     0
  7
Standard
140
4.5
170
     5
 62
     0
 63
   257
283
     0
 90
        4
 91
        0
  1

274
    -2
284
     1
 64
     0
275
    -2
285
     1
 65
     0
276
    -2
286
     1
 66
     0
277
    -2
287
     1
 67
     0
278
    -2
288
     1
 68
     0
279
    -2
289
     1
 69
     0
  0
VISUALSTYLE
  5
2F
102
{ACAD_REACTORS
330
2A
102
}
330
2A
100
AcDbVisualStyle
  2
2dWireframe
 70
     4
177
     3
291
     0
 70
    58
 90
        0
176
     1
 90
        2
176
     1
 90
        0
176
     1
 90
        0
176
     1
 40
0.6
176
     1
 40
30.0
176
     1
 62
     7
420
 16777215
176
     1
 90
        1
176
     1
 90
        4
176
     1
 62
     7
176
     1
 62
   257
176
     1
 90
        1
176
     1
 90
        1
176
     1
 40
1.0
176
     1
 90
        0
176
     1
 62
   257
176
     1
 40
1.0
176
     1
 90
        1
176
     1
 90
        6
176
     1
 90
        2
176
     1
 62
     7
176
     1
 90
        5
176
     1
 90
        0
176
     1
 90
        0
176
     1
290
     0
176
     1
 90
        1
176
     1
 40
0.0
176
     1
 90
        0
176
     1
290
     1
176
     1
290
     1
176
     1
290
     0
176
     1
290
     0
176
     1
290
     0
176
     1
290
     0
176
     1
290
     0
176
     1
290
     0
176
     1
290
     0
176
     1
 90
       50
176
     1
 40
0.0
176
     1
 40
1.0
176
     1
 90
        0
176
     1
 62
    18
420
        0
176
     1
 90
       50
176
     1
 90
        3
176
     1
 62
     5
420
      255
176
     1
290
     0
176
     1
 90
       50
176
     1
 90
       50
176
     1
 90
       50
176
     1
290
     0
176
     1
 90
       50
176
     1
 62
   256
176
     0
 40
1.0
176
     0
 90
        2
176
     1
  1
strokes_ogs.tif
176
     1
290
     0
176
     1
 40
1.0
176
     1
 40
1.0
176
     1
  0
VISUALSTYLE
  5
32
102
{ACAD_REACTORS
330
2A
102
}
330
2A
100
AcDbVisualStyle
  2
Basic
 70
     7
177
     3
291
     1
 70
    58
 90
        1
176
     1
 90
        0
176
     1
 90
        1
176
     1
 90
        0
176
     1
 40
0.6
176
     1
 40
30.0
176
     1
 62
     7
420
 16777215
176
     1
 90
        0
176
     1
 90
        4
176
     1
 62
     7
176
     1
 62
   257
176
     1
 90
        1
176
     1
 90
        1
176
     1
 40
1.0
176
     1
 90
        8
176
     1
 62
     7
176
     1
 40
1.0
176
     1
 90
        1
176
     1
 90
        6
176
     1
 90
        2
176
     1
 62
     7
176
     1
 90
        5
176
     1
 90
        0
176
     1
 90
        0
176
     1
290
     0
176
     1
 90
        1
176
     1
 40
0.0
176
     1
 90
        0
176
     1
290
     0
176
     1
290
     1
176
     1
290
     1
176
     1
290
     0
176
     1
290
     0
176
     1
290
     0
176
     1
290
     0
176
     1
290
     0
176
     1
290
     0
176
     1
 90
       50
176
     1
 40
0.0
176
     1
 40
1.0
176
     1
 90
        0
176
     1
 62
    18
420
        0
176
     1
 90
       50
176
     1
 90
        3
176
     1
 62
     5
420
      255
176
     1
290
     0
176
     1
 90
       50
176
     1
 90
       50
176
     1
 90
       50
176
     1
290
     0
176
     1
 90
       50
176
     1
 62
   256
176
     0
 40
1.0
176
     0
 90
        2
176
     1
  1
strokes_ogs.tif
176
     1
290
     0
176
     1
 40
1.0
176
     1
 40
1.0
176
     1
  0
VISUALSTYLE
  5
36
102
{ACAD_REACTORS
330
2A
102
}
330
2A
100
AcDbVisualStyle
  2
Brighten
 70
    12
177
     3
291
     1
 70
    58
 90
        2
176
     1
 90
        2
176
     1
 90
        0
176
     1
 90
        0
176
     1
 40
0.6
176
     1
 40
30.0
176
     1
 62
     7
420
 16777215
176
     1
 90
        1
176
     1
 90
        4
176
     1
 62
     7
176
     1
 62
   257
176
     1
 90
        1
176
     1
 90
        1
176
     1
 40
1.0
176
     1
 90
        8
176
     1
 62
     7
176
     1
 40
1.0
176
     1
 90
        1
176
     1
 90
        6
176
     1
 90
        2
176
     1
 62
     7
176
     1
 90
        5
176
     1
 90
        0
176
     1
 90
        0
176
     1
290
     0
176
     1
 90
        1
176
     1
 40
50.0
176
     1
 90
        0
176
     1
290
     0
176
     1
290
     1
176
     1
290
     1
176
     1
290
     0
176
     1
290
     0
176
     1
290
     0
176
     1
290
     0
176
     1
290
     0
176
     1
290
     0
176
     1
 90
       50
176
     1
 40
0.0
176
     1
 40
1.0
176
     1
 90
        0
176
     1
 62
    18
420
        0
176
     1
 90
       50
176
     1
 90
        3
176
     1
 62
     5
420
      255
176
     1
290
     0
176
     1
 90
       50
176
     1
 90
       50
176
     1
 90
       50
176
     1
290
     0
176
     1
 90
       50
176
     1
 62
   256
176
     0
 40
1.0
176
     0
 90
        2
176
     1
  1
strokes_ogs.tif
176
     1
290
     0
176
     1
 40
1.0
176
     1
 40
1.0
176
     1
  0
VISUALSTYLE
  5
3A
102
{ACAD_REACTORS
330
2A
102
}
330
2A
100
AcDbVisualStyle
  2
ColorChange
 70
    16
177
     3
291
     1
 70
    58
 90
        2
176
     1
 90
        2
176
     1
 90
        3
176
     1
 90
        0
176
     1
 40
0.6
176
     1
 40
30.0
176
     1
 62
     8
420
  8421504
176
     1
 90
        1
176
     1
 90
        4
176
     1
 62
     7
176
     1
 62
   257
176
     1
 90
        1
176
     1
 90
        1
176
     1
 40
1.0
176
     1
 90
        8
176
     1
 62
     8
420
  8421504
176
     1
 40
1.0
176
     1
 90
        1
176
     1
 90
        6
176
     1
 90
        2
176
     1
 62
     7
176
     1
 90
        5
176
     1
 90
        0
176
     1
 90
        0
176
     1
290
     0
176
     1
 90
        1
176
     1
 40
0.0
176
     1
 90
        0
176
     1
290
     0
176
     1
290
     1
176
     1
290
     1
176
     1
290
     0
176
     1
290
     0
176
     1
290
     0
176
     1
290
     0
176
     1
290
     0
176
     1
290
     0
176
     1
 90
       50
176
     1
 40
0.0
176
     1
 40
1.0
176
     1
 90
        0
176
     1
 62
    18
420
        0
176
     1
 90
       50
176
     1
 90
        3
176
     1
 62
     5
420
      255
176
     1
290
     0
176
     1
 90
       50
176
     1
 90
       50
176
     1
 90
       50
176
     1
290
     0
176
     1
 90
       50
176
     1
 62
   256
176
     0
 40
1.0
176
     0
 90
        2
176
     1
  1
strokes_ogs.tif
176
     1
290
     0
176
     1
 40
1.0
176
     1
 40
1.0
176
     1
  0
VISUALSTYLE
  5
34
102
{ACAD_REACTORS
330
2A
102
}
330
2A
100
AcDbVisualStyle
  2
Conceptual
 70
     9
177
     3
291
     0
 70
    58
 90
        3
176
     1
 90
        2
176
     1
 90
        0
176
     1
 90
        0
176
     1
 40
0.6
176
     1
 40
30.0
176
     1
 62
     7
420
 16777215
176
     1
 90
        2
176
     1
 90
        2
176
     1
 62
     7
176
     1
 62
   257
176
     1
 90
        1
176
     1
 90
        1
176
     1
 40
179.0
176
     1
 90
        8
176
     1
 62
     7
176
     1
 40
1.0
176
     1
 90
        1
176
     1
 90
        6
176
     1
 90
        2
176
     1
 62
     7
176
     1
 90
        3
176
     1
 90
        0
176
     1
 90
        0
176
     1
290
     0
176
     1
 90
        1
176
     1
 40
0.0
176
     1
 90
        0
176
     1
290
     0
176
     1
290
     1
176
     1
290
     1
176
     1
290
     0
176
     1
290
     0
176
     1
290
     0
176
     1
290
     0
176
     1
290
     0
176
     1
290
     0
176
     1
 90
       50
176
     1
 40
0.0
176
     1
 40
1.0
176
     1
 90
        0
176
     1
 62
    18
420
        0
176
     1
 90
       50
176
     1
 90
        3
176
     1
 62
     5
420
      255
176
     1
290
     0
176
     1
 90
       50
176
     1
 90
       50
176
     1
 90
       50
176
     1
290
     0
176
     1
 90
       50
176
     1
 62
   256
176
     0
 40
1.0
176
     0
 90
        2
176
     1
  1
strokes_ogs.tif
176
     1
290
     0
176
     1
 40
1.0
176
     1
 40
1.0
176
     1
  0
VISUALSTYLE
  5
35
102
{ACAD_REACTORS
330
2A
102
}
330
2A
100
AcDbVisualStyle
  2
Dim
 70
    11
177
     3
291
     1
 70
    58
 90
        2
176
     1
 90
        2
176
     1
 90
        0
176
     1
 90
        0
176
     1
 40
0.6
176
     1
 40
30.0
176
     1
 62
     7
420
 16777215
176
     1
 90
        1
176
     1
 90
        4
176
     1
 62
     7
176
     1
 62
   257
176
     1
 90
        1
176
     1
 90
        1
176
     1
 40
1.0
176
     1
 90
        8
176
     1
 62
     7
176
     1
 40
1.0
176
     1
 90
        1
176
     1
 90
        6
176
     1
 90
        2
176
     1
 62
     7
176
     1
 90
        5
176
     1
 90
        0
176
     1
 90
        0
176
     1
290
     0
176
     1
 90
        1
176
     1
 40
-50.0
176
     1
 90
        0
176
     1
290
     0
176
     1
290
     1
176
     1
290
     1
176
     1
290
     0
176
     1
290
     0
176
     1
290
     0
176
     1
290
     0
176
     1
290
     0
176
     1
290
     0
176
     1
 90
       50
176
     1
 40
0.0
176
     1
 40
1.0
176
     1
 90
        0
176
     1
 62
    18
420
        0
176
     1
 90
       50
176
     1
 90
        3
176
     1
 62
     5
420
      255
176
     1
290
     0
176
     1
 90
       50
176
     1
 90
       50
176
     1
 90
       50
176
     1
290
     0
176
     1
 90
       50
176
     1
 62
   256
176
     0
 40
1.0
176
     0
 90
        2
176
     1
  1
strokes_ogs.tif
176
     1
290
     0
176
     1
 40
1.0
176
     1
 40
1.0
176
     1
  0
VISUALSTYLE
  5
3D
102
{ACAD_REACTORS
330
2A
102
}
330
2A
100
AcDbVisualStyle
  2
EdgeColorOff
 70
    22
177
     3
291
     1
 70
    58
 90
        2
176
     0
 90
        2
176
     0
 90
        0
176
     0
 90
        0
176
     0
 40
0.6
176
     0
 40
30.0
176
     0
 62
     7
420
 16777215
176
     0
 90
        1
176
     0
 90
        4
176
     0
 62
     7
176
     0
 62
   257
176
     0
 90
        1
176
     0
 90
        1
176
     0
 40
1.0
176
     0
 90
        8
176
     2
 62
     7
176
     0
 40
1.0
176
     0
 90
        1
176
     0
 90
        6
176
     0
 90
        2
176
     0
 62
     7
176
     0
 90
        5
176
     0
 90
        0
176
     0
 90
        0
176
     0
290
     0
176
     0
 90
        1
176
     0
 40
0.0
176
     0
 90
        0
176
     0
290
     0
176
     0
290
     1
176
     0
290
     1
176
     0
290
     0
176
     0
290
     0
176
     0
290
     0
176
     0
290
     0
176
     0
290
     0
176
     0
290
     0
176
     0
 90
       50
176
     0
 40
0.0
176
     0
 40
1.0
176
     0
 90
        0
176
     0
 62
    18
420
        0
176
     0
 90
       50
176
     0
 90
        3
176
     0
 62
     5
420
      255
176
     0
290
     0
176
     0
 90
       50
176
     0
 90
       50
176
     0
 90
       50
176
     0
290
     0
176
     0
 90
       50
176
     0
 62
   256
176
     0
 40
1.0
176
     0
 90
        2
176
     0
  1
strokes_ogs.tif
176
     0
290
     0
176
     0
 40
1.0
176
     0
 40
1.0
176
     0
  0
VISUALSTYLE
  5
39
102
{ACAD_REACTORS
330
2A
102
}
330
2A
100
AcDbVisualStyle
  2
Facepattern
 70
    15
177
     3
291
     1
 70
    58
 90
        2
176
     1
 90
        2
176
     1
 90
        0
176
     1
 90
        0
176
     1
 40
0.6
176
     1
 40
30.0
176
     1
 62
     7
420
 16777215
176
     1
 90
        1
176
     1
 90
        4
176
     1
 62
     7
176
     1
 62
   257
176
     1
 90
        1
176
     1
 90
        1
176
     1
 40
1.0
176
     1
 90
        8
176
     1
 62
     7
176
     1
 40
1.0
176
     1
 90
        1
176
     1
 90
        6
176
     1
 90
        2
176
     1
 62
     7
176
     1
 90
        5
176
     1
 90
        0
176
     1
 90
        0
176
     1
290
     0
176
     1
 90
        1
176
     1
 40
0.0
176
     1
 90
        0
176
     1
290
     0
176
     1
290
     1
176
     1
290
     1
176
     1
290
     0
176
     1
290
     0
176
     1
290
     0
176
     1
290
     0
176
     1
290
     0
176
     1
290
     0
176
     1
 90
       50
176
     1
 40
0.0
176
     1
 40
1.0
176
     1
 90
        0
176
     1
 62
    18
420
        0
176
     1
 90
       50
176
     1
 90
        3
176
     1
 62
     5
420
      255
176
     1
290
     0
176
     1
 90
       50
176
     1
 90
       50
176
     1
 90
       50
176
     1
290
     0
176
     1
 90
       50
176
     1
 62
   256
176
     0
 40
1.0
176
     0
 90
        2
176
     1
  1
strokes_ogs.tif
176
     1
290
     0
176
     1
 40
1.0
176
     1
 40
1.0
176
     1
  0
VISUALSTYLE
  5
2B
102
{ACAD_REACTORS
330
2A
102
}
330
2A
100
AcDbVisualStyle
  2
Flat
 70
     0
177
     3
291
     1
 70
    58
 90
        2
176
     1
 90
        1
176
     1
 90
        1
176
     1
 90
        2
176
     1
 40
0.6
176
     1
 40
30.0
176
     1
 62
     7
420
 16777215
176
     1
 90
        0
176
     1
 90
        0
176
     1
 62
     7
176
     1
 62
   257
176
     1
 90
        1
176
     1
 90
        1
176
     1
 40
1.0
176
     1
 90
        8
176
     1
 62
     7
176
     1
 40
1.0
176
     1
 90
        1
176
     1
 90
        6
176
     1
 90
        2
176
     1
 62
     7
176
     1
 90
        5
176
     1
 90
        0
176
     1
 90
        0
176
     1
290
     0
176
     1
 90
       13
176
     1
 40
0.0
176
     1
 90
        0
176
     1
290
     0
176
     1
290
     1
176
     1
290
     1
176
     1
290
     0
176
     1
290
     0
176
     1
290
     0
176
     1
290
     0
176
     1
290
     0
176
     1
290
     0
176
     1
 90
       50
176
     1
 40
0.0
176
     1
 40
1.0
176
     1
 90
        0
176
     1
 62
    18
420
        0
176
     1
 90
       50
176
     1
 90
        3
176
     1
 62
     5
420
      255
176
     1
290
     0
176
     1
 90
       50
176
     1
 90
       50
176
     1
 90
       50
176
     1
290
     0
176
     1
 90
       50
176
     1
 62
   256
176
     0
 40
1.0
176
     0
 90
        2
176
     1
  1
strokes_ogs.tif
176
     1
290
     0
176
     1
 40
1.0
176
     1
 40
1.0
176
     1
  0
VISUALSTYLE
  5
2C
102
{ACAD_REACTORS
330
2A
102
}
330
2A
100
AcDbVisualStyle
  2
FlatWithEdges
 70
     1
177
     3
291
     1
 70
    58
 90
        2
176
     1
 90
        1
176
     1
 90
        1
176
     1
 90
        2
176
     1
 40
0.6
176
     1
 40
30.0
176
     1
 62
     7
420
 16777215
176
     1
 90
        1
176
     1
 90
        0
176
     1
 62
     7
176
     1
 62
   257
176
     1
 90
        1
176
     1
 90
        1
176
     1
 40
1.0
176
     1
 90
        0
176
     1
 62
   257
176
     1
 40
1.0
176
     1
 90
        1
176
     1
 90
        6
176
     1
 90
        2
176
     1
 62
     7
176
     1
 90
        5
176
     1
 90
        0
176
     1
 90
        0
176
     1
290
     0
176
     1
 90
       13
176
     1
 40
0.0
176
     1
 90
        0
176
     1
290
     0
176
     1
290
     1
176
     1
290
     1
176
     1
290
     0
176
     1
290
     0
176
     1
290
     0
176
     1
290
     0
176
     1
290
     0
176
     1
290
     0
176
     1
 90
       50
176
     1
 40
0.0
176
     1
 40
1.0
176
     1
 90
        0
176
     1
 62
    18
420
        0
176
     1
 90
       50
176
     1
 90
        3
176
     1
 62
     5
420
      255
176
     1
290
     0
176
     1
 90
       50
176
     1
 90
       50
176
     1
 90
       50
176
     1
290
     0
176
     1
 90
       50
176
     1
 62
   256
176
     0
 40
1.0
176
     0
 90
        2
176
     1
  1
strokes_ogs.tif
176
     1
290
     0
176
     1
 40
1.0
176
     1
 40
1.0
176
     1
  0
VISUALSTYLE
  5
2D
102
{ACAD_REACTORS
330
2A
102
}
330
2A
100
AcDbVisualStyle
  2
Gouraud
 70
     2
177
     3
291
     1
 70
    58
 90
        2
176
     1
 90
        2
176
     1
 90
        1
176
     1
 90
        2
176
     1
 40
0.6
176
     1
 40
30.0
176
     1
 62
     7
420
 16777215
176
     1
 90
        0
176
     1
 90
        0
176
     1
 62
     7
176
     1
 62
   257
176
     1
 90
        1
176
     1
 90
        1
176
     1
 40
1.0
176
     1
 90
        0
176
     1
 62
     7
176
     1
 40
1.0
176
     1
 90
        1
176
     1
 90
        6
176
     1
 90
        2
176
     1
 62
     7
176
     1
 90
        5
176
     1
 90
        0
176
     1
 90
        0
176
     1
290
     0
176
     1
 90
       13
176
     1
 40
0.0
176
     1
 90
        0
176
     1
290
     0
176
     1
290
     1
176
     1
290
     1
176
     1
290
     0
176
     1
290
     0
176
     1
290
     0
176
     1
290
     0
176
     1
290
     0
176
     1
290
     0
176
     1
 90
       50
176
     1
 40
0.0
176
     1
 40
1.0
176
     1
 90
        0
176
     1
 62
    18
420
        0
176
     1
 90
       50
176
     1
 90
        3
176
     1
 62
     5
420
      255
176
     1
290
     0
176
     1
 90
       50
176
     1
 90
       50
176
     1
 90
       50
176
     1
290
     0
176
     1
 90
       50
176
     1
 62
   256
176
     0
 40
1.0
176
     0
 90
        2
176
     1
  1
strokes_ogs.tif
176
     1
290
     0
176
     1
 40
1.0
176
     1
 40
1.0
176
     1
  0
VISUALSTYLE
  5
2E
102
{ACAD_REACTORS
330
2A
102
}
330
2A
100
AcDbVisualStyle
  2
GouraudWithEdges
 70
     3
177
     3
291
     1
 70
    58
 90
        2
176
     1
 90
        2
176
     1
 90
        1
176
     1
 90
        2
176
     1
 40
0.6
176
     1
 40
30.0
176
     1
 62
     7
420
 16777215
176
     1
 90
        1
176
     1
 90
        0
176
     1
 62
     7
176
     1
 62
   257
176
     1
 90
        1
176
     1
 90
        1
176
     1
 40
1.0
176
     1
 90
        0
176
     1
 62
   257
176
     1
 40
1.0
176
     1
 90
        1
176
     1
 90
        6
176
     1
 90
        2
176
     1
 62
     7
176
     1
 90
        5
176
     1
 90
        0
176
     1
 90
        0
176
     1
290
     0
176
     1
 90
       13
176
     1
 40
0.0
176
     1
 90
        0
176
     1
290
     0
176
     1
290
     1
176
     1
290
     1
176
     1
290
     0
176
     1
290
     0
176
     1
290
     0
176
     1
290
     0
176
     1
290
     0
176
     1
290
     0
176
     1
 90
       50
176
     1
 40
0.0
176
     1
 40
1.0
176
     1
 90
        0
176
     1
 62
    18
420
        0
176
     1
 90
       50
176
     1
 90
        3
176
     1
 62
     5
420
      255
176
     1
290
     0
176
     1
 90
       50
176
     1
 90
       50
176
     1
 90
       50
176
     1
290
     0
176
     1
 90
       50
176
     1
 62
   256
176
     0
 40
1.0
176
     0
 90
        2
176
     1
  1
strokes_ogs.tif
176
     1
290
     0
176
     1
 40
1.0
176
     1
 40
1.0
176
     1
  0
VISUALSTYLE
  5
31
102
{ACAD_REACTORS
330
2A
102
}
330
2A
100
AcDbVisualStyle
  2
Hidden
 70
     6
177
     3
291
     0
 70
    58
 90
        1
176
     1
 90
        2
176
     1
 90
        2
176
     1
 90
        0
176
     1
 40
0.6
176
     1
 40
30.0
176
     1
 62
     7
420
 16777215
176
     1
 90
        2
176
     1
 90
        2
176
     1
 62
     7
176
     1
 62
   257
176
     1
 90
        2
176
     1
 90
        1
176
     1
 40
40.0
176
     1
 90
        0
176
     1
 62
   257
176
     1
 40
1.0
176
     1
 90
        1
176
     1
 90
        6
176
     1
 90
        2
176
     1
 62
     7
176
     1
 90
        3
176
     1
 90
        0
176
     1
 90
        0
176
     1
290
     0
176
     1
 90
        1
176
     1
 40
0.0
176
     1
 90
        0
176
     1
290
     0
176
     1
290
     1
176
     1
290
     1
176
     1
290
     0
176
     1
290
     0
176
     1
290
     0
176
     1
290
     0
176
     1
290
     0
176
     1
290
     0
176
     1
 90
       50
176
     1
 40
0.0
176
     1
 40
1.0
176
     1
 90
        0
176
     1
 62
    18
420
        0
176
     1
 90
       50
176
     1
 90
        3
176
     1
 62
     5
420
      255
176
     1
290
     0
176
     1
 90
       50
176
     1
 90
       50
176
     1
 90
       50
176
     1
290
     0
176
     1
 90
       50
176
     1
 62
   256
176
     0
 40
1.0
176
     0
 90
        2
176
     1
  1
strokes_ogs.tif
176
     1
290
     0
176
     1
 40
1.0
176
     1
 40
1.0
176
     1
  0
VISUALSTYLE
  5
3B
102
{ACAD_REACTORS
330
2A
102
}
330
2A
100
AcDbVisualStyle
  2
JitterOff
 70
    20
177
     3
291
     1
 70
    58
 90
        2
176
     0
 90
        2
176
     0
 90
        0
176
     0
 90
        0
176
     0
 40
0.6
176
     0
 40
30.0
176
     0
 62
     7
420
 16777215
176
     0
 90
        1
176
     0
 90
        4
176
     0
 62
     7
176
     0
 62
   257
176
     0
 90
        1
176
     0
 90
        1
176
     0
 40
1.0
176
     0
 90
       10
176
     2
 62
     7
176
     0
 40
1.0
176
     0
 90
        1
176
     0
 90
        6
176
     0
 90
        2
176
     0
 62
     7
176
     0
 90
        5
176
     0
 90
        0
176
     0
 90
        0
176
     0
290
     0
176
     0
 90
        1
176
     0
 40
0.0
176
     0
 90
        0
176
     0
290
     0
176
     0
290
     1
176
     0
290
     1
176
     0
290
     0
176
     0
290
     0
176
     0
290
     0
176
     0
290
     0
176
     0
290
     0
176
     0
290
     0
176
     0
 90
       50
176
     0
 40
0.0
176
     0
 40
1.0
176
     0
 90
        0
176
     0
 62
    18
420
        0
176
     0
 90
       50
176
     0
 90
        3
176
     0
 62
     5
420
      255
176
     0
290
     0
176
     0
 90
       50
176
     0
 90
       50
176
     0
 90
       50
176
     0
290
     0
176
     0
 90
       50
176
     0
 62
   256
176
     0
 40
1.0
176
     0
 90
        2
176
     0
  1
strokes_ogs.tif
176
     0
290
     0
176
     0
 40
1.0
176
     0
 40
1.0
176
     0
  0
VISUALSTYLE
  5
38
102
{ACAD_REACTORS
330
2A
102
}
330
2A
100
AcDbVisualStyle
  2
Linepattern
 70
    14
177
     3
291
     1
 70
    58
 90
        2
176
     1
 90
        2
176
     1
 90
        0
176
     1
 90
        0
176
     1
 40
0.6
176
     1
 40
30.0
176
     1
 62
     7
420
 16777215
176
     1
 90
        1
176
     1
 90
        4
176
     1
 62
     7
176
     1
 62
   257
176
     1
 90
        7
176
     1
 90
        7
176
     1
 40
1.0
176
     1
 90
        8
176
     1
 62
     7
176
     1
 40
1.0
176
     1
 90
        1
176
     1
 90
        6
176
     1
 90
        2
176
     1
 62
     7
176
     1
 90
        5
176
     1
 90
        0
176
     1
 90
        0
176
     1
290
     0
176
     1
 90
        1
176
     1
 40
0.0
176
     1
 90
        0
176
     1
290
     0
176
     1
290
     1
176
     1
290
     1
176
     1
290
     0
176
     1
290
     0
176
     1
290
     0
176
     1
290
     0
176
     1
290
     0
176
     1
290
     0
176
     1
 90
       50
176
     1
 40
0.0
176
     1
 40
1.0
176
     1
 90
        0
176
     1
 62
    18
420
        0
176
     1
 90
       50
176
     1
 90
        3
176
     1
 62
     5
420
      255
176
     1
290
     0
176
     1
 90
       50
176
     1
 90
       50
176
     1
 90
       50
176
     1
290
     0
176
     1
 90
       50
176
     1
 62
   256
176
     0
 40
1.0
176
     0
 90
        2
176
     1
  1
strokes_ogs.tif
176
     1
290
     0
176
     1
 40
1.0
176
     1
 40
1.0
176
     1
  0
VISUALSTYLE
  5
3C
102
{ACAD_REACTORS
330
2A
102
}
330
2A
100
AcDbVisualStyle
  2
OverhangOff
 70
    21
177
     3
291
     1
 70
    58
 90
        2
176
     0
 90
        2
176
     0
 90
        0
176
     0
 90
        0
176
     0
 40
0.6
176
     0
 40
30.0
176
     0
 62
     7
420
 16777215
176
     0
 90
        1
176
     0
 90
        4
176
     0
 62
     7
176
     0
 62
   257
176
     0
 90
        1
176
     0
 90
        1
176
     0
 40
1.0
176
     0
 90
        9
176
     2
 62
     7
176
     0
 40
1.0
176
     0
 90
        1
176
     0
 90
        6
176
     0
 90
        2
176
     0
 62
     7
176
     0
 90
        5
176
     0
 90
        0
176
     0
 90
        0
176
     0
290
     0
176
     0
 90
        1
176
     0
 40
0.0
176
     0
 90
        0
176
     0
290
     0
176
     0
290
     1
176
     0
290
     1
176
     0
290
     0
176
     0
290
     0
176
     0
290
     0
176
     0
290
     0
176
     0
290
     0
176
     0
290
     0
176
     0
 90
       50
176
     0
 40
0.0
176
     0
 40
1.0
176
     0
 90
        0
176
     0
 62
    18
420
        0
176
     0
 90
       50
176
     0
 90
        3
176
     0
 62
     5
420
      255
176
     0
290
     0
176
     0
 90
       50
176
     0
 90
       50
176
     0
 90
       50
176
     0
290
     0
176
     0
 90
       50
176
     0
 62
   256
176
     0
 40
1.0
176
     0
 90
        2
176
     0
  1
strokes_ogs.tif
176
     0
290
     0
176
     0
 40
1.0
176
     0
 40
1.0
176
     0
  0
VISUALSTYLE
  5
33
102
{ACAD_REACTORS
330
2A
102
}
330
2A
100
AcDbVisualStyle
  2
Realistic
 70
     8
177
     3
291
     0
 70
    58
 90
        2
176
     1
 90
        3
176
     1
 90
        0
176
     1
 90
        2
176
     1
 40
0.6
176
     1
 40
30.0
176
     1
 62
     7
420
 16777215
176
     1
 90
        0
176
     1
 90
        0
176
     1
 62
     7
176
     1
 62
   257
176
     1
 90
        1
176
     1
 90
        1
176
     1
 40
1.0
176
     1
 90
        8
176
     1
 62
   257
176
     1
 40
1.0
176
     1
 90
        1
176
     1
 90
        6
176
     1
 90
        2
176
     1
 62
     7
176
     1
 90
        3
176
     1
 90
        0
176
     1
 90
        0
176
     1
290
     0
176
     1
 90
       13
176
     1
 40
0.0
176
     1
 90
        0
176
     1
290
     0
176
     1
290
     1
176
     1
290
     1
176
     1
290
     0
176
     1
290
     0
176
     1
290
     0
176
     1
290
     0
176
     1
290
     0
176
     1
290
     0
176
     1
 90
       50
176
     1
 40
0.0
176
     1
 40
1.0
176
     1
 90
        0
176
     1
 62
    18
420
        0
176
     1
 90
       50
176
     1
 90
        3
176
     1
 62
     5
420
      255
176
     1
290
     0
176
     1
 90
       50
176
     1
 90
       50
176
     1
 90
       50
176
     1
290
     0
176
     1
 90
       50
176
     1
 62
   256
176
     0
 40
1.0
176
     0
 90
        2
176
     1
  1
strokes_ogs.tif
176
     1
290
     0
176
     1
 40
1.0
176
     1
 40
1.0
176
     1
  0
VISUALSTYLE
  5
42
102
{ACAD_REACTORS
330
2A
102
}
330
2A
100
AcDbVisualStyle
  2
Shaded
 70
    27
177
     3
291
     0
 70
    58
 90
        2
176
     1
 90
        2
176
     1
 90
        1
176
     1
 90
        2
176
     1
 40
0.6
176
     1
 40
30.0
176
     1
 62
     7
420
 16777215
176
     1
 90
        0
176
     1
 90
        4
176
     1
 62
     7
176
     1
 62
   257
176
     1
 90
        1
176
     1
 90
        1
176
     1
 40
1.0
176
     1
 90
        8
176
     1
 62
   257
176
     1
 40
1.0
176
     1
 90
        1
176
     1
 90
        6
176
     1
 90
        2
176
     1
 62
     8
420
  7895160
176
     1
 90
        3
176
     1
 90
        0
176
     1
 90
        0
176
     1
290
     0
176
     1
 90
        5
176
     1
 40
0.0
176
     1
 90
        0
176
     1
290
     0
176
     1
290
     1
176
     1
290
     1
176
     1
290
     0
176
     1
290
     0
176
     1
290
     0
176
     1
290
     0
176
     1
290
     0
176
     1
290
     0
176
     1
 90
       50
176
     1
 40
0.0
176
     1
 40
1.0
176
     1
 90
        0
176
     1
 62
    18
420
        0
176
     1
 90
       50
176
     1
 90
        3
176
     1
 62
     5
420
      255
176
     1
290
     0
176
     1
 90
       50
176
     1
 90
       50
176
     1
 90
       50
176
     1
290
     0
176
     1
 90
       50
176
     1
 62
   256
176
     0
 40
1.0
176
     0
 90
        2
176
     1
  1
strokes_ogs.tif
176
     1
290
     0
176
     1
 40
1.0
176
     1
 40
1.0
176
     1
  0
VISUALSTYLE
  5
41
102
{ACAD_REACTORS
330
2A
102
}
330
2A
100
AcDbVisualStyle
  2
Shaded with edges
 70
    26
177
     3
291
     0
 70
    58
 90
        2
176
     1
 90
        2
176
     1
 90
        1
176
     1
 90
        2
176
     1
 40
0.6
176
     1
 40
30.0
176
     1
 62
     7
420
 16777215
176
     1
 90
        1
176
     1
 90
       10
176
     1
 62
     7
176
     1
 62
   257
176
     1
 90
        2
176
     1
 90
        1
176
     1
 40
1.0
176
     1
 90
        8
176
     1
 62
   257
176
     1
 40
1.0
176
     1
 90
        1
176
     1
 90
        6
176
     1
 90
        2
176
     1
 62
     7
176
     1
 90
        3
176
     1
 90
        0
176
     1
 90
        0
176
     1
290
     0
176
     1
 90
        5
176
     1
 40
0.0
176
     1
 90
        0
176
     1
290
     0
176
     1
290
     1
176
     1
290
     1
176
     1
290
     0
176
     1
290
     0
176
     1
290
     0
176
     1
290
     0
176
     1
290
     0
176
     1
290
     0
176
     1
 90
       50
176
     1
 40
0.0
176
     1
 40
1.0
176
     1
 90
        0
176
     1
 62
    18
420
        0
176
     1
 90
       50
176
     1
 90
        3
176
     1
 62
     5
420
      255
176
     1
290
     0
176
     1
 90
       50
176
     1
 90
       50
176
     1
 90
       50
176
     1
290
     0
176
     1
 90
       50
176
     1
 62
   256
176
     0
 40
1.0
176
     0
 90
        2
176
     1
  1
strokes_ogs.tif
176
     1
290
     0
176
     1
 40
1.0
176
     1
 40
1.0
176
     1
  0
VISUALSTYLE
  5
3E
102
{ACAD_REACTORS
330
2A
102
}
330
2A
100
AcDbVisualStyle
  2
Shades of Gray
 70
    23
177
     3
291
     0
 70
    58
 90
        2
176
     1
 90
        2
176
     1
 90
        3
176
     1
 90
        0
176
     1
 40
0.6
176
     1
 40
30.0
176
     1
 62
     7
420
 16777215
176
     1
 90
        2
176
     1
 90
        2
176
     1
 62
     7
176
     1
 62
     7
176
     1
 90
        1
176
     1
 90
        1
176
     1
 40
40.0
176
     1
 90
        8
176
     1
 62
     7
176
     1
 40
1.0
176
     1
 90
        1
176
     1
 90
        6
176
     1
 90
        2
176
     1
 62
     7
176
     1
 90
        3
176
     1
 90
        0
176
     1
 90
        0
176
     1
290
     0
176
     1
 90
        1
176
     1
 40
0.0
176
     1
 90
        0
176
     1
290
     0
176
     1
290
     1
176
     1
290
     1
176
     1
290
     0
176
     1
290
     0
176
     1
290
     0
176
     1
290
     0
176
     1
290
     0
176
     1
290
     0
176
     1
 90
       50
176
     1
 40
0.0
176
     1
 40
1.0
176
     1
 90
        0
176
     1
 62
    18
420
        0
176
     1
 90
       50
176
     1
 90
        3
176
     1
 62
     5
420
      255
176
     1
290
     0
176
     1
 90
       50
176
     1
 90
       50
176
     1
 90
       50
176
     1
290
     0
176
     1
 90
       50
176
     1
 62
   256
176
     0
 40
1.0
176
     0
 90
        2
176
     1
  1
strokes_ogs.tif
176
     1
290
     0
176
     1
 40
1.0
176
     1
 40
1.0
176
     1
  0
VISUALSTYLE
  5
3F
102
{ACAD_REACTORS
330
2A
102
}
330
2A
100
AcDbVisualStyle
  2
Sketchy
 70
    24
177
     3
291
     0
 70
    58
 90
        1
176
     1
 90
        2
176
     1
 90
        2
176
     1
 90
        0
176
     1
 40
0.6
176
     1
 40
30.0
176
     1
 62
     7
420
 16777215
176
     1
 90
        2
176
     1
 90
        2
176
     1
 62
     7
176
     1
 62
     7
176
     1
 90
        1
176
     1
 90
        1
176
     1
 40
40.0
176
     1
 90
       11
176
     1
 62
     7
176
     1
 40
1.0
176
     1
 90
        1
176
     1
 90
        6
176
     1
 90
        2
176
     1
 62
     7
176
     1
 90
        6
176
     1
 90
        0
176
     1
 90
        0
176
     1
290
     0
176
     1
 90
        1
176
     1
 40
0.0
176
     1
 90
        0
176
     1
290
     0
176
     1
290
     1
176
     1
290
     1
176
     1
290
     0
176
     1
290
     0
176
     1
290
     0
176
     1
290
     0
176
     1
290
     0
176
     1
290
     0
176
     1
 90
       50
176
     1
 40
0.0
176
     1
 40
1.0
176
     1
 90
        0
176
     1
 62
    18
420
        0
176
     1
 90
       50
176
     1
 90
        3
176
     1
 62
     5
420
      255
176
     1
290
     0
176
     1
 90
       50
176
     1
 90
       50
176
     1
 90
       50
176
     1
290
     0
176
     1
 90
       50
176
     1
 62
   256
176
     0
 40
1.0
176
     0
 90
        2
176
     1
  1
strokes_ogs.tif
176
     1
290
     0
176
     1
 40
1.0
176
     1
 40
1.0
176
     1
  0
VISUALSTYLE
  5
37
102
{ACAD_REACTORS
330
2A
102
}
330
2A
100
AcDbVisualStyle
  2
Thicken
 70
    13
177
     3
291
     1
 70
    58
 90
        2
176
     1
 90
        2
176
     1
 90
        0
176
     1
 90
        0
176
     1
 40
0.6
176
     1
 40
30.0
176
     1
 62
     7
420
 16777215
176
     1
 90
        1
176
     1
 90
        4
176
     1
 62
     7
176
     1
 62
   257
176
     1
 90
        1
176
     1
 90
        1
176
     1
 40
1.0
176
     1
 90
       12
176
     1
 62
     7
176
     1
 40
1.0
176
     1
 90
        1
176
     1
 90
        6
176
     1
 90
        2
176
     1
 62
     7
176
     1
 90
        5
176
     1
 90
        0
176
     1
 90
        0
176
     1
290
     0
176
     1
 90
        1
176
     1
 40
0.0
176
     1
 90
        0
176
     1
290
     0
176
     1
290
     1
176
     1
290
     1
176
     1
290
     0
176
     1
290
     0
176
     1
290
     0
176
     1
290
     0
176
     1
290
     0
176
     1
290
     0
176
     1
 90
       50
176
     1
 40
0.0
176
     1
 40
1.0
176
     1
 90
        0
176
     1
 62
    18
420
        0
176
     1
 90
       50
176
     1
 90
        3
176
     1
 62
     5
420
      255
176
     1
290
     0
176
     1
 90
       50
176
     1
 90
       50
176
     1
 90
       50
176
     1
290
     0
176
     1
 90
       50
176
     1
 62
   256
176
     0
 40
1.0
176
     0
 90
        2
176
     1
  1
strokes_ogs.tif
176
     1
290
     0
176
     1
 40
1.0
176
     1
 40
1.0
176
     1
  0
VISUALSTYLE
  5
30
102
{ACAD_REACTORS
330
2A
102
}
330
2A
100
AcDbVisualStyle
  2
Wireframe
 70
     5
177
     3
291
     0
 70
    58
 90
        0
176
     1
 90
        2
176
     1
 90
        0
176
     1
 90
        0
176
     1
 40
0.6
176
     1
 40
30.0
176
     1
 62
     7
420
 16777215
176
     1
 90
        1
176
     1
 90
        4
176
     1
 62
     7
176
     1
 62
   257
176
     1
 90
        1
176
     1
 90
        1
176
     1
 40
1.0
176
     1
 90
        0
176
     1
 62
   257
176
     1
 40
1.0
176
     1
 90
        1
176
     1
 90
        6
176
     1
 90
        2
176
     1
 62
     7
176
     1
 90
        3
176
     1
 90
        0
176
     1
 90
        0
176
     1
290
     0
176
     1
 90
        1
176
     1
 40
0.0
176
     1
 90
        0
176
     1
290
     0
176
     1
290
     1
176
     1
290
     1
176
     1
290
     0
176
     1
290
     0
176
     1
290
     0
176
     1
290
     0
176
     1
290
     0
176
     1
290
     0
176
     1
 90
       50
176
     1
 40
0.0
176
     1
 40
1.0
176
     1
 90
        0
176
     1
 62
    18
420
        0
176
     1
 90
       50
176
     1
 90
        3
176
     1
 62
     5
420
      255
176
     1
290
     0
176
     1
 90
       50
176
     1
 90
       50
176
     1
 90
       50
176
     1
290
     0
176
     1
 90
       50
176
     1
 62
   256
176
     0
 40
1.0
176
     0
 90
        2
176
     1
  1
strokes_ogs.tif
176
     1
290
     0
176
     1
 40
1.0
176
     1
 40
1.0
176
     1
  0
VISUALSTYLE
  5
40
102
{ACAD_REACTORS
330
2A
102
}
330
2A
100
AcDbVisualStyle
  2
X-Ray
 70
    25
177
     3
291
     0
 70
    58
 90
        2
176
     1
 90
        2
176
     1
 90
        1
176
     1
 90
        1
176
     1
 40
0.5
176
     1
 40
30.0
176
     1
 62
     7
420
 16777215
176
     1
 90
        1
176
     1
 90
        0
176
     1
 62
     7
176
     1
 62
   257
176
     1
 90
        1
176
     1
 90
        1
176
     1
 40
1.0
176
     1
 90
        8
176
     1
 62
     7
176
     1
 40
1.0
176
     1
 90
        1
176
     1
 90
        6
176
     1
 90
        2
176
     1
 62
     7
176
     1
 90
        3
176
     1
 90
        0
176
     1
 90
        0
176
     1
290
     0
176
     1
 90
       13
176
     1
 40
0.0
176
     1
 90
        0
176
     1
290
     0
176
     1
290
     1
176
     1
290
     1
176
     1
290
     0
176
     1
290
     0
176
     1
290
     0
176
     1
290
     0
176
     1
290
     0
176
     1
290
     0
176
     1
 90
       50
176
     1
 40
0.0
176
     1
 40
1.0
176
     1
 90
        0
176
     1
 62
    18
420
        0
176
     1
 90
       50
176
     1
 90
        3
176
     1
 62
     5
420
      255
176
     1
290
     0
176
     1
 90
       50
176
     1
 90
       50
176
     1
 90
       50
176
     1
290
     0
176
     1
 90
       50
176
     1
 62
   256
176
     0
 40
1.0
176
     0
 90
        2
176
     1
  1
strokes_ogs.tif
176
     1
290
     0
176
     1
 40
1.0
176
     1
 40
1.0
176
     1
  0
DICTIONARYVAR
  5
21D
102
{ACAD_REACTORS
330
21C
102
}
330
21C
100
DictionaryVariables
280
     0
  1
1:1
  0
DICTIONARYVAR
  5
225
102
{ACAD_REACTORS
330
21C
102
}
330
21C
100
DictionaryVariables
280
     0
  1
3.500000
  0
DICTIONARYVAR
  5
226
102
{ACAD_REACTORS
330
21C
102
}
330
21C
100
DictionaryVariables
280
     0
  1
acadiso.lin
  0
DICTIONARYVAR
  5
222
102
{ACAD_REACTORS
330
21C
102
}
330
21C
100
DictionaryVariables
280
     0
  1
Standard
  0
DICTIONARYVAR
  5
221
102
{ACAD_REACTORS
330
21C
102
}
330
21C
100
DictionaryVariables
280
     0
  1
Standard
  0
DICTIONARY
  5
21E
330
6A
100
AcDbDictionary
280
     1
281
     1
  3
ACAD_ROUNDTRIP_2008_TABLESTYLE_CELLSTYLEMAP
360
21F
  0
CELLSTYLEMAP
  5
21F
102
{ACAD_REACTORS
330
21E
102
}
330
21E
100
AcDbCellStyleMap
 90
        3
300
CELLSTYLE
  1
TABLEFORMAT_BEGIN
 90
        5
170
     1
 91
        0
 92
    32768
 62
   257
 93
        1
300
CONTENTFORMAT
  1
CONTENTFORMAT_BEGIN
 90
        0
 91
        0
 92
        4
 93
        0
300

 40
0.0
140
1.0
 94
        5
 62
     0
340
11
144
6.0
309
CONTENTFORMAT_END
171
     1
301
MARGIN
  1
CELLMARGIN_BEGIN
 40
1.5
 40
1.5
 40
1.5
 40
1.5
 40
1.5
 40
1.5
309
CELLMARGIN_END
 94
        6
 95
        1
302
GRIDFORMAT
  1
GRIDFORMAT_BEGIN
 90
        0
 91
        1
 62
     0
 92
       -2
340
14
 93
        0
 40
0.045
309
GRIDFORMAT_END
 95
        2
302
GRIDFORMAT
  1
GRIDFORMAT_BEGIN
 90
        0
 91
        1
 62
     0
 92
       -2
340
14
 93
        0
 40
0.045
309
GRIDFORMAT_END
 95
        4
302
GRIDFORMAT
  1
GRIDFORMAT_BEGIN
 90
        0
 91
        1
 62
     0
 92
       -2
340
14
 93
        0
 40
0.045
309
GRIDFORMAT_END
 95
        8
302
GRIDFORMAT
  1
GRIDFORMAT_BEGIN
 90
        0
 91
        1
 62
     0
 92
       -2
340
14
 93
        0
 40
0.045
309
GRIDFORMAT_END
 95
       16
302
GRIDFORMAT
  1
GRIDFORMAT_BEGIN
 90
        0
 91
        1
 62
     0
 92
       -2
340
14
 93
        0
 40
0.045
309
GRIDFORMAT_END
 95
       32
302
GRIDFORMAT
  1
GRIDFORMAT_BEGIN
 90
        0
 91
        1
 62
     0
 92
       -2
340
14
 93
        0
 40
0.045
309
GRIDFORMAT_END
309
TABLEFORMAT_END
  1
CELLSTYLE_BEGIN
 90
        1
 91
        1
300
_TITLE
309
CELLSTYLE_END
300
CELLSTYLE
  1
TABLEFORMAT_BEGIN
 90
        5
170
     1
 91
        0
 92
        0
 62
   257
 93
        1
300
CONTENTFORMAT
  1
CONTENTFORMAT_BEGIN
 90
        0
 91
        0
 92
        4
 93
        0
300

 40
0.0
140
1.0
 94
        5
 62
     0
340
11
144
4.5
309
CONTENTFORMAT_END
171
     1
301
MARGIN
  1
CELLMARGIN_BEGIN
 40
1.5
 40
1.5
 40
1.5
 40
1.5
 40
1.5
 40
1.5
309
CELLMARGIN_END
 94
        6
 95
        1
302
GRIDFORMAT
  1
GRIDFORMAT_BEGIN
 90
        0
 91
        1
 62
     0
 92
       -2
340
14
 93
        0
 40
0.045
309
GRIDFORMAT_END
 95
        2
302
GRIDFORMAT
  1
GRIDFORMAT_BEGIN
 90
        0
 91
        1
 62
     0
 92
       -2
340
14
 93
        0
 40
0.045
309
GRIDFORMAT_END
 95
        4
302
GRIDFORMAT
  1
GRIDFORMAT_BEGIN
 90
        0
 91
        1
 62
     0
 92
       -2
340
14
 93
        0
 40
0.045
309
GRIDFORMAT_END
 95
        8
302
GRIDFORMAT
  1
GRIDFORMAT_BEGIN
 90
        0
 91
        1
 62
     0
 92
       -2
340
14
 93
        0
 40
0.045
309
GRIDFORMAT_END
 95
       16
302
GRIDFORMAT
  1
GRIDFORMAT_BEGIN
 90
        0
 91
        1
 62
     0
 92
       -2
340
14
 93
        0
 40
0.045
309
GRIDFORMAT_END
 95
       32
302
GRIDFORMAT
  1
GRIDFORMAT_BEGIN
 90
        0
 91
        1
 62
     0
 92
       -2
340
14
 93
        0
 40
0.045
309
GRIDFORMAT_END
309
TABLEFORMAT_END
  1
CELLSTYLE_BEGIN
 90
        2
 91
        1
300
_HEADER
309
CELLSTYLE_END
300
CELLSTYLE
  1
TABLEFORMAT_BEGIN
 90
        5
170
     1
 91
        0
 92
        0
 62
   257
 93
        1
300
CONTENTFORMAT
  1
CONTENTFORMAT_BEGIN
 90
        0
 91
        0
 92
        4
 93
        0
300

 40
0.0
140
1.0
 94
        2
 62
     0
340
11
144
4.5
309
CONTENTFORMAT_END
171
     1
301
MARGIN
  1
CELLMARGIN_BEGIN
 40
1.5
 40
1.5
 40
1.5
 40
1.5
 40
1.5
 40
1.5
309
CELLMARGIN_END
 94
        6
 95
        1
302
GRIDFORMAT
  1
GRIDFORMAT_BEGIN
 90
        0
 91
        1
 62
     0
 92
       -2
340
14
 93
        0
 40
0.045
309
GRIDFORMAT_END
 95
        2
302
GRIDFORMAT
  1
GRIDFORMAT_BEGIN
 90
        0
 91
        1
 62
     0
 92
       -2
340
14
 93
        0
 40
0.045
309
GRIDFORMAT_END
 95
        4
302
GRIDFORMAT
  1
GRIDFORMAT_BEGIN
 90
        0
 91
        1
 62
     0
 92
       -2
340
14
 93
        0
 40
0.045
309
GRIDFORMAT_END
 95
        8
302
GRIDFORMAT
  1
GRIDFORMAT_BEGIN
 90
        0
 91
        1
 62
     0
 92
       -2
340
14
 93
        0
 40
0.045
309
GRIDFORMAT_END
 95
       16
302
GRIDFORMAT
  1
GRIDFORMAT_BEGIN
 90
        0
 91
        1
 62
     0
 92
       -2
340
14
 93
        0
 40
0.045
309
GRIDFORMAT_END
 95
       32
302
GRIDFORMAT
  1
GRIDFORMAT_BEGIN
 90
        0
 91
        1
 62
     0
 92
       -2
340
14
 93
        0
 40
0.045
309
GRIDFORMAT_END
309
TABLEFORMAT_END
  1
CELLSTYLE_BEGIN
 90
        3
 91
        2
300
_DATA
309
CELLSTYLE_END
  0
ENDSEC
  0
EOF
