  0
SECTION
  2
HEADER
  9
$ACADVER
  1
AC1027
  9
$ACADMAINTVER
 70
   105
  9
$DWGCODEPAGE
  3
ANSI_1250
  9
$REQUIREDVERSIONS
160
                 0
  9
$INSBASE
 10
0.0
 20
0.0
 30
0.0
  9
$EXTMIN
 10
1.000000000000000E+20
 20
1.000000000000000E+20
 30
1.000000000000000E+20
  9
$EXTMAX
 10
-1.000000000000000E+20
 20
-1.000000000000000E+20
 30
-1.000000000000000E+20
  9
$LIMMIN
 10
0.0
 20
0.0
  9
$LIMMAX
 10
420.0
 20
297.0
  9
$ORTHOMODE
 70
     0
  9
$REGENMODE
 70
     1
  9
$FILLMODE
 70
     1
  9
$QTEXTMODE
 70
     0
  9
$MIRRTEXT
 70
     1
  9
$LTSCALE
 40
1.0
  9
$ATTMODE
 70
     1
  9
$TEXTSIZE
 40
2.5
  9
$TRACEWID
 40
1.0
  9
$TEXTSTYLE
  7
Standard
  9
$CLAYER
  8
0
  9
$CELTYPE
  6
ByLayer
  9
$CECOLOR
 62
   256
  9
$CELTSCALE
 40
1.0
  9
$DISPSILH
 70
     0
  9
$DIMSCALE
 40
1.0
  9
$DIMASZ
 40
3.0
  9
$DIMEXO
 40
0.625
  9
$DIMDLI
 40
3.75
  9
$DIMRND
 40
0.0
  9
$DIMDLE
 40
0.0
  9
$DIMEXE
 40
1.25
  9
$DIMTP
 40
0.0
  9
$DIMTM
 40
0.0
  9
$DIMTXT
 40
1.336918010447422
  9
$DIMCEN
 40
2.5
  9
$DIMTSZ
 40
0.0
  9
$DIMTOL
 70
     0
  9
$DIMLIM
 70
     0
  9
$DIMTIH
 70
     0
  9
$DIMTOH
 70
     0
  9
$DIMSE1
 70
     0
  9
$DIMSE2
 70
     0
  9
$DIMTAD
 70
     1
  9
$DIMZIN
 70
     8
  9
$DIMBLK
  1

  9
$DIMASO
 70
     1
  9
$DIMSHO
 70
     1
  9
$DIMPOST
  1

  9
$DIMAPOST
  1

  9
$DIMALT
 70
     0
  9
$DIMALTD
 70
     3
  9
$DIMALTF
 40
0.03937007874016
  9
$DIMLFAC
 40
1.0
  9
$DIMTOFL
 70
     1
  9
$DIMTVP
 40
0.0
  9
$DIMTIX
 70
     0
  9
$DIMSOXD
 70
     0
  9
$DIMSAH
 70
     0
  9
$DIMBLK1
  1

  9
$DIMBLK2
  1

  9
$DIMSTYLE
  2
ISO-25
  9
$DIMCLRD
 70
     0
  9
$DIMCLRE
 70
     0
  9
$DIMCLRT
 70
     0
  9
$DIMTFAC
 40
1.0
  9
$DIMGAP
 40
0.625
  9
$DIMJUST
 70
     0
  9
$DIMSD1
 70
     0
  9
$DIMSD2
 70
     0
  9
$DIMTOLJ
 70
     0
  9
$DIMTZIN
 70
     8
  9
$DIMALTZ
 70
     0
  9
$DIMALTTZ
 70
     0
  9
$DIMUPT
 70
     0
  9
$DIMDEC
 70
     2
  9
$DIMTDEC
 70
     2
  9
$DIMALTU
 70
     2
  9
$DIMALTTD
 70
     3
  9
$DIMTXSTY
  7
Standard
  9
$DIMAUNIT
 70
     0
  9
$DIMADEC
 70
     0
  9
$DIMALTRND
 40
0.0
  9
$DIMAZIN
 70
     0
  9
$DIMDSEP
 70
    44
  9
$DIMATFIT
 70
     3
  9
$DIMFRAC
 70
     0
  9
$DIMLDRBLK
  1

  9
$DIMLUNIT
 70
     2
  9
$DIMLWD
 70
    -2
  9
$DIMLWE
 70
    -2
  9
$DIMTMOVE
 70
     0
  9
$DIMFXL
 40
1.0
  9
$DIMFXLON
 70
     0
  9
$DIMJOGANG
 40
0.7853981633974483
  9
$DIMTFILL
 70
     0
  9
$DIMTFILLCLR
 70
     0
  9
$DIMARCSYM
 70
     0
  9
$DIMLTYPE
  6

  9
$DIMLTEX1
  6

  9
$DIMLTEX2
  6

  9
$DIMTXTDIRECTION
 70
     0
  9
$LUNITS
 70
     2
  9
$LUPREC
 70
     4
  9
$SKETCHINC
 40
1.0
  9
$FILLETRAD
 40
10.0
  9
$AUNITS
 70
     0
  9
$AUPREC
 70
     0
  9
$MENU
  1
.
  9
$ELEVATION
 40
0.0
  9
$PELEVATION
 40
0.0
  9
$THICKNESS
 40
0.0
  9
$LIMCHECK
 70
     0
  9
$CHAMFERA
 40
0.0
  9
$CHAMFERB
 40
0.0
  9
$CHAMFERC
 40
0.0
  9
$CHAMFERD
 40
0.0
  9
$SKPOLY
 70
     0
  9
$TDCREATE
 40
2458367.465551204
  9
$TDUCREATE
 40
2458367.382217871
  9
$TDUPDATE
 40
2458367.465553322
  9
$TDUUPDATE
 40
2458367.382219988
  9
$TDINDWG
 40
0.0000000116
  9
$TDUSRTIMER
 40
0.0000000116
  9
$USRTIMER
 70
     1
  9
$ANGBASE
 50
0.0
  9
$ANGDIR
 70
     0
  9
$PDMODE
 70
     0
  9
$PDSIZE
 40
0.0
  9
$PLINEWID
 40
0.0
  9
$SPLFRAME
 70
     0
  9
$SPLINETYPE
 70
     6
  9
$SPLINESEGS
 70
     8
  9
$HANDSEED
  5
21E
  9
$SURFTAB1
 70
     6
  9
$SURFTAB2
 70
     6
  9
$SURFTYPE
 70
     6
  9
$SURFU
 70
     6
  9
$SURFV
 70
     6
  9
$UCSBASE
  2

  9
$UCSNAME
  2

  9
$UCSORG
 10
0.0
 20
0.0
 30
0.0
  9
$UCSXDIR
 10
1.0
 20
0.0
 30
0.0
  9
$UCSYDIR
 10
0.0
 20
1.0
 30
0.0
  9
$UCSORTHOREF
  2

  9
$UCSORTHOVIEW
 70
     0
  9
$UCSORGTOP
 10
0.0
 20
0.0
 30
0.0
  9
$UCSORGBOTTOM
 10
0.0
 20
0.0
 30
0.0
  9
$UCSORGLEFT
 10
0.0
 20
0.0
 30
0.0
  9
$UCSORGRIGHT
 10
0.0
 20
0.0
 30
0.0
  9
$UCSORGFRONT
 10
0.0
 20
0.0
 30
0.0
  9
$UCSORGBACK
 10
0.0
 20
0.0
 30
0.0
  9
$PUCSBASE
  2

  9
$PUCSNAME
  2

  9
$PUCSORG
 10
0.0
 20
0.0
 30
0.0
  9
$PUCSXDIR
 10
1.0
 20
0.0
 30
0.0
  9
$PUCSYDIR
 10
0.0
 20
1.0
 30
0.0
  9
$PUCSORTHOREF
  2

  9
$PUCSORTHOVIEW
 70
     0
  9
$PUCSORGTOP
 10
0.0
 20
0.0
 30
0.0
  9
$PUCSORGBOTTOM
 10
0.0
 20
0.0
 30
0.0
  9
$PUCSORGLEFT
 10
0.0
 20
0.0
 30
0.0
  9
$PUCSORGRIGHT
 10
0.0
 20
0.0
 30
0.0
  9
$PUCSORGFRONT
 10
0.0
 20
0.0
 30
0.0
  9
$PUCSORGBACK
 10
0.0
 20
0.0
 30
0.0
  9
$USERI1
 70
     0
  9
$USERI2
 70
     0
  9
$USERI3
 70
     0
  9
$USERI4
 70
     0
  9
$USERI5
 70
     0
  9
$USERR1
 40
0.0
  9
$USERR2
 40
0.0
  9
$USERR3
 40
0.0
  9
$USERR4
 40
0.0
  9
$USERR5
 40
0.0
  9
$WORLDVIEW
 70
     1
  9
$SHADEDGE
 70
     3
  9
$SHADEDIF
 70
    70
  9
$TILEMODE
 70
     1
  9
$MAXACTVP
 70
    64
  9
$PINSBASE
 10
0.0
 20
0.0
 30
0.0
  9
$PLIMCHECK
 70
     0
  9
$PEXTMIN
 10
1.000000000000000E+20
 20
1.000000000000000E+20
 30
1.000000000000000E+20
  9
$PEXTMAX
 10
-1.000000000000000E+20
 20
-1.000000000000000E+20
 30
-1.000000000000000E+20
  9
$PLIMMIN
 10
0.0
 20
0.0
  9
$PLIMMAX
 10
420.0
 20
297.0
  9
$UNITMODE
 70
     0
  9
$VISRETAIN
 70
     1
  9
$PLINEGEN
 70
     0
  9
$PSLTSCALE
 70
     1
  9
$TREEDEPTH
 70
  3020
  9
$CMLSTYLE
  2
Standard
  9
$CMLJUST
 70
     0
  9
$CMLSCALE
 40
20.0
  9
$PROXYGRAPHICS
 70
     1
  9
$MEASUREMENT
 70
     1
  9
$CELWEIGHT
370
    -1
  9
$ENDCAPS
280
     0
  9
$JOINSTYLE
280
     0
  9
$LWDISPLAY
290
     0
  9
$INSUNITS
 70
     4
  9
$HYPERLINKBASE
  1

  9
$STYLESHEET
  1

  9
$XEDIT
290
     1
  9
$CEPSNTYPE
380
     0
  9
$PSTYLEMODE
290
     1
  9
$FINGERPRINTGUID
  2
{5324d772-ab78-4a1f-9bcf-93a2a4cff220}
  9
$VERSIONGUID
  2
{FAEB1C32-E019-11D5-929B-00C0DF256EC4}
  9
$EXTNAMES
290
     1
  9
$PSVPSCALE
 40
0.0
  9
$OLESTARTUP
290
     0
  9
$SORTENTS
280
   127
  9
$INDEXCTL
280
     0
  9
$HIDETEXT
280
     1
  9
$XCLIPFRAME
280
     2
  9
$HALOGAP
280
     0
  9
$OBSCOLOR
 70
   257
  9
$OBSLTYPE
280
     0
  9
$INTERSECTIONDISPLAY
280
     0
  9
$INTERSECTIONCOLOR
 70
   257
  9
$DIMASSOC
280
     2
  9
$PROJECTNAME
  1

  9
$CAMERADISPLAY
290
     0
  9
$LENSLENGTH
 40
50.0
  9
$CAMERAHEIGHT
 40
0.0
  9
$STEPSPERSEC
 40
2.0
  9
$STEPSIZE
 40
6.0
  9
$3DDWFPREC
 40
2.0
  9
$PSOLWIDTH
 40
5.0
  9
$PSOLHEIGHT
 40
80.0
  9
$LOFTANG1
 40
1.570796326794897
  9
$LOFTANG2
 40
1.570796326794897
  9
$LOFTMAG1
 40
0.0
  9
$LOFTMAG2
 40
0.0
  9
$LOFTPARAM
 70
     7
  9
$LOFTNORMALS
280
     1
  9
$LATITUDE
 40
37.795
  9
$LONGITUDE
 40
-122.394
  9
$NORTHDIRECTION
 40
0.0
  9
$TIMEZONE
 70
 -8000
  9
$LIGHTGLYPHDISPLAY
280
     1
  9
$TILEMODELIGHTSYNCH
280
     1
  9
$CMATERIAL
347
44
  9
$SOLIDHIST
280
     0
  9
$SHOWHIST
280
     1
  9
$DWFFRAME
280
     2
  9
$DGNFRAME
280
     2
  9
$REALWORLDSCALE
290
     1
  9
$INTERFERECOLOR
 62
   256
  9
$CSHADOW
280
     0
  9
$SHADOWPLANELOCATION
 40
0.0
  0
ENDSEC
  0
SECTION
  2
CLASSES
  0
CLASS
  1
ACDBDICTIONARYWDFLT
  2
AcDbDictionaryWithDefault
  3
ObjectDBX Classes
 90
        0
 91
        3
280
     0
281
     0
  0
CLASS
  1
VISUALSTYLE
  2
AcDbVisualStyle
  3
ObjectDBX Classes
 90
     4095
 91
        3
280
     0
281
     0
  0
CLASS
  1
MATERIAL
  2
AcDbMaterial
  3
ObjectDBX Classes
 90
     1153
 91
        3
280
     0
281
     0
  0
CLASS
  1
SCALE
  2
AcDbScale
  3
ObjectDBX Classes
 90
     1153
 91
        3
280
     0
281
     0
  0
CLASS
  1
TABLESTYLE
  2
AcDbTableStyle
  3
ObjectDBX Classes
 90
     4095
 91
        3
280
     0
281
     0
  0
CLASS
  1
MLEADERSTYLE
  2
AcDbMLeaderStyle
  3
ACDB_MLEADERSTYLE_CLASS
 90
     4095
 91
        3
280
     0
281
     0
  0
CLASS
  1
SUN
  2
AcDbSun
  3
SCENEOE
 90
     1153
 91
        3
280
     0
281
     0
  0
CLASS
  1
DICTIONARYVAR
  2
AcDbDictionaryVar
  3
ObjectDBX Classes
 90
        0
 91
        3
280
     0
281
     0
  0
CLASS
  1
CELLSTYLEMAP
  2
AcDbCellStyleMap
  3
ObjectDBX Classes
 90
     1152
 91
        3
280
     0
281
     0
  0
ENDSEC
  0
SECTION
  2
TABLES
  0
TABLE
  2
VPORT
  5
8
330
0
100
AcDbSymbolTable
 70
     1
  0
VPORT
  5
29
330
8
100
AcDbSymbolTableRecord
100
AcDbViewportTableRecord
  2
*Active
 70
     0
 10
0.0
 20
0.0
 11
1.0
 21
1.0
 12
344.1869158878504
 22
148.5
 13
0.0
 23
0.0
 14
10.0
 24
10.0
 15
10.0
 25
10.0
 16
0.0
 26
0.0
 36
1.0
 17
0.0
 27
0.0
 37
0.0
 40
297.0
 41
1.972972972850329
 42
50.0
 43
0.0
 44
0.0
 50
0.0
 51
0.0
 71
     0
 72
   100
 73
     1
 74
     3
 75
     0
 76
     0
 77
     0
 78
     0
281
     0
 65
     1
110
0.0
120
0.0
130
0.0
111
1.0
121
0.0
131
0.0
112
0.0
122
1.0
132
0.0
 79
     0
146
0.0
348
2F
 60
     3
 61
     5
292
     1
282
     1
141
0.0
142
0.0
 63
   250
361
6D
  0
ENDTAB
  0
TABLE
  2
LTYPE
  5
5
330
0
100
AcDbSymbolTable
 70
     2
  0
LTYPE
  5
14
330
5
100
AcDbSymbolTableRecord
100
AcDbLinetypeTableRecord
  2
ByBlock
 70
     0
  3

 72
    65
 73
     0
 40
0.0
  0
LTYPE
  5
15
330
5
100
AcDbSymbolTableRecord
100
AcDbLinetypeTableRecord
  2
ByLayer
 70
     0
  3

 72
    65
 73
     0
 40
0.0
  0
LTYPE
  5
16
330
5
100
AcDbSymbolTableRecord
100
AcDbLinetypeTableRecord
  2
Continuous
 70
     0
  3
Solid line
 72
    65
 73
     0
 40
0.0
  0
LTYPE
  5
DB
330
5
100
AcDbSymbolTableRecord
100
AcDbLinetypeTableRecord
  2
HIDDEN
 70
     0
  3
Hidden __ __ __ __ __ __ __ __ __ __ __ __ __ __
 72
    65
 73
     2
 40
9.524999999999999
 49
6.35
 74
     0
 49
-3.175
 74
     0
  0
ENDTAB
  0
TABLE
  2
LAYER
  5
2
330
0
100
AcDbSymbolTable
 70
     6
  0
LAYER
  5
10
330
2
100
AcDbSymbolTableRecord
100
AcDbLayerTableRecord
  2
0
 70
     0
 62
     7
  6
Continuous
370
    -3
390
F
347
46
348
0
  0
LAYER
  5
6E
330
2
100
AcDbSymbolTableRecord
100
AcDbLayerTableRecord
  2
VISIBLE
 70
     0
 62
     7
  6
Continuous
370
     0
390
F
347
46
348
0
  0
LAYER
  5
7C
330
2
100
AcDbSymbolTableRecord
100
AcDbLayerTableRecord
  2
CENTER
 70
     0
 62
   204
  6
Continuous
370
     0
390
F
347
46
348
0
  0
LAYER
  5
9B
330
2
100
AcDbSymbolTableRecord
100
AcDbLayerTableRecord
  2
DIMENSIONS
 70
     0
 62
     7
  6
Continuous
370
     0
390
F
347
46
348
0
  0
LAYER
  5
D0
330
2
100
AcDbSymbolTableRecord
100
AcDbLayerTableRecord
  2
CONTINUOUS
 70
     0
 62
     7
  6
Continuous
370
     0
390
F
347
46
348
0
  0
LAYER
  5
DC
330
2
100
AcDbSymbolTableRecord
100
AcDbLayerTableRecord
  2
HIDDEN
 70
     0
 62
   253
  6
HIDDEN
370
     0
390
F
347
46
348
0
  0
ENDTAB
  0
TABLE
  2
STYLE
  5
3
330
0
100
AcDbSymbolTable
 70
     1
  0
STYLE
  5
11
330
3
100
AcDbSymbolTableRecord
100
AcDbTextStyleTableRecord
  2
Standard
 70
     0
 40
0.0
 41
1.0
 50
0.0
 71
     0
 42
2.5
  3
txt
  4

  0
ENDTAB
  0
TABLE
  2
VIEW
  5
6
330
0
100
AcDbSymbolTable
 70
     0
  0
ENDTAB
  0
TABLE
  2
UCS
  5
7
330
0
100
AcDbSymbolTable
 70
     0
  0
ENDTAB
  0
TABLE
  2
APPID
  5
9
330
0
100
AcDbSymbolTable
 70
     1
  0
APPID
  5
12
330
9
100
AcDbSymbolTableRecord
100
AcDbRegAppTableRecord
  2
ACAD
 70
     0
  0
ENDTAB
  0
TABLE
  2
DIMSTYLE
  5
A
330
0
100
AcDbSymbolTable
 70
     1
100
AcDbDimStyleTable
  0
DIMSTYLE
105
27
102
{ACAD_REACTORS
330
9C
330
AE
330
BF
330
120
102
}
330
A
100
AcDbSymbolTableRecord
100
AcDbDimStyleTableRecord
  2
ISO-25
 70
     0
 41
2.5
 42
0.625
 43
3.75
 44
1.25
 73
     0
 74
     0
 77
     1
 78
     8
140
2.5
141
2.5
143
0.03937007874016
147
0.625
171
     3
172
     1
178
     0
271
     2
272
     2
274
     3
278
    44
283
     0
284
     8
340
11
  0
ENDTAB
  0
TABLE
  2
BLOCK_RECORD
  5
1
330
0
100
AcDbSymbolTable
 70
     6
  0
BLOCK_RECORD
  5
1F
330
1
100
AcDbSymbolTableRecord
100
AcDbBlockTableRecord
  2
*Model_Space
340
22
 70
     0
280
     1
281
     0
  0
BLOCK_RECORD
  5
1B
330
1
100
AcDbSymbolTableRecord
100
AcDbBlockTableRecord
  2
*Paper_Space
340
1E
 70
     0
280
     1
281
     0
  0
BLOCK_RECORD
  5
23
330
1
100
AcDbSymbolTableRecord
100
AcDbBlockTableRecord
  2
*Paper_Space0
340
26
 70
     0
280
     1
281
     0
  0
BLOCK_RECORD
  5
9D
330
1
100
AcDbSymbolTableRecord
100
AcDbBlockTableRecord
  2
D1
340
0
 70
     0
280
     1
281
     0
  0
BLOCK_RECORD
  5
AF
330
1
100
AcDbSymbolTableRecord
100
AcDbBlockTableRecord
  2
D2
340
0
 70
     0
280
     1
281
     0
  0
BLOCK_RECORD
  5
C0
330
1
100
AcDbSymbolTableRecord
100
AcDbBlockTableRecord
  2
D3
340
0
 70
     0
280
     1
281
     0
  0
BLOCK_RECORD
  5
121
330
1
100
AcDbSymbolTableRecord
100
AcDbBlockTableRecord
  2
D4
340
0
 70
     0
280
     1
281
     0
  0
BLOCK_RECORD
  5
1C2
330
1
100
AcDbSymbolTableRecord
100
AcDbBlockTableRecord
  2
BLOCK1
340
0
102
{BLKREFS
331
1C1
102
}
 70
     0
280
     1
281
     0
  0
ENDTAB
  0
ENDSEC
  0
SECTION
  2
BLOCKS
  0
BLOCK
  5
20
330
1F
100
AcDbEntity
  8
0
100
AcDbBlockBegin
  2
*Model_Space
 70
     0
 10
0.0
 20
0.0
 30
0.0
  3
*Model_Space
  1

  0
ENDBLK
  5
21
330
1F
100
AcDbEntity
  8
0
100
AcDbBlockEnd
  0
BLOCK
  5
1C
330
1B
100
AcDbEntity
 67
     1
  8
0
100
AcDbBlockBegin
  2
*Paper_Space
 70
     0
 10
0.0
 20
0.0
 30
0.0
  3
*Paper_Space
  1

  0
ENDBLK
  5
1D
330
1B
100
AcDbEntity
 67
     1
  8
0
100
AcDbBlockEnd
  0
BLOCK
  5
24
330
23
100
AcDbEntity
  8
0
100
AcDbBlockBegin
  2
*Paper_Space0
 70
     0
 10
0.0
 20
0.0
 30
0.0
  3
*Paper_Space0
  1

  0
ENDBLK
  5
25
330
23
100
AcDbEntity
  8
0
100
AcDbBlockEnd
  0
BLOCK
  5
9E
330
9D
100
AcDbEntity
  8
0
100
AcDbBlockBegin
  2
D1
 70
     0
 10
0.0
 20
0.0
 30
0.0
  3
D1
  1

  0
MTEXT
  5
A0
330
9D
100
AcDbEntity
  8
DIMENSIONS
100
AcDbMText
 10
101.8496017456055
 20
107.57080078125
 30
0.0
 40
2.134018756842158
 41
0.0
 46
0.0
 71
     5
 72
     1
  1
{\fAlibre Symbols|b0|i0|c0|p0;n}{\fCE|b0|i0|c0|p0;\H0.95x;48}{\fCE|b0|i0|c0|p0;\H0.95x;}
 73
     1
 44
1.0
  0
MTEXT
  5
A1
330
9D
100
AcDbEntity
  8
DIMENSIONS
100
AcDbMText
 10
101.8496017456055
 20
107.57080078125
 30
0.0
 40
2.134018756842158
 41
0.0
 46
0.0
 71
     5
 72
     1
  1
{\fCE|b0|i0|c0|p0;}
 73
     1
 44
1.0
  0
MTEXT
  5
A2
330
9D
100
AcDbEntity
  8
DIMENSIONS
100
AcDbMText
 10
101.8496017456055
 20
107.57080078125
 30
0.0
 40
2.134018756842158
 41
0.0
 46
0.0
 71
     5
 72
     1
  1
{\fCE|b0|i0|c0|p0;}
 73
     1
 44
1.0
  0
MTEXT
  5
A3
330
9D
100
AcDbEntity
  8
DIMENSIONS
100
AcDbMText
 10
98.1454350789388
 20
107.57080078125
 30
0.0
 40
2.134018756842158
 41
0.0
 46
0.0
 71
     5
 72
     1
  1
{\fCE|b0|i0|c0|p0;}
 73
     1
 44
1.0
  0
MTEXT
  5
A4
330
9D
100
AcDbEntity
  8
DIMENSIONS
100
AcDbMText
 10
105.5537684122721
 20
107.57080078125
 30
0.0
 40
2.134018756842158
 41
0.0
 46
0.0
 71
     5
 72
     1
  1
{\fCE|b0|i0|c0|p0;}
 73
     1
 44
1.0
  0
LINE
  5
A5
330
9D
100
AcDbEntity
  8
DIMENSIONS
100
AcDbLine
 10
125.7601280212402
 20
142.4034423828125
 30
0.0
 11
125.7601280212402
 21
103.1013563368055
 31
0.0
  0
LINE
  5
A6
330
9D
100
AcDbEntity
  8
DIMENSIONS
100
AcDbLine
 10
77.76012802124023
 20
142.4034423828125
 30
0.0
 11
77.76012802124023
 21
103.1013563368055
 31
0.0
  0
LWPOLYLINE
  5
A7
330
9D
100
AcDbEntity
  8
DIMENSIONS
100
AcDbPolyline
 90
        4
 70
     0
 43
0.0
 10
125.7601280212402
 20
105.1013563368056
 10
122.7601280212402
 20
104.6013563368056
 10
122.7601280212402
 20
105.6013563368056
 10
125.7601280212402
 20
105.1013563368056
  0
LINE
  5
A8
330
9D
100
AcDbEntity
  8
DIMENSIONS
100
AcDbLine
 10
122.7601280212402
 20
105.1013563368056
 30
0.0
 11
101.8496017456055
 21
105.1013563368056
 31
0.0
  0
LWPOLYLINE
  5
A9
330
9D
100
AcDbEntity
  8
DIMENSIONS
100
AcDbPolyline
 90
        4
 70
     0
 43
0.0
 10
77.76012802124023
 20
105.1013563368056
 10
80.76012802124023
 20
105.6013563368055
 10
80.76012802124023
 20
104.6013563368055
 10
77.76012802124023
 20
105.1013563368056
  0
LINE
  5
AA
330
9D
100
AcDbEntity
  8
DIMENSIONS
100
AcDbLine
 10
80.76012802124023
 20
105.1013563368056
 30
0.0
 11
101.8496017456055
 21
105.1013563368056
 31
0.0
  0
LINE
  5
AB
330
9D
100
AcDbEntity
  8
DIMENSIONS
100
AcDbLine
 10
107.5537687540054
 20
105.1013563368056
 30
0.0
 11
95.43987965583801
 21
105.1013563368056
 31
0.0
  0
LWPOLYLINE
  5
AC
330
9D
100
AcDbEntity
  8
DIMENSIONS
100
AcDbPolyline
 90
        5
 70
     0
 43
0.0
 10
101.7601280212402
 20
144.4034423828125
 10
101.7601280212402
 20
144.4034423828125
 10
101.7601280212402
 20
144.4034423828125
 10
101.7601280212402
 20
144.4034423828125
 10
101.7601280212402
 20
144.4034423828125
  0
HATCH
  5
AD
330
9D
100
AcDbEntity
  8
0
 62
     7
100
AcDbHatch
 10
0.0
 20
0.0
 30
0.0
210
0.0
220
0.0
230
1.0
  2
SOLID
 70
     1
 71
     0
 91
        2
 92
        0
 93
        3
 72
     1
 10
122.7601280212402
 20
105.6013563368056
 11
125.7601280212402
 21
105.1013563368056
 72
     1
 10
125.7601280212402
 20
105.1013563368056
 11
122.7601280212402
 21
104.6013563368056
 72
     1
 10
122.7601280212402
 20
104.6013563368056
 11
122.7601280212402
 21
105.6013563368056
 97
        0
 92
        0
 93
        3
 72
     1
 10
80.76012802124023
 20
104.6013563368055
 11
77.76012802124023
 21
105.1013563368056
 72
     1
 10
77.76012802124023
 20
105.1013563368056
 11
80.76012802124023
 21
105.6013563368055
 72
     1
 10
80.76012802124023
 20
105.6013563368055
 11
80.76012802124023
 21
104.6013563368055
 97
        0
 75
     0
 76
     1
 98
        0
  0
ENDBLK
  5
9F
330
9D
100
AcDbEntity
  8
0
100
AcDbBlockEnd
  0
BLOCK
  5
B0
330
AF
100
AcDbEntity
  8
0
100
AcDbBlockBegin
  2
D2
 70
     0
 10
0.0
 20
0.0
 30
0.0
  3
D2
  1

  0
MTEXT
  5
B2
330
AF
100
AcDbEntity
  8
DIMENSIONS
100
AcDbMText
 10
102.1902847290039
 20
114.155158996582
 30
0.0
 40
2.134018756842158
 41
0.0
 46
0.0
 71
     5
 72
     1
  1
{\fCE|b0|i0|c0|p0;25}{\fCE|b0|i0|c0|p0;}
 73
     1
 44
1.0
  0
MTEXT
  5
B3
330
AF
100
AcDbEntity
  8
DIMENSIONS
100
AcDbMText
 10
102.1902847290039
 20
114.155158996582
 30
0.0
 40
2.134018756842158
 41
0.0
 46
0.0
 71
     5
 72
     1
  1
{\fCE|b0|i0|c0|p0;}
 73
     1
 44
1.0
  0
MTEXT
  5
B4
330
AF
100
AcDbEntity
  8
DIMENSIONS
100
AcDbMText
 10
102.1902847290039
 20
114.155158996582
 30
0.0
 40
2.134018756842158
 41
0.0
 46
0.0
 71
     5
 72
     1
  1
{\fCE|b0|i0|c0|p0;}
 73
     1
 44
1.0
  0
MTEXT
  5
B5
330
AF
100
AcDbEntity
  8
DIMENSIONS
100
AcDbMText
 10
99.72084028455946
 20
114.155158996582
 30
0.0
 40
2.134018756842158
 41
0.0
 46
0.0
 71
     5
 72
     1
  1
{\fCE|b0|i0|c0|p0;}
 73
     1
 44
1.0
  0
MTEXT
  5
B6
330
AF
100
AcDbEntity
  8
DIMENSIONS
100
AcDbMText
 10
104.6597291734484
 20
114.155158996582
 30
0.0
 40
2.134018756842158
 41
0.0
 46
0.0
 71
     5
 72
     1
  1
{\fCE|b0|i0|c0|p0;}
 73
     1
 44
1.0
  0
LINE
  5
B7
330
AF
100
AcDbEntity
  8
DIMENSIONS
100
AcDbLine
 10
114.2601280212402
 20
123.0659423828125
 30
0.0
 11
114.2601280212402
 21
110.3912701076931
 31
0.0
  0
LINE
  5
B8
330
AF
100
AcDbEntity
  8
DIMENSIONS
100
AcDbLine
 10
89.26012802124023
 20
123.0659423828125
 30
0.0
 11
89.26012802124023
 21
110.3912701076931
 31
0.0
  0
LWPOLYLINE
  5
B9
330
AF
100
AcDbEntity
  8
DIMENSIONS
100
AcDbPolyline
 90
        4
 70
     0
 43
0.0
 10
114.2601280212402
 20
112.3912701076931
 10
111.2601280212402
 20
111.8912701076931
 10
111.2601280212402
 20
112.8912701076931
 10
114.2601280212402
 20
112.3912701076931
  0
LINE
  5
BA
330
AF
100
AcDbEntity
  8
DIMENSIONS
100
AcDbLine
 10
111.2601280212402
 20
112.3912701076931
 30
0.0
 11
102.1902847290039
 21
112.3912701076931
 31
0.0
  0
LWPOLYLINE
  5
BB
330
AF
100
AcDbEntity
  8
DIMENSIONS
100
AcDbPolyline
 90
        4
 70
     0
 43
0.0
 10
89.26012802124023
 20
112.3912701076931
 10
92.26012802124023
 20
112.8912701076931
 10
92.26012802124023
 20
111.8912701076931
 10
89.26012802124023
 20
112.3912701076931
  0
LINE
  5
BC
330
AF
100
AcDbEntity
  8
DIMENSIONS
100
AcDbLine
 10
92.26012802124023
 20
112.3912701076931
 30
0.0
 11
102.1902847290039
 21
112.3912701076931
 31
0.0
  0
LINE
  5
BD
330
AF
100
AcDbEntity
  8
DIMENSIONS
100
AcDbLine
 10
97.01528465747833
 20
112.3912701076931
 30
0.0
 11
106.659728884697
 21
112.3912701076931
 31
0.0
  0
HATCH
  5
BE
330
AF
100
AcDbEntity
  8
0
 62
     7
100
AcDbHatch
 10
0.0
 20
0.0
 30
0.0
210
0.0
220
0.0
230
1.0
  2
SOLID
 70
     1
 71
     0
 91
        2
 92
        0
 93
        3
 72
     1
 10
111.2601280212402
 20
112.8912701076931
 11
114.2601280212402
 21
112.3912701076931
 72
     1
 10
114.2601280212402
 20
112.3912701076931
 11
111.2601280212402
 21
111.8912701076931
 72
     1
 10
111.2601280212402
 20
111.8912701076931
 11
111.2601280212402
 21
112.8912701076931
 97
        0
 92
        0
 93
        3
 72
     1
 10
92.26012802124023
 20
111.8912701076931
 11
89.26012802124023
 21
112.3912701076931
 72
     1
 10
89.26012802124023
 20
112.3912701076931
 11
92.26012802124023
 21
112.8912701076931
 72
     1
 10
92.26012802124023
 20
112.8912701076931
 11
92.26012802124023
 21
111.8912701076931
 97
        0
 75
     0
 76
     1
 98
        0
  0
ENDBLK
  5
B1
330
AF
100
AcDbEntity
  8
0
100
AcDbBlockEnd
  0
BLOCK
  5
C1
330
C0
100
AcDbEntity
  8
0
100
AcDbBlockBegin
  2
D3
 70
     0
 10
0.0
 20
0.0
 30
0.0
  3
D3
  1

  0
MTEXT
  5
C3
330
C0
100
AcDbEntity
  8
DIMENSIONS
100
AcDbMText
 10
135.546257019043
 20
142.6579284667969
 30
0.0
 40
2.134018756842158
 41
0.0
 46
0.0
 71
     5
 72
     1
  1
{\fCE|b0|i0|c0|p0;25}{\fCE|b0|i0|c0|p0;}
 11
6.123031769111886E-17
 21
1.0
 31
0.0
 73
     1
 44
1.0
  0
MTEXT
  5
C4
330
C0
100
AcDbEntity
  8
DIMENSIONS
100
AcDbMText
 10
135.546257019043
 20
142.6579284667969
 30
0.0
 40
2.134018756842158
 41
0.0
 46
0.0
 71
     5
 72
     1
  1
{\fCE|b0|i0|c0|p0;}
 11
6.123031769111886E-17
 21
1.0
 31
0.0
 73
     1
 44
1.0
  0
MTEXT
  5
C5
330
C0
100
AcDbEntity
  8
DIMENSIONS
100
AcDbMText
 10
135.546257019043
 20
142.6579284667969
 30
0.0
 40
2.134018756842158
 41
0.0
 46
0.0
 71
     5
 72
     1
  1
{\fCE|b0|i0|c0|p0;}
 11
6.123031769111886E-17
 21
1.0
 31
0.0
 73
     1
 44
1.0
  0
MTEXT
  5
C6
330
C0
100
AcDbEntity
  8
DIMENSIONS
100
AcDbMText
 10
135.546257019043
 20
140.1884840223524
 30
0.0
 40
2.134018756842158
 41
0.0
 46
0.0
 71
     5
 72
     1
  1
{\fCE|b0|i0|c0|p0;}
 11
6.123031769111886E-17
 21
1.0
 31
0.0
 73
     1
 44
1.0
  0
MTEXT
  5
C7
330
C0
100
AcDbEntity
  8
DIMENSIONS
100
AcDbMText
 10
135.546257019043
 20
145.1273729112413
 30
0.0
 40
2.134018756842158
 41
0.0
 46
0.0
 71
     5
 72
     1
  1
{\fCE|b0|i0|c0|p0;}
 11
6.123031769111886E-17
 21
1.0
 31
0.0
 73
     1
 44
1.0
  0
LINE
  5
C8
330
C0
100
AcDbEntity
  8
DIMENSIONS
100
AcDbLine
 10
123.0976280212402
 20
131.9034423828125
 30
0.0
 11
139.3101459079319
 21
131.9034423828125
 31
0.0
  0
LINE
  5
C9
330
C0
100
AcDbEntity
  8
DIMENSIONS
100
AcDbLine
 10
123.0976280212402
 20
156.9034423828125
 30
0.0
 11
139.3101459079319
 21
156.9034423828125
 31
0.0
  0
LWPOLYLINE
  5
CA
330
C0
100
AcDbEntity
  8
DIMENSIONS
100
AcDbPolyline
 90
        4
 70
     0
 43
0.0
 10
137.3101459079319
 20
131.9034423828125
 10
136.8101459079319
 20
134.9034423828125
 10
137.8101459079319
 20
134.9034423828125
 10
137.3101459079319
 20
131.9034423828125
  0
LINE
  5
CB
330
C0
100
AcDbEntity
  8
DIMENSIONS
100
AcDbLine
 10
137.3101459079319
 20
134.9034423828125
 30
0.0
 11
137.3101459079319
 21
142.6579284667969
 31
0.0
  0
LWPOLYLINE
  5
CC
330
C0
100
AcDbEntity
  8
DIMENSIONS
100
AcDbPolyline
 90
        4
 70
     0
 43
0.0
 10
137.3101459079319
 20
156.9034423828125
 10
137.8101459079319
 20
153.9034423828125
 10
136.8101459079319
 20
153.9034423828125
 10
137.3101459079319
 20
156.9034423828125
  0
LINE
  5
CD
330
C0
100
AcDbEntity
  8
DIMENSIONS
100
AcDbLine
 10
137.3101459079319
 20
153.9034423828125
 30
0.0
 11
137.3101459079319
 21
142.6579284667969
 31
0.0
  0
LINE
  5
CE
330
C0
100
AcDbEntity
  8
DIMENSIONS
100
AcDbLine
 10
137.3101459079319
 20
147.480151116848
 30
0.0
 11
137.3101459079319
 21
137.8357056975365
 31
0.0
  0
HATCH
  5
CF
330
C0
100
AcDbEntity
  8
0
 62
     7
100
AcDbHatch
 10
0.0
 20
0.0
 30
0.0
210
0.0
220
0.0
230
1.0
  2
SOLID
 70
     1
 71
     0
 91
        2
 92
        0
 93
        3
 72
     1
 10
137.8101459079319
 20
134.9034423828125
 11
137.3101459079319
 21
131.9034423828125
 72
     1
 10
137.3101459079319
 20
131.9034423828125
 11
136.8101459079319
 21
134.9034423828125
 72
     1
 10
136.8101459079319
 20
134.9034423828125
 11
137.8101459079319
 21
134.9034423828125
 97
        0
 92
        0
 93
        3
 72
     1
 10
136.8101459079319
 20
153.9034423828125
 11
137.3101459079319
 21
156.9034423828125
 72
     1
 10
137.3101459079319
 20
156.9034423828125
 11
137.8101459079319
 21
153.9034423828125
 72
     1
 10
137.8101459079319
 20
153.9034423828125
 11
136.8101459079319
 21
153.9034423828125
 97
        0
 75
     0
 76
     1
 98
        0
  0
ENDBLK
  5
C2
330
C0
100
AcDbEntity
  8
0
100
AcDbBlockEnd
  0
BLOCK
  5
122
330
121
100
AcDbEntity
  8
0
100
AcDbBlockBegin
  2
D4
 70
     0
 10
0.0
 20
0.0
 30
0.0
  3
D4
  1

  0
MTEXT
  5
124
330
121
100
AcDbEntity
  8
DIMENSIONS
100
AcDbMText
 10
179.2318115234375
 20
106.6974105834961
 30
0.0
 40
2.134018756842158
 41
0.0
 46
0.0
 71
     5
 72
     1
  1
{\fCE|b0|i0|c0|p0;10}{\fCE|b0|i0|c0|p0;}
 73
     1
 44
1.0
  0
MTEXT
  5
125
330
121
100
AcDbEntity
  8
DIMENSIONS
100
AcDbMText
 10
179.2318115234375
 20
106.6974105834961
 30
0.0
 40
2.134018756842158
 41
0.0
 46
0.0
 71
     5
 72
     1
  1
{\fCE|b0|i0|c0|p0;}
 73
     1
 44
1.0
  0
MTEXT
  5
126
330
121
100
AcDbEntity
  8
DIMENSIONS
100
AcDbMText
 10
179.2318115234375
 20
106.6974105834961
 30
0.0
 40
2.134018756842158
 41
0.0
 46
0.0
 71
     5
 72
     1
  1
{\fCE|b0|i0|c0|p0;}
 73
     1
 44
1.0
  0
MTEXT
  5
127
330
121
100
AcDbEntity
  8
DIMENSIONS
100
AcDbMText
 10
176.7623670789931
 20
106.6974105834961
 30
0.0
 40
2.134018756842158
 41
0.0
 46
0.0
 71
     5
 72
     1
  1
{\fCE|b0|i0|c0|p0;}
 73
     1
 44
1.0
  0
MTEXT
  5
128
330
121
100
AcDbEntity
  8
DIMENSIONS
100
AcDbMText
 10
181.7012559678819
 20
106.6974105834961
 30
0.0
 40
2.134018756842158
 41
0.0
 46
0.0
 71
     5
 72
     1
  1
{\fCE|b0|i0|c0|p0;}
 73
     1
 44
1.0
  0
LINE
  5
129
330
121
100
AcDbEntity
  8
DIMENSIONS
100
AcDbLine
 10
173.7601280212402
 20
118.4034423828125
 30
0.0
 11
173.7601280212402
 21
102.9335216946072
 31
0.0
  0
LINE
  5
12A
330
121
100
AcDbEntity
  8
DIMENSIONS
100
AcDbLine
 10
183.7601280212402
 20
118.4034423828125
 30
0.0
 11
183.7601280212402
 21
102.9335216946072
 31
0.0
  0
LWPOLYLINE
  5
12B
330
121
100
AcDbEntity
  8
DIMENSIONS
100
AcDbPolyline
 90
        4
 70
     0
 43
0.0
 10
173.7601280212402
 20
104.9335216946072
 10
176.7601280212402
 20
105.4335216946072
 10
176.7601280212402
 20
104.4335216946072
 10
173.7601280212402
 20
104.9335216946072
  0
LINE
  5
12C
330
121
100
AcDbEntity
  8
DIMENSIONS
100
AcDbLine
 10
176.7601280212402
 20
104.9335216946072
 30
0.0
 11
179.2318115234375
 21
104.9335216946072
 31
0.0
  0
LWPOLYLINE
  5
12D
330
121
100
AcDbEntity
  8
DIMENSIONS
100
AcDbPolyline
 90
        4
 70
     0
 43
0.0
 10
183.7601280212402
 20
104.9335216946072
 10
180.7601280212402
 20
104.4335216946072
 10
180.7601280212402
 20
105.4335216946072
 10
183.7601280212402
 20
104.9335216946072
  0
LINE
  5
12E
330
121
100
AcDbEntity
  8
DIMENSIONS
100
AcDbLine
 10
180.7601280212402
 20
104.9335216946072
 30
0.0
 11
179.2318115234375
 21
104.9335216946072
 31
0.0
  0
LINE
  5
12F
330
121
100
AcDbEntity
  8
DIMENSIONS
100
AcDbLine
 10
183.7012560367584
 20
104.9335216946072
 30
0.0
 11
174.0568115115166
 21
104.9335216946072
 31
0.0
  0
HATCH
  5
130
330
121
100
AcDbEntity
  8
0
 62
     7
100
AcDbHatch
 10
0.0
 20
0.0
 30
0.0
210
0.0
220
0.0
230
1.0
  2
SOLID
 70
     1
 71
     0
 91
        2
 92
        0
 93
        3
 72
     1
 10
176.7601280212402
 20
104.4335216946072
 11
173.7601280212402
 21
104.9335216946072
 72
     1
 10
173.7601280212402
 20
104.9335216946072
 11
176.7601280212402
 21
105.4335216946072
 72
     1
 10
176.7601280212402
 20
105.4335216946072
 11
176.7601280212402
 21
104.4335216946072
 97
        0
 92
        0
 93
        3
 72
     1
 10
180.7601280212402
 20
105.4335216946072
 11
183.7601280212402
 21
104.9335216946072
 72
     1
 10
183.7601280212402
 20
104.9335216946072
 11
180.7601280212402
 21
104.4335216946072
 72
     1
 10
180.7601280212402
 20
104.4335216946072
 11
180.7601280212402
 21
105.4335216946072
 97
        0
 75
     0
 76
     1
 98
        0
  0
ENDBLK
  5
123
330
121
100
AcDbEntity
  8
0
100
AcDbBlockEnd
  0
BLOCK
  5
1C3
330
1C2
100
AcDbEntity
  8
0
100
AcDbBlockBegin
  2
BLOCK1
 70
     0
 10
0.0
 20
0.0
 30
0.0
  3
BLOCK1
  1

  0
LINE
  5
1C5
330
1C2
100
AcDbEntity
  8
CONTINUOUS
100
AcDbLine
 10
9.99999999999998
 20
9.99999999999995
 30
0.0
 11
287.0
 21
10.0
 31
0.0
  0
LINE
  5
1C6
330
1C2
100
AcDbEntity
  8
CONTINUOUS
100
AcDbLine
 10
141.942321777344
 20
5.0
 30
0.0
 11
241.942321777344
 21
5.0
 31
0.0
  0
LINE
  5
1C7
330
1C2
100
AcDbEntity
  8
CONTINUOUS
100
AcDbLine
 10
0.0
 20
0.0
 30
0.0
 11
-0.0000000000000012
 21
10.0
 31
0.0
  0
LINE
  5
1C8
330
1C2
100
AcDbEntity
  8
CONTINUOUS
100
AcDbLine
 10
0.0
 20
0.0
 30
0.0
 11
10.0
 21
0.0000000000000018
 31
0.0
  0
LINE
  5
1C9
330
1C2
100
AcDbEntity
  8
CONTINUOUS
100
AcDbLine
 10
141.942321777344
 20
5.0
 30
0.0
 11
141.942321777344
 21
10.0
 31
0.0
  0
LINE
  5
1CA
330
1C2
100
AcDbEntity
  8
CONTINUOUS
100
AcDbLine
 10
151.942321777344
 20
5.0
 30
0.0
 11
151.942321777344
 21
10.0
 31
0.0
  0
LINE
  5
1CB
330
1C2
100
AcDbEntity
  8
CONTINUOUS
100
AcDbLine
 10
161.942321777344
 20
5.0
 30
0.0
 11
161.942321777344
 21
10.0
 31
0.0
  0
LINE
  5
1CC
330
1C2
100
AcDbEntity
  8
CONTINUOUS
100
AcDbLine
 10
10.0
 20
57.5
 30
0.0
 11
5.0
 21
57.5
 31
0.0
  0
LINE
  5
1CD
330
1C2
100
AcDbEntity
  8
CONTINUOUS
100
AcDbLine
 10
10.0
 20
105.0
 30
0.0
 11
5.0
 21
105.0
 31
0.0
  0
LINE
  5
1CE
330
1C2
100
AcDbEntity
  8
CONTINUOUS
100
AcDbLine
 10
191.942321777344
 20
10.0
 30
0.0
 11
191.942321777344
 21
5.0
 31
0.0
  0
LINE
  5
1CF
330
1C2
100
AcDbEntity
  8
CONTINUOUS
100
AcDbLine
 10
171.942321777344
 20
5.0
 30
0.0
 11
171.942321777344
 21
10.0
 31
0.0
  0
LINE
  5
1D0
330
1C2
100
AcDbEntity
  8
CONTINUOUS
100
AcDbLine
 10
181.942321777344
 20
5.0
 30
0.0
 11
181.942321777344
 21
10.0
 31
0.0
  0
LINE
  5
1D1
330
1C2
100
AcDbEntity
  8
CONTINUOUS
100
AcDbLine
 10
201.942321777344
 20
5.0
 30
0.0
 11
201.942321777344
 21
10.0
 31
0.0
  0
LINE
  5
1D2
330
1C2
100
AcDbEntity
  8
CONTINUOUS
100
AcDbLine
 10
211.942321777344
 20
5.0
 30
0.0
 11
211.942321777344
 21
10.0
 31
0.0
  0
LINE
  5
1D3
330
1C2
100
AcDbEntity
  8
CONTINUOUS
100
AcDbLine
 10
221.942321777344
 20
5.0
 30
0.0
 11
221.942321777344
 21
10.0
 31
0.0
  0
LINE
  5
1D4
330
1C2
100
AcDbEntity
  8
CONTINUOUS
100
AcDbLine
 10
297.0
 20
0.0
 30
0.0
 11
297.0
 21
10.0
 31
0.0
  0
LINE
  5
1D5
330
1C2
100
AcDbEntity
  8
CONTINUOUS
100
AcDbLine
 10
241.942321777344
 20
5.0
 30
0.0
 11
241.942321777344
 21
10.0
 31
0.0
  0
LINE
  5
1D6
330
1C2
100
AcDbEntity
  8
CONTINUOUS
100
AcDbLine
 10
231.942321777344
 20
5.0
 30
0.0
 11
231.942321777344
 21
10.0
 31
0.0
  0
LINE
  5
1D7
330
1C2
100
AcDbEntity
  8
CONTINUOUS
100
AcDbLine
 10
296.942321777344
 20
0.0
 30
0.0
 11
286.942321777344
 21
0.0
 31
0.0
  0
LINE
  5
1D8
330
1C2
100
AcDbEntity
  8
CONTINUOUS
100
AcDbLine
 10
291.942321777344
 20
57.5
 30
0.0
 11
286.942321777344
 21
57.5
 31
0.0
  0
LINE
  5
1D9
330
1C2
100
AcDbEntity
  8
CONTINUOUS
100
AcDbLine
 10
291.942321777344
 20
105.0
 30
0.0
 11
286.942321777344
 21
105.0
 31
0.0
  0
LINE
  5
1DA
330
1C2
100
AcDbEntity
  8
CONTINUOUS
100
AcDbLine
 10
-0.0000000000000249
 20
209.989334106445
 30
0.0
 11
-0.0000000000000249
 21
199.989334106445
 31
0.0
  0
LINE
  5
1DB
330
1C2
100
AcDbEntity
  8
CONTINUOUS
100
AcDbLine
 10
10.0165710449219
 20
209.989334106445
 30
0.0
 11
0.016571044921875
 21
209.989334106445
 31
0.0
  0
LINE
  5
1DC
330
1C2
100
AcDbEntity
  8
CONTINUOUS
100
AcDbLine
 10
194.666666666667
 20
199.989334106445
 30
0.0
 11
194.666666666667
 21
204.989334106445
 31
0.0
  0
LINE
  5
1DD
330
1C2
100
AcDbEntity
  8
CONTINUOUS
100
AcDbLine
 10
297.0
 20
199.989334106445
 30
0.0
 11
297.0
 21
209.989334106445
 31
0.0
  0
LINE
  5
1DE
330
1C2
100
AcDbEntity
  8
CONTINUOUS
100
AcDbLine
 10
240.833333333333
 20
199.989334106445
 30
0.0
 11
240.833333333333
 21
204.989334106445
 31
0.0
  0
LINE
  5
1DF
330
1C2
100
AcDbEntity
  8
CONTINUOUS
100
AcDbLine
 10
296.958892822266
 20
209.989334106445
 30
0.0
 11
286.958892822266
 21
209.989334106445
 31
0.0
  0
LINE
  5
1E0
330
1C2
100
AcDbEntity
  8
CONTINUOUS
100
AcDbLine
 10
286.942321777344
 20
152.5
 30
0.0
 11
291.942321777344
 21
152.5
 31
0.0
  0
LINE
  5
1E1
330
1C2
100
AcDbEntity
  8
CONTINUOUS
100
AcDbLine
 10
5.0
 20
152.5
 30
0.0
 11
10.0
 21
152.5
 31
0.0
  0
LINE
  5
1E2
330
1C2
100
AcDbEntity
  8
CONTINUOUS
100
AcDbLine
 10
287.0
 20
200.0
 30
0.0
 11
9.99999999999998
 21
200.0
 31
0.0
  0
LINE
  5
1E3
330
1C2
100
AcDbEntity
  8
CONTINUOUS
100
AcDbLine
 10
287.0
 20
10.0
 30
0.0
 11
287.0
 21
200.0
 31
0.0
  0
LINE
  5
1E4
330
1C2
100
AcDbEntity
  8
CONTINUOUS
100
AcDbLine
 10
9.99999999999998
 20
200.0
 30
0.0
 11
9.99999999999998
 21
9.99999999999995
 31
0.0
  0
LINE
  5
1E5
330
1C2
100
AcDbEntity
  8
CONTINUOUS
100
AcDbLine
 10
56.1666666666666
 20
200.0
 30
0.0
 11
56.1666666666666
 21
205.0
 31
0.0
  0
LINE
  5
1E6
330
1C2
100
AcDbEntity
  8
CONTINUOUS
100
AcDbLine
 10
102.333333333333
 20
200.0
 30
0.0
 11
102.333333333333
 21
205.0
 31
0.0
  0
LINE
  5
1E7
330
1C2
100
AcDbEntity
  8
CONTINUOUS
100
AcDbLine
 10
148.5
 20
200.0
 30
0.0
 11
148.5
 21
205.0
 31
0.0
  0
LINE
  5
1E8
330
1C2
100
AcDbEntity
  8
CONTINUOUS
100
AcDbLine
 10
56.1666679382324
 20
10.0
 30
0.0
 11
56.1666679382324
 21
5.0
 31
0.0
  0
LINE
  5
1E9
330
1C2
100
AcDbEntity
  8
CONTINUOUS
100
AcDbLine
 10
102.333335876465
 20
10.0
 30
0.0
 11
102.333335876465
 21
5.0
 31
0.0
  0
LINE
  5
1EA
330
1C2
100
AcDbEntity
  8
CONTINUOUS
100
AcDbLine
 10
194.0
 20
10.0
 30
0.0
 11
194.0
 21
48.0
 31
0.0
  0
LINE
  5
1EB
330
1C2
100
AcDbEntity
  8
CONTINUOUS
100
AcDbLine
 10
251.0
 20
10.0
 30
0.0
 11
251.0
 21
20.0
 31
0.0
  0
LINE
  5
1EC
330
1C2
100
AcDbEntity
  8
CONTINUOUS
100
AcDbLine
 10
269.0
 20
10.0
 30
0.0
 11
269.0
 21
20.0
 31
0.0
  0
LINE
  5
1ED
330
1C2
100
AcDbEntity
  8
CONTINUOUS
100
AcDbLine
 10
229.0
 20
9.99999999999999
 30
0.0
 11
229.0
 21
20.0
 31
0.0
  0
LINE
  5
1EE
330
1C2
100
AcDbEntity
  8
CONTINUOUS
100
AcDbLine
 10
241.559921264648
 20
30.0
 30
0.0
 11
241.559921264648
 21
20.0
 31
0.0
  0
LINE
  5
1EF
330
1C2
100
AcDbEntity
  8
CONTINUOUS
100
AcDbLine
 10
269.0
 20
10.0
 30
0.0
 11
287.0
 21
10.0
 31
0.0
  0
LINE
  5
1F0
330
1C2
100
AcDbEntity
  8
CONTINUOUS
100
AcDbLine
 10
194.0
 20
48.0
 30
0.0
 11
287.0
 21
48.0
 31
0.0
  0
LINE
  5
1F1
330
1C2
100
AcDbEntity
  8
CONTINUOUS
100
AcDbLine
 10
194.059921264648
 20
30.0
 30
0.0
 11
287.059921264648
 21
30.0
 31
0.0
  0
LINE
  5
1F2
330
1C2
100
AcDbEntity
  8
CONTINUOUS
100
AcDbLine
 10
194.059921264648
 20
20.0
 30
0.0
 11
287.059921264648
 21
20.0
 31
0.0
  0
LINE
  5
1F3
330
1C2
100
AcDbEntity
  8
CONTINUOUS
100
AcDbLine
 10
216.0
 20
30.0
 30
0.0
 11
216.0
 21
48.0
 31
0.0
  0
MTEXT
  5
1F4
330
1C2
100
AcDbEntity
  8
CONTINUOUS
100
AcDbMText
 10
216.858890991211
 20
204.29698022461
 30
0.0
 40
3.720853217058121
 41
0.0
 46
0.0
 71
     4
 72
     1
  1
{\fArial|b0|i0|c0|p0;\C7;5}{\fArial|b0|i0|c0|p0;\C7;}
 73
     1
 44
1.0
  0
MTEXT
  5
1F5
330
1C2
100
AcDbEntity
  8
CONTINUOUS
100
AcDbMText
 10
229.826260375977
 20
18.2757760620116
 30
0.0
 40
2.251496730059653
 41
0.0
 46
0.0
 71
     4
 72
     1
  1
{\fMonotype Corsiva|b0|i1|c0|p0;\C7;Date}{\fArial|b0|i0|c0|p0;\C7;\H0.7692308x;}
 73
     1
 44
1.0
  0
MTEXT
  5
1F6
330
1C2
100
AcDbEntity
  8
CONTINUOUS
100
AcDbMText
 10
77.9621860149715
 20
204.250404272846
 30
0.0
 40
3.720853217058121
 41
0.0
 46
0.0
 71
     4
 72
     1
  1
{\fArial|b0|i0|c0|p0;\C7;2}{\fArial|b0|i0|c0|p0;\C7;}
 73
     1
 44
1.0
  0
MTEXT
  5
1F7
330
1C2
100
AcDbEntity
  8
CONTINUOUS
100
AcDbMText
 10
81.36409489129
 20
6.84505931157936
 30
0.0
 40
3.720853217058121
 41
0.0
 46
0.0
 71
     4
 72
     1
  1
{\fArial|b0|i0|c0|p0;\C7;2}{\fArial|b0|i0|c0|p0;\C7;}
 73
     1
 44
1.0
  0
MTEXT
  5
1F8
330
1C2
100
AcDbEntity
  8
CONTINUOUS
100
AcDbMText
 10
195.142121124268
 20
28.0459958648682
 30
0.0
 40
2.251496730059653
 41
0.0
 46
0.0
 71
     4
 72
     1
  1
{\fMonotype Corsiva|b0|i1|c0|p0;\C7;Name }{\fArial|b0|i0|c0|p0;\C7;\H0.7692308x;}
 73
     1
 44
1.0
  0
MTEXT
  5
1F9
330
1C2
100
AcDbEntity
  8
CONTINUOUS
100
AcDbMText
 10
5.6160912703474
 20
125.886
 30
0.0
 40
3.720853217058121
 41
0.0
 46
0.0
 71
     4
 72
     1
  1
{\fArial|b0|i0|c0|p0;\C7;B}{\fArial|b0|i0|c0|p0;\C7;}
 73
     1
 44
1.0
  0
MTEXT
  5
1FA
330
1C2
100
AcDbEntity
  8
CONTINUOUS
100
AcDbMText
 10
195.902451324463
 20
18.2433377838135
 30
0.0
 40
2.251496730059653
 41
0.0
 46
0.0
 71
     4
 72
     1
  1
{\fMonotype Corsiva|b0|i1|c0|p0;\C7;Treatment  }{\fArial|b0|i0|c0|p0;\C7;\H0.7692308x;}
 73
     1
 44
1.0
  0
MTEXT
  5
1FB
330
1C2
100
AcDbEntity
  8
CONTINUOUS
100
AcDbMText
 10
288.920463256836
 20
33.4667418823242
 30
0.0
 40
3.720853217058121
 41
0.0
 46
0.0
 71
     4
 72
     1
  1
{\fArial|b0|i0|c0|p0;\C7;D}{\fArial|b0|i0|c0|p0;\C7;}
 73
     1
 44
1.0
  0
MTEXT
  5
1FC
330
1C2
100
AcDbEntity
  8
CONTINUOUS
100
AcDbMText
 10
171.459843139648
 20
204.242353759765
 30
0.0
 40
3.720853217058121
 41
0.0
 46
0.0
 71
     4
 72
     1
  1
{\fArial|b0|i0|c0|p0;\C7;4}{\fArial|b0|i0|c0|p0;\C7;}
 73
     1
 44
1.0
  0
MTEXT
  5
1FD
330
1C2
100
AcDbEntity
  8
CONTINUOUS
100
AcDbMText
 10
288.710822753907
 20
79.4667495117188
 30
0.0
 40
3.720853217058121
 41
0.0
 46
0.0
 71
     4
 72
     1
  1
{\fArial|b0|i0|c0|p0;\C7;C}{\fArial|b0|i0|c0|p0;\C7;}
 73
     1
 44
1.0
  0
MTEXT
  5
1FE
330
1C2
100
AcDbEntity
  8
CONTINUOUS
100
AcDbMText
 10
244.748741149902
 20
7.15205116271974
 30
0.0
 40
1.969863467854299
 41
0.0
 46
0.0
 71
     4
 72
     1
  1
{\fArial|b0|i0|c0|p0;\C7;}
 73
     1
 44
1.0
  0
MTEXT
  5
1FF
330
1C2
100
AcDbEntity
  8
CONTINUOUS
100
AcDbMText
 10
5.33690040588379
 20
33.886
 30
0.0
 40
3.720853217058121
 41
0.0
 46
0.0
 71
     4
 72
     1
  1
{\fArial|b0|i0|c0|p0;\C7;D}{\fArial|b0|i0|c0|p0;\C7;}
 73
     1
 44
1.0
  0
MTEXT
  5
200
330
1C2
100
AcDbEntity
  8
CONTINUOUS
100
AcDbMText
 10
251.799879294482
 20
18.3564797973633
 30
0.0
 40
2.251496730059653
 41
0.0
 46
0.0
 71
     4
 72
     1
  1
{\fMonotype Corsiva|b0|i1|c0|p0;\C7;Pieces}{\fArial|b0|i0|c0|p0;\C7;\H0.7692308x;}
 73
     1
 44
1.0
  0
MTEXT
  5
201
330
1C2
100
AcDbEntity
  8
CONTINUOUS
100
AcDbMText
 10
288.594410820089
 20
171.67635949707
 30
0.0
 40
3.720853217058121
 41
0.0
 46
0.0
 71
     4
 72
     1
  1
{\fArial|b0|i0|c0|p0;\C7;A}{\fArial|b0|i0|c0|p0;\C7;}
 73
     1
 44
1.0
  0
MTEXT
  5
202
330
1C2
100
AcDbEntity
  8
CONTINUOUS
100
AcDbMText
 10
262.082233886719
 20
6.73998626327514
 30
0.0
 40
3.720853217058121
 41
0.0
 46
0.0
 71
     4
 72
     1
  1
{\fArial|b0|i0|c0|p0;\C7;6}{\fArial|b0|i0|c0|p0;\C7;}
 73
     1
 44
1.0
  0
MTEXT
  5
203
330
1C2
100
AcDbEntity
  8
CONTINUOUS
100
AcDbMText
 10
5.18862550735474
 20
80.0342772827149
 30
0.0
 40
3.720853217058121
 41
0.0
 46
0.0
 71
     4
 72
     1
  1
{\fArial|b0|i0|c0|p0;\C7;C}{\fArial|b0|i0|c0|p0;\C7;}
 73
     1
 44
1.0
  0
MTEXT
  5
204
330
1C2
100
AcDbEntity
  8
CONTINUOUS
100
AcDbMText
 10
242.754122362484
 20
27.7861882781982
 30
0.0
 40
2.251496730059653
 41
0.0
 46
0.0
 71
     4
 72
     1
  1
{\fMonotype Corsiva|b0|i1|c0|p0;\C7;Material }{\fArial|b0|i0|c0|p0;\C7;\H0.7692308x;}
 73
     1
 44
1.0
  0
MTEXT
  5
205
330
1C2
100
AcDbEntity
  8
CONTINUOUS
100
AcDbMText
 10
289.025805015464
 20
125.886
 30
0.0
 40
3.720853217058121
 41
0.0
 46
0.0
 71
     4
 72
     1
  1
{\fArial|b0|i0|c0|p0;\C7;B}{\fArial|b0|i0|c0|p0;\C7;}
 73
     1
 44
1.0
  0
MTEXT
  5
206
330
1C2
100
AcDbEntity
  8
CONTINUOUS
100
AcDbMText
 10
126.092175294703
 20
6.61010619923708
 30
0.0
 40
3.720853217058121
 41
0.0
 46
0.0
 71
     4
 72
     1
  1
{\fArial|b0|i0|c0|p0;\C7;3}{\fArial|b0|i0|c0|p0;\C7;}
 73
     1
 44
1.0
  0
MTEXT
  5
207
330
1C2
100
AcDbEntity
  8
CONTINUOUS
100
AcDbMText
 10
4.984780712209
 20
172.034376464844
 30
0.0
 40
3.720853217058121
 41
0.0
 46
0.0
 71
     4
 72
     1
  1
{\fArial|b0|i0|c0|p0;\C7;A}{\fArial|b0|i0|c0|p0;\C7;}
 73
     1
 44
1.0
  0
MTEXT
  5
208
330
1C2
100
AcDbEntity
  8
CONTINUOUS
100
AcDbMText
 10
32.2742214965821
 20
204.252439819336
 30
0.0
 40
3.720853217058121
 41
0.0
 46
0.0
 71
     4
 72
     1
  1
{\fArial|b0|i0|c0|p0;\C7;1}{\fArial|b0|i0|c0|p0;\C7;}
 73
     1
 44
1.0
  0
MTEXT
  5
209
330
1C2
100
AcDbEntity
  8
CONTINUOUS
100
AcDbMText
 10
269.737866210938
 20
18.1238347625733
 30
0.0
 40
2.251496730059653
 41
0.0
 46
0.0
 71
     4
 72
     1
  1
{\fMonotype Corsiva|b0|i1|c0|p0;\C7;Scale }{\fArial|b0|i0|c0|p0;\C7;\H0.7692308x;}
 73
     1
 44
1.0
  0
MTEXT
  5
20A
330
1C2
100
AcDbEntity
  8
CONTINUOUS
100
AcDbMText
 10
265.171810609717
 20
204.240896547217
 30
0.0
 40
3.720853217058121
 41
0.0
 46
0.0
 71
     4
 72
     1
  1
{\fArial|b0|i0|c0|p0;\C7;6}{\fArial|b0|i0|c0|p0;\C7;}
 73
     1
 44
1.0
  0
MTEXT
  5
20B
330
1C2
100
AcDbEntity
  8
CONTINUOUS
100
AcDbMText
 10
27.3887158203126
 20
6.7864282951355
 30
0.0
 40
3.720853217058121
 41
0.0
 46
0.0
 71
     4
 72
     1
  1
{\fArial|b0|i0|c0|p0;\C7;1}{\fArial|b0|i0|c0|p0;\C7;}
 73
     1
 44
1.0
  0
MTEXT
  5
20C
330
1C2
100
AcDbEntity
  8
CONTINUOUS
100
AcDbMText
 10
121.245655822681
 20
204.355103698803
 30
0.0
 40
3.720853217058121
 41
0.0
 46
0.0
 71
     4
 72
     1
  1
{\fArial|b0|i0|c0|p0;\C7;3}{\fArial|b0|i0|c0|p0;\C7;}
 73
     1
 44
1.0
  0
ENDBLK
  5
1C4
330
1C2
100
AcDbEntity
  8
0
100
AcDbBlockEnd
  0
ENDSEC
  0
SECTION
  2
ENTITIES
  0
CIRCLE
  5
6F
330
1F
100
AcDbEntity
  8
VISIBLE
100
AcDbCircle
 10
114.2601280212402
 20
131.9034423828125
 30
0.0
 40
3.25
  0
LINE
  5
70
330
1F
100
AcDbEntity
  8
VISIBLE
100
AcDbLine
 10
100.7601280212402
 20
127.7989656925201
 30
0.0
 11
100.8101280212402
 21
152.994871919425
 31
0.0
  0
CIRCLE
  5
71
330
1F
100
AcDbEntity
  8
VISIBLE
100
AcDbCircle
 10
89.26012802124023
 20
156.9034423828125
 30
0.0
 40
3.25
  0
ELLIPSE
  5
72
330
1F
100
AcDbEntity
  8
VISIBLE
100
AcDbEllipse
 10
101.7601280212402
 20
157.2989656925229
 30
0.0
 11
4.574999563694107
 21
0.0
 31
0.0
210
0.0
220
0.0
230
1.0
 40
0.9617487297322925
 41
4.921561260637573
 42
10.78640200731139
  0
CIRCLE
  5
73
330
1F
100
AcDbEntity
  8
VISIBLE
100
AcDbCircle
 10
89.26012802124023
 20
131.9034423828125
 30
0.0
 40
5.25
  0
CIRCLE
  5
74
330
1F
100
AcDbEntity
  8
VISIBLE
100
AcDbCircle
 10
89.26012802124023
 20
131.9034423828125
 30
0.0
 40
3.25
  0
LINE
  5
75
330
1F
100
AcDbEntity
  8
VISIBLE
100
AcDbLine
 10
102.7601280212402
 20
127.7989656925201
 30
0.0
 11
100.7601280212402
 21
127.7989656925201
 31
0.0
  0
CIRCLE
  5
76
330
1F
100
AcDbEntity
  8
VISIBLE
100
AcDbCircle
 10
89.26012802124023
 20
156.9034423828125
 30
0.0
 40
5.25
  0
CIRCLE
  5
77
330
1F
100
AcDbEntity
  8
VISIBLE
100
AcDbCircle
 10
114.2601280212402
 20
131.9034423828125
 30
0.0
 40
5.25
  0
CIRCLE
  5
78
330
1F
100
AcDbEntity
  8
VISIBLE
100
AcDbCircle
 10
114.2601280212402
 20
156.9034423828125
 30
0.0
 40
3.25
  0
CIRCLE
  5
79
330
1F
100
AcDbEntity
  8
VISIBLE
100
AcDbCircle
 10
101.7601280212402
 20
144.4034423828125
 30
0.0
 40
24.0
  0
CIRCLE
  5
7A
330
1F
100
AcDbEntity
  8
VISIBLE
100
AcDbCircle
 10
114.2601280212402
 20
156.9034423828125
 30
0.0
 40
5.25
  0
LINE
  5
7B
330
1F
100
AcDbEntity
  8
VISIBLE
100
AcDbLine
 10
102.7101280212402
 20
152.994871919425
 30
0.0
 11
102.7601280212402
 21
127.7989656925201
 31
0.0
  0
LINE
  5
7D
330
1F
100
AcDbEntity
  8
CENTER
100
AcDbLine
 10
114.7601280212402
 20
156.9034423828125
 30
0.0
 11
113.7601280212402
 21
156.9034423828125
 31
0.0
  0
LINE
  5
7E
330
1F
100
AcDbEntity
  8
CENTER
100
AcDbLine
 10
114.2601280212402
 20
157.4034423828125
 30
0.0
 11
114.2601280212402
 21
156.4034423828125
 31
0.0
  0
LINE
  5
7F
330
1F
100
AcDbEntity
  8
CENTER
100
AcDbLine
 10
115.2601280212402
 20
156.9034423828125
 30
0.0
 11
121.0976280212402
 21
156.9034423828125
 31
0.0
  0
LINE
  5
80
330
1F
100
AcDbEntity
  8
CENTER
100
AcDbLine
 10
113.2601280212402
 20
156.9034423828125
 30
0.0
 11
107.4226280212402
 21
156.9034423828125
 31
0.0
  0
LINE
  5
81
330
1F
100
AcDbEntity
  8
CENTER
100
AcDbLine
 10
114.2601280212402
 20
157.9034423828125
 30
0.0
 11
114.2601280212402
 21
163.7409423828125
 31
0.0
  0
LINE
  5
82
330
1F
100
AcDbEntity
  8
CENTER
100
AcDbLine
 10
114.2601280212402
 20
155.9034423828125
 30
0.0
 11
114.2601280212402
 21
150.0659423828125
 31
0.0
  0
LINE
  5
83
330
1F
100
AcDbEntity
  8
CENTER
100
AcDbLine
 10
89.76012802124023
 20
131.9034423828125
 30
0.0
 11
88.76012802124023
 21
131.9034423828125
 31
0.0
  0
LINE
  5
84
330
1F
100
AcDbEntity
  8
CENTER
100
AcDbLine
 10
89.26012802124023
 20
132.4034423828125
 30
0.0
 11
89.26012802124023
 21
131.4034423828125
 31
0.0
  0
LINE
  5
85
330
1F
100
AcDbEntity
  8
CENTER
100
AcDbLine
 10
90.26012802124023
 20
131.9034423828125
 30
0.0
 11
96.09762802124024
 21
131.9034423828125
 31
0.0
  0
LINE
  5
86
330
1F
100
AcDbEntity
  8
CENTER
100
AcDbLine
 10
88.26012802124023
 20
131.9034423828125
 30
0.0
 11
82.42262802124023
 21
131.9034423828125
 31
0.0
  0
LINE
  5
87
330
1F
100
AcDbEntity
  8
CENTER
100
AcDbLine
 10
89.26012802124023
 20
132.9034423828125
 30
0.0
 11
89.26012802124023
 21
138.7409423828125
 31
0.0
  0
LINE
  5
88
330
1F
100
AcDbEntity
  8
CENTER
100
AcDbLine
 10
89.26012802124023
 20
130.9034423828125
 30
0.0
 11
89.26012802124023
 21
125.0659423828125
 31
0.0
  0
LINE
  5
89
330
1F
100
AcDbEntity
  8
CENTER
100
AcDbLine
 10
102.2601280212402
 20
144.4034423828125
 30
0.0
 11
101.2601280212402
 21
144.4034423828125
 31
0.0
  0
LINE
  5
8A
330
1F
100
AcDbEntity
  8
CENTER
100
AcDbLine
 10
101.7601280212402
 20
144.9034423828125
 30
0.0
 11
101.7601280212402
 21
143.9034423828125
 31
0.0
  0
LINE
  5
8B
330
1F
100
AcDbEntity
  8
CENTER
100
AcDbLine
 10
102.7601280212402
 20
144.4034423828125
 30
0.0
 11
127.3476280212402
 21
144.4034423828125
 31
0.0
  0
LINE
  5
8C
330
1F
100
AcDbEntity
  8
CENTER
100
AcDbLine
 10
100.7601280212402
 20
144.4034423828125
 30
0.0
 11
76.17262802124023
 21
144.4034423828125
 31
0.0
  0
LINE
  5
8D
330
1F
100
AcDbEntity
  8
CENTER
100
AcDbLine
 10
101.7601280212402
 20
145.4034423828125
 30
0.0
 11
101.7601280212402
 21
169.9909423828125
 31
0.0
  0
LINE
  5
8E
330
1F
100
AcDbEntity
  8
CENTER
100
AcDbLine
 10
101.7601280212402
 20
143.4034423828125
 30
0.0
 11
101.7601280212402
 21
118.8159423828125
 31
0.0
  0
LINE
  5
8F
330
1F
100
AcDbEntity
  8
CENTER
100
AcDbLine
 10
114.7601280212402
 20
131.9034423828125
 30
0.0
 11
113.7601280212402
 21
131.9034423828125
 31
0.0
  0
LINE
  5
90
330
1F
100
AcDbEntity
  8
CENTER
100
AcDbLine
 10
114.2601280212402
 20
132.4034423828125
 30
0.0
 11
114.2601280212402
 21
131.4034423828125
 31
0.0
  0
LINE
  5
91
330
1F
100
AcDbEntity
  8
CENTER
100
AcDbLine
 10
115.2601280212402
 20
131.9034423828125
 30
0.0
 11
121.0976280212402
 21
131.9034423828125
 31
0.0
  0
LINE
  5
92
330
1F
100
AcDbEntity
  8
CENTER
100
AcDbLine
 10
113.2601280212402
 20
131.9034423828125
 30
0.0
 11
107.4226280212402
 21
131.9034423828125
 31
0.0
  0
LINE
  5
93
330
1F
100
AcDbEntity
  8
CENTER
100
AcDbLine
 10
114.2601280212402
 20
132.9034423828125
 30
0.0
 11
114.2601280212402
 21
138.7409423828125
 31
0.0
  0
LINE
  5
94
330
1F
100
AcDbEntity
  8
CENTER
100
AcDbLine
 10
114.2601280212402
 20
130.9034423828125
 30
0.0
 11
114.2601280212402
 21
125.0659423828125
 31
0.0
  0
LINE
  5
95
330
1F
100
AcDbEntity
  8
CENTER
100
AcDbLine
 10
89.76012802124023
 20
156.9034423828125
 30
0.0
 11
88.76012802124023
 21
156.9034423828125
 31
0.0
  0
LINE
  5
96
330
1F
100
AcDbEntity
  8
CENTER
100
AcDbLine
 10
89.26012802124023
 20
157.4034423828125
 30
0.0
 11
89.26012802124023
 21
156.4034423828125
 31
0.0
  0
LINE
  5
97
330
1F
100
AcDbEntity
  8
CENTER
100
AcDbLine
 10
90.26012802124023
 20
156.9034423828125
 30
0.0
 11
96.09762802124024
 21
156.9034423828125
 31
0.0
  0
LINE
  5
98
330
1F
100
AcDbEntity
  8
CENTER
100
AcDbLine
 10
88.26012802124023
 20
156.9034423828125
 30
0.0
 11
82.42262802124023
 21
156.9034423828125
 31
0.0
  0
LINE
  5
99
330
1F
100
AcDbEntity
  8
CENTER
100
AcDbLine
 10
89.26012802124023
 20
157.9034423828125
 30
0.0
 11
89.26012802124023
 21
163.7409423828125
 31
0.0
  0
LINE
  5
9A
330
1F
100
AcDbEntity
  8
CENTER
100
AcDbLine
 10
89.26012802124023
 20
155.9034423828125
 30
0.0
 11
89.26012802124023
 21
150.0659423828125
 31
0.0
  0
DIMENSION
  5
9C
330
1F
100
AcDbEntity
  8
DIMENSIONS
100
AcDbDimension
280
     0
  2
D1
 10
0.0
 20
0.0
 30
0.0
 11
203.6097297668457
 21
251.9742431640625
 31
0.0
 70
    32
  1
<>
 71
     5
 42
-1.0
 73
     0
 74
     0
 75
     0
  3
ISO-25
100
AcDbAlignedDimension
 13
125.7601280212402
 23
144.4034423828125
 33
0.0
 14
77.76012802124023
 24
144.4034423828125
 34
0.0
100
AcDbRotatedDimension
1001
ACAD
1000
DSTYLE
1002
{
1070
    76
1070
     0
1070
    75
1070
     0
1070
   282
1070
     0
1070
   281
1070
     0
1070
    77
1070
     1
1070
    79
1070
     0
1070
    78
1070
     0
1070
   272
1070
     2
1070
   271
1070
     2
1070
   179
1070
     2
1070
   140
1040
2.707850318471337
1070
    71
1070
     0
1070
    72
1070
     0
1070
    48
1040
0.002
1070
    47
1040
0.005
1002
}
  0
DIMENSION
  5
AE
330
1F
100
AcDbEntity
  8
DIMENSIONS
100
AcDbDimension
280
     0
  2
D2
 10
0.0
 20
0.0
 30
0.0
 11
203.9504127502441
 21
258.5586013793945
 31
0.0
 70
    32
  1
<>
 71
     5
 42
-1.0
 73
     0
 74
     0
 75
     0
 53
180.0
  3
ISO-25
100
AcDbAlignedDimension
 13
114.2601280212402
 23
125.0659423828125
 33
0.0
 14
89.26012802124023
 24
125.0659423828125
 34
0.0
 50
180.0
100
AcDbRotatedDimension
1001
ACAD
1000
DSTYLE
1002
{
1070
    76
1070
     0
1070
    75
1070
     0
1070
   282
1070
     0
1070
   281
1070
     0
1070
    77
1070
     1
1070
    79
1070
     0
1070
    78
1070
     0
1070
   272
1070
     2
1070
   271
1070
     2
1070
   179
1070
     2
1070
   140
1040
2.707850318471337
1070
    71
1070
     0
1070
    72
1070
     0
1070
    48
1040
0.002
1070
    47
1040
0.005
1002
}
  0
DIMENSION
  5
BF
330
1F
100
AcDbEntity
  8
DIMENSIONS
100
AcDbDimension
280
     0
  2
D3
 10
0.0
 20
0.0
 30
0.0
 11
237.3063850402832
 21
287.0613708496094
 31
0.0
 70
    32
  1
<>
 71
     5
 42
-1.0
 73
     0
 74
     0
 75
     0
 53
90.0
  3
ISO-25
100
AcDbAlignedDimension
 13
121.0976280212402
 23
131.9034423828125
 33
0.0
 14
121.0976280212402
 24
156.9034423828125
 34
0.0
 50
90.0
100
AcDbRotatedDimension
1001
ACAD
1000
DSTYLE
1002
{
1070
    76
1070
     0
1070
    75
1070
     0
1070
   282
1070
     0
1070
   281
1070
     0
1070
    77
1070
     1
1070
    79
1070
     0
1070
    78
1070
     0
1070
   272
1070
     2
1070
   271
1070
     2
1070
   179
1070
     2
1070
   140
1040
2.707850318471337
1070
    71
1070
     0
1070
    72
1070
     0
1070
    48
1040
0.002
1070
    47
1040
0.005
1002
}
  0
MTEXT
  5
D1
330
1F
100
AcDbEntity
  8
CONTINUOUS
100
AcDbMText
 10
57.37092590332031
 20
171.9746169380895
 30
0.0
 40
2.079300327179538
 41
0.0
 46
0.0
 71
     1
 72
     1
  1
{\fAlibre Symbols|b0|i0|c0|p0;\C7;n}{\fCE|b0|i0|c0|p0;\C7;10,5}{\fAlibre Symbols|b0|i0|c0|p0;\C7;vx}{\fCE|b0|i0|c0|p0;\C7;6}{\fCE|b0|i0|c0|p0;\C7;\P}{\fAlibre Symbols|b0|i0|c0|p0;\C7;n}{\fCE|b0|i0|c0|p0;\C7;6,5 Durch }{\fCE|b0|i0|c0|p0;\C7;}
 73
     1
 44
1.0
  0
LINE
  5
D2
330
1F
100
AcDbEntity
  8
CONTINUOUS
100
AcDbLine
 10
81.77196756998697
 20
167.7328128390842
 30
0.0
 11
76.61259256998697
 21
167.7328128390842
 31
0.0
  0
LINE
  5
D3
330
1F
100
AcDbEntity
  8
CONTINUOUS
100
AcDbLine
 10
87.11946826148426
 20
158.6478060188227
 30
0.0
 11
87.11946826148426
 21
158.6478060188227
 31
0.0
  0
LINE
  5
D4
330
1F
100
AcDbEntity
  8
CONTINUOUS
100
AcDbLine
 10
87.11946826148426
 20
158.6478060188227
 30
0.0
 11
81.77196756998697
 21
167.7328128390842
 31
0.0
  0
LWPOLYLINE
  5
D5
330
1F
100
AcDbEntity
  8
CONTINUOUS
100
AcDbPolyline
 90
        4
 70
     0
 43
0.0
 10
88.64124298095697
 20
156.0624237060547
 10
86.68857120935621
 20
158.3941768989106
 10
87.55036531361225
 20
158.9014351387348
 10
88.64124298095697
 20
156.0624237060547
  0
HATCH
  5
D6
330
1F
100
AcDbEntity
  8
0
 62
     7
100
AcDbHatch
 10
0.0
 20
0.0
 30
0.0
210
0.0
220
0.0
230
1.0
  2
SOLID
 70
     1
 71
     0
 91
        1
 92
        0
 93
        3
 72
     1
 10
87.55036531361225
 20
158.9014351387348
 11
88.64124298095697
 21
156.0624237060547
 72
     1
 10
88.64124298095697
 20
156.0624237060547
 11
86.68857120935621
 21
158.3941768989106
 72
     1
 10
86.68857120935621
 20
158.3941768989106
 11
87.55036531361225
 21
158.9014351387348
 97
        0
 75
     0
 76
     1
 98
        0
  0
LINE
  5
D7
330
1F
100
AcDbEntity
  8
VISIBLE
100
AcDbLine
 10
125.7601280212402
 20
72.4034423828125
 30
0.0
 11
77.76012802124023
 21
72.4034423828125
 31
0.0
  0
LINE
  5
D8
330
1F
100
AcDbEntity
  8
VISIBLE
100
AcDbLine
 10
77.76012802124023
 20
62.4034423828125
 30
0.0
 11
125.7601280212402
 21
62.4034423828125
 31
0.0
  0
LINE
  5
D9
330
1F
100
AcDbEntity
  8
VISIBLE
100
AcDbLine
 10
77.76012802124023
 20
72.4034423828125
 30
0.0
 11
77.76012802124023
 21
62.4034423828125
 31
0.0
  0
LINE
  5
DA
330
1F
100
AcDbEntity
  8
VISIBLE
100
AcDbLine
 10
125.7601280212402
 20
72.4034423828125
 30
0.0
 11
125.7601280212402
 21
62.4034423828125
 31
0.0
  0
LINE
  5
DD
330
1F
100
AcDbEntity
  8
HIDDEN
100
AcDbLine
 10
102.7101280212402
 20
72.4034423828125
 30
0.0
 11
102.7101280212402
 21
62.4034423828125
 31
0.0
  0
LINE
  5
DE
330
1F
100
AcDbEntity
  8
HIDDEN
100
AcDbLine
 10
100.7601280212402
 20
72.4034423828125
 30
0.0
 11
100.7601280212402
 21
62.4034423828125
 31
0.0
  0
LINE
  5
DF
330
1F
100
AcDbEntity
  8
HIDDEN
100
AcDbLine
 10
94.51012802124023
 20
68.4034423828125
 30
0.0
 11
84.01012802124023
 21
68.4034423828125
 31
0.0
  0
LINE
  5
E0
330
1F
100
AcDbEntity
  8
HIDDEN
100
AcDbLine
 10
119.5101280212402
 20
68.4034423828125
 30
0.0
 11
109.0101280212402
 21
68.4034423828125
 31
0.0
  0
LINE
  5
E1
330
1F
100
AcDbEntity
  8
HIDDEN
100
AcDbLine
 10
100.8101280212402
 20
72.4034423828125
 30
0.0
 11
100.8101280212402
 21
62.4034423828125
 31
0.0
  0
LINE
  5
E2
330
1F
100
AcDbEntity
  8
HIDDEN
100
AcDbLine
 10
102.7601280212402
 20
72.4034423828125
 30
0.0
 11
102.7601280212402
 21
62.4034423828125
 31
0.0
  0
LINE
  5
E3
330
1F
100
AcDbEntity
  8
HIDDEN
100
AcDbLine
 10
109.0101280212402
 20
62.4034423828125
 30
0.0
 11
109.0101280212402
 21
68.4034423828125
 31
0.0
  0
LINE
  5
E4
330
1F
100
AcDbEntity
  8
HIDDEN
100
AcDbLine
 10
117.5101280212402
 20
72.4034423828125
 30
0.0
 11
117.5101280212402
 21
68.4034423828125
 31
0.0
  0
LINE
  5
E5
330
1F
100
AcDbEntity
  8
HIDDEN
100
AcDbLine
 10
106.3351275849343
 20
72.4034423828125
 30
0.0
 11
106.3351275849343
 21
62.4034423828125
 31
0.0
  0
LINE
  5
E6
330
1F
100
AcDbEntity
  8
HIDDEN
100
AcDbLine
 10
86.01012802124023
 20
72.4034423828125
 30
0.0
 11
86.01012802124023
 21
68.4034423828125
 31
0.0
  0
LINE
  5
E7
330
1F
100
AcDbEntity
  8
HIDDEN
100
AcDbLine
 10
84.01012802124023
 20
62.4034423828125
 30
0.0
 11
84.01012802124023
 21
68.4034423828125
 31
0.0
  0
LINE
  5
E8
330
1F
100
AcDbEntity
  8
HIDDEN
100
AcDbLine
 10
119.5101280212402
 20
62.4034423828125
 30
0.0
 11
119.5101280212402
 21
68.4034423828125
 31
0.0
  0
LINE
  5
E9
330
1F
100
AcDbEntity
  8
HIDDEN
100
AcDbLine
 10
94.51012802124023
 20
62.4034423828125
 30
0.0
 11
94.51012802124023
 21
68.4034423828125
 31
0.0
  0
LINE
  5
EA
330
1F
100
AcDbEntity
  8
HIDDEN
100
AcDbLine
 10
92.51012802124023
 20
72.4034423828125
 30
0.0
 11
92.51012802124023
 21
68.4034423828125
 31
0.0
  0
LINE
  5
EB
330
1F
100
AcDbEntity
  8
HIDDEN
100
AcDbLine
 10
111.0101280212402
 20
72.4034423828125
 30
0.0
 11
111.0101280212402
 21
68.4034423828125
 31
0.0
  0
LINE
  5
EC
330
1F
100
AcDbEntity
  8
HIDDEN
100
AcDbLine
 10
97.18512845754613
 20
72.4034423828125
 30
0.0
 11
97.18512845754613
 21
62.4034423828125
 31
0.0
  0
LINE
  5
ED
330
1F
100
AcDbEntity
  8
CENTER
100
AcDbLine
 10
114.2601280212402
 20
64.9034423828125
 30
0.0
 11
114.2601280212402
 21
65.9034423828125
 31
0.0
  0
LINE
  5
EE
330
1F
100
AcDbEntity
  8
CENTER
100
AcDbLine
 10
114.2601280212402
 20
64.4034423828125
 30
0.0
 11
114.2601280212402
 21
59.2284423828125
 31
0.0
  0
LINE
  5
EF
330
1F
100
AcDbEntity
  8
CENTER
100
AcDbLine
 10
114.2601280212402
 20
66.4034423828125
 30
0.0
 11
114.2601280212402
 21
71.5784423828125
 31
0.0
  0
LINE
  5
F0
330
1F
100
AcDbEntity
  8
CENTER
100
AcDbLine
 10
114.2601280212402
 20
69.9034423828125
 30
0.0
 11
114.2601280212402
 21
70.9034423828125
 31
0.0
  0
LINE
  5
F1
330
1F
100
AcDbEntity
  8
CENTER
100
AcDbLine
 10
114.2601280212402
 20
69.4034423828125
 30
0.0
 11
114.2601280212402
 21
65.2284423828125
 31
0.0
  0
LINE
  5
F2
330
1F
100
AcDbEntity
  8
CENTER
100
AcDbLine
 10
114.2601280212402
 20
71.4034423828125
 30
0.0
 11
114.2601280212402
 21
75.5784423828125
 31
0.0
  0
LINE
  5
F3
330
1F
100
AcDbEntity
  8
CENTER
100
AcDbLine
 10
89.26012802124023
 20
69.9034423828125
 30
0.0
 11
89.26012802124023
 21
70.9034423828125
 31
0.0
  0
LINE
  5
F4
330
1F
100
AcDbEntity
  8
CENTER
100
AcDbLine
 10
89.26012802124023
 20
69.4034423828125
 30
0.0
 11
89.26012802124023
 21
65.22844238281249
 31
0.0
  0
LINE
  5
F5
330
1F
100
AcDbEntity
  8
CENTER
100
AcDbLine
 10
89.26012802124023
 20
71.4034423828125
 30
0.0
 11
89.26012802124023
 21
75.5784423828125
 31
0.0
  0
LINE
  5
F6
330
1F
100
AcDbEntity
  8
CENTER
100
AcDbLine
 10
101.7601280212402
 20
66.9034423828125
 30
0.0
 11
101.7601280212402
 21
67.9034423828125
 31
0.0
  0
LINE
  5
F7
330
1F
100
AcDbEntity
  8
CENTER
100
AcDbLine
 10
101.7601280212402
 20
66.4034423828125
 30
0.0
 11
101.7601280212402
 21
61.4034423828125
 31
0.0
  0
LINE
  5
F8
330
1F
100
AcDbEntity
  8
CENTER
100
AcDbLine
 10
101.7601280212402
 20
68.4034423828125
 30
0.0
 11
101.7601280212402
 21
73.4034423828125
 31
0.0
  0
LINE
  5
F9
330
1F
100
AcDbEntity
  8
CENTER
100
AcDbLine
 10
101.7601280212402
 20
60.9034423828125
 30
0.0
 11
101.7601280212402
 21
59.2284423828125
 31
0.0
  0
LINE
  5
FA
330
1F
100
AcDbEntity
  8
CENTER
100
AcDbLine
 10
101.7601280212402
 20
73.9034423828125
 30
0.0
 11
101.7601280212402
 21
75.5784423828125
 31
0.0
  0
LINE
  5
FB
330
1F
100
AcDbEntity
  8
CENTER
100
AcDbLine
 10
89.26012802124023
 20
64.9034423828125
 30
0.0
 11
89.26012802124023
 21
65.9034423828125
 31
0.0
  0
LINE
  5
FC
330
1F
100
AcDbEntity
  8
CENTER
100
AcDbLine
 10
89.26012802124023
 20
64.4034423828125
 30
0.0
 11
89.26012802124023
 21
59.2284423828125
 31
0.0
  0
LINE
  5
FD
330
1F
100
AcDbEntity
  8
CENTER
100
AcDbLine
 10
89.26012802124023
 20
66.4034423828125
 30
0.0
 11
89.26012802124023
 21
71.5784423828125
 31
0.0
  0
LINE
  5
FE
330
1F
100
AcDbEntity
  8
VISIBLE
100
AcDbLine
 10
173.7601280212402
 20
168.4034423828125
 30
0.0
 11
173.7601280212402
 21
120.4034423828125
 31
0.0
  0
LINE
  5
FF
330
1F
100
AcDbEntity
  8
VISIBLE
100
AcDbLine
 10
183.7601280212402
 20
120.4034423828125
 30
0.0
 11
183.7601280212402
 21
168.4034423828125
 31
0.0
  0
LINE
  5
100
330
1F
100
AcDbEntity
  8
VISIBLE
100
AcDbLine
 10
173.7601280212402
 20
168.4034423828125
 30
0.0
 11
183.7601280212402
 21
168.4034423828125
 31
0.0
  0
LINE
  5
101
330
1F
100
AcDbEntity
  8
VISIBLE
100
AcDbLine
 10
173.7601280212402
 20
120.4034423828125
 30
0.0
 11
183.7601280212402
 21
120.4034423828125
 31
0.0
  0
LINE
  5
102
330
1F
100
AcDbEntity
  8
HIDDEN
100
AcDbLine
 10
177.7601280212402
 20
137.1534423828125
 30
0.0
 11
177.7601280212402
 21
126.6534423828125
 31
0.0
  0
LINE
  5
103
330
1F
100
AcDbEntity
  8
HIDDEN
100
AcDbLine
 10
173.7601280212402
 20
127.7989656925201
 30
0.0
 11
183.7601280212402
 21
127.7989656925201
 31
0.0
  0
LINE
  5
104
330
1F
100
AcDbEntity
  8
HIDDEN
100
AcDbLine
 10
177.7601280212402
 20
162.1534423828125
 30
0.0
 11
177.7601280212402
 21
151.6534423828125
 31
0.0
  0
LINE
  5
105
330
1F
100
AcDbEntity
  8
HIDDEN
100
AcDbLine
 10
173.7601280212402
 20
152.994871919425
 30
0.0
 11
183.7601280212402
 21
152.994871919425
 31
0.0
  0
LINE
  5
106
330
1F
100
AcDbEntity
  8
HIDDEN
100
AcDbLine
 10
183.7601280212402
 20
151.6534423828125
 30
0.0
 11
177.7601280212402
 21
151.6534423828125
 31
0.0
  0
LINE
  5
107
330
1F
100
AcDbEntity
  8
HIDDEN
100
AcDbLine
 10
173.7601280212402
 20
153.6534423828125
 30
0.0
 11
177.7601280212402
 21
153.6534423828125
 31
0.0
  0
LINE
  5
108
330
1F
100
AcDbEntity
  8
HIDDEN
100
AcDbLine
 10
173.7601280212402
 20
161.6989657114315
 30
0.0
 11
183.7601280212402
 21
161.6989657114315
 31
0.0
  0
LINE
  5
109
330
1F
100
AcDbEntity
  8
HIDDEN
100
AcDbLine
 10
183.7601280212402
 20
126.6534423828125
 30
0.0
 11
177.7601280212402
 21
126.6534423828125
 31
0.0
  0
LINE
  5
10A
330
1F
100
AcDbEntity
  8
HIDDEN
100
AcDbLine
 10
183.7601280212402
 20
137.1534423828125
 30
0.0
 11
177.7601280212402
 21
137.1534423828125
 31
0.0
  0
LINE
  5
10B
330
1F
100
AcDbEntity
  8
HIDDEN
100
AcDbLine
 10
173.7601280212402
 20
160.1534423828125
 30
0.0
 11
177.7601280212402
 21
160.1534423828125
 31
0.0
  0
LINE
  5
10C
330
1F
100
AcDbEntity
  8
HIDDEN
100
AcDbLine
 10
183.7601280212402
 20
162.1534423828125
 30
0.0
 11
177.7601280212402
 21
162.1534423828125
 31
0.0
  0
LINE
  5
10D
330
1F
100
AcDbEntity
  8
HIDDEN
100
AcDbLine
 10
173.7601280212402
 20
135.1534423828125
 30
0.0
 11
177.7601280212402
 21
135.1534423828125
 31
0.0
  0
LINE
  5
10E
330
1F
100
AcDbEntity
  8
HIDDEN
100
AcDbLine
 10
173.7601280212402
 20
128.6534423828125
 30
0.0
 11
177.7601280212402
 21
128.6534423828125
 31
0.0
  0
LINE
  5
10F
330
1F
100
AcDbEntity
  8
CENTER
100
AcDbLine
 10
180.2601280212402
 20
131.9034423828125
 30
0.0
 11
181.2601280212402
 21
131.9034423828125
 31
0.0
  0
LINE
  5
110
330
1F
100
AcDbEntity
  8
CENTER
100
AcDbLine
 10
179.7601280212402
 20
131.9034423828125
 30
0.0
 11
174.5851280212402
 21
131.9034423828125
 31
0.0
  0
LINE
  5
111
330
1F
100
AcDbEntity
  8
CENTER
100
AcDbLine
 10
181.7601280212402
 20
131.9034423828125
 30
0.0
 11
186.9351280212402
 21
131.9034423828125
 31
0.0
  0
LINE
  5
112
330
1F
100
AcDbEntity
  8
CENTER
100
AcDbLine
 10
180.2601280212402
 20
156.9034423828125
 30
0.0
 11
181.2601280212402
 21
156.9034423828125
 31
0.0
  0
LINE
  5
113
330
1F
100
AcDbEntity
  8
CENTER
100
AcDbLine
 10
179.7601280212402
 20
156.9034423828125
 30
0.0
 11
174.5851280212402
 21
156.9034423828125
 31
0.0
  0
LINE
  5
114
330
1F
100
AcDbEntity
  8
CENTER
100
AcDbLine
 10
181.7601280212402
 20
156.9034423828125
 30
0.0
 11
186.9351280212402
 21
156.9034423828125
 31
0.0
  0
LINE
  5
115
330
1F
100
AcDbEntity
  8
CENTER
100
AcDbLine
 10
175.2601280212402
 20
156.9034423828125
 30
0.0
 11
176.2601280212402
 21
156.9034423828125
 31
0.0
  0
LINE
  5
116
330
1F
100
AcDbEntity
  8
CENTER
100
AcDbLine
 10
174.7601280212402
 20
156.9034423828125
 30
0.0
 11
170.5851280212402
 21
156.9034423828125
 31
0.0
  0
LINE
  5
117
330
1F
100
AcDbEntity
  8
CENTER
100
AcDbLine
 10
176.7601280212402
 20
156.9034423828125
 30
0.0
 11
180.9351280212402
 21
156.9034423828125
 31
0.0
  0
LINE
  5
118
330
1F
100
AcDbEntity
  8
CENTER
100
AcDbLine
 10
175.2601280212402
 20
131.9034423828125
 30
0.0
 11
176.2601280212402
 21
131.9034423828125
 31
0.0
  0
LINE
  5
119
330
1F
100
AcDbEntity
  8
CENTER
100
AcDbLine
 10
174.7601280212402
 20
131.9034423828125
 30
0.0
 11
170.5851280212402
 21
131.9034423828125
 31
0.0
  0
LINE
  5
11A
330
1F
100
AcDbEntity
  8
CENTER
100
AcDbLine
 10
176.7601280212402
 20
131.9034423828125
 30
0.0
 11
180.9351280212402
 21
131.9034423828125
 31
0.0
  0
LINE
  5
11B
330
1F
100
AcDbEntity
  8
CENTER
100
AcDbLine
 10
178.2601280212402
 20
144.4034423828125
 30
0.0
 11
179.2601280212402
 21
144.4034423828125
 31
0.0
  0
LINE
  5
11C
330
1F
100
AcDbEntity
  8
CENTER
100
AcDbLine
 10
177.7601280212402
 20
144.4034423828125
 30
0.0
 11
172.7601280212402
 21
144.4034423828125
 31
0.0
  0
LINE
  5
11D
330
1F
100
AcDbEntity
  8
CENTER
100
AcDbLine
 10
179.7601280212402
 20
144.4034423828125
 30
0.0
 11
184.7601280212402
 21
144.4034423828125
 31
0.0
  0
LINE
  5
11E
330
1F
100
AcDbEntity
  8
CENTER
100
AcDbLine
 10
172.2601280212402
 20
144.4034423828125
 30
0.0
 11
170.5851280212402
 21
144.4034423828125
 31
0.0
  0
LINE
  5
11F
330
1F
100
AcDbEntity
  8
CENTER
100
AcDbLine
 10
185.2601280212402
 20
144.4034423828125
 30
0.0
 11
186.9351280212402
 21
144.4034423828125
 31
0.0
  0
DIMENSION
  5
120
330
1F
100
AcDbEntity
  8
DIMENSIONS
100
AcDbDimension
280
     0
  2
D4
 10
0.0
 20
0.0
 30
0.0
 11
352.9919395446777
 21
251.1008529663086
 31
0.0
 70
    32
  1
<>
 71
     5
 42
-1.0
 73
     0
 74
     0
 75
     0
  3
ISO-25
100
AcDbAlignedDimension
 13
173.7601280212402
 23
120.4034423828125
 33
0.0
 14
183.7601280212402
 24
120.4034423828125
 34
0.0
100
AcDbRotatedDimension
1001
ACAD
1000
DSTYLE
1002
{
1070
    76
1070
     0
1070
    75
1070
     0
1070
   282
1070
     0
1070
   281
1070
     0
1070
    77
1070
     1
1070
    79
1070
     0
1070
    78
1070
     0
1070
   272
1070
     2
1070
   271
1070
     2
1070
   179
1070
     2
1070
   140
1040
2.707850318471337
1070
    71
1070
     0
1070
    72
1070
     0
1070
    48
1040
0.002
1070
    47
1040
0.005
1002
}
  0
ELLIPSE
  5
131
330
1F
100
AcDbEntity
  8
VISIBLE
100
AcDbEllipse
 10
239.7614563242058
 20
74.116177922361
 30
0.0
 11
1.625
 21
-2.814582562299421
 31
0.0
210
0.0
220
0.0
230
1.0
 40
0.5773502691896262
 41
-1.645621923906236
 42
-1.495970729683557
  0
LINE
  5
132
330
1F
100
AcDbEntity
  8
VISIBLE
100
AcDbLine
 10
229.8682619928758
 20
95.05595512525971
 30
0.0
 11
227.3517323143819
 21
93.60303603795757
 31
0.0
  0
LINE
  5
133
330
1F
100
AcDbEntity
  8
VISIBLE
100
AcDbLine
 10
225.9728740910681
 20
73.82674891671871
 30
0.0
 11
226.0082294301275
 21
94.37870778983891
 31
0.0
  0
ELLIPSE
  5
134
330
1F
100
AcDbEntity
  8
VISIBLE
100
AcDbEllipse
 10
222.0837867945421
 20
84.32238518395758
 30
0.0
 11
2.625
 21
-4.546633369868303
 31
0.0
210
0.0
220
0.0
230
1.0
 40
0.5773502691896253
 41
-2.200635860743318
 42
-0.9409567928464737
  0
LINE
  5
135
330
1F
100
AcDbEntity
  8
VISIBLE
100
AcDbLine
 10
227.3842867764403
 20
74.64162841055598
 30
0.0
 11
225.9728740910681
 21
73.82674891671871
 31
0.0
  0
ELLIPSE
  5
136
330
1F
100
AcDbEntity
  8
VISIBLE
100
AcDbEllipse
 10
222.0837867945421
 20
104.7347997071507
 30
0.0
 11
1.625
 21
-2.814582562299421
 31
0.0
210
0.0
220
0.0
230
1.0
 40
0.5773502691896262
 41
-1.645621923906236
 42
-1.495970729683554
  0
ELLIPSE
  5
137
330
1F
100
AcDbEntity
  8
VISIBLE
100
AcDbEllipse
 10
226.6799808722547
 20
97.50514976362501
 30
0.0
 11
2.374803215159631
 21
-3.810631111998092
 31
0.0
210
0.0
220
0.0
230
1.0
 40
0.5764739137611011
 41
-3.161029636830645
 42
-1.033503513807098
  0
ELLIPSE
  5
138
330
1F
100
AcDbEntity
  8
VISIBLE
100
AcDbEllipse
 10
226.6799808722547
 20
97.50514976362501
 30
0.0
 11
2.374803215159631
 21
-3.810631111998092
 31
0.0
210
0.0
220
0.0
230
1.0
 40
0.5764739137611011
 41
-0.0194369832408555
 42
3.122155670348941
  0
ELLIPSE
  5
139
330
1F
100
AcDbEntity
  8
VISIBLE
100
AcDbEllipse
 10
226.6799808722547
 20
97.50514976362501
 30
0.0
 11
2.374803215159631
 21
-3.810631111998092
 31
0.0
210
0.0
220
0.0
230
1.0
 40
0.5764739137611011
 41
-0.6151589533013235
 42
-0.0194369832408555
  0
ELLIPSE
  5
13A
330
1F
100
AcDbEntity
  8
VISIBLE
100
AcDbEllipse
 10
217.8411461074228
 20
81.8728954411744
 30
0.0
 11
2.625
 21
-4.546633369868303
 31
0.0
210
0.0
220
0.0
230
1.0
 40
0.5773502691896253
 41
0.0
 42
0.785398163397447
  0
ELLIPSE
  5
13B
330
1F
100
AcDbEntity
  8
VISIBLE
100
AcDbEllipse
 10
217.8411461074228
 20
81.8728954411744
 30
0.0
 11
2.625
 21
-4.546633369868303
 31
0.0
210
0.0
220
0.0
230
1.0
 40
0.5773502691896253
 41
-3.141592653589792
 42
0.0
  0
ELLIPSE
  5
13C
330
1F
100
AcDbEntity
  8
VISIBLE
100
AcDbEllipse
 10
217.8411461074228
 20
81.8728954411744
 30
0.0
 11
2.625
 21
-4.546633369868303
 31
0.0
210
0.0
220
0.0
230
1.0
 40
0.5773502691896253
 41
0.785398163397447
 42
3.141592653589794
  0
ELLIPSE
  5
13D
330
1F
100
AcDbEntity
  8
VISIBLE
100
AcDbEllipse
 10
222.0837867945421
 20
104.7347997071507
 30
0.0
 11
2.625
 21
-4.546633369868303
 31
0.0
210
0.0
220
0.0
230
1.0
 40
0.5773502691896253
 41
-2.200635860743318
 42
-0.9409567928464737
  0
ELLIPSE
  5
13E
330
1F
100
AcDbEntity
  8
VISIBLE
100
AcDbEllipse
 10
239.7614563242058
 20
94.52859244555415
 30
0.0
 11
2.625
 21
-4.546633369868303
 31
0.0
210
0.0
220
0.0
230
1.0
 40
0.5773502691896253
 41
-2.200635860743318
 42
-0.9409567928464737
  0
ELLIPSE
  5
13F
330
1F
100
AcDbEntity
  8
VISIBLE
100
AcDbEllipse
 10
222.0837867945421
 20
84.32238518395758
 30
0.0
 11
1.625
 21
-2.814582562299421
 31
0.0
210
0.0
220
0.0
230
1.0
 40
0.5773502691896262
 41
-1.645621923906236
 42
-1.495970729683554
  0
LINE
  5
140
330
1F
100
AcDbEntity
  8
VISIBLE
100
AcDbLine
 10
227.3870876534413
 20
73.010252335791
 30
0.0
 11
225.9728740910681
 21
73.82674891671871
 31
0.0
  0
ELLIPSE
  5
141
330
1F
100
AcDbEntity
  8
VISIBLE
100
AcDbEllipse
 10
217.8411461074228
 20
102.2853099643676
 30
0.0
 11
2.625
 21
-4.546633369868303
 31
0.0
210
0.0
220
0.0
230
1.0
 40
0.5773502691896253
 41
0.0
 42
0.785398163397447
  0
ELLIPSE
  5
142
330
1F
100
AcDbEntity
  8
VISIBLE
100
AcDbEllipse
 10
217.8411461074228
 20
102.2853099643676
 30
0.0
 11
2.625
 21
-4.546633369868303
 31
0.0
210
0.0
220
0.0
230
1.0
 40
0.5773502691896253
 41
-3.141592653589792
 42
0.0
  0
ELLIPSE
  5
143
330
1F
100
AcDbEntity
  8
VISIBLE
100
AcDbEllipse
 10
217.8411461074228
 20
102.2853099643676
 30
0.0
 11
2.625
 21
-4.546633369868303
 31
0.0
210
0.0
220
0.0
230
1.0
 40
0.5773502691896253
 41
0.785398163397447
 42
3.141592653589794
  0
ELLIPSE
  5
144
330
1F
100
AcDbEntity
  8
VISIBLE
100
AcDbEllipse
 10
239.7614563242058
 20
74.116177922361
 30
0.0
 11
2.625
 21
-4.546633369868303
 31
0.0
210
0.0
220
0.0
230
1.0
 40
0.5773502691896253
 41
-2.200635860743318
 42
-0.9409567928464728
  0
LINE
  5
145
330
1F
100
AcDbEntity
  8
VISIBLE
100
AcDbLine
 10
229.815889168407
 20
96.57706116471705
 30
0.0
 11
226.0082294301275
 21
94.37870778983891
 31
0.0
  0
ELLIPSE
  5
146
330
1F
100
AcDbEntity
  8
VISIBLE
100
AcDbEllipse
 10
235.5188156370865
 20
71.66668817957782
 30
0.0
 11
2.625
 21
-4.546633369868303
 31
0.0
210
0.0
220
0.0
230
1.0
 40
0.5773502691896253
 41
0.0
 42
0.78539816339745
  0
ELLIPSE
  5
147
330
1F
100
AcDbEntity
  8
VISIBLE
100
AcDbEllipse
 10
235.5188156370865
 20
71.66668817957782
 30
0.0
 11
2.625
 21
-4.546633369868303
 31
0.0
210
0.0
220
0.0
230
1.0
 40
0.5773502691896253
 41
-3.141592653589792
 42
0.0
  0
ELLIPSE
  5
148
330
1F
100
AcDbEntity
  8
VISIBLE
100
AcDbEllipse
 10
235.5188156370865
 20
71.66668817957782
 30
0.0
 11
2.625
 21
-4.546633369868303
 31
0.0
210
0.0
220
0.0
230
1.0
 40
0.5773502691896253
 41
0.78539816339745
 42
3.141592653589792
  0
ELLIPSE
  5
149
330
1F
100
AcDbEntity
  8
VISIBLE
100
AcDbEllipse
 10
239.7614563242058
 20
94.52859244555415
 30
0.0
 11
1.625
 21
-2.814582562299435
 31
0.0
210
0.0
220
0.0
230
1.0
 40
0.5773502691896241
 41
-1.645621923906234
 42
-1.495970729683556
  0
ELLIPSE
  5
14A
330
1F
100
AcDbEntity
  8
VISIBLE
100
AcDbEllipse
 10
233.7510486841202
 20
91.05848197661132
 30
0.0
 11
12.0
 21
-20.78460969082653
 31
0.0
210
0.0
220
0.0
230
1.0
 40
0.5773502691896256
 41
0.7853981633974487
 42
3.141592653589794
  0
ELLIPSE
  5
14B
330
1F
100
AcDbEntity
  8
VISIBLE
100
AcDbEllipse
 10
233.7510486841202
 20
91.05848197661132
 30
0.0
 11
12.0
 21
-20.78460969082653
 31
0.0
210
0.0
220
0.0
230
1.0
 40
0.5773502691896256
 41
0.0
 42
0.7853981633974487
  0
ELLIPSE
  5
14C
330
1F
100
AcDbEntity
  8
VISIBLE
100
AcDbEllipse
 10
226.6799808722547
 20
86.9759990719727
 30
0.0
 11
12.0
 21
-20.78460969082653
 31
0.0
210
0.0
220
0.0
230
1.0
 40
0.5773502691896256
 41
0.0
 42
0.7853981633974487
  0
ELLIPSE
  5
14D
330
1F
100
AcDbEntity
  8
VISIBLE
100
AcDbEllipse
 10
226.6799808722547
 20
86.9759990719727
 30
0.0
 11
12.0
 21
-20.78460969082653
 31
0.0
210
0.0
220
0.0
230
1.0
 40
0.5773502691896256
 41
-3.141592653589791
 42
0.0
  0
ELLIPSE
  5
14E
330
1F
100
AcDbEntity
  8
VISIBLE
100
AcDbEllipse
 10
226.6799808722547
 20
86.9759990719727
 30
0.0
 11
12.0
 21
-20.78460969082653
 31
0.0
210
0.0
220
0.0
230
1.0
 40
0.5773502691896256
 41
0.7853981633974487
 42
3.141592653589795
  0
ELLIPSE
  5
14F
330
1F
100
AcDbEntity
  8
VISIBLE
100
AcDbEllipse
 10
235.5188156370865
 20
92.07910270277097
 30
0.0
 11
2.625
 21
-4.546633369868289
 31
0.0
210
0.0
220
0.0
230
1.0
 40
0.5773502691896281
 41
0.0
 42
0.7853981633974456
  0
ELLIPSE
  5
150
330
1F
100
AcDbEntity
  8
VISIBLE
100
AcDbEllipse
 10
235.5188156370865
 20
92.07910270277097
 30
0.0
 11
2.625
 21
-4.546633369868289
 31
0.0
210
0.0
220
0.0
230
1.0
 40
0.5773502691896281
 41
-3.141592653589795
 42
0.0
  0
ELLIPSE
  5
151
330
1F
100
AcDbEntity
  8
VISIBLE
100
AcDbEllipse
 10
235.5188156370865
 20
92.07910270277097
 30
0.0
 11
2.625
 21
-4.546633369868289
 31
0.0
210
0.0
220
0.0
230
1.0
 40
0.5773502691896281
 41
0.7853981633974456
 42
3.141592653589791
  0
LINE
  5
152
330
1F
100
AcDbEntity
  8
VISIBLE
100
AcDbLine
 10
227.3517323143819
 20
93.60303603795757
 30
0.0
 11
227.3870876534413
 21
73.010252335791
 31
0.0
  0
LINE
  5
153
330
1F
100
AcDbEntity
  8
VISIBLE
100
AcDbLine
 10
221.7510486841202
 20
111.8430916674378
 30
0.0
 11
214.6799808722547
 21
107.7606087627992
 31
0.0
  0
LINE
  5
154
330
1F
100
AcDbEntity
  8
VISIBLE
100
AcDbLine
 10
245.7510486841202
 20
70.27387228578479
 30
0.0
 11
238.6799808722547
 21
66.19138938114617
 31
0.0
  0
ELLIPSE
  5
155
330
1F
100
AcDbEntity
  8
HIDDEN
100
AcDbEllipse
 10
224.9122139192883
 20
85.95537834581303
 30
0.0
 11
1.625
 21
-2.814582562299421
 31
0.0
210
0.0
220
0.0
230
1.0
 40
0.577350269189636
 41
-2.356194490192359
 42
0.0
  0
ELLIPSE
  5
156
330
1F
100
AcDbEntity
  8
HIDDEN
100
AcDbEllipse
 10
224.9122139192883
 20
85.95537834581303
 30
0.0
 11
1.625
 21
-2.814582562299421
 31
0.0
210
0.0
220
0.0
230
1.0
 40
0.577350269189636
 41
0.0
 42
3.14159265358978
  0
ELLIPSE
  5
157
330
1F
100
AcDbEntity
  8
HIDDEN
100
AcDbEllipse
 10
224.9122139192883
 20
85.95537834581303
 30
0.0
 11
1.625
 21
-2.814582562299421
 31
0.0
210
0.0
220
0.0
230
1.0
 40
0.577350269189636
 41
-3.141592653589806
 42
-2.356194490192359
  0
ELLIPSE
  5
158
330
1F
100
AcDbEntity
  8
HIDDEN
100
AcDbEllipse
 10
239.7614563242058
 20
74.116177922361
 30
0.0
 11
1.625
 21
-2.814582562299421
 31
0.0
210
0.0
220
0.0
230
1.0
 40
0.5773502691896262
 41
-2.356194490192345
 42
-1.645621923906236
  0
ELLIPSE
  5
159
330
1F
100
AcDbEntity
  8
HIDDEN
100
AcDbEllipse
 10
239.7614563242058
 20
74.116177922361
 30
0.0
 11
1.625
 21
-2.814582562299421
 31
0.0
210
0.0
220
0.0
230
1.0
 40
0.5773502691896262
 41
-1.495970729683557
 42
0.0
  0
ELLIPSE
  5
15A
330
1F
100
AcDbEntity
  8
HIDDEN
100
AcDbEllipse
 10
239.7614563242058
 20
74.116177922361
 30
0.0
 11
1.625
 21
-2.814582562299421
 31
0.0
210
0.0
220
0.0
230
1.0
 40
0.5773502691896262
 41
0.0
 42
3.141592653589793
  0
ELLIPSE
  5
15B
330
1F
100
AcDbEntity
  8
HIDDEN
100
AcDbEllipse
 10
239.7614563242058
 20
74.116177922361
 30
0.0
 11
1.625
 21
-2.814582562299421
 31
0.0
210
0.0
220
0.0
230
1.0
 40
0.5773502691896262
 41
-3.141592653589794
 42
-2.356194490192345
  0
LINE
  5
15C
330
1F
100
AcDbEntity
  8
HIDDEN
100
AcDbLine
 10
234.4228001262474
 20
97.68551894259619
 30
0.0
 11
229.8682619928758
 21
95.05595512525971
 31
0.0
  0
ELLIPSE
  5
15D
330
1F
100
AcDbEntity
  8
HIDDEN
100
AcDbEllipse
 10
233.7510486841202
 20
101.5876326682636
 30
0.0
 11
2.374803215159631
 21
-3.810631111998092
 31
0.0
210
0.0
220
0.0
230
1.0
 40
0.5764739137611028
 41
-0.6151589533013222
 42
-0.0194369832408524
  0
ELLIPSE
  5
15E
330
1F
100
AcDbEntity
  8
HIDDEN
100
AcDbEllipse
 10
233.7510486841202
 20
101.5876326682636
 30
0.0
 11
2.374803215159631
 21
-3.810631111998092
 31
0.0
210
0.0
220
0.0
230
1.0
 40
0.5764739137611028
 41
-0.0194369832408524
 42
3.122155670348938
  0
ELLIPSE
  5
15F
330
1F
100
AcDbEntity
  8
HIDDEN
100
AcDbEllipse
 10
233.7510486841202
 20
101.5876326682636
 30
0.0
 11
2.374803215159631
 21
-3.810631111998092
 31
0.0
210
0.0
220
0.0
230
1.0
 40
0.5764739137611028
 41
-3.161029636830648
 42
-1.033503513807097
  0
LINE
  5
160
330
1F
100
AcDbEntity
  8
HIDDEN
100
AcDbLine
 10
234.4581554653067
 20
77.09273524042962
 30
0.0
 11
234.4228001262474
 21
97.68551894259619
 31
0.0
  0
LINE
  5
161
330
1F
100
AcDbEntity
  8
HIDDEN
100
AcDbLine
 10
233.0439419029336
 20
77.90923182135734
 30
0.0
 11
234.4581554653067
 21
77.09273524042962
 31
0.0
  0
ELLIPSE
  5
162
330
1F
100
AcDbEntity
  8
HIDDEN
100
AcDbEllipse
 10
222.0837867945421
 20
84.32238518395758
 30
0.0
 11
2.625
 21
-4.546633369868303
 31
0.0
210
0.0
220
0.0
230
1.0
 40
0.5773502691896253
 41
0.78539816339745
 42
3.141592653589794
  0
ELLIPSE
  5
163
330
1F
100
AcDbEntity
  8
HIDDEN
100
AcDbEllipse
 10
222.0837867945421
 20
84.32238518395758
 30
0.0
 11
2.625
 21
-4.546633369868303
 31
0.0
210
0.0
220
0.0
230
1.0
 40
0.5773502691896253
 41
-3.141592653589792
 42
-2.200635860743318
  0
ELLIPSE
  5
164
330
1F
100
AcDbEntity
  8
HIDDEN
100
AcDbEllipse
 10
222.0837867945421
 20
84.32238518395758
 30
0.0
 11
2.625
 21
-4.546633369868303
 31
0.0
210
0.0
220
0.0
230
1.0
 40
0.5773502691896253
 41
-0.9409567928464736
 42
0.0
  0
ELLIPSE
  5
165
330
1F
100
AcDbEntity
  8
HIDDEN
100
AcDbEllipse
 10
222.0837867945421
 20
84.32238518395758
 30
0.0
 11
2.625
 21
-4.546633369868303
 31
0.0
210
0.0
220
0.0
230
1.0
 40
0.5773502691896253
 41
0.0
 42
0.78539816339745
  0
LINE
  5
166
330
1F
100
AcDbEntity
  8
HIDDEN
100
AcDbLine
 10
233.0439419029336
 20
77.90923182135734
 30
0.0
 11
227.3842867764403
 21
74.64162841055598
 31
0.0
  0
ELLIPSE
  5
167
330
1F
100
AcDbEntity
  8
HIDDEN
100
AcDbEllipse
 10
222.0837867945421
 20
104.7347997071507
 30
0.0
 11
1.625
 21
-2.814582562299421
 31
0.0
210
0.0
220
0.0
230
1.0
 40
0.5773502691896262
 41
-2.35619449019235
 42
-1.645621923906236
  0
ELLIPSE
  5
168
330
1F
100
AcDbEntity
  8
HIDDEN
100
AcDbEllipse
 10
222.0837867945421
 20
104.7347997071507
 30
0.0
 11
1.625
 21
-2.814582562299421
 31
0.0
210
0.0
220
0.0
230
1.0
 40
0.5773502691896262
 41
-1.495970729683554
 42
0.0
  0
ELLIPSE
  5
169
330
1F
100
AcDbEntity
  8
HIDDEN
100
AcDbEllipse
 10
222.0837867945421
 20
104.7347997071507
 30
0.0
 11
1.625
 21
-2.814582562299421
 31
0.0
210
0.0
220
0.0
230
1.0
 40
0.5773502691896262
 41
0.0
 42
3.141592653589793
  0
ELLIPSE
  5
16A
330
1F
100
AcDbEntity
  8
HIDDEN
100
AcDbEllipse
 10
222.0837867945421
 20
104.7347997071507
 30
0.0
 11
1.625
 21
-2.814582562299421
 31
0.0
210
0.0
220
0.0
230
1.0
 40
0.5773502691896262
 41
-3.141592653589794
 42
-2.35619449019235
  0
ELLIPSE
  5
16B
330
1F
100
AcDbEntity
  8
HIDDEN
100
AcDbEllipse
 10
242.589883448952
 20
96.1615856074096
 30
0.0
 11
1.625
 21
-2.814582562299421
 31
0.0
210
0.0
220
0.0
230
1.0
 40
0.5773502691896262
 41
-2.35619449019235
 42
0.0
  0
ELLIPSE
  5
16C
330
1F
100
AcDbEntity
  8
HIDDEN
100
AcDbEllipse
 10
242.589883448952
 20
96.1615856074096
 30
0.0
 11
1.625
 21
-2.814582562299421
 31
0.0
210
0.0
220
0.0
230
1.0
 40
0.5773502691896262
 41
0.0
 42
3.141592653589793
  0
ELLIPSE
  5
16D
330
1F
100
AcDbEntity
  8
HIDDEN
100
AcDbEllipse
 10
242.589883448952
 20
96.1615856074096
 30
0.0
 11
1.625
 21
-2.814582562299421
 31
0.0
210
0.0
220
0.0
230
1.0
 40
0.5773502691896262
 41
-3.141592653589794
 42
-2.35619449019235
  0
ELLIPSE
  5
16E
330
1F
100
AcDbEntity
  8
HIDDEN
100
AcDbEllipse
 10
222.0837867945421
 20
104.7347997071507
 30
0.0
 11
2.625
 21
-4.546633369868303
 31
0.0
210
0.0
220
0.0
230
1.0
 40
0.5773502691896253
 41
0.78539816339745
 42
3.141592653589794
  0
ELLIPSE
  5
16F
330
1F
100
AcDbEntity
  8
HIDDEN
100
AcDbEllipse
 10
222.0837867945421
 20
104.7347997071507
 30
0.0
 11
2.625
 21
-4.546633369868303
 31
0.0
210
0.0
220
0.0
230
1.0
 40
0.5773502691896253
 41
-3.141592653589792
 42
-2.200635860743318
  0
ELLIPSE
  5
170
330
1F
100
AcDbEntity
  8
HIDDEN
100
AcDbEllipse
 10
222.0837867945421
 20
104.7347997071507
 30
0.0
 11
2.625
 21
-4.546633369868303
 31
0.0
210
0.0
220
0.0
230
1.0
 40
0.5773502691896253
 41
-0.9409567928464736
 42
0.0
  0
ELLIPSE
  5
171
330
1F
100
AcDbEntity
  8
HIDDEN
100
AcDbEllipse
 10
222.0837867945421
 20
104.7347997071507
 30
0.0
 11
2.625
 21
-4.546633369868303
 31
0.0
210
0.0
220
0.0
230
1.0
 40
0.5773502691896253
 41
0.0
 42
0.78539816339745
  0
ELLIPSE
  5
172
330
1F
100
AcDbEntity
  8
HIDDEN
100
AcDbEllipse
 10
239.7614563242058
 20
94.52859244555415
 30
0.0
 11
2.625
 21
-4.546633369868303
 31
0.0
210
0.0
220
0.0
230
1.0
 40
0.5773502691896253
 41
0.78539816339745
 42
3.141592653589794
  0
ELLIPSE
  5
173
330
1F
100
AcDbEntity
  8
HIDDEN
100
AcDbEllipse
 10
239.7614563242058
 20
94.52859244555415
 30
0.0
 11
2.625
 21
-4.546633369868303
 31
0.0
210
0.0
220
0.0
230
1.0
 40
0.5773502691896253
 41
-3.141592653589792
 42
-2.200635860743318
  0
ELLIPSE
  5
174
330
1F
100
AcDbEntity
  8
HIDDEN
100
AcDbEllipse
 10
239.7614563242058
 20
94.52859244555415
 30
0.0
 11
2.625
 21
-4.546633369868303
 31
0.0
210
0.0
220
0.0
230
1.0
 40
0.5773502691896253
 41
-0.9409567928464736
 42
0.0
  0
ELLIPSE
  5
175
330
1F
100
AcDbEntity
  8
HIDDEN
100
AcDbEllipse
 10
239.7614563242058
 20
94.52859244555415
 30
0.0
 11
2.625
 21
-4.546633369868303
 31
0.0
210
0.0
220
0.0
230
1.0
 40
0.5773502691896253
 41
0.0
 42
0.78539816339745
  0
ELLIPSE
  5
176
330
1F
100
AcDbEntity
  8
HIDDEN
100
AcDbEllipse
 10
222.0837867945421
 20
84.32238518395758
 30
0.0
 11
1.625
 21
-2.814582562299421
 31
0.0
210
0.0
220
0.0
230
1.0
 40
0.5773502691896262
 41
-2.35619449019235
 42
-1.645621923906236
  0
ELLIPSE
  5
177
330
1F
100
AcDbEntity
  8
HIDDEN
100
AcDbEllipse
 10
222.0837867945421
 20
84.32238518395758
 30
0.0
 11
1.625
 21
-2.814582562299421
 31
0.0
210
0.0
220
0.0
230
1.0
 40
0.5773502691896262
 41
-1.495970729683554
 42
0.0
  0
ELLIPSE
  5
178
330
1F
100
AcDbEntity
  8
HIDDEN
100
AcDbEllipse
 10
222.0837867945421
 20
84.32238518395758
 30
0.0
 11
1.625
 21
-2.814582562299421
 31
0.0
210
0.0
220
0.0
230
1.0
 40
0.5773502691896262
 41
0.0
 42
3.141592653589793
  0
ELLIPSE
  5
179
330
1F
100
AcDbEntity
  8
HIDDEN
100
AcDbEllipse
 10
222.0837867945421
 20
84.32238518395758
 30
0.0
 11
1.625
 21
-2.814582562299421
 31
0.0
210
0.0
220
0.0
230
1.0
 40
0.5773502691896262
 41
-3.141592653589794
 42
-2.35619449019235
  0
LINE
  5
17A
330
1F
100
AcDbEntity
  8
HIDDEN
100
AcDbLine
 10
233.0792972419929
 20
98.46119069447754
 30
0.0
 11
233.0439419029336
 21
77.90923182135734
 31
0.0
  0
ELLIPSE
  5
17B
330
1F
100
AcDbEntity
  8
HIDDEN
100
AcDbEllipse
 10
224.9122139192883
 20
106.3677928690062
 30
0.0
 11
1.624999999999972
 21
-2.814582562299421
 31
0.0
210
0.0
220
0.0
230
1.0
 40
0.5773502691896265
 41
-2.356194490192335
 42
0.0
  0
ELLIPSE
  5
17C
330
1F
100
AcDbEntity
  8
HIDDEN
100
AcDbEllipse
 10
224.9122139192883
 20
106.3677928690062
 30
0.0
 11
1.624999999999972
 21
-2.814582562299421
 31
0.0
210
0.0
220
0.0
230
1.0
 40
0.5773502691896265
 41
0.0
 42
3.141592653589802
  0
ELLIPSE
  5
17D
330
1F
100
AcDbEntity
  8
HIDDEN
100
AcDbEllipse
 10
224.9122139192883
 20
106.3677928690062
 30
0.0
 11
1.624999999999972
 21
-2.814582562299421
 31
0.0
210
0.0
220
0.0
230
1.0
 40
0.5773502691896265
 41
-3.141592653589784
 42
-2.356194490192335
  0
ELLIPSE
  5
17E
330
1F
100
AcDbEntity
  8
HIDDEN
100
AcDbEllipse
 10
239.7614563242058
 20
74.116177922361
 30
0.0
 11
2.625
 21
-4.546633369868303
 31
0.0
210
0.0
220
0.0
230
1.0
 40
0.5773502691896253
 41
0.78539816339745
 42
3.141592653589794
  0
ELLIPSE
  5
17F
330
1F
100
AcDbEntity
  8
HIDDEN
100
AcDbEllipse
 10
239.7614563242058
 20
74.116177922361
 30
0.0
 11
2.625
 21
-4.546633369868303
 31
0.0
210
0.0
220
0.0
230
1.0
 40
0.5773502691896253
 41
-3.141592653589792
 42
-2.200635860743318
  0
ELLIPSE
  5
180
330
1F
100
AcDbEntity
  8
HIDDEN
100
AcDbEllipse
 10
239.7614563242058
 20
74.116177922361
 30
0.0
 11
2.625
 21
-4.546633369868303
 31
0.0
210
0.0
220
0.0
230
1.0
 40
0.5773502691896253
 41
-0.9409567928464728
 42
0.0
  0
ELLIPSE
  5
181
330
1F
100
AcDbEntity
  8
HIDDEN
100
AcDbEllipse
 10
239.7614563242058
 20
74.116177922361
 30
0.0
 11
2.625
 21
-4.546633369868303
 31
0.0
210
0.0
220
0.0
230
1.0
 40
0.5773502691896253
 41
0.0
 42
0.78539816339745
  0
LINE
  5
182
330
1F
100
AcDbEntity
  8
HIDDEN
100
AcDbLine
 10
233.0792972419929
 20
98.46119069447754
 30
0.0
 11
229.815889168407
 21
96.57706116471705
 31
0.0
  0
LINE
  5
183
330
1F
100
AcDbEntity
  8
HIDDEN
100
AcDbLine
 10
234.4581554653067
 20
77.09273524042962
 30
0.0
 11
227.3870876534413
 21
73.010252335791
 31
0.0
  0
ELLIPSE
  5
184
330
1F
100
AcDbEntity
  8
HIDDEN
100
AcDbEllipse
 10
242.589883448952
 20
75.74917108421646
 30
0.0
 11
1.625
 21
-2.814582562299435
 31
0.0
210
0.0
220
0.0
230
1.0
 40
0.5773502691896241
 41
-2.35619449019234
 42
0.0
  0
ELLIPSE
  5
185
330
1F
100
AcDbEntity
  8
HIDDEN
100
AcDbEllipse
 10
242.589883448952
 20
75.74917108421646
 30
0.0
 11
1.625
 21
-2.814582562299435
 31
0.0
210
0.0
220
0.0
230
1.0
 40
0.5773502691896241
 41
0.0
 42
3.141592653589797
  0
ELLIPSE
  5
186
330
1F
100
AcDbEntity
  8
HIDDEN
100
AcDbEllipse
 10
242.589883448952
 20
75.74917108421646
 30
0.0
 11
1.625
 21
-2.814582562299435
 31
0.0
210
0.0
220
0.0
230
1.0
 40
0.5773502691896241
 41
-3.141592653589789
 42
-2.35619449019234
  0
ELLIPSE
  5
187
330
1F
100
AcDbEntity
  8
HIDDEN
100
AcDbEllipse
 10
239.7614563242058
 20
94.52859244555415
 30
0.0
 11
1.625
 21
-2.814582562299435
 31
0.0
210
0.0
220
0.0
230
1.0
 40
0.5773502691896241
 41
-2.356194490192345
 42
-1.645621923906234
  0
ELLIPSE
  5
188
330
1F
100
AcDbEntity
  8
HIDDEN
100
AcDbEllipse
 10
239.7614563242058
 20
94.52859244555415
 30
0.0
 11
1.625
 21
-2.814582562299435
 31
0.0
210
0.0
220
0.0
230
1.0
 40
0.5773502691896241
 41
-1.495970729683556
 42
0.0
  0
ELLIPSE
  5
189
330
1F
100
AcDbEntity
  8
HIDDEN
100
AcDbEllipse
 10
239.7614563242058
 20
94.52859244555415
 30
0.0
 11
1.625
 21
-2.814582562299435
 31
0.0
210
0.0
220
0.0
230
1.0
 40
0.5773502691896241
 41
0.0
 42
3.141592653589797
  0
ELLIPSE
  5
18A
330
1F
100
AcDbEntity
  8
HIDDEN
100
AcDbEllipse
 10
239.7614563242058
 20
94.52859244555415
 30
0.0
 11
1.625
 21
-2.814582562299435
 31
0.0
210
0.0
220
0.0
230
1.0
 40
0.5773502691896241
 41
-3.141592653589789
 42
-2.356194490192345
  0
ELLIPSE
  5
18B
330
1F
100
AcDbEntity
  8
HIDDEN
100
AcDbEllipse
 10
233.7510486841202
 20
91.05848197661132
 30
0.0
 11
12.0
 21
-20.78460969082653
 31
0.0
210
0.0
220
0.0
230
1.0
 40
0.5773502691896256
 41
-3.141592653589792
 42
0.0
  0
LINE
  5
18C
330
1F
100
AcDbEntity
  8
HIDDEN
100
AcDbLine
 10
226.5372139192883
 20
103.5532103067068
 30
0.0
 11
223.7087867945421
 21
101.9202171448513
 31
0.0
  0
LINE
  5
18D
330
1F
100
AcDbEntity
  8
HIDDEN
100
AcDbLine
 10
238.1438156370865
 20
67.12005480970952
 30
0.0
 11
242.3864563242058
 21
69.5695445524927
 31
0.0
  0
LINE
  5
18E
330
1F
100
AcDbEntity
  8
HIDDEN
100
AcDbLine
 10
236.0827082127731
 20
97.75111356494662
 30
0.0
 11
229.0116404009076
 21
93.66863066030798
 31
0.0
  0
LINE
  5
18F
330
1F
100
AcDbEntity
  8
HIDDEN
100
AcDbLine
 10
244.214883448952
 20
93.34700304511018
 30
0.0
 11
241.3864563242058
 21
91.71400988325472
 31
0.0
  0
LINE
  5
190
330
1F
100
AcDbEntity
  8
HIDDEN
100
AcDbLine
 10
232.8938156370865
 20
96.62573607263927
 30
0.0
 11
237.1364563242058
 21
99.07522581542246
 31
0.0
  0
LINE
  5
191
330
1F
100
AcDbEntity
  8
HIDDEN
100
AcDbLine
 10
231.4193891554673
 20
105.4241517715807
 30
0.0
 11
224.3483213436018
 21
101.341668866942
 31
0.0
  0
LINE
  5
192
330
1F
100
AcDbEntity
  8
HIDDEN
100
AcDbLine
 10
244.214883448952
 20
72.93458852191702
 30
0.0
 11
241.3864563242058
 21
71.30159536006157
 31
0.0
  0
LINE
  5
193
330
1F
100
AcDbEntity
  8
HIDDEN
100
AcDbLine
 10
238.1438156370865
 20
87.53246933290268
 30
0.0
 11
242.3864563242058
 21
89.98195907568585
 31
0.0
  0
LINE
  5
194
330
1F
100
AcDbEntity
  8
HIDDEN
100
AcDbLine
 10
220.4661461074228
 20
77.3262620713061
 30
0.0
 11
224.7087867945421
 21
79.77575181408928
 31
0.0
  0
LINE
  5
195
330
1F
100
AcDbEntity
  8
HIDDEN
100
AcDbLine
 10
232.8938156370865
 20
76.21332154944612
 30
0.0
 11
237.1364563242058
 21
78.6628112922293
 31
0.0
  0
LINE
  5
196
330
1F
100
AcDbEntity
  8
HIDDEN
100
AcDbLine
 10
220.4661461074228
 20
97.73867659449925
 30
0.0
 11
224.7087867945421
 21
100.1881663372824
 31
0.0
  0
LINE
  5
197
330
1F
100
AcDbEntity
  8
HIDDEN
100
AcDbLine
 10
240.964883448952
 20
78.56375364651588
 30
0.0
 11
238.1364563242058
 21
76.93076048466042
 31
0.0
  0
LINE
  5
198
330
1F
100
AcDbEntity
  8
HIDDEN
100
AcDbLine
 10
215.2161461074228
 20
106.8319433342359
 30
0.0
 11
219.4587867945421
 21
109.281433077019
 31
0.0
  0
LINE
  5
199
330
1F
100
AcDbEntity
  8
HIDDEN
100
AcDbLine
 10
226.5372139192883
 20
83.14079578351361
 30
0.0
 11
223.7087867945421
 21
81.50780262165816
 31
0.0
  0
LINE
  5
19A
330
1F
100
AcDbEntity
  8
HIDDEN
100
AcDbLine
 10
215.2161461074228
 20
86.41952881104271
 30
0.0
 11
219.4587867945421
 21
88.86901855382588
 31
0.0
  0
LINE
  5
19B
330
1F
100
AcDbEntity
  8
HIDDEN
100
AcDbLine
 10
223.2872139192883
 20
88.76996090811245
 30
0.0
 11
220.4587867945421
 21
87.136967746257
 31
0.0
  0
LINE
  5
19C
330
1F
100
AcDbEntity
  8
HIDDEN
100
AcDbLine
 10
223.2872139192883
 20
109.1823754313056
 30
0.0
 11
220.4587867945421
 21
107.5493822694501
 31
0.0
  0
LINE
  5
19D
330
1F
100
AcDbEntity
  8
HIDDEN
100
AcDbLine
 10
240.964883448952
 20
98.97616816970903
 30
0.0
 11
238.1364563242058
 21
97.34317500785357
 31
0.0
  0
LINE
  5
19E
330
1F
100
AcDbEntity
  8
CENTER
100
AcDbLine
 10
240.7426571846867
 20
74.68267450328874
 30
0.0
 11
241.6086825884711
 21
75.18267450328872
 31
0.0
  0
LINE
  5
19F
330
1F
100
AcDbEntity
  8
CENTER
100
AcDbLine
 10
240.3096444827945
 20
74.43267450328874
 30
0.0
 11
234.713728628334
 21
71.20187097835345
 31
0.0
  0
LINE
  5
1A0
330
1F
100
AcDbEntity
  8
CENTER
100
AcDbLine
 10
242.0416952903634
 20
75.43267450328872
 30
0.0
 11
247.6376111448239
 21
78.663478028224
 31
0.0
  0
LINE
  5
1A1
330
1F
100
AcDbEntity
  8
CENTER
100
AcDbLine
 10
223.064987655023
 20
105.3012962880784
 30
0.0
 11
223.9310130588075
 21
105.8012962880784
 31
0.0
  0
LINE
  5
1A2
330
1F
100
AcDbEntity
  8
CENTER
100
AcDbLine
 10
222.6319749531308
 20
105.0512962880784
 30
0.0
 11
217.0360590986703
 21
101.8204927631432
 31
0.0
  0
LINE
  5
1A3
330
1F
100
AcDbEntity
  8
CENTER
100
AcDbLine
 10
224.3640257606997
 20
106.0512962880784
 30
0.0
 11
229.9599416151602
 21
109.2820998130137
 31
0.0
  0
LINE
  5
1A4
330
1F
100
AcDbEntity
  8
CENTER
100
AcDbLine
 10
229.7825020762952
 20
88.767240524292
 30
0.0
 11
230.6485274800797
 21
89.267240524292
 31
0.0
  0
LINE
  5
1A5
330
1F
100
AcDbEntity
  8
CENTER
100
AcDbLine
 10
229.349489374403
 20
88.517240524292
 30
0.0
 11
225.0193623554808
 21
86.017240524292
 31
0.0
  0
LINE
  5
1A6
330
1F
100
AcDbEntity
  8
CENTER
100
AcDbLine
 10
231.0815401819719
 20
89.517240524292
 30
0.0
 11
235.4116672008941
 21
92.017240524292
 31
0.0
  0
LINE
  5
1A7
330
1F
100
AcDbEntity
  8
CENTER
100
AcDbLine
 10
224.5863496535886
 20
85.767240524292
 30
0.0
 11
223.7203242498042
 21
85.267240524292
 31
0.0
  0
LINE
  5
1A8
330
1F
100
AcDbEntity
  8
CENTER
100
AcDbLine
 10
235.8446799027863
 20
92.267240524292
 30
0.0
 11
236.7107053065707
 21
92.767240524292
 31
0.0
  0
LINE
  5
1A9
330
1F
100
AcDbEntity
  8
CENTER
100
AcDbLine
 10
223.2873115479119
 20
85.017240524292
 30
0.0
 11
218.9571845289897
 21
82.517240524292
 31
0.0
  0
LINE
  5
1AA
330
1F
100
AcDbEntity
  8
CENTER
100
AcDbLine
 10
237.1437180084629
 20
93.017240524292
 30
0.0
 11
241.4738450273852
 21
95.517240524292
 31
0.0
  0
LINE
  5
1AB
330
1F
100
AcDbEntity
  8
CENTER
100
AcDbLine
 10
218.5241718270975
 20
82.267240524292
 30
0.0
 11
217.6581464233131
 21
81.767240524292
 31
0.0
  0
LINE
  5
1AC
330
1F
100
AcDbEntity
  8
CENTER
100
AcDbLine
 10
241.9068577292774
 20
95.767240524292
 30
0.0
 11
242.7728831330618
 21
96.267240524292
 31
0.0
  0
LINE
  5
1AD
330
1F
100
AcDbEntity
  8
CENTER
100
AcDbLine
 10
217.2251337214209
 20
81.517240524292
 30
0.0
 11
212.8950067024987
 21
79.017240524292
 31
0.0
  0
LINE
  5
1AE
330
1F
100
AcDbEntity
  8
CENTER
100
AcDbLine
 10
243.205895834954
 20
96.517240524292
 30
0.0
 11
247.5360228538762
 21
99.017240524292
 31
0.0
  0
LINE
  5
1AF
330
1F
100
AcDbEntity
  8
CENTER
100
AcDbLine
 10
212.4619940006064
 20
78.767240524292
 30
0.0
 11
211.595968596822
 21
78.267240524292
 31
0.0
  0
LINE
  5
1B0
330
1F
100
AcDbEntity
  8
CENTER
100
AcDbLine
 10
247.9690355557684
 20
99.267240524292
 30
0.0
 11
248.8350609595529
 21
99.76724052429199
 31
0.0
  0
LINE
  5
1B1
330
1F
100
AcDbEntity
  8
CENTER
100
AcDbLine
 10
211.1629558949298
 20
78.017240524292
 30
0.0
 11
206.959787466762
 21
75.59054010083999
 31
0.0
  0
LINE
  5
1B2
330
1F
100
AcDbEntity
  8
CENTER
100
AcDbLine
 10
249.2680736614451
 20
100.017240524292
 30
0.0
 11
253.4712420896129
 21
102.443940947744
 31
0.0
  0
LINE
  5
1B3
330
1F
100
AcDbEntity
  8
CENTER
100
AcDbLine
 10
219.5294537490903
 20
103.2600548357591
 30
0.0
 11
220.3954791528747
 21
103.7600548357591
 31
0.0
  0
LINE
  5
1B4
330
1F
100
AcDbEntity
  8
CENTER
100
AcDbLine
 10
219.0964410471981
 20
103.0100548357591
 30
0.0
 11
214.7663140282759
 21
100.5100548357591
 31
0.0
  0
LINE
  5
1B5
330
1F
100
AcDbEntity
  8
CENTER
100
AcDbLine
 10
220.828491854767
 20
104.0100548357591
 30
0.0
 11
225.1586188736891
 21
106.5100548357591
 31
0.0
  0
LINE
  5
1B6
330
1F
100
AcDbEntity
  8
CENTER
100
AcDbLine
 10
214.3333013263837
 20
100.2600548357591
 30
0.0
 11
213.4672759225992
 21
99.76005483575914
 31
0.0
  0
LINE
  5
1B7
330
1F
100
AcDbEntity
  8
CENTER
100
AcDbLine
 10
225.5916315755813
 20
106.7600548357591
 30
0.0
 11
226.4576569793658
 21
107.2600548357591
 31
0.0
  0
LINE
  5
1B8
330
1F
100
AcDbEntity
  8
CENTER
100
AcDbLine
 10
213.034263220707
 20
99.51005483575914
 30
0.0
 11
211.3792048491779
 21
98.55450643943227
 31
0.0
  0
LINE
  5
1B9
330
1F
100
AcDbEntity
  8
CENTER
100
AcDbLine
 10
226.890669681258
 20
107.5100548357591
 30
0.0
 11
228.5457280527871
 21
108.465603232086
 31
0.0
  0
LINE
  5
1BA
330
1F
100
AcDbEntity
  8
CENTER
100
AcDbLine
 10
237.207123278754
 20
72.64143305096941
 30
0.0
 11
238.0731486825384
 21
73.14143305096941
 31
0.0
  0
LINE
  5
1BB
330
1F
100
AcDbEntity
  8
CENTER
100
AcDbLine
 10
236.7741105768617
 20
72.39143305096941
 30
0.0
 11
232.4439835579396
 21
69.89143305096941
 31
0.0
  0
LINE
  5
1BC
330
1F
100
AcDbEntity
  8
CENTER
100
AcDbLine
 10
238.5061613844306
 20
73.39143305096941
 30
0.0
 11
242.8362884033528
 21
75.89143305096941
 31
0.0
  0
LINE
  5
1BD
330
1F
100
AcDbEntity
  8
CENTER
100
AcDbLine
 10
232.0109708560473
 20
69.64143305096941
 30
0.0
 11
231.1449454522629
 21
69.14143305096943
 31
0.0
  0
LINE
  5
1BE
330
1F
100
AcDbEntity
  8
CENTER
100
AcDbLine
 10
243.269301105245
 20
76.14143305096941
 30
0.0
 11
244.1353265090295
 21
76.64143305096941
 31
0.0
  0
LINE
  5
1BF
330
1F
100
AcDbEntity
  8
CENTER
100
AcDbLine
 10
230.7119327503707
 20
68.89143305096943
 30
0.0
 11
229.0568743788416
 21
67.93588465464254
 31
0.0
  0
LINE
  5
1C0
330
1F
100
AcDbEntity
  8
CENTER
100
AcDbLine
 10
244.5683392109217
 20
76.89143305096941
 30
0.0
 11
246.2233975824508
 21
77.84698144729629
 31
0.0
  0
INSERT
  5
1C1
330
1F
100
AcDbEntity
  8
CONTINUOUS
100
AcDbBlockReference
  2
BLOCK1
 10
0.0
 20
0.0
 30
0.0
  0
MTEXT
  5
20D
330
1F
100
AcDbEntity
  8
CONTINUOUS
100
AcDbMText
 10
203.77604675293
 20
14.05426716099204
 30
0.0
 40
2.188737186504777
 41
0.0
 46
0.0
 71
     1
 72
     1
  1
{\fCE|b0|i0|c0|p0;\C7;-------------------     }{\fCE|b0|i0|c0|p0;\C7;}
 73
     1
 44
1.0
  0
MTEXT
  5
20E
330
1F
100
AcDbEntity
  8
CONTINUOUS
100
AcDbMText
 10
275.790710449219
 20
14.86342548618734
 30
0.0
 40
2.188737186504777
 41
0.0
 46
0.0
 71
     1
 72
     1
  1
{\fCE|b0|i0|c0|p0;\C7;1:1  }{\fCE|b0|i0|c0|p0;\C7;}
 73
     1
 44
1.0
  0
MTEXT
  5
20F
330
1F
100
AcDbEntity
  8
CONTINUOUS
100
AcDbMText
 10
259.0682067871089
 20
26.21301780101352
 30
0.0
 40
2.188737186504777
 41
0.0
 46
0.0
 71
     1
 72
     1
  1
{\fCE|b0|i0|c0|p0;\C7;1.4301}{\fCE|b0|i0|c0|p0;\C7;}
 73
     1
 44
1.0
  0
MTEXT
  5
210
330
1F
100
AcDbEntity
  8
CONTINUOUS
100
AcDbMText
 10
259.068206787109
 20
14.05426716099204
 30
0.0
 40
2.188737186504777
 41
0.0
 46
0.0
 71
     1
 72
     1
  1
{\fCE|b0|i0|c0|p0;\C7;1x}{\fCE|b0|i0|c0|p0;\C7;}
 73
     1
 44
1.0
  0
MTEXT
  5
211
330
1F
100
AcDbEntity
  8
CONTINUOUS
100
AcDbMText
 10
196.386611938476
 20
24.6095081504287
 30
0.0
 40
1.969863467854299
 41
0.0
 46
0.0
 71
     1
 72
     1
  1
{\fCE|b0|i0|c0|p0;\C7;Tvar 80x200     }{\fCE|b0|i0|c0|p0;\C7;\H1.111111x;}
 73
     1
 44
1.0
  0
MTEXT
  5
212
330
1F
100
AcDbEntity
  8
CONTINUOUS
100
AcDbMText
 10
231.556991577148
 20
15.67256759891924
 30
0.0
 40
2.188737186504777
 41
0.0
 46
0.0
 71
     1
 72
     1
  1
{\fCE|b0|i0|c0|p0;\C7;05.09.2018}{\fCE|b0|i0|c0|p0;\C7;}
 73
     1
 44
1.0
  0
ENDSEC
  0
SECTION
  2
OBJECTS
  0
DICTIONARY
  5
C
330
0
100
AcDbDictionary
281
     1
  3
ACAD_DETAILVIEWSTYLE
350
21A
  3
ACAD_GROUP
350
D
  3
ACAD_LAYOUT
350
1A
  3
ACAD_MATERIAL
350
43
  3
ACAD_MLEADERSTYLE
350
6B
  3
ACAD_MLINESTYLE
350
17
  3
ACAD_PLOTSETTINGS
350
19
  3
ACAD_PLOTSTYLENAME
350
E
  3
ACAD_SCALELIST
350
47
  3
ACAD_SECTIONVIEWSTYLE
350
21B
  3
ACAD_TABLESTYLE
350
69
  3
ACAD_VISUALSTYLE
350
2A
  3
ACDB_RECOMPOSE_DATA
350
217
  3
AcDbVariableDictionary
350
213
  0
SUN
  5
6D
330
29
100
AcDbSun
 90
        1
290
     0
 63
     7
421
 16777215
 40
1.0
291
     1
 91
  2455826
 92
 54000000
292
     0
 70
     2
 71
   256
280
     1
  0
DICTIONARY
  5
21A
102
{ACAD_REACTORS
330
C
102
}
330
C
100
AcDbDictionary
281
     1
  0
DICTIONARY
  5
D
102
{ACAD_REACTORS
330
C
102
}
330
C
100
AcDbDictionary
281
     1
  0
DICTIONARY
  5
1A
102
{ACAD_REACTORS
330
C
102
}
330
C
100
AcDbDictionary
281
     1
  3
Layout1
350
1E
  3
Layout2
350
26
  3
Model
350
22
  0
DICTIONARY
  5
43
102
{ACAD_REACTORS
330
C
102
}
330
C
100
AcDbDictionary
281
     1
  3
ByBlock
350
45
  3
ByLayer
350
44
  3
Global
350
46
  0
DICTIONARY
  5
6B
102
{ACAD_REACTORS
330
C
102
}
330
C
100
AcDbDictionary
281
     1
  3
Standard
350
6C
  0
DICTIONARY
  5
17
102
{ACAD_REACTORS
330
C
102
}
330
C
100
AcDbDictionary
281
     1
  3
Standard
350
18
  0
DICTIONARY
  5
19
102
{ACAD_REACTORS
330
C
102
}
330
C
100
AcDbDictionary
281
     1
  0
ACDBDICTIONARYWDFLT
  5
E
102
{ACAD_REACTORS
330
C
102
}
330
C
100
AcDbDictionary
281
     1
  3
Normal
350
F
100
AcDbDictionaryWithDefault
340
F
  0
DICTIONARY
  5
47
102
{ACAD_REACTORS
330
C
102
}
330
C
100
AcDbDictionary
281
     1
  3
A0
350
48
  3
A1
350
49
  3
A2
350
4A
  3
A3
350
4B
  3
A4
350
4C
  3
A5
350
4D
  3
A6
350
4E
  3
A7
350
4F
  3
A8
350
50
  3
A9
350
51
  3
B0
350
52
  3
B1
350
53
  3
B2
350
54
  3
B3
350
55
  3
B4
350
56
  3
B5
350
57
  3
B6
350
58
  3
B7
350
59
  3
B8
350
5A
  3
B9
350
5B
  3
C0
350
5C
  3
C1
350
5D
  3
C2
350
5E
  3
C3
350
5F
  3
C4
350
60
  3
C5
350
61
  3
C6
350
62
  3
C7
350
63
  3
C8
350
64
  3
C9
350
65
  3
D0
350
66
  3
D1
350
67
  3
D2
350
68
  0
DICTIONARY
  5
21B
102
{ACAD_REACTORS
330
C
102
}
330
C
100
AcDbDictionary
281
     1
  0
DICTIONARY
  5
69
102
{ACAD_REACTORS
330
C
102
}
330
C
100
AcDbDictionary
281
     1
  3
Standard
350
6A
  0
DICTIONARY
  5
2A
102
{ACAD_REACTORS
330
C
102
}
330
C
100
AcDbDictionary
281
     1
  3
2dWireframe
350
2F
  3
Basic
350
32
  3
Brighten
350
36
  3
ColorChange
350
3A
  3
Conceptual
350
34
  3
Dim
350
35
  3
EdgeColorOff
350
3D
  3
Facepattern
350
39
  3
Flat
350
2B
  3
FlatWithEdges
350
2C
  3
Gouraud
350
2D
  3
GouraudWithEdges
350
2E
  3
Hidden
350
31
  3
JitterOff
350
3B
  3
Linepattern
350
38
  3
OverhangOff
350
3C
  3
Realistic
350
33
  3
Shaded
350
42
  3
Shaded with edges
350
41
  3
Shades of Gray
350
3E
  3
Sketchy
350
3F
  3
Thicken
350
37
  3
Wireframe
350
30
  3
X-Ray
350
40
  0
XRECORD
  5
217
102
{ACAD_REACTORS
330
C
102
}
330
C
100
AcDbXrecord
280
     1
 90
        1
330
6A
  0
DICTIONARY
  5
213
102
{ACAD_REACTORS
330
C
102
}
330
C
100
AcDbDictionary
281
     1
  3
CANNOSCALE
350
214
  3
CENTEREXE
350
21C
  3
CENTERLTYPEFILE
350
21D
  3
CMLEADERSTYLE
350
219
  3
CTABLESTYLE
350
218
  0
LAYOUT
  5
1E
102
{ACAD_REACTORS
330
1A
102
}
330
1A
100
AcDbPlotSettings
  1

  2
none_device
  4

  6

 40
0.0
 41
0.0
 42
0.0
 43
0.0
 44
0.0
 45
0.0
 46
0.0
 47
0.0
 48
0.0
 49
0.0
140
0.0
141
0.0
142
1.0
143
1.0
 70
   688
 72
     1
 73
     0
 74
     5
  7

 75
    16
 76
     0
 77
     2
 78
   300
147
1.0
148
0.0
149
0.0
100
AcDbLayout
  1
Layout1
 70
     1
 71
     1
 10
0.0
 20
0.0
 11
420.0
 21
297.0
 12
0.0
 22
0.0
 32
0.0
 14
1.000000000000000E+20
 24
1.000000000000000E+20
 34
1.000000000000000E+20
 15
-1.000000000000000E+20
 25
-1.000000000000000E+20
 35
-1.000000000000000E+20
146
0.0
 13
0.0
 23
0.0
 33
0.0
 16
1.0
 26
0.0
 36
0.0
 17
0.0
 27
1.0
 37
0.0
 76
     0
330
1B
  0
LAYOUT
  5
26
102
{ACAD_REACTORS
330
1A
102
}
330
1A
100
AcDbPlotSettings
  1

  2
none_device
  4

  6

 40
0.0
 41
0.0
 42
0.0
 43
0.0
 44
0.0
 45
0.0
 46
0.0
 47
0.0
 48
0.0
 49
0.0
140
0.0
141
0.0
142
1.0
143
1.0
 70
   688
 72
     1
 73
     0
 74
     5
  7

 75
    16
 76
     0
 77
     2
 78
   300
147
1.0
148
0.0
149
0.0
100
AcDbLayout
  1
Layout2
 70
     1
 71
     2
 10
0.0
 20
0.0
 11
0.0
 21
0.0
 12
0.0
 22
0.0
 32
0.0
 14
0.0
 24
0.0
 34
0.0
 15
0.0
 25
0.0
 35
0.0
146
0.0
 13
0.0
 23
0.0
 33
0.0
 16
1.0
 26
0.0
 36
0.0
 17
0.0
 27
1.0
 37
0.0
 76
     0
330
23
  0
LAYOUT
  5
22
102
{ACAD_REACTORS
330
1A
102
}
330
1A
100
AcDbPlotSettings
  1

  2
none_device
  4
Letter_(8.50_x_11.00_Inches)
  6

 40
6.35
 41
6.35
 42
6.35000508
 43
6.35000508
 44
215.9
 45
279.4
 46
0.0
 47
0.0
 48
0.0
 49
0.0
140
0.0
141
0.0
142
1.0
143
1.0
 70
  1712
 72
     1
 73
     0
 74
     0
  7

 75
     0
 76
     0
 77
     2
 78
   300
147
1.0
148
0.0
149
0.0
100
AcDbLayout
  1
Model
 70
     1
 71
     0
 10
0.0
 20
0.0
 11
420.0
 21
297.0
 12
0.0
 22
0.0
 32
0.0
 14
1.000000000000000E+20
 24
1.000000000000000E+20
 34
1.000000000000000E+20
 15
-1.000000000000000E+20
 25
-1.000000000000000E+20
 35
-1.000000000000000E+20
146
0.0
 13
0.0
 23
0.0
 33
0.0
 16
1.0
 26
0.0
 36
0.0
 17
0.0
 27
1.0
 37
0.0
 76
     0
330
1F
331
29
  0
MATERIAL
  5
45
102
{ACAD_REACTORS
330
43
102
}
330
43
100
AcDbMaterial
  1
ByBlock
 72
     1
 94
      127
  0
MATERIAL
  5
44
102
{ACAD_REACTORS
330
43
102
}
330
43
100
AcDbMaterial
  1
ByLayer
 72
     1
 94
      127
  0
MATERIAL
  5
46
102
{ACAD_REACTORS
330
43
102
}
330
43
100
AcDbMaterial
  1
Global
 72
     1
 94
      127
  0
MLEADERSTYLE
  5
6C
102
{ACAD_REACTORS
330
6B
102
}
330
6B
100
AcDbMLeaderStyle
179
     2
170
     2
171
     1
172
     0
 90
        2
 40
0.0
 41
0.0
173
     1
 91
-1056964608
340
14
 92
       -2
290
     1
 42
2.0
291
     1
 43
8.0
  3
Standard
341
0
 44
4.0
300

342
11
174
     1
178
     6
175
     1
176
     0
 93
-1056964608
 45
4.0
292
     0
297
     0
 46
4.0
343
0
 94
-1056964608
 47
1.0
 49
1.0
140
1.0
293
     1
141
0.0
294
     1
177
     0
142
1.0
295
     0
296
     0
143
3.75
271
     0
272
     9
273
     9
298
     0
  0
MLINESTYLE
  5
18
102
{ACAD_REACTORS
330
17
102
}
330
17
100
AcDbMlineStyle
  2
Standard
 70
     0
  3

 62
   256
 51
90.0
 52
90.0
 71
     2
 49
0.5
 62
   256
  6
BYLAYER
 49
-0.5
 62
   256
  6
BYLAYER
  0
ACDBPLACEHOLDER
  5
F
102
{ACAD_REACTORS
330
E
102
}
330
E
  0
SCALE
  5
48
102
{ACAD_REACTORS
330
47
102
}
330
47
100
AcDbScale
 70
     0
300
1:1
140
1.0
141
1.0
290
     1
  0
SCALE
  5
49
102
{ACAD_REACTORS
330
47
102
}
330
47
100
AcDbScale
 70
     0
300
1:2
140
1.0
141
2.0
290
     0
  0
SCALE
  5
4A
102
{ACAD_REACTORS
330
47
102
}
330
47
100
AcDbScale
 70
     0
300
1:4
140
1.0
141
4.0
290
     0
  0
SCALE
  5
4B
102
{ACAD_REACTORS
330
47
102
}
330
47
100
AcDbScale
 70
     0
300
1:5
140
1.0
141
5.0
290
     0
  0
SCALE
  5
4C
102
{ACAD_REACTORS
330
47
102
}
330
47
100
AcDbScale
 70
     0
300
1:8
140
1.0
141
8.0
290
     0
  0
SCALE
  5
4D
102
{ACAD_REACTORS
330
47
102
}
330
47
100
AcDbScale
 70
     0
300
1:10
140
1.0
141
10.0
290
     0
  0
SCALE
  5
4E
102
{ACAD_REACTORS
330
47
102
}
330
47
100
AcDbScale
 70
     0
300
1:16
140
1.0
141
16.0
290
     0
  0
SCALE
  5
4F
102
{ACAD_REACTORS
330
47
102
}
330
47
100
AcDbScale
 70
     0
300
1:20
140
1.0
141
20.0
290
     0
  0
SCALE
  5
50
102
{ACAD_REACTORS
330
47
102
}
330
47
100
AcDbScale
 70
     0
300
1:30
140
1.0
141
30.0
290
     0
  0
SCALE
  5
51
102
{ACAD_REACTORS
330
47
102
}
330
47
100
AcDbScale
 70
     0
300
1:40
140
1.0
141
40.0
290
     0
  0
SCALE
  5
52
102
{ACAD_REACTORS
330
47
102
}
330
47
100
AcDbScale
 70
     0
300
1:50
140
1.0
141
50.0
290
     0
  0
SCALE
  5
53
102
{ACAD_REACTORS
330
47
102
}
330
47
100
AcDbScale
 70
     0
300
1:100
140
1.0
141
100.0
290
     0
  0
SCALE
  5
54
102
{ACAD_REACTORS
330
47
102
}
330
47
100
AcDbScale
 70
     0
300
2:1
140
2.0
141
1.0
290
     0
  0
SCALE
  5
55
102
{ACAD_REACTORS
330
47
102
}
330
47
100
AcDbScale
 70
     0
300
4:1
140
4.0
141
1.0
290
     0
  0
SCALE
  5
56
102
{ACAD_REACTORS
330
47
102
}
330
47
100
AcDbScale
 70
     0
300
8:1
140
8.0
141
1.0
290
     0
  0
SCALE
  5
57
102
{ACAD_REACTORS
330
47
102
}
330
47
100
AcDbScale
 70
     0
300
10:1
140
10.0
141
1.0
290
     0
  0
SCALE
  5
58
102
{ACAD_REACTORS
330
47
102
}
330
47
100
AcDbScale
 70
     0
300
100:1
140
100.0
141
1.0
290
     0
  0
SCALE
  5
59
102
{ACAD_REACTORS
330
47
102
}
330
47
100
AcDbScale
 70
     0
300
1/128" = 1'-0"
140
0.0078125
141
12.0
290
     0
  0
SCALE
  5
5A
102
{ACAD_REACTORS
330
47
102
}
330
47
100
AcDbScale
 70
     0
300
1/64" = 1'-0"
140
0.015625
141
12.0
290
     0
  0
SCALE
  5
5B
102
{ACAD_REACTORS
330
47
102
}
330
47
100
AcDbScale
 70
     0
300
1/32" = 1'-0"
140
0.03125
141
12.0
290
     0
  0
SCALE
  5
5C
102
{ACAD_REACTORS
330
47
102
}
330
47
100
AcDbScale
 70
     0
300
1/16" = 1'-0"
140
0.0625
141
12.0
290
     0
  0
SCALE
  5
5D
102
{ACAD_REACTORS
330
47
102
}
330
47
100
AcDbScale
 70
     0
300
3/32" = 1'-0"
140
0.09375
141
12.0
290
     0
  0
SCALE
  5
5E
102
{ACAD_REACTORS
330
47
102
}
330
47
100
AcDbScale
 70
     0
300
1/8" = 1'-0"
140
0.125
141
12.0
290
     0
  0
SCALE
  5
5F
102
{ACAD_REACTORS
330
47
102
}
330
47
100
AcDbScale
 70
     0
300
3/16" = 1'-0"
140
0.1875
141
12.0
290
     0
  0
SCALE
  5
60
102
{ACAD_REACTORS
330
47
102
}
330
47
100
AcDbScale
 70
     0
300
1/4" = 1'-0"
140
0.25
141
12.0
290
     0
  0
SCALE
  5
61
102
{ACAD_REACTORS
330
47
102
}
330
47
100
AcDbScale
 70
     0
300
3/8" = 1'-0"
140
0.375
141
12.0
290
     0
  0
SCALE
  5
62
102
{ACAD_REACTORS
330
47
102
}
330
47
100
AcDbScale
 70
     0
300
1/2" = 1'-0"
140
0.5
141
12.0
290
     0
  0
SCALE
  5
63
102
{ACAD_REACTORS
330
47
102
}
330
47
100
AcDbScale
 70
     0
300
3/4" = 1'-0"
140
0.75
141
12.0
290
     0
  0
SCALE
  5
64
102
{ACAD_REACTORS
330
47
102
}
330
47
100
AcDbScale
 70
     0
300
1" = 1'-0"
140
1.0
141
12.0
290
     0
  0
SCALE
  5
65
102
{ACAD_REACTORS
330
47
102
}
330
47
100
AcDbScale
 70
     0
300
1-1/2" = 1'-0"
140
1.5
141
12.0
290
     0
  0
SCALE
  5
66
102
{ACAD_REACTORS
330
47
102
}
330
47
100
AcDbScale
 70
     0
300
3" = 1'-0"
140
3.0
141
12.0
290
     0
  0
SCALE
  5
67
102
{ACAD_REACTORS
330
47
102
}
330
47
100
AcDbScale
 70
     0
300
6" = 1'-0"
140
6.0
141
12.0
290
     0
  0
SCALE
  5
68
102
{ACAD_REACTORS
330
47
102
}
330
47
100
AcDbScale
 70
     0
300
1'-0" = 1'-0"
140
12.0
141
12.0
290
     0
  0
TABLESTYLE
  5
6A
102
{ACAD_REACTORS
330
69
102
}
102
{ACAD_XDICTIONARY
360
215
102
}
330
69
100
AcDbTableStyle
  3
Standard
 70
     0
 71
     0
 40
0.06
 41
0.06
280
     0
281
     0
  7
Standard
140
4.5
170
     2
 62
     0
 63
   257
283
     0
 90
        4
 91
        0
  1

274
    -2
284
     1
 64
     0
275
    -2
285
     1
 65
     0
276
    -2
286
     1
 66
     0
277
    -2
287
     1
 67
     0
278
    -2
288
     1
 68
     0
279
    -2
289
     1
 69
     0
  7
Standard
140
6.0
170
     5
 62
     0
 63
   257
283
     0
 90
        4
 91
        0
  1

274
    -2
284
     1
 64
     0
275
    -2
285
     1
 65
     0
276
    -2
286
     1
 66
     0
277
    -2
287
     1
 67
     0
278
    -2
288
     1
 68
     0
279
    -2
289
     1
 69
     0
  7
Standard
140
4.5
170
     5
 62
     0
 63
   257
283
     0
 90
        4
 91
        0
  1

274
    -2
284
     1
 64
     0
275
    -2
285
     1
 65
     0
276
    -2
286
     1
 66
     0
277
    -2
287
     1
 67
     0
278
    -2
288
     1
 68
     0
279
    -2
289
     1
 69
     0
  0
VISUALSTYLE
  5
2F
102
{ACAD_REACTORS
330
2A
102
}
330
2A
100
AcDbVisualStyle
  2
2dWireframe
 70
     4
177
     3
291
     0
 70
    58
 90
        0
176
     1
 90
        2
176
     1
 90
        0
176
     1
 90
        0
176
     1
 40
0.6
176
     1
 40
30.0
176
     1
 62
     7
420
 16777215
176
     1
 90
        1
176
     1
 90
        4
176
     1
 62
     7
176
     1
 62
   257
176
     1
 90
        1
176
     1
 90
        1
176
     1
 40
1.0
176
     1
 90
        0
176
     1
 62
   257
176
     1
 40
1.0
176
     1
 90
        1
176
     1
 90
        6
176
     1
 90
        2
176
     1
 62
     7
176
     1
 90
        5
176
     1
 90
        0
176
     1
 90
        0
176
     1
290
     0
176
     1
 90
        1
176
     1
 40
0.0
176
     1
 90
        0
176
     1
290
     1
176
     1
290
     1
176
     1
290
     0
176
     1
290
     0
176
     1
290
     0
176
     1
290
     0
176
     1
290
     0
176
     1
290
     0
176
     1
290
     0
176
     1
 90
       50
176
     1
 40
0.0
176
     1
 40
1.0
176
     1
 90
        0
176
     1
 62
    18
420
        0
176
     1
 90
       50
176
     1
 90
        3
176
     1
 62
     5
420
      255
176
     1
290
     0
176
     1
 90
       50
176
     1
 90
       50
176
     1
 90
       50
176
     1
290
     0
176
     1
 90
       50
176
     1
 62
   256
176
     0
 40
1.0
176
     0
 90
        2
176
     1
  1
strokes_ogs.tif
176
     1
290
     0
176
     1
 40
1.0
176
     1
 40
1.0
176
     1
  0
VISUALSTYLE
  5
32
102
{ACAD_REACTORS
330
2A
102
}
330
2A
100
AcDbVisualStyle
  2
Basic
 70
     7
177
     3
291
     1
 70
    58
 90
        1
176
     1
 90
        0
176
     1
 90
        1
176
     1
 90
        0
176
     1
 40
0.6
176
     1
 40
30.0
176
     1
 62
     7
420
 16777215
176
     1
 90
        0
176
     1
 90
        4
176
     1
 62
     7
176
     1
 62
   257
176
     1
 90
        1
176
     1
 90
        1
176
     1
 40
1.0
176
     1
 90
        8
176
     1
 62
     7
176
     1
 40
1.0
176
     1
 90
        1
176
     1
 90
        6
176
     1
 90
        2
176
     1
 62
     7
176
     1
 90
        5
176
     1
 90
        0
176
     1
 90
        0
176
     1
290
     0
176
     1
 90
        1
176
     1
 40
0.0
176
     1
 90
        0
176
     1
290
     0
176
     1
290
     1
176
     1
290
     1
176
     1
290
     0
176
     1
290
     0
176
     1
290
     0
176
     1
290
     0
176
     1
290
     0
176
     1
290
     0
176
     1
 90
       50
176
     1
 40
0.0
176
     1
 40
1.0
176
     1
 90
        0
176
     1
 62
    18
420
        0
176
     1
 90
       50
176
     1
 90
        3
176
     1
 62
     5
420
      255
176
     1
290
     0
176
     1
 90
       50
176
     1
 90
       50
176
     1
 90
       50
176
     1
290
     0
176
     1
 90
       50
176
     1
 62
   256
176
     0
 40
1.0
176
     0
 90
        2
176
     1
  1
strokes_ogs.tif
176
     1
290
     0
176
     1
 40
1.0
176
     1
 40
1.0
176
     1
  0
VISUALSTYLE
  5
36
102
{ACAD_REACTORS
330
2A
102
}
330
2A
100
AcDbVisualStyle
  2
Brighten
 70
    12
177
     3
291
     1
 70
    58
 90
        2
176
     1
 90
        2
176
     1
 90
        0
176
     1
 90
        0
176
     1
 40
0.6
176
     1
 40
30.0
176
     1
 62
     7
420
 16777215
176
     1
 90
        1
176
     1
 90
        4
176
     1
 62
     7
176
     1
 62
   257
176
     1
 90
        1
176
     1
 90
        1
176
     1
 40
1.0
176
     1
 90
        8
176
     1
 62
     7
176
     1
 40
1.0
176
     1
 90
        1
176
     1
 90
        6
176
     1
 90
        2
176
     1
 62
     7
176
     1
 90
        5
176
     1
 90
        0
176
     1
 90
        0
176
     1
290
     0
176
     1
 90
        1
176
     1
 40
50.0
176
     1
 90
        0
176
     1
290
     0
176
     1
290
     1
176
     1
290
     1
176
     1
290
     0
176
     1
290
     0
176
     1
290
     0
176
     1
290
     0
176
     1
290
     0
176
     1
290
     0
176
     1
 90
       50
176
     1
 40
0.0
176
     1
 40
1.0
176
     1
 90
        0
176
     1
 62
    18
420
        0
176
     1
 90
       50
176
     1
 90
        3
176
     1
 62
     5
420
      255
176
     1
290
     0
176
     1
 90
       50
176
     1
 90
       50
176
     1
 90
       50
176
     1
290
     0
176
     1
 90
       50
176
     1
 62
   256
176
     0
 40
1.0
176
     0
 90
        2
176
     1
  1
strokes_ogs.tif
176
     1
290
     0
176
     1
 40
1.0
176
     1
 40
1.0
176
     1
  0
VISUALSTYLE
  5
3A
102
{ACAD_REACTORS
330
2A
102
}
330
2A
100
AcDbVisualStyle
  2
ColorChange
 70
    16
177
     3
291
     1
 70
    58
 90
        2
176
     1
 90
        2
176
     1
 90
        3
176
     1
 90
        0
176
     1
 40
0.6
176
     1
 40
30.0
176
     1
 62
     8
420
  8421504
176
     1
 90
        1
176
     1
 90
        4
176
     1
 62
     7
176
     1
 62
   257
176
     1
 90
        1
176
     1
 90
        1
176
     1
 40
1.0
176
     1
 90
        8
176
     1
 62
     8
420
  8421504
176
     1
 40
1.0
176
     1
 90
        1
176
     1
 90
        6
176
     1
 90
        2
176
     1
 62
     7
176
     1
 90
        5
176
     1
 90
        0
176
     1
 90
        0
176
     1
290
     0
176
     1
 90
        1
176
     1
 40
0.0
176
     1
 90
        0
176
     1
290
     0
176
     1
290
     1
176
     1
290
     1
176
     1
290
     0
176
     1
290
     0
176
     1
290
     0
176
     1
290
     0
176
     1
290
     0
176
     1
290
     0
176
     1
 90
       50
176
     1
 40
0.0
176
     1
 40
1.0
176
     1
 90
        0
176
     1
 62
    18
420
        0
176
     1
 90
       50
176
     1
 90
        3
176
     1
 62
     5
420
      255
176
     1
290
     0
176
     1
 90
       50
176
     1
 90
       50
176
     1
 90
       50
176
     1
290
     0
176
     1
 90
       50
176
     1
 62
   256
176
     0
 40
1.0
176
     0
 90
        2
176
     1
  1
strokes_ogs.tif
176
     1
290
     0
176
     1
 40
1.0
176
     1
 40
1.0
176
     1
  0
VISUALSTYLE
  5
34
102
{ACAD_REACTORS
330
2A
102
}
330
2A
100
AcDbVisualStyle
  2
Conceptual
 70
     9
177
     3
291
     0
 70
    58
 90
        3
176
     1
 90
        2
176
     1
 90
        0
176
     1
 90
        0
176
     1
 40
0.6
176
     1
 40
30.0
176
     1
 62
     7
420
 16777215
176
     1
 90
        2
176
     1
 90
        2
176
     1
 62
     7
176
     1
 62
   257
176
     1
 90
        1
176
     1
 90
        1
176
     1
 40
179.0
176
     1
 90
        8
176
     1
 62
     7
176
     1
 40
1.0
176
     1
 90
        1
176
     1
 90
        6
176
     1
 90
        2
176
     1
 62
     7
176
     1
 90
        3
176
     1
 90
        0
176
     1
 90
        0
176
     1
290
     0
176
     1
 90
        1
176
     1
 40
0.0
176
     1
 90
        0
176
     1
290
     0
176
     1
290
     1
176
     1
290
     1
176
     1
290
     0
176
     1
290
     0
176
     1
290
     0
176
     1
290
     0
176
     1
290
     0
176
     1
290
     0
176
     1
 90
       50
176
     1
 40
0.0
176
     1
 40
1.0
176
     1
 90
        0
176
     1
 62
    18
420
        0
176
     1
 90
       50
176
     1
 90
        3
176
     1
 62
     5
420
      255
176
     1
290
     0
176
     1
 90
       50
176
     1
 90
       50
176
     1
 90
       50
176
     1
290
     0
176
     1
 90
       50
176
     1
 62
   256
176
     0
 40
1.0
176
     0
 90
        2
176
     1
  1
strokes_ogs.tif
176
     1
290
     0
176
     1
 40
1.0
176
     1
 40
1.0
176
     1
  0
VISUALSTYLE
  5
35
102
{ACAD_REACTORS
330
2A
102
}
330
2A
100
AcDbVisualStyle
  2
Dim
 70
    11
177
     3
291
     1
 70
    58
 90
        2
176
     1
 90
        2
176
     1
 90
        0
176
     1
 90
        0
176
     1
 40
0.6
176
     1
 40
30.0
176
     1
 62
     7
420
 16777215
176
     1
 90
        1
176
     1
 90
        4
176
     1
 62
     7
176
     1
 62
   257
176
     1
 90
        1
176
     1
 90
        1
176
     1
 40
1.0
176
     1
 90
        8
176
     1
 62
     7
176
     1
 40
1.0
176
     1
 90
        1
176
     1
 90
        6
176
     1
 90
        2
176
     1
 62
     7
176
     1
 90
        5
176
     1
 90
        0
176
     1
 90
        0
176
     1
290
     0
176
     1
 90
        1
176
     1
 40
-50.0
176
     1
 90
        0
176
     1
290
     0
176
     1
290
     1
176
     1
290
     1
176
     1
290
     0
176
     1
290
     0
176
     1
290
     0
176
     1
290
     0
176
     1
290
     0
176
     1
290
     0
176
     1
 90
       50
176
     1
 40
0.0
176
     1
 40
1.0
176
     1
 90
        0
176
     1
 62
    18
420
        0
176
     1
 90
       50
176
     1
 90
        3
176
     1
 62
     5
420
      255
176
     1
290
     0
176
     1
 90
       50
176
     1
 90
       50
176
     1
 90
       50
176
     1
290
     0
176
     1
 90
       50
176
     1
 62
   256
176
     0
 40
1.0
176
     0
 90
        2
176
     1
  1
strokes_ogs.tif
176
     1
290
     0
176
     1
 40
1.0
176
     1
 40
1.0
176
     1
  0
VISUALSTYLE
  5
3D
102
{ACAD_REACTORS
330
2A
102
}
330
2A
100
AcDbVisualStyle
  2
EdgeColorOff
 70
    22
177
     3
291
     1
 70
    58
 90
        2
176
     0
 90
        2
176
     0
 90
        0
176
     0
 90
        0
176
     0
 40
0.6
176
     0
 40
30.0
176
     0
 62
     7
420
 16777215
176
     0
 90
        1
176
     0
 90
        4
176
     0
 62
     7
176
     0
 62
   257
176
     0
 90
        1
176
     0
 90
        1
176
     0
 40
1.0
176
     0
 90
        8
176
     2
 62
     7
176
     0
 40
1.0
176
     0
 90
        1
176
     0
 90
        6
176
     0
 90
        2
176
     0
 62
     7
176
     0
 90
        5
176
     0
 90
        0
176
     0
 90
        0
176
     0
290
     0
176
     0
 90
        1
176
     0
 40
0.0
176
     0
 90
        0
176
     0
290
     0
176
     0
290
     1
176
     0
290
     1
176
     0
290
     0
176
     0
290
     0
176
     0
290
     0
176
     0
290
     0
176
     0
290
     0
176
     0
290
     0
176
     0
 90
       50
176
     0
 40
0.0
176
     0
 40
1.0
176
     0
 90
        0
176
     0
 62
    18
420
        0
176
     0
 90
       50
176
     0
 90
        3
176
     0
 62
     5
420
      255
176
     0
290
     0
176
     0
 90
       50
176
     0
 90
       50
176
     0
 90
       50
176
     0
290
     0
176
     0
 90
       50
176
     0
 62
   256
176
     0
 40
1.0
176
     0
 90
        2
176
     0
  1
strokes_ogs.tif
176
     0
290
     0
176
     0
 40
1.0
176
     0
 40
1.0
176
     0
  0
VISUALSTYLE
  5
39
102
{ACAD_REACTORS
330
2A
102
}
330
2A
100
AcDbVisualStyle
  2
Facepattern
 70
    15
177
     3
291
     1
 70
    58
 90
        2
176
     1
 90
        2
176
     1
 90
        0
176
     1
 90
        0
176
     1
 40
0.6
176
     1
 40
30.0
176
     1
 62
     7
420
 16777215
176
     1
 90
        1
176
     1
 90
        4
176
     1
 62
     7
176
     1
 62
   257
176
     1
 90
        1
176
     1
 90
        1
176
     1
 40
1.0
176
     1
 90
        8
176
     1
 62
     7
176
     1
 40
1.0
176
     1
 90
        1
176
     1
 90
        6
176
     1
 90
        2
176
     1
 62
     7
176
     1
 90
        5
176
     1
 90
        0
176
     1
 90
        0
176
     1
290
     0
176
     1
 90
        1
176
     1
 40
0.0
176
     1
 90
        0
176
     1
290
     0
176
     1
290
     1
176
     1
290
     1
176
     1
290
     0
176
     1
290
     0
176
     1
290
     0
176
     1
290
     0
176
     1
290
     0
176
     1
290
     0
176
     1
 90
       50
176
     1
 40
0.0
176
     1
 40
1.0
176
     1
 90
        0
176
     1
 62
    18
420
        0
176
     1
 90
       50
176
     1
 90
        3
176
     1
 62
     5
420
      255
176
     1
290
     0
176
     1
 90
       50
176
     1
 90
       50
176
     1
 90
       50
176
     1
290
     0
176
     1
 90
       50
176
     1
 62
   256
176
     0
 40
1.0
176
     0
 90
        2
176
     1
  1
strokes_ogs.tif
176
     1
290
     0
176
     1
 40
1.0
176
     1
 40
1.0
176
     1
  0
VISUALSTYLE
  5
2B
102
{ACAD_REACTORS
330
2A
102
}
330
2A
100
AcDbVisualStyle
  2
Flat
 70
     0
177
     3
291
     1
 70
    58
 90
        2
176
     1
 90
        1
176
     1
 90
        1
176
     1
 90
        2
176
     1
 40
0.6
176
     1
 40
30.0
176
     1
 62
     7
420
 16777215
176
     1
 90
        0
176
     1
 90
        0
176
     1
 62
     7
176
     1
 62
   257
176
     1
 90
        1
176
     1
 90
        1
176
     1
 40
1.0
176
     1
 90
        8
176
     1
 62
     7
176
     1
 40
1.0
176
     1
 90
        1
176
     1
 90
        6
176
     1
 90
        2
176
     1
 62
     7
176
     1
 90
        5
176
     1
 90
        0
176
     1
 90
        0
176
     1
290
     0
176
     1
 90
       13
176
     1
 40
0.0
176
     1
 90
        0
176
     1
290
     0
176
     1
290
     1
176
     1
290
     1
176
     1
290
     0
176
     1
290
     0
176
     1
290
     0
176
     1
290
     0
176
     1
290
     0
176
     1
290
     0
176
     1
 90
       50
176
     1
 40
0.0
176
     1
 40
1.0
176
     1
 90
        0
176
     1
 62
    18
420
        0
176
     1
 90
       50
176
     1
 90
        3
176
     1
 62
     5
420
      255
176
     1
290
     0
176
     1
 90
       50
176
     1
 90
       50
176
     1
 90
       50
176
     1
290
     0
176
     1
 90
       50
176
     1
 62
   256
176
     0
 40
1.0
176
     0
 90
        2
176
     1
  1
strokes_ogs.tif
176
     1
290
     0
176
     1
 40
1.0
176
     1
 40
1.0
176
     1
  0
VISUALSTYLE
  5
2C
102
{ACAD_REACTORS
330
2A
102
}
330
2A
100
AcDbVisualStyle
  2
FlatWithEdges
 70
     1
177
     3
291
     1
 70
    58
 90
        2
176
     1
 90
        1
176
     1
 90
        1
176
     1
 90
        2
176
     1
 40
0.6
176
     1
 40
30.0
176
     1
 62
     7
420
 16777215
176
     1
 90
        1
176
     1
 90
        0
176
     1
 62
     7
176
     1
 62
   257
176
     1
 90
        1
176
     1
 90
        1
176
     1
 40
1.0
176
     1
 90
        0
176
     1
 62
   257
176
     1
 40
1.0
176
     1
 90
        1
176
     1
 90
        6
176
     1
 90
        2
176
     1
 62
     7
176
     1
 90
        5
176
     1
 90
        0
176
     1
 90
        0
176
     1
290
     0
176
     1
 90
       13
176
     1
 40
0.0
176
     1
 90
        0
176
     1
290
     0
176
     1
290
     1
176
     1
290
     1
176
     1
290
     0
176
     1
290
     0
176
     1
290
     0
176
     1
290
     0
176
     1
290
     0
176
     1
290
     0
176
     1
 90
       50
176
     1
 40
0.0
176
     1
 40
1.0
176
     1
 90
        0
176
     1
 62
    18
420
        0
176
     1
 90
       50
176
     1
 90
        3
176
     1
 62
     5
420
      255
176
     1
290
     0
176
     1
 90
       50
176
     1
 90
       50
176
     1
 90
       50
176
     1
290
     0
176
     1
 90
       50
176
     1
 62
   256
176
     0
 40
1.0
176
     0
 90
        2
176
     1
  1
strokes_ogs.tif
176
     1
290
     0
176
     1
 40
1.0
176
     1
 40
1.0
176
     1
  0
VISUALSTYLE
  5
2D
102
{ACAD_REACTORS
330
2A
102
}
330
2A
100
AcDbVisualStyle
  2
Gouraud
 70
     2
177
     3
291
     1
 70
    58
 90
        2
176
     1
 90
        2
176
     1
 90
        1
176
     1
 90
        2
176
     1
 40
0.6
176
     1
 40
30.0
176
     1
 62
     7
420
 16777215
176
     1
 90
        0
176
     1
 90
        0
176
     1
 62
     7
176
     1
 62
   257
176
     1
 90
        1
176
     1
 90
        1
176
     1
 40
1.0
176
     1
 90
        0
176
     1
 62
     7
176
     1
 40
1.0
176
     1
 90
        1
176
     1
 90
        6
176
     1
 90
        2
176
     1
 62
     7
176
     1
 90
        5
176
     1
 90
        0
176
     1
 90
        0
176
     1
290
     0
176
     1
 90
       13
176
     1
 40
0.0
176
     1
 90
        0
176
     1
290
     0
176
     1
290
     1
176
     1
290
     1
176
     1
290
     0
176
     1
290
     0
176
     1
290
     0
176
     1
290
     0
176
     1
290
     0
176
     1
290
     0
176
     1
 90
       50
176
     1
 40
0.0
176
     1
 40
1.0
176
     1
 90
        0
176
     1
 62
    18
420
        0
176
     1
 90
       50
176
     1
 90
        3
176
     1
 62
     5
420
      255
176
     1
290
     0
176
     1
 90
       50
176
     1
 90
       50
176
     1
 90
       50
176
     1
290
     0
176
     1
 90
       50
176
     1
 62
   256
176
     0
 40
1.0
176
     0
 90
        2
176
     1
  1
strokes_ogs.tif
176
     1
290
     0
176
     1
 40
1.0
176
     1
 40
1.0
176
     1
  0
VISUALSTYLE
  5
2E
102
{ACAD_REACTORS
330
2A
102
}
330
2A
100
AcDbVisualStyle
  2
GouraudWithEdges
 70
     3
177
     3
291
     1
 70
    58
 90
        2
176
     1
 90
        2
176
     1
 90
        1
176
     1
 90
        2
176
     1
 40
0.6
176
     1
 40
30.0
176
     1
 62
     7
420
 16777215
176
     1
 90
        1
176
     1
 90
        0
176
     1
 62
     7
176
     1
 62
   257
176
     1
 90
        1
176
     1
 90
        1
176
     1
 40
1.0
176
     1
 90
        0
176
     1
 62
   257
176
     1
 40
1.0
176
     1
 90
        1
176
     1
 90
        6
176
     1
 90
        2
176
     1
 62
     7
176
     1
 90
        5
176
     1
 90
        0
176
     1
 90
        0
176
     1
290
     0
176
     1
 90
       13
176
     1
 40
0.0
176
     1
 90
        0
176
     1
290
     0
176
     1
290
     1
176
     1
290
     1
176
     1
290
     0
176
     1
290
     0
176
     1
290
     0
176
     1
290
     0
176
     1
290
     0
176
     1
290
     0
176
     1
 90
       50
176
     1
 40
0.0
176
     1
 40
1.0
176
     1
 90
        0
176
     1
 62
    18
420
        0
176
     1
 90
       50
176
     1
 90
        3
176
     1
 62
     5
420
      255
176
     1
290
     0
176
     1
 90
       50
176
     1
 90
       50
176
     1
 90
       50
176
     1
290
     0
176
     1
 90
       50
176
     1
 62
   256
176
     0
 40
1.0
176
     0
 90
        2
176
     1
  1
strokes_ogs.tif
176
     1
290
     0
176
     1
 40
1.0
176
     1
 40
1.0
176
     1
  0
VISUALSTYLE
  5
31
102
{ACAD_REACTORS
330
2A
102
}
330
2A
100
AcDbVisualStyle
  2
Hidden
 70
     6
177
     3
291
     0
 70
    58
 90
        1
176
     1
 90
        2
176
     1
 90
        2
176
     1
 90
        0
176
     1
 40
0.6
176
     1
 40
30.0
176
     1
 62
     7
420
 16777215
176
     1
 90
        2
176
     1
 90
        2
176
     1
 62
     7
176
     1
 62
   257
176
     1
 90
        2
176
     1
 90
        1
176
     1
 40
40.0
176
     1
 90
        0
176
     1
 62
   257
176
     1
 40
1.0
176
     1
 90
        1
176
     1
 90
        6
176
     1
 90
        2
176
     1
 62
     7
176
     1
 90
        3
176
     1
 90
        0
176
     1
 90
        0
176
     1
290
     0
176
     1
 90
        1
176
     1
 40
0.0
176
     1
 90
        0
176
     1
290
     0
176
     1
290
     1
176
     1
290
     1
176
     1
290
     0
176
     1
290
     0
176
     1
290
     0
176
     1
290
     0
176
     1
290
     0
176
     1
290
     0
176
     1
 90
       50
176
     1
 40
0.0
176
     1
 40
1.0
176
     1
 90
        0
176
     1
 62
    18
420
        0
176
     1
 90
       50
176
     1
 90
        3
176
     1
 62
     5
420
      255
176
     1
290
     0
176
     1
 90
       50
176
     1
 90
       50
176
     1
 90
       50
176
     1
290
     0
176
     1
 90
       50
176
     1
 62
   256
176
     0
 40
1.0
176
     0
 90
        2
176
     1
  1
strokes_ogs.tif
176
     1
290
     0
176
     1
 40
1.0
176
     1
 40
1.0
176
     1
  0
VISUALSTYLE
  5
3B
102
{ACAD_REACTORS
330
2A
102
}
330
2A
100
AcDbVisualStyle
  2
JitterOff
 70
    20
177
     3
291
     1
 70
    58
 90
        2
176
     0
 90
        2
176
     0
 90
        0
176
     0
 90
        0
176
     0
 40
0.6
176
     0
 40
30.0
176
     0
 62
     7
420
 16777215
176
     0
 90
        1
176
     0
 90
        4
176
     0
 62
     7
176
     0
 62
   257
176
     0
 90
        1
176
     0
 90
        1
176
     0
 40
1.0
176
     0
 90
       10
176
     2
 62
     7
176
     0
 40
1.0
176
     0
 90
        1
176
     0
 90
        6
176
     0
 90
        2
176
     0
 62
     7
176
     0
 90
        5
176
     0
 90
        0
176
     0
 90
        0
176
     0
290
     0
176
     0
 90
        1
176
     0
 40
0.0
176
     0
 90
        0
176
     0
290
     0
176
     0
290
     1
176
     0
290
     1
176
     0
290
     0
176
     0
290
     0
176
     0
290
     0
176
     0
290
     0
176
     0
290
     0
176
     0
290
     0
176
     0
 90
       50
176
     0
 40
0.0
176
     0
 40
1.0
176
     0
 90
        0
176
     0
 62
    18
420
        0
176
     0
 90
       50
176
     0
 90
        3
176
     0
 62
     5
420
      255
176
     0
290
     0
176
     0
 90
       50
176
     0
 90
       50
176
     0
 90
       50
176
     0
290
     0
176
     0
 90
       50
176
     0
 62
   256
176
     0
 40
1.0
176
     0
 90
        2
176
     0
  1
strokes_ogs.tif
176
     0
290
     0
176
     0
 40
1.0
176
     0
 40
1.0
176
     0
  0
VISUALSTYLE
  5
38
102
{ACAD_REACTORS
330
2A
102
}
330
2A
100
AcDbVisualStyle
  2
Linepattern
 70
    14
177
     3
291
     1
 70
    58
 90
        2
176
     1
 90
        2
176
     1
 90
        0
176
     1
 90
        0
176
     1
 40
0.6
176
     1
 40
30.0
176
     1
 62
     7
420
 16777215
176
     1
 90
        1
176
     1
 90
        4
176
     1
 62
     7
176
     1
 62
   257
176
     1
 90
        7
176
     1
 90
        7
176
     1
 40
1.0
176
     1
 90
        8
176
     1
 62
     7
176
     1
 40
1.0
176
     1
 90
        1
176
     1
 90
        6
176
     1
 90
        2
176
     1
 62
     7
176
     1
 90
        5
176
     1
 90
        0
176
     1
 90
        0
176
     1
290
     0
176
     1
 90
        1
176
     1
 40
0.0
176
     1
 90
        0
176
     1
290
     0
176
     1
290
     1
176
     1
290
     1
176
     1
290
     0
176
     1
290
     0
176
     1
290
     0
176
     1
290
     0
176
     1
290
     0
176
     1
290
     0
176
     1
 90
       50
176
     1
 40
0.0
176
     1
 40
1.0
176
     1
 90
        0
176
     1
 62
    18
420
        0
176
     1
 90
       50
176
     1
 90
        3
176
     1
 62
     5
420
      255
176
     1
290
     0
176
     1
 90
       50
176
     1
 90
       50
176
     1
 90
       50
176
     1
290
     0
176
     1
 90
       50
176
     1
 62
   256
176
     0
 40
1.0
176
     0
 90
        2
176
     1
  1
strokes_ogs.tif
176
     1
290
     0
176
     1
 40
1.0
176
     1
 40
1.0
176
     1
  0
VISUALSTYLE
  5
3C
102
{ACAD_REACTORS
330
2A
102
}
330
2A
100
AcDbVisualStyle
  2
OverhangOff
 70
    21
177
     3
291
     1
 70
    58
 90
        2
176
     0
 90
        2
176
     0
 90
        0
176
     0
 90
        0
176
     0
 40
0.6
176
     0
 40
30.0
176
     0
 62
     7
420
 16777215
176
     0
 90
        1
176
     0
 90
        4
176
     0
 62
     7
176
     0
 62
   257
176
     0
 90
        1
176
     0
 90
        1
176
     0
 40
1.0
176
     0
 90
        9
176
     2
 62
     7
176
     0
 40
1.0
176
     0
 90
        1
176
     0
 90
        6
176
     0
 90
        2
176
     0
 62
     7
176
     0
 90
        5
176
     0
 90
        0
176
     0
 90
        0
176
     0
290
     0
176
     0
 90
        1
176
     0
 40
0.0
176
     0
 90
        0
176
     0
290
     0
176
     0
290
     1
176
     0
290
     1
176
     0
290
     0
176
     0
290
     0
176
     0
290
     0
176
     0
290
     0
176
     0
290
     0
176
     0
290
     0
176
     0
 90
       50
176
     0
 40
0.0
176
     0
 40
1.0
176
     0
 90
        0
176
     0
 62
    18
420
        0
176
     0
 90
       50
176
     0
 90
        3
176
     0
 62
     5
420
      255
176
     0
290
     0
176
     0
 90
       50
176
     0
 90
       50
176
     0
 90
       50
176
     0
290
     0
176
     0
 90
       50
176
     0
 62
   256
176
     0
 40
1.0
176
     0
 90
        2
176
     0
  1
strokes_ogs.tif
176
     0
290
     0
176
     0
 40
1.0
176
     0
 40
1.0
176
     0
  0
VISUALSTYLE
  5
33
102
{ACAD_REACTORS
330
2A
102
}
330
2A
100
AcDbVisualStyle
  2
Realistic
 70
     8
177
     3
291
     0
 70
    58
 90
        2
176
     1
 90
        3
176
     1
 90
        0
176
     1
 90
        2
176
     1
 40
0.6
176
     1
 40
30.0
176
     1
 62
     7
420
 16777215
176
     1
 90
        0
176
     1
 90
        0
176
     1
 62
     7
176
     1
 62
   257
176
     1
 90
        1
176
     1
 90
        1
176
     1
 40
1.0
176
     1
 90
        8
176
     1
 62
   257
176
     1
 40
1.0
176
     1
 90
        1
176
     1
 90
        6
176
     1
 90
        2
176
     1
 62
     7
176
     1
 90
        3
176
     1
 90
        0
176
     1
 90
        0
176
     1
290
     0
176
     1
 90
       13
176
     1
 40
0.0
176
     1
 90
        0
176
     1
290
     0
176
     1
290
     1
176
     1
290
     1
176
     1
290
     0
176
     1
290
     0
176
     1
290
     0
176
     1
290
     0
176
     1
290
     0
176
     1
290
     0
176
     1
 90
       50
176
     1
 40
0.0
176
     1
 40
1.0
176
     1
 90
        0
176
     1
 62
    18
420
        0
176
     1
 90
       50
176
     1
 90
        3
176
     1
 62
     5
420
      255
176
     1
290
     0
176
     1
 90
       50
176
     1
 90
       50
176
     1
 90
       50
176
     1
290
     0
176
     1
 90
       50
176
     1
 62
   256
176
     0
 40
1.0
176
     0
 90
        2
176
     1
  1
strokes_ogs.tif
176
     1
290
     0
176
     1
 40
1.0
176
     1
 40
1.0
176
     1
  0
VISUALSTYLE
  5
42
102
{ACAD_REACTORS
330
2A
102
}
330
2A
100
AcDbVisualStyle
  2
Shaded
 70
    27
177
     3
291
     0
 70
    58
 90
        2
176
     1
 90
        2
176
     1
 90
        1
176
     1
 90
        2
176
     1
 40
0.6
176
     1
 40
30.0
176
     1
 62
     7
420
 16777215
176
     1
 90
        0
176
     1
 90
        4
176
     1
 62
     7
176
     1
 62
   257
176
     1
 90
        1
176
     1
 90
        1
176
     1
 40
1.0
176
     1
 90
        8
176
     1
 62
   257
176
     1
 40
1.0
176
     1
 90
        1
176
     1
 90
        6
176
     1
 90
        2
176
     1
 62
     8
420
  7895160
176
     1
 90
        3
176
     1
 90
        0
176
     1
 90
        0
176
     1
290
     0
176
     1
 90
        5
176
     1
 40
0.0
176
     1
 90
        0
176
     1
290
     0
176
     1
290
     1
176
     1
290
     1
176
     1
290
     0
176
     1
290
     0
176
     1
290
     0
176
     1
290
     0
176
     1
290
     0
176
     1
290
     0
176
     1
 90
       50
176
     1
 40
0.0
176
     1
 40
1.0
176
     1
 90
        0
176
     1
 62
    18
420
        0
176
     1
 90
       50
176
     1
 90
        3
176
     1
 62
     5
420
      255
176
     1
290
     0
176
     1
 90
       50
176
     1
 90
       50
176
     1
 90
       50
176
     1
290
     0
176
     1
 90
       50
176
     1
 62
   256
176
     0
 40
1.0
176
     0
 90
        2
176
     1
  1
strokes_ogs.tif
176
     1
290
     0
176
     1
 40
1.0
176
     1
 40
1.0
176
     1
  0
VISUALSTYLE
  5
41
102
{ACAD_REACTORS
330
2A
102
}
330
2A
100
AcDbVisualStyle
  2
Shaded with edges
 70
    26
177
     3
291
     0
 70
    58
 90
        2
176
     1
 90
        2
176
     1
 90
        1
176
     1
 90
        2
176
     1
 40
0.6
176
     1
 40
30.0
176
     1
 62
     7
420
 16777215
176
     1
 90
        1
176
     1
 90
       10
176
     1
 62
     7
176
     1
 62
   257
176
     1
 90
        2
176
     1
 90
        1
176
     1
 40
1.0
176
     1
 90
        8
176
     1
 62
   257
176
     1
 40
1.0
176
     1
 90
        1
176
     1
 90
        6
176
     1
 90
        2
176
     1
 62
     7
176
     1
 90
        3
176
     1
 90
        0
176
     1
 90
        0
176
     1
290
     0
176
     1
 90
        5
176
     1
 40
0.0
176
     1
 90
        0
176
     1
290
     0
176
     1
290
     1
176
     1
290
     1
176
     1
290
     0
176
     1
290
     0
176
     1
290
     0
176
     1
290
     0
176
     1
290
     0
176
     1
290
     0
176
     1
 90
       50
176
     1
 40
0.0
176
     1
 40
1.0
176
     1
 90
        0
176
     1
 62
    18
420
        0
176
     1
 90
       50
176
     1
 90
        3
176
     1
 62
     5
420
      255
176
     1
290
     0
176
     1
 90
       50
176
     1
 90
       50
176
     1
 90
       50
176
     1
290
     0
176
     1
 90
       50
176
     1
 62
   256
176
     0
 40
1.0
176
     0
 90
        2
176
     1
  1
strokes_ogs.tif
176
     1
290
     0
176
     1
 40
1.0
176
     1
 40
1.0
176
     1
  0
VISUALSTYLE
  5
3E
102
{ACAD_REACTORS
330
2A
102
}
330
2A
100
AcDbVisualStyle
  2
Shades of Gray
 70
    23
177
     3
291
     0
 70
    58
 90
        2
176
     1
 90
        2
176
     1
 90
        3
176
     1
 90
        0
176
     1
 40
0.6
176
     1
 40
30.0
176
     1
 62
     7
420
 16777215
176
     1
 90
        2
176
     1
 90
        2
176
     1
 62
     7
176
     1
 62
     7
176
     1
 90
        1
176
     1
 90
        1
176
     1
 40
40.0
176
     1
 90
        8
176
     1
 62
     7
176
     1
 40
1.0
176
     1
 90
        1
176
     1
 90
        6
176
     1
 90
        2
176
     1
 62
     7
176
     1
 90
        3
176
     1
 90
        0
176
     1
 90
        0
176
     1
290
     0
176
     1
 90
        1
176
     1
 40
0.0
176
     1
 90
        0
176
     1
290
     0
176
     1
290
     1
176
     1
290
     1
176
     1
290
     0
176
     1
290
     0
176
     1
290
     0
176
     1
290
     0
176
     1
290
     0
176
     1
290
     0
176
     1
 90
       50
176
     1
 40
0.0
176
     1
 40
1.0
176
     1
 90
        0
176
     1
 62
    18
420
        0
176
     1
 90
       50
176
     1
 90
        3
176
     1
 62
     5
420
      255
176
     1
290
     0
176
     1
 90
       50
176
     1
 90
       50
176
     1
 90
       50
176
     1
290
     0
176
     1
 90
       50
176
     1
 62
   256
176
     0
 40
1.0
176
     0
 90
        2
176
     1
  1
strokes_ogs.tif
176
     1
290
     0
176
     1
 40
1.0
176
     1
 40
1.0
176
     1
  0
VISUALSTYLE
  5
3F
102
{ACAD_REACTORS
330
2A
102
}
330
2A
100
AcDbVisualStyle
  2
Sketchy
 70
    24
177
     3
291
     0
 70
    58
 90
        1
176
     1
 90
        2
176
     1
 90
        2
176
     1
 90
        0
176
     1
 40
0.6
176
     1
 40
30.0
176
     1
 62
     7
420
 16777215
176
     1
 90
        2
176
     1
 90
        2
176
     1
 62
     7
176
     1
 62
     7
176
     1
 90
        1
176
     1
 90
        1
176
     1
 40
40.0
176
     1
 90
       11
176
     1
 62
     7
176
     1
 40
1.0
176
     1
 90
        1
176
     1
 90
        6
176
     1
 90
        2
176
     1
 62
     7
176
     1
 90
        6
176
     1
 90
        0
176
     1
 90
        0
176
     1
290
     0
176
     1
 90
        1
176
     1
 40
0.0
176
     1
 90
        0
176
     1
290
     0
176
     1
290
     1
176
     1
290
     1
176
     1
290
     0
176
     1
290
     0
176
     1
290
     0
176
     1
290
     0
176
     1
290
     0
176
     1
290
     0
176
     1
 90
       50
176
     1
 40
0.0
176
     1
 40
1.0
176
     1
 90
        0
176
     1
 62
    18
420
        0
176
     1
 90
       50
176
     1
 90
        3
176
     1
 62
     5
420
      255
176
     1
290
     0
176
     1
 90
       50
176
     1
 90
       50
176
     1
 90
       50
176
     1
290
     0
176
     1
 90
       50
176
     1
 62
   256
176
     0
 40
1.0
176
     0
 90
        2
176
     1
  1
strokes_ogs.tif
176
     1
290
     0
176
     1
 40
1.0
176
     1
 40
1.0
176
     1
  0
VISUALSTYLE
  5
37
102
{ACAD_REACTORS
330
2A
102
}
330
2A
100
AcDbVisualStyle
  2
Thicken
 70
    13
177
     3
291
     1
 70
    58
 90
        2
176
     1
 90
        2
176
     1
 90
        0
176
     1
 90
        0
176
     1
 40
0.6
176
     1
 40
30.0
176
     1
 62
     7
420
 16777215
176
     1
 90
        1
176
     1
 90
        4
176
     1
 62
     7
176
     1
 62
   257
176
     1
 90
        1
176
     1
 90
        1
176
     1
 40
1.0
176
     1
 90
       12
176
     1
 62
     7
176
     1
 40
1.0
176
     1
 90
        1
176
     1
 90
        6
176
     1
 90
        2
176
     1
 62
     7
176
     1
 90
        5
176
     1
 90
        0
176
     1
 90
        0
176
     1
290
     0
176
     1
 90
        1
176
     1
 40
0.0
176
     1
 90
        0
176
     1
290
     0
176
     1
290
     1
176
     1
290
     1
176
     1
290
     0
176
     1
290
     0
176
     1
290
     0
176
     1
290
     0
176
     1
290
     0
176
     1
290
     0
176
     1
 90
       50
176
     1
 40
0.0
176
     1
 40
1.0
176
     1
 90
        0
176
     1
 62
    18
420
        0
176
     1
 90
       50
176
     1
 90
        3
176
     1
 62
     5
420
      255
176
     1
290
     0
176
     1
 90
       50
176
     1
 90
       50
176
     1
 90
       50
176
     1
290
     0
176
     1
 90
       50
176
     1
 62
   256
176
     0
 40
1.0
176
     0
 90
        2
176
     1
  1
strokes_ogs.tif
176
     1
290
     0
176
     1
 40
1.0
176
     1
 40
1.0
176
     1
  0
VISUALSTYLE
  5
30
102
{ACAD_REACTORS
330
2A
102
}
330
2A
100
AcDbVisualStyle
  2
Wireframe
 70
     5
177
     3
291
     0
 70
    58
 90
        0
176
     1
 90
        2
176
     1
 90
        0
176
     1
 90
        0
176
     1
 40
0.6
176
     1
 40
30.0
176
     1
 62
     7
420
 16777215
176
     1
 90
        1
176
     1
 90
        4
176
     1
 62
     7
176
     1
 62
   257
176
     1
 90
        1
176
     1
 90
        1
176
     1
 40
1.0
176
     1
 90
        0
176
     1
 62
   257
176
     1
 40
1.0
176
     1
 90
        1
176
     1
 90
        6
176
     1
 90
        2
176
     1
 62
     7
176
     1
 90
        3
176
     1
 90
        0
176
     1
 90
        0
176
     1
290
     0
176
     1
 90
        1
176
     1
 40
0.0
176
     1
 90
        0
176
     1
290
     0
176
     1
290
     1
176
     1
290
     1
176
     1
290
     0
176
     1
290
     0
176
     1
290
     0
176
     1
290
     0
176
     1
290
     0
176
     1
290
     0
176
     1
 90
       50
176
     1
 40
0.0
176
     1
 40
1.0
176
     1
 90
        0
176
     1
 62
    18
420
        0
176
     1
 90
       50
176
     1
 90
        3
176
     1
 62
     5
420
      255
176
     1
290
     0
176
     1
 90
       50
176
     1
 90
       50
176
     1
 90
       50
176
     1
290
     0
176
     1
 90
       50
176
     1
 62
   256
176
     0
 40
1.0
176
     0
 90
        2
176
     1
  1
strokes_ogs.tif
176
     1
290
     0
176
     1
 40
1.0
176
     1
 40
1.0
176
     1
  0
VISUALSTYLE
  5
40
102
{ACAD_REACTORS
330
2A
102
}
330
2A
100
AcDbVisualStyle
  2
X-Ray
 70
    25
177
     3
291
     0
 70
    58
 90
        2
176
     1
 90
        2
176
     1
 90
        1
176
     1
 90
        1
176
     1
 40
0.5
176
     1
 40
30.0
176
     1
 62
     7
420
 16777215
176
     1
 90
        1
176
     1
 90
        0
176
     1
 62
     7
176
     1
 62
   257
176
     1
 90
        1
176
     1
 90
        1
176
     1
 40
1.0
176
     1
 90
        8
176
     1
 62
     7
176
     1
 40
1.0
176
     1
 90
        1
176
     1
 90
        6
176
     1
 90
        2
176
     1
 62
     7
176
     1
 90
        3
176
     1
 90
        0
176
     1
 90
        0
176
     1
290
     0
176
     1
 90
       13
176
     1
 40
0.0
176
     1
 90
        0
176
     1
290
     0
176
     1
290
     1
176
     1
290
     1
176
     1
290
     0
176
     1
290
     0
176
     1
290
     0
176
     1
290
     0
176
     1
290
     0
176
     1
290
     0
176
     1
 90
       50
176
     1
 40
0.0
176
     1
 40
1.0
176
     1
 90
        0
176
     1
 62
    18
420
        0
176
     1
 90
       50
176
     1
 90
        3
176
     1
 62
     5
420
      255
176
     1
290
     0
176
     1
 90
       50
176
     1
 90
       50
176
     1
 90
       50
176
     1
290
     0
176
     1
 90
       50
176
     1
 62
   256
176
     0
 40
1.0
176
     0
 90
        2
176
     1
  1
strokes_ogs.tif
176
     1
290
     0
176
     1
 40
1.0
176
     1
 40
1.0
176
     1
  0
DICTIONARYVAR
  5
214
102
{ACAD_REACTORS
330
213
102
}
330
213
100
DictionaryVariables
280
     0
  1
1:1
  0
DICTIONARYVAR
  5
21C
102
{ACAD_REACTORS
330
213
102
}
330
213
100
DictionaryVariables
280
     0
  1
3.500000
  0
DICTIONARYVAR
  5
21D
102
{ACAD_REACTORS
330
213
102
}
330
213
100
DictionaryVariables
280
     0
  1
acadiso.lin
  0
DICTIONARYVAR
  5
219
102
{ACAD_REACTORS
330
213
102
}
330
213
100
DictionaryVariables
280
     0
  1
Standard
  0
DICTIONARYVAR
  5
218
102
{ACAD_REACTORS
330
213
102
}
330
213
100
DictionaryVariables
280
     0
  1
Standard
  0
DICTIONARY
  5
215
330
6A
100
AcDbDictionary
280
     1
281
     1
  3
ACAD_ROUNDTRIP_2008_TABLESTYLE_CELLSTYLEMAP
360
216
  0
CELLSTYLEMAP
  5
216
102
{ACAD_REACTORS
330
215
102
}
330
215
100
AcDbCellStyleMap
 90
        3
300
CELLSTYLE
  1
TABLEFORMAT_BEGIN
 90
        5
170
     1
 91
        0
 92
    32768
 62
   257
 93
        1
300
CONTENTFORMAT
  1
CONTENTFORMAT_BEGIN
 90
        0
 91
        0
 92
        4
 93
        0
300

 40
0.0
140
1.0
 94
        5
 62
     0
340
11
144
6.0
309
CONTENTFORMAT_END
171
     1
301
MARGIN
  1
CELLMARGIN_BEGIN
 40
1.5
 40
1.5
 40
1.5
 40
1.5
 40
1.5
 40
1.5
309
CELLMARGIN_END
 94
        6
 95
        1
302
GRIDFORMAT
  1
GRIDFORMAT_BEGIN
 90
        0
 91
        1
 62
     0
 92
       -2
340
14
 93
        0
 40
0.045
309
GRIDFORMAT_END
 95
        2
302
GRIDFORMAT
  1
GRIDFORMAT_BEGIN
 90
        0
 91
        1
 62
     0
 92
       -2
340
14
 93
        0
 40
0.045
309
GRIDFORMAT_END
 95
        4
302
GRIDFORMAT
  1
GRIDFORMAT_BEGIN
 90
        0
 91
        1
 62
     0
 92
       -2
340
14
 93
        0
 40
0.045
309
GRIDFORMAT_END
 95
        8
302
GRIDFORMAT
  1
GRIDFORMAT_BEGIN
 90
        0
 91
        1
 62
     0
 92
       -2
340
14
 93
        0
 40
0.045
309
GRIDFORMAT_END
 95
       16
302
GRIDFORMAT
  1
GRIDFORMAT_BEGIN
 90
        0
 91
        1
 62
     0
 92
       -2
340
14
 93
        0
 40
0.045
309
GRIDFORMAT_END
 95
       32
302
GRIDFORMAT
  1
GRIDFORMAT_BEGIN
 90
        0
 91
        1
 62
     0
 92
       -2
340
14
 93
        0
 40
0.045
309
GRIDFORMAT_END
309
TABLEFORMAT_END
  1
CELLSTYLE_BEGIN
 90
        1
 91
        1
300
_TITLE
309
CELLSTYLE_END
300
CELLSTYLE
  1
TABLEFORMAT_BEGIN
 90
        5
170
     1
 91
        0
 92
        0
 62
   257
 93
        1
300
CONTENTFORMAT
  1
CONTENTFORMAT_BEGIN
 90
        0
 91
        0
 92
        4
 93
        0
300

 40
0.0
140
1.0
 94
        5
 62
     0
340
11
144
4.5
309
CONTENTFORMAT_END
171
     1
301
MARGIN
  1
CELLMARGIN_BEGIN
 40
1.5
 40
1.5
 40
1.5
 40
1.5
 40
1.5
 40
1.5
309
CELLMARGIN_END
 94
        6
 95
        1
302
GRIDFORMAT
  1
GRIDFORMAT_BEGIN
 90
        0
 91
        1
 62
     0
 92
       -2
340
14
 93
        0
 40
0.045
309
GRIDFORMAT_END
 95
        2
302
GRIDFORMAT
  1
GRIDFORMAT_BEGIN
 90
        0
 91
        1
 62
     0
 92
       -2
340
14
 93
        0
 40
0.045
309
GRIDFORMAT_END
 95
        4
302
GRIDFORMAT
  1
GRIDFORMAT_BEGIN
 90
        0
 91
        1
 62
     0
 92
       -2
340
14
 93
        0
 40
0.045
309
GRIDFORMAT_END
 95
        8
302
GRIDFORMAT
  1
GRIDFORMAT_BEGIN
 90
        0
 91
        1
 62
     0
 92
       -2
340
14
 93
        0
 40
0.045
309
GRIDFORMAT_END
 95
       16
302
GRIDFORMAT
  1
GRIDFORMAT_BEGIN
 90
        0
 91
        1
 62
     0
 92
       -2
340
14
 93
        0
 40
0.045
309
GRIDFORMAT_END
 95
       32
302
GRIDFORMAT
  1
GRIDFORMAT_BEGIN
 90
        0
 91
        1
 62
     0
 92
       -2
340
14
 93
        0
 40
0.045
309
GRIDFORMAT_END
309
TABLEFORMAT_END
  1
CELLSTYLE_BEGIN
 90
        2
 91
        1
300
_HEADER
309
CELLSTYLE_END
300
CELLSTYLE
  1
TABLEFORMAT_BEGIN
 90
        5
170
     1
 91
        0
 92
        0
 62
   257
 93
        1
300
CONTENTFORMAT
  1
CONTENTFORMAT_BEGIN
 90
        0
 91
        0
 92
        4
 93
        0
300

 40
0.0
140
1.0
 94
        2
 62
     0
340
11
144
4.5
309
CONTENTFORMAT_END
171
     1
301
MARGIN
  1
CELLMARGIN_BEGIN
 40
1.5
 40
1.5
 40
1.5
 40
1.5
 40
1.5
 40
1.5
309
CELLMARGIN_END
 94
        6
 95
        1
302
GRIDFORMAT
  1
GRIDFORMAT_BEGIN
 90
        0
 91
        1
 62
     0
 92
       -2
340
14
 93
        0
 40
0.045
309
GRIDFORMAT_END
 95
        2
302
GRIDFORMAT
  1
GRIDFORMAT_BEGIN
 90
        0
 91
        1
 62
     0
 92
       -2
340
14
 93
        0
 40
0.045
309
GRIDFORMAT_END
 95
        4
302
GRIDFORMAT
  1
GRIDFORMAT_BEGIN
 90
        0
 91
        1
 62
     0
 92
       -2
340
14
 93
        0
 40
0.045
309
GRIDFORMAT_END
 95
        8
302
GRIDFORMAT
  1
GRIDFORMAT_BEGIN
 90
        0
 91
        1
 62
     0
 92
       -2
340
14
 93
        0
 40
0.045
309
GRIDFORMAT_END
 95
       16
302
GRIDFORMAT
  1
GRIDFORMAT_BEGIN
 90
        0
 91
        1
 62
     0
 92
       -2
340
14
 93
        0
 40
0.045
309
GRIDFORMAT_END
 95
       32
302
GRIDFORMAT
  1
GRIDFORMAT_BEGIN
 90
        0
 91
        1
 62
     0
 92
       -2
340
14
 93
        0
 40
0.045
309
GRIDFORMAT_END
309
TABLEFORMAT_END
  1
CELLSTYLE_BEGIN
 90
        3
 91
        2
300
_DATA
309
CELLSTYLE_END
  0
ENDSEC
  0
EOF
