  0
SECTION
  2
HEADER
  9
$ACADVER
  1
AC1027
  9
$ACADMAINTVER
 70
   105
  9
$DWGCODEPAGE
  3
ANSI_1250
  9
$REQUIREDVERSIONS
160
                 0
  9
$INSBASE
 10
0.0
 20
0.0
 30
0.0
  9
$EXTMIN
 10
1.000000000000000E+20
 20
1.000000000000000E+20
 30
1.000000000000000E+20
  9
$EXTMAX
 10
-1.000000000000000E+20
 20
-1.000000000000000E+20
 30
-1.000000000000000E+20
  9
$LIMMIN
 10
0.0
 20
0.0
  9
$LIMMAX
 10
420.0
 20
297.0
  9
$ORTHOMODE
 70
     0
  9
$REGENMODE
 70
     1
  9
$FILLMODE
 70
     1
  9
$QTEXTMODE
 70
     0
  9
$MIRRTEXT
 70
     1
  9
$LTSCALE
 40
1.0
  9
$ATTMODE
 70
     1
  9
$TEXTSIZE
 40
2.5
  9
$TRACEWID
 40
1.0
  9
$TEXTSTYLE
  7
Standard
  9
$CLAYER
  8
0
  9
$CELTYPE
  6
ByLayer
  9
$CECOLOR
 62
   256
  9
$CELTSCALE
 40
1.0
  9
$DISPSILH
 70
     0
  9
$DIMSCALE
 40
1.0
  9
$DIMASZ
 40
3.0
  9
$DIMEXO
 40
0.625
  9
$DIMDLI
 40
3.75
  9
$DIMRND
 40
0.0
  9
$DIMDLE
 40
0.0
  9
$DIMEXE
 40
1.25
  9
$DIMTP
 40
0.0
  9
$DIMTM
 40
0.0
  9
$DIMTXT
 40
1.336918010447422
  9
$DIMCEN
 40
2.5
  9
$DIMTSZ
 40
0.0
  9
$DIMTOL
 70
     0
  9
$DIMLIM
 70
     0
  9
$DIMTIH
 70
     0
  9
$DIMTOH
 70
     0
  9
$DIMSE1
 70
     0
  9
$DIMSE2
 70
     0
  9
$DIMTAD
 70
     1
  9
$DIMZIN
 70
     8
  9
$DIMBLK
  1

  9
$DIMASO
 70
     1
  9
$DIMSHO
 70
     1
  9
$DIMPOST
  1

  9
$DIMAPOST
  1

  9
$DIMALT
 70
     0
  9
$DIMALTD
 70
     3
  9
$DIMALTF
 40
0.03937007874016
  9
$DIMLFAC
 40
1.0
  9
$DIMTOFL
 70
     1
  9
$DIMTVP
 40
0.0
  9
$DIMTIX
 70
     0
  9
$DIMSOXD
 70
     0
  9
$DIMSAH
 70
     0
  9
$DIMBLK1
  1

  9
$DIMBLK2
  1

  9
$DIMSTYLE
  2
ISO-25
  9
$DIMCLRD
 70
     0
  9
$DIMCLRE
 70
     0
  9
$DIMCLRT
 70
     0
  9
$DIMTFAC
 40
1.0
  9
$DIMGAP
 40
0.625
  9
$DIMJUST
 70
     0
  9
$DIMSD1
 70
     0
  9
$DIMSD2
 70
     0
  9
$DIMTOLJ
 70
     0
  9
$DIMTZIN
 70
     8
  9
$DIMALTZ
 70
     0
  9
$DIMALTTZ
 70
     0
  9
$DIMUPT
 70
     0
  9
$DIMDEC
 70
     2
  9
$DIMTDEC
 70
     2
  9
$DIMALTU
 70
     2
  9
$DIMALTTD
 70
     3
  9
$DIMTXSTY
  7
Standard
  9
$DIMAUNIT
 70
     0
  9
$DIMADEC
 70
     0
  9
$DIMALTRND
 40
0.0
  9
$DIMAZIN
 70
     0
  9
$DIMDSEP
 70
    44
  9
$DIMATFIT
 70
     3
  9
$DIMFRAC
 70
     0
  9
$DIMLDRBLK
  1

  9
$DIMLUNIT
 70
     2
  9
$DIMLWD
 70
    -2
  9
$DIMLWE
 70
    -2
  9
$DIMTMOVE
 70
     0
  9
$DIMFXL
 40
1.0
  9
$DIMFXLON
 70
     0
  9
$DIMJOGANG
 40
0.7853981633974483
  9
$DIMTFILL
 70
     0
  9
$DIMTFILLCLR
 70
     0
  9
$DIMARCSYM
 70
     0
  9
$DIMLTYPE
  6

  9
$DIMLTEX1
  6

  9
$DIMLTEX2
  6

  9
$DIMTXTDIRECTION
 70
     0
  9
$LUNITS
 70
     2
  9
$LUPREC
 70
     4
  9
$SKETCHINC
 40
1.0
  9
$FILLETRAD
 40
10.0
  9
$AUNITS
 70
     0
  9
$AUPREC
 70
     0
  9
$MENU
  1
.
  9
$ELEVATION
 40
0.0
  9
$PELEVATION
 40
0.0
  9
$THICKNESS
 40
0.0
  9
$LIMCHECK
 70
     0
  9
$CHAMFERA
 40
0.0
  9
$CHAMFERB
 40
0.0
  9
$CHAMFERC
 40
0.0
  9
$CHAMFERD
 40
0.0
  9
$SKPOLY
 70
     0
  9
$TDCREATE
 40
2458367.466919572
  9
$TDUCREATE
 40
2458367.383586239
  9
$TDUPDATE
 40
2458367.466921528
  9
$TDUUPDATE
 40
2458367.383588194
  9
$TDINDWG
 40
0.0000000116
  9
$TDUSRTIMER
 40
0.0000000116
  9
$USRTIMER
 70
     1
  9
$ANGBASE
 50
0.0
  9
$ANGDIR
 70
     0
  9
$PDMODE
 70
     0
  9
$PDSIZE
 40
0.0
  9
$PLINEWID
 40
0.0
  9
$SPLFRAME
 70
     0
  9
$SPLINETYPE
 70
     6
  9
$SPLINESEGS
 70
     8
  9
$HANDSEED
  5
218
  9
$SURFTAB1
 70
     6
  9
$SURFTAB2
 70
     6
  9
$SURFTYPE
 70
     6
  9
$SURFU
 70
     6
  9
$SURFV
 70
     6
  9
$UCSBASE
  2

  9
$UCSNAME
  2

  9
$UCSORG
 10
0.0
 20
0.0
 30
0.0
  9
$UCSXDIR
 10
1.0
 20
0.0
 30
0.0
  9
$UCSYDIR
 10
0.0
 20
1.0
 30
0.0
  9
$UCSORTHOREF
  2

  9
$UCSORTHOVIEW
 70
     0
  9
$UCSORGTOP
 10
0.0
 20
0.0
 30
0.0
  9
$UCSORGBOTTOM
 10
0.0
 20
0.0
 30
0.0
  9
$UCSORGLEFT
 10
0.0
 20
0.0
 30
0.0
  9
$UCSORGRIGHT
 10
0.0
 20
0.0
 30
0.0
  9
$UCSORGFRONT
 10
0.0
 20
0.0
 30
0.0
  9
$UCSORGBACK
 10
0.0
 20
0.0
 30
0.0
  9
$PUCSBASE
  2

  9
$PUCSNAME
  2

  9
$PUCSORG
 10
0.0
 20
0.0
 30
0.0
  9
$PUCSXDIR
 10
1.0
 20
0.0
 30
0.0
  9
$PUCSYDIR
 10
0.0
 20
1.0
 30
0.0
  9
$PUCSORTHOREF
  2

  9
$PUCSORTHOVIEW
 70
     0
  9
$PUCSORGTOP
 10
0.0
 20
0.0
 30
0.0
  9
$PUCSORGBOTTOM
 10
0.0
 20
0.0
 30
0.0
  9
$PUCSORGLEFT
 10
0.0
 20
0.0
 30
0.0
  9
$PUCSORGRIGHT
 10
0.0
 20
0.0
 30
0.0
  9
$PUCSORGFRONT
 10
0.0
 20
0.0
 30
0.0
  9
$PUCSORGBACK
 10
0.0
 20
0.0
 30
0.0
  9
$USERI1
 70
     0
  9
$USERI2
 70
     0
  9
$USERI3
 70
     0
  9
$USERI4
 70
     0
  9
$USERI5
 70
     0
  9
$USERR1
 40
0.0
  9
$USERR2
 40
0.0
  9
$USERR3
 40
0.0
  9
$USERR4
 40
0.0
  9
$USERR5
 40
0.0
  9
$WORLDVIEW
 70
     1
  9
$SHADEDGE
 70
     3
  9
$SHADEDIF
 70
    70
  9
$TILEMODE
 70
     1
  9
$MAXACTVP
 70
    64
  9
$PINSBASE
 10
0.0
 20
0.0
 30
0.0
  9
$PLIMCHECK
 70
     0
  9
$PEXTMIN
 10
1.000000000000000E+20
 20
1.000000000000000E+20
 30
1.000000000000000E+20
  9
$PEXTMAX
 10
-1.000000000000000E+20
 20
-1.000000000000000E+20
 30
-1.000000000000000E+20
  9
$PLIMMIN
 10
0.0
 20
0.0
  9
$PLIMMAX
 10
420.0
 20
297.0
  9
$UNITMODE
 70
     0
  9
$VISRETAIN
 70
     1
  9
$PLINEGEN
 70
     0
  9
$PSLTSCALE
 70
     1
  9
$TREEDEPTH
 70
  3020
  9
$CMLSTYLE
  2
Standard
  9
$CMLJUST
 70
     0
  9
$CMLSCALE
 40
20.0
  9
$PROXYGRAPHICS
 70
     1
  9
$MEASUREMENT
 70
     1
  9
$CELWEIGHT
370
    -1
  9
$ENDCAPS
280
     0
  9
$JOINSTYLE
280
     0
  9
$LWDISPLAY
290
     0
  9
$INSUNITS
 70
     4
  9
$HYPERLINKBASE
  1

  9
$STYLESHEET
  1

  9
$XEDIT
290
     1
  9
$CEPSNTYPE
380
     0
  9
$PSTYLEMODE
290
     1
  9
$FINGERPRINTGUID
  2
{2564f6ea-b7bb-4459-9e00-acaf3749d6d4}
  9
$VERSIONGUID
  2
{FAEB1C32-E019-11D5-929B-00C0DF256EC4}
  9
$EXTNAMES
290
     1
  9
$PSVPSCALE
 40
0.0
  9
$OLESTARTUP
290
     0
  9
$SORTENTS
280
   127
  9
$INDEXCTL
280
     0
  9
$HIDETEXT
280
     1
  9
$XCLIPFRAME
280
     2
  9
$HALOGAP
280
     0
  9
$OBSCOLOR
 70
   257
  9
$OBSLTYPE
280
     0
  9
$INTERSECTIONDISPLAY
280
     0
  9
$INTERSECTIONCOLOR
 70
   257
  9
$DIMASSOC
280
     2
  9
$PROJECTNAME
  1

  9
$CAMERADISPLAY
290
     0
  9
$LENSLENGTH
 40
50.0
  9
$CAMERAHEIGHT
 40
0.0
  9
$STEPSPERSEC
 40
2.0
  9
$STEPSIZE
 40
6.0
  9
$3DDWFPREC
 40
2.0
  9
$PSOLWIDTH
 40
5.0
  9
$PSOLHEIGHT
 40
80.0
  9
$LOFTANG1
 40
1.570796326794897
  9
$LOFTANG2
 40
1.570796326794897
  9
$LOFTMAG1
 40
0.0
  9
$LOFTMAG2
 40
0.0
  9
$LOFTPARAM
 70
     7
  9
$LOFTNORMALS
280
     1
  9
$LATITUDE
 40
37.795
  9
$LONGITUDE
 40
-122.394
  9
$NORTHDIRECTION
 40
0.0
  9
$TIMEZONE
 70
 -8000
  9
$LIGHTGLYPHDISPLAY
280
     1
  9
$TILEMODELIGHTSYNCH
280
     1
  9
$CMATERIAL
347
44
  9
$SOLIDHIST
280
     0
  9
$SHOWHIST
280
     1
  9
$DWFFRAME
280
     2
  9
$DGNFRAME
280
     2
  9
$REALWORLDSCALE
290
     1
  9
$INTERFERECOLOR
 62
   256
  9
$CSHADOW
280
     0
  9
$SHADOWPLANELOCATION
 40
0.0
  0
ENDSEC
  0
SECTION
  2
CLASSES
  0
CLASS
  1
ACDBDICTIONARYWDFLT
  2
AcDbDictionaryWithDefault
  3
ObjectDBX Classes
 90
        0
 91
        3
280
     0
281
     0
  0
CLASS
  1
VISUALSTYLE
  2
AcDbVisualStyle
  3
ObjectDBX Classes
 90
     4095
 91
        3
280
     0
281
     0
  0
CLASS
  1
MATERIAL
  2
AcDbMaterial
  3
ObjectDBX Classes
 90
     1153
 91
        3
280
     0
281
     0
  0
CLASS
  1
SCALE
  2
AcDbScale
  3
ObjectDBX Classes
 90
     1153
 91
        3
280
     0
281
     0
  0
CLASS
  1
TABLESTYLE
  2
AcDbTableStyle
  3
ObjectDBX Classes
 90
     4095
 91
        3
280
     0
281
     0
  0
CLASS
  1
MLEADERSTYLE
  2
AcDbMLeaderStyle
  3
ACDB_MLEADERSTYLE_CLASS
 90
     4095
 91
        3
280
     0
281
     0
  0
CLASS
  1
SUN
  2
AcDbSun
  3
SCENEOE
 90
     1153
 91
        3
280
     0
281
     0
  0
CLASS
  1
DICTIONARYVAR
  2
AcDbDictionaryVar
  3
ObjectDBX Classes
 90
        0
 91
        3
280
     0
281
     0
  0
CLASS
  1
CELLSTYLEMAP
  2
AcDbCellStyleMap
  3
ObjectDBX Classes
 90
     1152
 91
        3
280
     0
281
     0
  0
ENDSEC
  0
SECTION
  2
TABLES
  0
TABLE
  2
VPORT
  5
8
330
0
100
AcDbSymbolTable
 70
     1
  0
VPORT
  5
29
330
8
100
AcDbSymbolTableRecord
100
AcDbViewportTableRecord
  2
*Active
 70
     0
 10
0.0
 20
0.0
 11
1.0
 21
1.0
 12
344.1869158878504
 22
148.5
 13
0.0
 23
0.0
 14
10.0
 24
10.0
 15
10.0
 25
10.0
 16
0.0
 26
0.0
 36
1.0
 17
0.0
 27
0.0
 37
0.0
 40
297.0
 41
1.972972972850329
 42
50.0
 43
0.0
 44
0.0
 50
0.0
 51
0.0
 71
     0
 72
   100
 73
     1
 74
     3
 75
     0
 76
     0
 77
     0
 78
     0
281
     0
 65
     1
110
0.0
120
0.0
130
0.0
111
1.0
121
0.0
131
0.0
112
0.0
122
1.0
132
0.0
 79
     0
146
0.0
348
2F
 60
     3
 61
     5
292
     1
282
     1
141
0.0
142
0.0
 63
   250
361
6D
  0
ENDTAB
  0
TABLE
  2
LTYPE
  5
5
330
0
100
AcDbSymbolTable
 70
     2
  0
LTYPE
  5
14
330
5
100
AcDbSymbolTableRecord
100
AcDbLinetypeTableRecord
  2
ByBlock
 70
     0
  3

 72
    65
 73
     0
 40
0.0
  0
LTYPE
  5
15
330
5
100
AcDbSymbolTableRecord
100
AcDbLinetypeTableRecord
  2
ByLayer
 70
     0
  3

 72
    65
 73
     0
 40
0.0
  0
LTYPE
  5
16
330
5
100
AcDbSymbolTableRecord
100
AcDbLinetypeTableRecord
  2
Continuous
 70
     0
  3
Solid line
 72
    65
 73
     0
 40
0.0
  0
LTYPE
  5
7F
330
5
100
AcDbSymbolTableRecord
100
AcDbLinetypeTableRecord
  2
HIDDEN
 70
     0
  3
Hidden __ __ __ __ __ __ __ __ __ __ __ __ __ __
 72
    65
 73
     2
 40
9.524999999999999
 49
6.35
 74
     0
 49
-3.175
 74
     0
  0
ENDTAB
  0
TABLE
  2
LAYER
  5
2
330
0
100
AcDbSymbolTable
 70
     6
  0
LAYER
  5
10
330
2
100
AcDbSymbolTableRecord
100
AcDbLayerTableRecord
  2
0
 70
     0
 62
     7
  6
Continuous
370
    -3
390
F
347
46
348
0
  0
LAYER
  5
6E
330
2
100
AcDbSymbolTableRecord
100
AcDbLayerTableRecord
  2
VISIBLE
 70
     0
 62
     7
  6
Continuous
370
     0
390
F
347
46
348
0
  0
LAYER
  5
80
330
2
100
AcDbSymbolTableRecord
100
AcDbLayerTableRecord
  2
HIDDEN
 70
     0
 62
   253
  6
HIDDEN
370
     0
390
F
347
46
348
0
  0
LAYER
  5
91
330
2
100
AcDbSymbolTableRecord
100
AcDbLayerTableRecord
  2
CENTER
 70
     0
 62
   204
  6
Continuous
370
     0
390
F
347
46
348
0
  0
LAYER
  5
B0
330
2
100
AcDbSymbolTableRecord
100
AcDbLayerTableRecord
  2
DIMENSIONS
 70
     0
 62
     7
  6
Continuous
370
     0
390
F
347
46
348
0
  0
LAYER
  5
E5
330
2
100
AcDbSymbolTableRecord
100
AcDbLayerTableRecord
  2
CONTINUOUS
 70
     0
 62
     7
  6
Continuous
370
     0
390
F
347
46
348
0
  0
ENDTAB
  0
TABLE
  2
STYLE
  5
3
330
0
100
AcDbSymbolTable
 70
     1
  0
STYLE
  5
11
330
3
100
AcDbSymbolTableRecord
100
AcDbTextStyleTableRecord
  2
Standard
 70
     0
 40
0.0
 41
1.0
 50
0.0
 71
     0
 42
2.5
  3
txt
  4

  0
ENDTAB
  0
TABLE
  2
VIEW
  5
6
330
0
100
AcDbSymbolTable
 70
     0
  0
ENDTAB
  0
TABLE
  2
UCS
  5
7
330
0
100
AcDbSymbolTable
 70
     0
  0
ENDTAB
  0
TABLE
  2
APPID
  5
9
330
0
100
AcDbSymbolTable
 70
     1
  0
APPID
  5
12
330
9
100
AcDbSymbolTableRecord
100
AcDbRegAppTableRecord
  2
ACAD
 70
     0
  0
ENDTAB
  0
TABLE
  2
DIMSTYLE
  5
A
330
0
100
AcDbSymbolTable
 70
     1
100
AcDbDimStyleTable
  0
DIMSTYLE
105
27
102
{ACAD_REACTORS
330
B1
330
C3
330
D4
330
132
102
}
330
A
100
AcDbSymbolTableRecord
100
AcDbDimStyleTableRecord
  2
ISO-25
 70
     0
 41
2.5
 42
0.625
 43
3.75
 44
1.25
 73
     0
 74
     0
 77
     1
 78
     8
140
2.5
141
2.5
143
0.03937007874016
147
0.625
171
     3
172
     1
178
     0
271
     2
272
     2
274
     3
278
    44
283
     0
284
     8
340
11
  0
ENDTAB
  0
TABLE
  2
BLOCK_RECORD
  5
1
330
0
100
AcDbSymbolTable
 70
     6
  0
BLOCK_RECORD
  5
1F
330
1
100
AcDbSymbolTableRecord
100
AcDbBlockTableRecord
  2
*Model_Space
340
22
 70
     0
280
     1
281
     0
  0
BLOCK_RECORD
  5
1B
330
1
100
AcDbSymbolTableRecord
100
AcDbBlockTableRecord
  2
*Paper_Space
340
1E
 70
     0
280
     1
281
     0
  0
BLOCK_RECORD
  5
23
330
1
100
AcDbSymbolTableRecord
100
AcDbBlockTableRecord
  2
*Paper_Space0
340
26
 70
     0
280
     1
281
     0
  0
BLOCK_RECORD
  5
B2
330
1
100
AcDbSymbolTableRecord
100
AcDbBlockTableRecord
  2
D1
340
0
 70
     0
280
     1
281
     0
  0
BLOCK_RECORD
  5
C4
330
1
100
AcDbSymbolTableRecord
100
AcDbBlockTableRecord
  2
D2
340
0
 70
     0
280
     1
281
     0
  0
BLOCK_RECORD
  5
D5
330
1
100
AcDbSymbolTableRecord
100
AcDbBlockTableRecord
  2
D3
340
0
 70
     0
280
     1
281
     0
  0
BLOCK_RECORD
  5
133
330
1
100
AcDbSymbolTableRecord
100
AcDbBlockTableRecord
  2
D4
340
0
 70
     0
280
     1
281
     0
  0
BLOCK_RECORD
  5
1BC
330
1
100
AcDbSymbolTableRecord
100
AcDbBlockTableRecord
  2
BLOCK2
340
0
102
{BLKREFS
331
1BB
102
}
 70
     0
280
     1
281
     0
  0
ENDTAB
  0
ENDSEC
  0
SECTION
  2
BLOCKS
  0
BLOCK
  5
20
330
1F
100
AcDbEntity
  8
0
100
AcDbBlockBegin
  2
*Model_Space
 70
     0
 10
0.0
 20
0.0
 30
0.0
  3
*Model_Space
  1

  0
ENDBLK
  5
21
330
1F
100
AcDbEntity
  8
0
100
AcDbBlockEnd
  0
BLOCK
  5
1C
330
1B
100
AcDbEntity
 67
     1
  8
0
100
AcDbBlockBegin
  2
*Paper_Space
 70
     0
 10
0.0
 20
0.0
 30
0.0
  3
*Paper_Space
  1

  0
ENDBLK
  5
1D
330
1B
100
AcDbEntity
 67
     1
  8
0
100
AcDbBlockEnd
  0
BLOCK
  5
24
330
23
100
AcDbEntity
  8
0
100
AcDbBlockBegin
  2
*Paper_Space0
 70
     0
 10
0.0
 20
0.0
 30
0.0
  3
*Paper_Space0
  1

  0
ENDBLK
  5
25
330
23
100
AcDbEntity
  8
0
100
AcDbBlockEnd
  0
BLOCK
  5
B3
330
B2
100
AcDbEntity
  8
0
100
AcDbBlockBegin
  2
D1
 70
     0
 10
0.0
 20
0.0
 30
0.0
  3
D1
  1

  0
MTEXT
  5
B5
330
B2
100
AcDbEntity
  8
DIMENSIONS
100
AcDbMText
 10
107.3128204345703
 20
111.2278900146484
 30
0.0
 40
2.134018756842158
 41
0.0
 46
0.0
 71
     5
 72
     1
  1
{\fAlibre Symbols|b0|i0|c0|p0;n}{\fCE|b0|i0|c0|p0;\H0.95x;48}{\fCE|b0|i0|c0|p0;\H0.95x;}
 73
     1
 44
1.0
  0
MTEXT
  5
B6
330
B2
100
AcDbEntity
  8
DIMENSIONS
100
AcDbMText
 10
107.3128204345703
 20
111.2278900146484
 30
0.0
 40
2.134018756842158
 41
0.0
 46
0.0
 71
     5
 72
     1
  1
{\fCE|b0|i0|c0|p0;}
 73
     1
 44
1.0
  0
MTEXT
  5
B7
330
B2
100
AcDbEntity
  8
DIMENSIONS
100
AcDbMText
 10
107.3128204345703
 20
111.2278900146484
 30
0.0
 40
2.134018756842158
 41
0.0
 46
0.0
 71
     5
 72
     1
  1
{\fCE|b0|i0|c0|p0;}
 73
     1
 44
1.0
  0
MTEXT
  5
B8
330
B2
100
AcDbEntity
  8
DIMENSIONS
100
AcDbMText
 10
103.6086537679036
 20
111.2278900146484
 30
0.0
 40
2.134018756842158
 41
0.0
 46
0.0
 71
     5
 72
     1
  1
{\fCE|b0|i0|c0|p0;}
 73
     1
 44
1.0
  0
MTEXT
  5
B9
330
B2
100
AcDbEntity
  8
DIMENSIONS
100
AcDbMText
 10
111.016987101237
 20
111.2278900146484
 30
0.0
 40
2.134018756842158
 41
0.0
 46
0.0
 71
     5
 72
     1
  1
{\fCE|b0|i0|c0|p0;}
 73
     1
 44
1.0
  0
LINE
  5
BA
330
B2
100
AcDbEntity
  8
DIMENSIONS
100
AcDbLine
 10
129.5822563171387
 20
145.4816474914551
 30
0.0
 11
129.5822563171387
 21
106.758445570204
 31
0.0
  0
LINE
  5
BB
330
B2
100
AcDbEntity
  8
DIMENSIONS
100
AcDbLine
 10
81.58225631713867
 20
145.4816474914551
 30
0.0
 11
81.58225631713867
 21
106.758445570204
 31
0.0
  0
LWPOLYLINE
  5
BC
330
B2
100
AcDbEntity
  8
DIMENSIONS
100
AcDbPolyline
 90
        4
 70
     0
 43
0.0
 10
129.5822563171387
 20
108.758445570204
 10
126.5822563171387
 20
108.258445570204
 10
126.5822563171387
 20
109.258445570204
 10
129.5822563171387
 20
108.758445570204
  0
LINE
  5
BD
330
B2
100
AcDbEntity
  8
DIMENSIONS
100
AcDbLine
 10
126.5822563171387
 20
108.758445570204
 30
0.0
 11
107.3128204345703
 21
108.758445570204
 31
0.0
  0
LWPOLYLINE
  5
BE
330
B2
100
AcDbEntity
  8
DIMENSIONS
100
AcDbPolyline
 90
        4
 70
     0
 43
0.0
 10
81.58225631713867
 20
108.758445570204
 10
84.58225631713867
 20
109.258445570204
 10
84.58225631713867
 20
108.258445570204
 10
81.58225631713867
 20
108.758445570204
  0
LINE
  5
BF
330
B2
100
AcDbEntity
  8
DIMENSIONS
100
AcDbLine
 10
84.58225631713867
 20
108.758445570204
 30
0.0
 11
107.3128204345703
 21
108.758445570204
 31
0.0
  0
LINE
  5
C0
330
B2
100
AcDbEntity
  8
DIMENSIONS
100
AcDbLine
 10
113.0169875621796
 20
108.758445570204
 30
0.0
 11
100.9030981659889
 21
108.758445570204
 31
0.0
  0
LWPOLYLINE
  5
C1
330
B2
100
AcDbEntity
  8
DIMENSIONS
100
AcDbPolyline
 90
        5
 70
     0
 43
0.0
 10
105.5822563171387
 20
147.4816474914551
 10
105.5822563171387
 20
147.4816474914551
 10
105.5822563171387
 20
147.4816474914551
 10
105.5822563171387
 20
147.4816474914551
 10
105.5822563171387
 20
147.4816474914551
  0
HATCH
  5
C2
330
B2
100
AcDbEntity
  8
0
 62
     7
100
AcDbHatch
 10
0.0
 20
0.0
 30
0.0
210
0.0
220
0.0
230
1.0
  2
SOLID
 70
     1
 71
     0
 91
        2
 92
        0
 93
        3
 72
     1
 10
126.5822563171387
 20
109.258445570204
 11
129.5822563171387
 21
108.758445570204
 72
     1
 10
129.5822563171387
 20
108.758445570204
 11
126.5822563171387
 21
108.258445570204
 72
     1
 10
126.5822563171387
 20
108.258445570204
 11
126.5822563171387
 21
109.258445570204
 97
        0
 92
        0
 93
        3
 72
     1
 10
84.58225631713867
 20
108.258445570204
 11
81.58225631713867
 21
108.758445570204
 72
     1
 10
81.58225631713867
 20
108.758445570204
 11
84.58225631713867
 21
109.258445570204
 72
     1
 10
84.58225631713867
 20
109.258445570204
 11
84.58225631713867
 21
108.258445570204
 97
        0
 75
     0
 76
     1
 98
        0
  0
ENDBLK
  5
B4
330
B2
100
AcDbEntity
  8
0
100
AcDbBlockEnd
  0
BLOCK
  5
C5
330
C4
100
AcDbEntity
  8
0
100
AcDbBlockBegin
  2
D2
 70
     0
 10
0.0
 20
0.0
 30
0.0
  3
D2
  1

  0
MTEXT
  5
C7
330
C4
100
AcDbEntity
  8
DIMENSIONS
100
AcDbMText
 10
104.6672821044922
 20
117.1943435668945
 30
0.0
 40
2.134018756842158
 41
0.0
 46
0.0
 71
     5
 72
     1
  1
{\fCE|b0|i0|c0|p0;25}{\fCE|b0|i0|c0|p0;}
 73
     1
 44
1.0
  0
MTEXT
  5
C8
330
C4
100
AcDbEntity
  8
DIMENSIONS
100
AcDbMText
 10
104.6672821044922
 20
117.1943435668945
 30
0.0
 40
2.134018756842158
 41
0.0
 46
0.0
 71
     5
 72
     1
  1
{\fCE|b0|i0|c0|p0;}
 73
     1
 44
1.0
  0
MTEXT
  5
C9
330
C4
100
AcDbEntity
  8
DIMENSIONS
100
AcDbMText
 10
104.6672821044922
 20
117.1943435668945
 30
0.0
 40
2.134018756842158
 41
0.0
 46
0.0
 71
     5
 72
     1
  1
{\fCE|b0|i0|c0|p0;}
 73
     1
 44
1.0
  0
MTEXT
  5
CA
330
C4
100
AcDbEntity
  8
DIMENSIONS
100
AcDbMText
 10
102.1978376600477
 20
117.1943435668945
 30
0.0
 40
2.134018756842158
 41
0.0
 46
0.0
 71
     5
 72
     1
  1
{\fCE|b0|i0|c0|p0;}
 73
     1
 44
1.0
  0
MTEXT
  5
CB
330
C4
100
AcDbEntity
  8
DIMENSIONS
100
AcDbMText
 10
107.1367265489366
 20
117.1943435668945
 30
0.0
 40
2.134018756842158
 41
0.0
 46
0.0
 71
     5
 72
     1
  1
{\fCE|b0|i0|c0|p0;}
 73
     1
 44
1.0
  0
LINE
  5
CC
330
C4
100
AcDbEntity
  8
DIMENSIONS
100
AcDbLine
 10
93.08225631713867
 20
128.1441474914551
 30
0.0
 11
93.08225631713867
 21
113.4304546780056
 31
0.0
  0
LINE
  5
CD
330
C4
100
AcDbEntity
  8
DIMENSIONS
100
AcDbLine
 10
118.0822563171387
 20
128.1441474914551
 30
0.0
 11
118.0822563171387
 21
113.4304546780056
 31
0.0
  0
LWPOLYLINE
  5
CE
330
C4
100
AcDbEntity
  8
DIMENSIONS
100
AcDbPolyline
 90
        4
 70
     0
 43
0.0
 10
93.08225631713867
 20
115.4304546780056
 10
96.08225631713867
 20
115.9304546780056
 10
96.08225631713867
 20
114.9304546780056
 10
93.08225631713867
 20
115.4304546780056
  0
LINE
  5
CF
330
C4
100
AcDbEntity
  8
DIMENSIONS
100
AcDbLine
 10
96.08225631713867
 20
115.4304546780056
 30
0.0
 11
104.6672821044922
 21
115.4304546780056
 31
0.0
  0
LWPOLYLINE
  5
D0
330
C4
100
AcDbEntity
  8
DIMENSIONS
100
AcDbPolyline
 90
        4
 70
     0
 43
0.0
 10
118.0822563171387
 20
115.4304546780056
 10
115.0822563171387
 20
114.9304546780056
 10
115.0822563171387
 20
115.9304546780056
 10
118.0822563171387
 20
115.4304546780056
  0
LINE
  5
D1
330
C4
100
AcDbEntity
  8
DIMENSIONS
100
AcDbLine
 10
115.0822563171387
 20
115.4304546780056
 30
0.0
 11
104.6672821044922
 21
115.4304546780056
 31
0.0
  0
LINE
  5
D2
330
C4
100
AcDbEntity
  8
DIMENSIONS
100
AcDbLine
 10
109.1367263793945
 20
115.4304546780056
 30
0.0
 11
99.4922821521759
 21
115.4304546780056
 31
0.0
  0
HATCH
  5
D3
330
C4
100
AcDbEntity
  8
0
 62
     7
100
AcDbHatch
 10
0.0
 20
0.0
 30
0.0
210
0.0
220
0.0
230
1.0
  2
SOLID
 70
     1
 71
     0
 91
        2
 92
        0
 93
        3
 72
     1
 10
96.08225631713867
 20
114.9304546780056
 11
93.08225631713867
 21
115.4304546780056
 72
     1
 10
93.08225631713867
 20
115.4304546780056
 11
96.08225631713867
 21
115.9304546780056
 72
     1
 10
96.08225631713867
 20
115.9304546780056
 11
96.08225631713867
 21
114.9304546780056
 97
        0
 92
        0
 93
        3
 72
     1
 10
115.0822563171387
 20
115.9304546780056
 11
118.0822563171387
 21
115.4304546780056
 72
     1
 10
118.0822563171387
 20
115.4304546780056
 11
115.0822563171387
 21
114.9304546780056
 72
     1
 10
115.0822563171387
 20
114.9304546780056
 11
115.0822563171387
 21
115.9304546780056
 97
        0
 75
     0
 76
     1
 98
        0
  0
ENDBLK
  5
C6
330
C4
100
AcDbEntity
  8
0
100
AcDbBlockEnd
  0
BLOCK
  5
D6
330
D5
100
AcDbEntity
  8
0
100
AcDbBlockBegin
  2
D3
 70
     0
 10
0.0
 20
0.0
 30
0.0
  3
D3
  1

  0
MTEXT
  5
D8
330
D5
100
AcDbEntity
  8
DIMENSIONS
100
AcDbMText
 10
139.7521362304688
 20
146.9538269042969
 30
0.0
 40
2.134018756842158
 41
0.0
 46
0.0
 71
     5
 72
     1
  1
{\fCE|b0|i0|c0|p0;25}{\fCE|b0|i0|c0|p0;}
 11
6.123031769111886E-17
 21
1.0
 31
0.0
 73
     1
 44
1.0
  0
MTEXT
  5
D9
330
D5
100
AcDbEntity
  8
DIMENSIONS
100
AcDbMText
 10
139.7521362304688
 20
146.9538269042969
 30
0.0
 40
2.134018756842158
 41
0.0
 46
0.0
 71
     5
 72
     1
  1
{\fCE|b0|i0|c0|p0;}
 11
6.123031769111886E-17
 21
1.0
 31
0.0
 73
     1
 44
1.0
  0
MTEXT
  5
DA
330
D5
100
AcDbEntity
  8
DIMENSIONS
100
AcDbMText
 10
139.7521362304688
 20
146.9538269042969
 30
0.0
 40
2.134018756842158
 41
0.0
 46
0.0
 71
     5
 72
     1
  1
{\fCE|b0|i0|c0|p0;}
 11
6.123031769111886E-17
 21
1.0
 31
0.0
 73
     1
 44
1.0
  0
MTEXT
  5
DB
330
D5
100
AcDbEntity
  8
DIMENSIONS
100
AcDbMText
 10
139.7521362304688
 20
144.4843824598524
 30
0.0
 40
2.134018756842158
 41
0.0
 46
0.0
 71
     5
 72
     1
  1
{\fCE|b0|i0|c0|p0;}
 11
6.123031769111886E-17
 21
1.0
 31
0.0
 73
     1
 44
1.0
  0
MTEXT
  5
DC
330
D5
100
AcDbEntity
  8
DIMENSIONS
100
AcDbMText
 10
139.7521362304688
 20
149.4232713487413
 30
0.0
 40
2.134018756842158
 41
0.0
 46
0.0
 71
     5
 72
     1
  1
{\fCE|b0|i0|c0|p0;}
 11
6.123031769111886E-17
 21
1.0
 31
0.0
 73
     1
 44
1.0
  0
LINE
  5
DD
330
D5
100
AcDbEntity
  8
DIMENSIONS
100
AcDbLine
 10
124.9197563171387
 20
134.9816474914551
 30
0.0
 11
143.5160251193577
 21
134.9816474914551
 31
0.0
  0
LINE
  5
DE
330
D5
100
AcDbEntity
  8
DIMENSIONS
100
AcDbLine
 10
124.9197563171387
 20
159.9816474914551
 30
0.0
 11
143.5160251193577
 21
159.9816474914551
 31
0.0
  0
LWPOLYLINE
  5
DF
330
D5
100
AcDbEntity
  8
DIMENSIONS
100
AcDbPolyline
 90
        4
 70
     0
 43
0.0
 10
141.5160251193576
 20
134.9816474914551
 10
141.0160251193577
 20
137.9816474914551
 10
142.0160251193577
 20
137.9816474914551
 10
141.5160251193576
 20
134.9816474914551
  0
LINE
  5
E0
330
D5
100
AcDbEntity
  8
DIMENSIONS
100
AcDbLine
 10
141.5160251193576
 20
137.9816474914551
 30
0.0
 11
141.5160251193576
 21
146.9538269042969
 31
0.0
  0
LWPOLYLINE
  5
E1
330
D5
100
AcDbEntity
  8
DIMENSIONS
100
AcDbPolyline
 90
        4
 70
     0
 43
0.0
 10
141.5160251193577
 20
159.9816474914551
 10
142.0160251193577
 20
156.9816474914551
 10
141.0160251193577
 20
156.9816474914551
 10
141.5160251193577
 20
159.9816474914551
  0
LINE
  5
E2
330
D5
100
AcDbEntity
  8
DIMENSIONS
100
AcDbLine
 10
141.5160251193576
 20
156.9816474914551
 30
0.0
 11
141.5160251193576
 21
146.9538269042969
 31
0.0
  0
LINE
  5
E3
330
D5
100
AcDbEntity
  8
DIMENSIONS
100
AcDbLine
 10
141.5160251193576
 20
151.7760484218597
 30
0.0
 11
141.5160251193576
 21
142.131605386734
 31
0.0
  0
HATCH
  5
E4
330
D5
100
AcDbEntity
  8
0
 62
     7
100
AcDbHatch
 10
0.0
 20
0.0
 30
0.0
210
0.0
220
0.0
230
1.0
  2
SOLID
 70
     1
 71
     0
 91
        2
 92
        0
 93
        3
 72
     1
 10
142.0160251193577
 20
137.9816474914551
 11
141.5160251193576
 21
134.9816474914551
 72
     1
 10
141.5160251193576
 20
134.9816474914551
 11
141.0160251193577
 21
137.9816474914551
 72
     1
 10
141.0160251193577
 20
137.9816474914551
 11
142.0160251193577
 21
137.9816474914551
 97
        0
 92
        0
 93
        3
 72
     1
 10
141.0160251193577
 20
156.9816474914551
 11
141.5160251193577
 21
159.9816474914551
 72
     1
 10
141.5160251193577
 20
159.9816474914551
 11
142.0160251193577
 21
156.9816474914551
 72
     1
 10
142.0160251193577
 20
156.9816474914551
 11
141.0160251193577
 21
156.9816474914551
 97
        0
 75
     0
 76
     1
 98
        0
  0
ENDBLK
  5
D7
330
D5
100
AcDbEntity
  8
0
100
AcDbBlockEnd
  0
BLOCK
  5
134
330
133
100
AcDbEntity
  8
0
100
AcDbBlockBegin
  2
D4
 70
     0
 10
0.0
 20
0.0
 30
0.0
  3
D4
  1

  0
MTEXT
  5
136
330
133
100
AcDbEntity
  8
DIMENSIONS
100
AcDbMText
 10
182.3328094482422
 20
108.8572277492947
 30
0.0
 40
2.134018756842158
 41
0.0
 46
0.0
 71
     5
 72
     1
  1
{\fCE|b0|i0|c0|p0;10}{\fCE|b0|i0|c0|p0;}
 73
     1
 44
1.0
  0
MTEXT
  5
137
330
133
100
AcDbEntity
  8
DIMENSIONS
100
AcDbMText
 10
182.3328094482422
 20
108.8572277492947
 30
0.0
 40
2.134018756842158
 41
0.0
 46
0.0
 71
     5
 72
     1
  1
{\fCE|b0|i0|c0|p0;}
 73
     1
 44
1.0
  0
MTEXT
  5
138
330
133
100
AcDbEntity
  8
DIMENSIONS
100
AcDbMText
 10
182.3328094482422
 20
108.8572277492947
 30
0.0
 40
2.134018756842158
 41
0.0
 46
0.0
 71
     5
 72
     1
  1
{\fCE|b0|i0|c0|p0;}
 73
     1
 44
1.0
  0
MTEXT
  5
139
330
133
100
AcDbEntity
  8
DIMENSIONS
100
AcDbMText
 10
179.8633650037978
 20
108.8572277492947
 30
0.0
 40
2.134018756842158
 41
0.0
 46
0.0
 71
     5
 72
     1
  1
{\fCE|b0|i0|c0|p0;}
 73
     1
 44
1.0
  0
MTEXT
  5
13A
330
133
100
AcDbEntity
  8
DIMENSIONS
100
AcDbMText
 10
184.8022538926866
 20
108.8572277492947
 30
0.0
 40
2.134018756842158
 41
0.0
 46
0.0
 71
     5
 72
     1
  1
{\fCE|b0|i0|c0|p0;}
 73
     1
 44
1.0
  0
LINE
  5
13B
330
133
100
AcDbEntity
  8
DIMENSIONS
100
AcDbLine
 10
177.3328094482422
 20
121.4816474914551
 30
0.0
 11
177.3328094482422
 21
105.0933388604058
 31
0.0
  0
LINE
  5
13C
330
133
100
AcDbEntity
  8
DIMENSIONS
100
AcDbLine
 10
187.3328094482422
 20
121.4816474914551
 30
0.0
 11
187.3328094482422
 21
105.0933388604058
 31
0.0
  0
LWPOLYLINE
  5
13D
330
133
100
AcDbEntity
  8
DIMENSIONS
100
AcDbPolyline
 90
        4
 70
     0
 43
0.0
 10
177.3328094482422
 20
107.0933388604058
 10
180.3328094482422
 20
107.5933388604058
 10
180.3328094482422
 20
106.5933388604058
 10
177.3328094482422
 20
107.0933388604058
  0
LINE
  5
13E
330
133
100
AcDbEntity
  8
DIMENSIONS
100
AcDbLine
 10
180.3328094482422
 20
107.0933388604058
 30
0.0
 11
182.3328094482422
 21
107.0933388604058
 31
0.0
  0
LWPOLYLINE
  5
13F
330
133
100
AcDbEntity
  8
DIMENSIONS
100
AcDbPolyline
 90
        4
 70
     0
 43
0.0
 10
187.3328094482422
 20
107.0933388604058
 10
184.3328094482422
 20
106.5933388604058
 10
184.3328094482422
 20
107.5933388604058
 10
187.3328094482422
 20
107.0933388604058
  0
LINE
  5
140
330
133
100
AcDbEntity
  8
DIMENSIONS
100
AcDbLine
 10
184.3328094482422
 20
107.0933388604058
 30
0.0
 11
182.3328094482422
 21
107.0933388604058
 31
0.0
  0
LINE
  5
141
330
133
100
AcDbEntity
  8
DIMENSIONS
100
AcDbLine
 10
186.8022537231445
 20
107.0933388604058
 30
0.0
 11
177.1578094959259
 21
107.0933388604058
 31
0.0
  0
HATCH
  5
142
330
133
100
AcDbEntity
  8
0
 62
     7
100
AcDbHatch
 10
0.0
 20
0.0
 30
0.0
210
0.0
220
0.0
230
1.0
  2
SOLID
 70
     1
 71
     0
 91
        2
 92
        0
 93
        3
 72
     1
 10
180.3328094482422
 20
106.5933388604058
 11
177.3328094482422
 21
107.0933388604058
 72
     1
 10
177.3328094482422
 20
107.0933388604058
 11
180.3328094482422
 21
107.5933388604058
 72
     1
 10
180.3328094482422
 20
107.5933388604058
 11
180.3328094482422
 21
106.5933388604058
 97
        0
 92
        0
 93
        3
 72
     1
 10
184.3328094482422
 20
107.5933388604058
 11
187.3328094482422
 21
107.0933388604058
 72
     1
 10
187.3328094482422
 20
107.0933388604058
 11
184.3328094482422
 21
106.5933388604058
 72
     1
 10
184.3328094482422
 20
106.5933388604058
 11
184.3328094482422
 21
107.5933388604058
 97
        0
 75
     0
 76
     1
 98
        0
  0
ENDBLK
  5
135
330
133
100
AcDbEntity
  8
0
100
AcDbBlockEnd
  0
BLOCK
  5
1BD
330
1BC
100
AcDbEntity
  8
0
100
AcDbBlockBegin
  2
BLOCK2
 70
     0
 10
0.0
 20
0.0
 30
0.0
  3
BLOCK2
  1

  0
LINE
  5
1BF
330
1BC
100
AcDbEntity
  8
CONTINUOUS
100
AcDbLine
 10
9.99999999999998
 20
9.99999999999995
 30
0.0
 11
287.0
 21
10.0
 31
0.0
  0
LINE
  5
1C0
330
1BC
100
AcDbEntity
  8
CONTINUOUS
100
AcDbLine
 10
141.942321777344
 20
5.0
 30
0.0
 11
241.942321777344
 21
5.0
 31
0.0
  0
LINE
  5
1C1
330
1BC
100
AcDbEntity
  8
CONTINUOUS
100
AcDbLine
 10
0.0
 20
0.0
 30
0.0
 11
-0.0000000000000012
 21
10.0
 31
0.0
  0
LINE
  5
1C2
330
1BC
100
AcDbEntity
  8
CONTINUOUS
100
AcDbLine
 10
0.0
 20
0.0
 30
0.0
 11
10.0
 21
0.0000000000000018
 31
0.0
  0
LINE
  5
1C3
330
1BC
100
AcDbEntity
  8
CONTINUOUS
100
AcDbLine
 10
141.942321777344
 20
5.0
 30
0.0
 11
141.942321777344
 21
10.0
 31
0.0
  0
LINE
  5
1C4
330
1BC
100
AcDbEntity
  8
CONTINUOUS
100
AcDbLine
 10
151.942321777344
 20
5.0
 30
0.0
 11
151.942321777344
 21
10.0
 31
0.0
  0
LINE
  5
1C5
330
1BC
100
AcDbEntity
  8
CONTINUOUS
100
AcDbLine
 10
161.942321777344
 20
5.0
 30
0.0
 11
161.942321777344
 21
10.0
 31
0.0
  0
LINE
  5
1C6
330
1BC
100
AcDbEntity
  8
CONTINUOUS
100
AcDbLine
 10
10.0
 20
57.5
 30
0.0
 11
5.0
 21
57.5
 31
0.0
  0
LINE
  5
1C7
330
1BC
100
AcDbEntity
  8
CONTINUOUS
100
AcDbLine
 10
10.0
 20
105.0
 30
0.0
 11
5.0
 21
105.0
 31
0.0
  0
LINE
  5
1C8
330
1BC
100
AcDbEntity
  8
CONTINUOUS
100
AcDbLine
 10
191.942321777344
 20
10.0
 30
0.0
 11
191.942321777344
 21
5.0
 31
0.0
  0
LINE
  5
1C9
330
1BC
100
AcDbEntity
  8
CONTINUOUS
100
AcDbLine
 10
171.942321777344
 20
5.0
 30
0.0
 11
171.942321777344
 21
10.0
 31
0.0
  0
LINE
  5
1CA
330
1BC
100
AcDbEntity
  8
CONTINUOUS
100
AcDbLine
 10
181.942321777344
 20
5.0
 30
0.0
 11
181.942321777344
 21
10.0
 31
0.0
  0
LINE
  5
1CB
330
1BC
100
AcDbEntity
  8
CONTINUOUS
100
AcDbLine
 10
201.942321777344
 20
5.0
 30
0.0
 11
201.942321777344
 21
10.0
 31
0.0
  0
LINE
  5
1CC
330
1BC
100
AcDbEntity
  8
CONTINUOUS
100
AcDbLine
 10
211.942321777344
 20
5.0
 30
0.0
 11
211.942321777344
 21
10.0
 31
0.0
  0
LINE
  5
1CD
330
1BC
100
AcDbEntity
  8
CONTINUOUS
100
AcDbLine
 10
221.942321777344
 20
5.0
 30
0.0
 11
221.942321777344
 21
10.0
 31
0.0
  0
LINE
  5
1CE
330
1BC
100
AcDbEntity
  8
CONTINUOUS
100
AcDbLine
 10
297.0
 20
0.0
 30
0.0
 11
297.0
 21
10.0
 31
0.0
  0
LINE
  5
1CF
330
1BC
100
AcDbEntity
  8
CONTINUOUS
100
AcDbLine
 10
241.942321777344
 20
5.0
 30
0.0
 11
241.942321777344
 21
10.0
 31
0.0
  0
LINE
  5
1D0
330
1BC
100
AcDbEntity
  8
CONTINUOUS
100
AcDbLine
 10
231.942321777344
 20
5.0
 30
0.0
 11
231.942321777344
 21
10.0
 31
0.0
  0
LINE
  5
1D1
330
1BC
100
AcDbEntity
  8
CONTINUOUS
100
AcDbLine
 10
296.942321777344
 20
0.0
 30
0.0
 11
286.942321777344
 21
0.0
 31
0.0
  0
LINE
  5
1D2
330
1BC
100
AcDbEntity
  8
CONTINUOUS
100
AcDbLine
 10
291.942321777344
 20
57.5
 30
0.0
 11
286.942321777344
 21
57.5
 31
0.0
  0
LINE
  5
1D3
330
1BC
100
AcDbEntity
  8
CONTINUOUS
100
AcDbLine
 10
291.942321777344
 20
105.0
 30
0.0
 11
286.942321777344
 21
105.0
 31
0.0
  0
LINE
  5
1D4
330
1BC
100
AcDbEntity
  8
CONTINUOUS
100
AcDbLine
 10
-0.0000000000000249
 20
209.989334106445
 30
0.0
 11
-0.0000000000000249
 21
199.989334106445
 31
0.0
  0
LINE
  5
1D5
330
1BC
100
AcDbEntity
  8
CONTINUOUS
100
AcDbLine
 10
10.0165710449219
 20
209.989334106445
 30
0.0
 11
0.016571044921875
 21
209.989334106445
 31
0.0
  0
LINE
  5
1D6
330
1BC
100
AcDbEntity
  8
CONTINUOUS
100
AcDbLine
 10
194.666666666667
 20
199.989334106445
 30
0.0
 11
194.666666666667
 21
204.989334106445
 31
0.0
  0
LINE
  5
1D7
330
1BC
100
AcDbEntity
  8
CONTINUOUS
100
AcDbLine
 10
297.0
 20
199.989334106445
 30
0.0
 11
297.0
 21
209.989334106445
 31
0.0
  0
LINE
  5
1D8
330
1BC
100
AcDbEntity
  8
CONTINUOUS
100
AcDbLine
 10
240.833333333333
 20
199.989334106445
 30
0.0
 11
240.833333333333
 21
204.989334106445
 31
0.0
  0
LINE
  5
1D9
330
1BC
100
AcDbEntity
  8
CONTINUOUS
100
AcDbLine
 10
296.958892822266
 20
209.989334106445
 30
0.0
 11
286.958892822266
 21
209.989334106445
 31
0.0
  0
LINE
  5
1DA
330
1BC
100
AcDbEntity
  8
CONTINUOUS
100
AcDbLine
 10
286.942321777344
 20
152.5
 30
0.0
 11
291.942321777344
 21
152.5
 31
0.0
  0
LINE
  5
1DB
330
1BC
100
AcDbEntity
  8
CONTINUOUS
100
AcDbLine
 10
5.0
 20
152.5
 30
0.0
 11
10.0
 21
152.5
 31
0.0
  0
LINE
  5
1DC
330
1BC
100
AcDbEntity
  8
CONTINUOUS
100
AcDbLine
 10
287.0
 20
200.0
 30
0.0
 11
9.99999999999998
 21
200.0
 31
0.0
  0
LINE
  5
1DD
330
1BC
100
AcDbEntity
  8
CONTINUOUS
100
AcDbLine
 10
287.0
 20
10.0
 30
0.0
 11
287.0
 21
200.0
 31
0.0
  0
LINE
  5
1DE
330
1BC
100
AcDbEntity
  8
CONTINUOUS
100
AcDbLine
 10
9.99999999999998
 20
200.0
 30
0.0
 11
9.99999999999998
 21
9.99999999999995
 31
0.0
  0
LINE
  5
1DF
330
1BC
100
AcDbEntity
  8
CONTINUOUS
100
AcDbLine
 10
56.1666666666666
 20
200.0
 30
0.0
 11
56.1666666666666
 21
205.0
 31
0.0
  0
LINE
  5
1E0
330
1BC
100
AcDbEntity
  8
CONTINUOUS
100
AcDbLine
 10
102.333333333333
 20
200.0
 30
0.0
 11
102.333333333333
 21
205.0
 31
0.0
  0
LINE
  5
1E1
330
1BC
100
AcDbEntity
  8
CONTINUOUS
100
AcDbLine
 10
148.5
 20
200.0
 30
0.0
 11
148.5
 21
205.0
 31
0.0
  0
LINE
  5
1E2
330
1BC
100
AcDbEntity
  8
CONTINUOUS
100
AcDbLine
 10
56.1666679382324
 20
10.0
 30
0.0
 11
56.1666679382324
 21
5.0
 31
0.0
  0
LINE
  5
1E3
330
1BC
100
AcDbEntity
  8
CONTINUOUS
100
AcDbLine
 10
102.333335876465
 20
10.0
 30
0.0
 11
102.333335876465
 21
5.0
 31
0.0
  0
LINE
  5
1E4
330
1BC
100
AcDbEntity
  8
CONTINUOUS
100
AcDbLine
 10
194.0
 20
10.0
 30
0.0
 11
194.0
 21
48.0
 31
0.0
  0
LINE
  5
1E5
330
1BC
100
AcDbEntity
  8
CONTINUOUS
100
AcDbLine
 10
251.0
 20
10.0
 30
0.0
 11
251.0
 21
20.0
 31
0.0
  0
LINE
  5
1E6
330
1BC
100
AcDbEntity
  8
CONTINUOUS
100
AcDbLine
 10
269.0
 20
10.0
 30
0.0
 11
269.0
 21
20.0
 31
0.0
  0
LINE
  5
1E7
330
1BC
100
AcDbEntity
  8
CONTINUOUS
100
AcDbLine
 10
229.0
 20
9.99999999999999
 30
0.0
 11
229.0
 21
20.0
 31
0.0
  0
LINE
  5
1E8
330
1BC
100
AcDbEntity
  8
CONTINUOUS
100
AcDbLine
 10
241.559921264648
 20
30.0
 30
0.0
 11
241.559921264648
 21
20.0
 31
0.0
  0
LINE
  5
1E9
330
1BC
100
AcDbEntity
  8
CONTINUOUS
100
AcDbLine
 10
269.0
 20
10.0
 30
0.0
 11
287.0
 21
10.0
 31
0.0
  0
LINE
  5
1EA
330
1BC
100
AcDbEntity
  8
CONTINUOUS
100
AcDbLine
 10
194.0
 20
48.0
 30
0.0
 11
287.0
 21
48.0
 31
0.0
  0
LINE
  5
1EB
330
1BC
100
AcDbEntity
  8
CONTINUOUS
100
AcDbLine
 10
194.059921264648
 20
30.0
 30
0.0
 11
287.059921264648
 21
30.0
 31
0.0
  0
LINE
  5
1EC
330
1BC
100
AcDbEntity
  8
CONTINUOUS
100
AcDbLine
 10
194.059921264648
 20
20.0
 30
0.0
 11
287.059921264648
 21
20.0
 31
0.0
  0
LINE
  5
1ED
330
1BC
100
AcDbEntity
  8
CONTINUOUS
100
AcDbLine
 10
216.0
 20
30.0
 30
0.0
 11
216.0
 21
48.0
 31
0.0
  0
MTEXT
  5
1EE
330
1BC
100
AcDbEntity
  8
CONTINUOUS
100
AcDbMText
 10
216.858890991211
 20
204.29698022461
 30
0.0
 40
3.720853217058121
 41
0.0
 46
0.0
 71
     4
 72
     1
  1
{\fArial|b0|i0|c0|p0;\C7;5}{\fArial|b0|i0|c0|p0;\C7;}
 73
     1
 44
1.0
  0
MTEXT
  5
1EF
330
1BC
100
AcDbEntity
  8
CONTINUOUS
100
AcDbMText
 10
229.826260375977
 20
18.2757760620116
 30
0.0
 40
2.251496730059653
 41
0.0
 46
0.0
 71
     4
 72
     1
  1
{\fMonotype Corsiva|b0|i1|c0|p0;\C7;Date}{\fArial|b0|i0|c0|p0;\C7;\H0.7692308x;}
 73
     1
 44
1.0
  0
MTEXT
  5
1F0
330
1BC
100
AcDbEntity
  8
CONTINUOUS
100
AcDbMText
 10
77.9621860149715
 20
204.250404272846
 30
0.0
 40
3.720853217058121
 41
0.0
 46
0.0
 71
     4
 72
     1
  1
{\fArial|b0|i0|c0|p0;\C7;2}{\fArial|b0|i0|c0|p0;\C7;}
 73
     1
 44
1.0
  0
MTEXT
  5
1F1
330
1BC
100
AcDbEntity
  8
CONTINUOUS
100
AcDbMText
 10
81.36409489129
 20
6.84505931157936
 30
0.0
 40
3.720853217058121
 41
0.0
 46
0.0
 71
     4
 72
     1
  1
{\fArial|b0|i0|c0|p0;\C7;2}{\fArial|b0|i0|c0|p0;\C7;}
 73
     1
 44
1.0
  0
MTEXT
  5
1F2
330
1BC
100
AcDbEntity
  8
CONTINUOUS
100
AcDbMText
 10
195.142121124268
 20
28.0459958648682
 30
0.0
 40
2.251496730059653
 41
0.0
 46
0.0
 71
     4
 72
     1
  1
{\fMonotype Corsiva|b0|i1|c0|p0;\C7;Name }{\fArial|b0|i0|c0|p0;\C7;\H0.7692308x;}
 73
     1
 44
1.0
  0
MTEXT
  5
1F3
330
1BC
100
AcDbEntity
  8
CONTINUOUS
100
AcDbMText
 10
5.6160912703474
 20
125.886
 30
0.0
 40
3.720853217058121
 41
0.0
 46
0.0
 71
     4
 72
     1
  1
{\fArial|b0|i0|c0|p0;\C7;B}{\fArial|b0|i0|c0|p0;\C7;}
 73
     1
 44
1.0
  0
MTEXT
  5
1F4
330
1BC
100
AcDbEntity
  8
CONTINUOUS
100
AcDbMText
 10
195.902451324463
 20
18.2433377838135
 30
0.0
 40
2.251496730059653
 41
0.0
 46
0.0
 71
     4
 72
     1
  1
{\fMonotype Corsiva|b0|i1|c0|p0;\C7;Treatment  }{\fArial|b0|i0|c0|p0;\C7;\H0.7692308x;}
 73
     1
 44
1.0
  0
MTEXT
  5
1F5
330
1BC
100
AcDbEntity
  8
CONTINUOUS
100
AcDbMText
 10
288.920463256836
 20
33.4667418823242
 30
0.0
 40
3.720853217058121
 41
0.0
 46
0.0
 71
     4
 72
     1
  1
{\fArial|b0|i0|c0|p0;\C7;D}{\fArial|b0|i0|c0|p0;\C7;}
 73
     1
 44
1.0
  0
MTEXT
  5
1F6
330
1BC
100
AcDbEntity
  8
CONTINUOUS
100
AcDbMText
 10
171.459843139648
 20
204.242353759765
 30
0.0
 40
3.720853217058121
 41
0.0
 46
0.0
 71
     4
 72
     1
  1
{\fArial|b0|i0|c0|p0;\C7;4}{\fArial|b0|i0|c0|p0;\C7;}
 73
     1
 44
1.0
  0
MTEXT
  5
1F7
330
1BC
100
AcDbEntity
  8
CONTINUOUS
100
AcDbMText
 10
288.710822753907
 20
79.4667495117188
 30
0.0
 40
3.720853217058121
 41
0.0
 46
0.0
 71
     4
 72
     1
  1
{\fArial|b0|i0|c0|p0;\C7;C}{\fArial|b0|i0|c0|p0;\C7;}
 73
     1
 44
1.0
  0
MTEXT
  5
1F8
330
1BC
100
AcDbEntity
  8
CONTINUOUS
100
AcDbMText
 10
244.748741149902
 20
7.15205116271974
 30
0.0
 40
1.969863467854299
 41
0.0
 46
0.0
 71
     4
 72
     1
  1
{\fArial|b0|i0|c0|p0;\C7;}
 73
     1
 44
1.0
  0
MTEXT
  5
1F9
330
1BC
100
AcDbEntity
  8
CONTINUOUS
100
AcDbMText
 10
5.33690040588379
 20
33.886
 30
0.0
 40
3.720853217058121
 41
0.0
 46
0.0
 71
     4
 72
     1
  1
{\fArial|b0|i0|c0|p0;\C7;D}{\fArial|b0|i0|c0|p0;\C7;}
 73
     1
 44
1.0
  0
MTEXT
  5
1FA
330
1BC
100
AcDbEntity
  8
CONTINUOUS
100
AcDbMText
 10
251.799879294482
 20
18.3564797973633
 30
0.0
 40
2.251496730059653
 41
0.0
 46
0.0
 71
     4
 72
     1
  1
{\fMonotype Corsiva|b0|i1|c0|p0;\C7;Pieces}{\fArial|b0|i0|c0|p0;\C7;\H0.7692308x;}
 73
     1
 44
1.0
  0
MTEXT
  5
1FB
330
1BC
100
AcDbEntity
  8
CONTINUOUS
100
AcDbMText
 10
288.594410820089
 20
171.67635949707
 30
0.0
 40
3.720853217058121
 41
0.0
 46
0.0
 71
     4
 72
     1
  1
{\fArial|b0|i0|c0|p0;\C7;A}{\fArial|b0|i0|c0|p0;\C7;}
 73
     1
 44
1.0
  0
MTEXT
  5
1FC
330
1BC
100
AcDbEntity
  8
CONTINUOUS
100
AcDbMText
 10
262.082233886719
 20
6.73998626327514
 30
0.0
 40
3.720853217058121
 41
0.0
 46
0.0
 71
     4
 72
     1
  1
{\fArial|b0|i0|c0|p0;\C7;6}{\fArial|b0|i0|c0|p0;\C7;}
 73
     1
 44
1.0
  0
MTEXT
  5
1FD
330
1BC
100
AcDbEntity
  8
CONTINUOUS
100
AcDbMText
 10
5.18862550735474
 20
80.0342772827149
 30
0.0
 40
3.720853217058121
 41
0.0
 46
0.0
 71
     4
 72
     1
  1
{\fArial|b0|i0|c0|p0;\C7;C}{\fArial|b0|i0|c0|p0;\C7;}
 73
     1
 44
1.0
  0
MTEXT
  5
1FE
330
1BC
100
AcDbEntity
  8
CONTINUOUS
100
AcDbMText
 10
242.754122362484
 20
27.7861882781982
 30
0.0
 40
2.251496730059653
 41
0.0
 46
0.0
 71
     4
 72
     1
  1
{\fMonotype Corsiva|b0|i1|c0|p0;\C7;Material }{\fArial|b0|i0|c0|p0;\C7;\H0.7692308x;}
 73
     1
 44
1.0
  0
MTEXT
  5
1FF
330
1BC
100
AcDbEntity
  8
CONTINUOUS
100
AcDbMText
 10
289.025805015464
 20
125.886
 30
0.0
 40
3.720853217058121
 41
0.0
 46
0.0
 71
     4
 72
     1
  1
{\fArial|b0|i0|c0|p0;\C7;B}{\fArial|b0|i0|c0|p0;\C7;}
 73
     1
 44
1.0
  0
MTEXT
  5
200
330
1BC
100
AcDbEntity
  8
CONTINUOUS
100
AcDbMText
 10
126.092175294703
 20
6.61010619923708
 30
0.0
 40
3.720853217058121
 41
0.0
 46
0.0
 71
     4
 72
     1
  1
{\fArial|b0|i0|c0|p0;\C7;3}{\fArial|b0|i0|c0|p0;\C7;}
 73
     1
 44
1.0
  0
MTEXT
  5
201
330
1BC
100
AcDbEntity
  8
CONTINUOUS
100
AcDbMText
 10
4.984780712209
 20
172.034376464844
 30
0.0
 40
3.720853217058121
 41
0.0
 46
0.0
 71
     4
 72
     1
  1
{\fArial|b0|i0|c0|p0;\C7;A}{\fArial|b0|i0|c0|p0;\C7;}
 73
     1
 44
1.0
  0
MTEXT
  5
202
330
1BC
100
AcDbEntity
  8
CONTINUOUS
100
AcDbMText
 10
32.2742214965821
 20
204.252439819336
 30
0.0
 40
3.720853217058121
 41
0.0
 46
0.0
 71
     4
 72
     1
  1
{\fArial|b0|i0|c0|p0;\C7;1}{\fArial|b0|i0|c0|p0;\C7;}
 73
     1
 44
1.0
  0
MTEXT
  5
203
330
1BC
100
AcDbEntity
  8
CONTINUOUS
100
AcDbMText
 10
269.737866210938
 20
18.1238347625733
 30
0.0
 40
2.251496730059653
 41
0.0
 46
0.0
 71
     4
 72
     1
  1
{\fMonotype Corsiva|b0|i1|c0|p0;\C7;Scale }{\fArial|b0|i0|c0|p0;\C7;\H0.7692308x;}
 73
     1
 44
1.0
  0
MTEXT
  5
204
330
1BC
100
AcDbEntity
  8
CONTINUOUS
100
AcDbMText
 10
265.171810609717
 20
204.240896547217
 30
0.0
 40
3.720853217058121
 41
0.0
 46
0.0
 71
     4
 72
     1
  1
{\fArial|b0|i0|c0|p0;\C7;6}{\fArial|b0|i0|c0|p0;\C7;}
 73
     1
 44
1.0
  0
MTEXT
  5
205
330
1BC
100
AcDbEntity
  8
CONTINUOUS
100
AcDbMText
 10
27.3887158203126
 20
6.7864282951355
 30
0.0
 40
3.720853217058121
 41
0.0
 46
0.0
 71
     4
 72
     1
  1
{\fArial|b0|i0|c0|p0;\C7;1}{\fArial|b0|i0|c0|p0;\C7;}
 73
     1
 44
1.0
  0
MTEXT
  5
206
330
1BC
100
AcDbEntity
  8
CONTINUOUS
100
AcDbMText
 10
121.245655822681
 20
204.355103698803
 30
0.0
 40
3.720853217058121
 41
0.0
 46
0.0
 71
     4
 72
     1
  1
{\fArial|b0|i0|c0|p0;\C7;3}{\fArial|b0|i0|c0|p0;\C7;}
 73
     1
 44
1.0
  0
ENDBLK
  5
1BE
330
1BC
100
AcDbEntity
  8
0
100
AcDbBlockEnd
  0
ENDSEC
  0
SECTION
  2
ENTITIES
  0
CIRCLE
  5
6F
330
1F
100
AcDbEntity
  8
VISIBLE
100
AcDbCircle
 10
93.08225631713867
 20
159.9816474914551
 30
0.0
 40
3.25
  0
LINE
  5
70
330
1F
100
AcDbEntity
  8
VISIBLE
100
AcDbLine
 10
104.5289077956902
 20
154.3567981674135
 30
0.0
 11
106.6356048385863
 21
154.3567981674135
 31
0.0
  0
LINE
  5
71
330
1F
100
AcDbEntity
  8
VISIBLE
100
AcDbLine
 10
104.4822563171387
 20
130.8771708011649
 30
0.0
 11
104.530297165767
 21
155.0560662868486
 31
0.0
  0
ARC
  5
72
330
1F
100
AcDbEntity
  8
VISIBLE
100
AcDbCircle
 10
105.5822563171387
 20
160.4816474914551
 30
0.0
 40
2.500000000000009
100
AcDbArc
 50
107.457603123722
 51
72.54239687627798
  0
LINE
  5
73
330
1F
100
AcDbEntity
  8
VISIBLE
100
AcDbLine
 10
106.6342154685095
 20
155.0560662868486
 30
0.0
 11
104.530297165767
 21
155.0560662868486
 31
0.0
  0
SPLINE
  5
74
330
1F
100
AcDbEntity
  8
VISIBLE
100
AcDbSpline
210
0.0
220
0.0
230
1.0
 70
     8
 71
     3
 72
    15
 73
    11
 74
     0
 42
0.000000001
 43
0.000001
 40
-1.408798372870895
 40
-1.408798372870895
 40
-1.408798372870895
 40
-1.408798372870895
 40
-1.206568593794414
 40
-0.8423408607940326
 40
-0.4781131277936508
 40
-0.1138853947932691
 40
0.2503423382071127
 40
0.6145700712074944
 40
0.9787978042078761
 40
1.327237906769933
 40
1.327237906769933
 40
1.327237906769933
 40
1.327237906769933
 10
106.3318479031317
 20
164.76746898618
 30
0.0
 10
106.6412784772751
 20
164.7193964098333
 30
0.0
 10
107.4939007644738
 20
164.5019895664974
 30
0.0
 10
108.7470280857039
 20
163.7720034031993
 30
0.0
 10
109.8031021552768
 20
162.4704092531287
 30
0.0
 10
110.3053940141941
 20
160.894178629276
 30
0.0
 10
110.1880021093822
 20
159.2501156919636
 30
0.0
 10
109.4663284600212
 20
157.7539243173246
 30
0.0
 10
108.2528541778886
 20
156.6185263571433
 30
0.0
 10
107.2277487629907
 20
156.1832573734426
 30
0.0
 10
106.7036363729781
 20
156.0585167733404
 30
0.0
  0
SPLINE
  5
75
330
1F
100
AcDbEntity
  8
VISIBLE
100
AcDbSpline
210
0.0
220
0.0
230
1.0
 70
     8
 71
     3
 72
    15
 73
    11
 74
     0
 42
0.000000001
 43
0.000001
 40
-4.468830560358451
 40
-4.468830560358451
 40
-4.468830560358451
 40
-4.468830560358451
 40
-4.120390457797468
 40
-3.756162724797086
 40
-3.391934991796704
 40
-3.027707258796323
 40
-2.663479525795941
 40
-2.299251792795559
 40
-1.752910193294987
 40
-1.732794281363722
 40
-1.732794281363722
 40
-1.732794281363722
 40
-1.732794281363722
 10
104.4608763247255
 20
156.058516815863
 30
0.0
 10
103.93676485652
 20
156.183258031484
 30
0.0
 10
102.9116813533065
 20
156.6185414811155
 30
0.0
 10
101.6981957703733
 20
157.7539085929655
 30
0.0
 10
100.9765155070934
 20
159.2500970459444
 30
0.0
 10
100.8591163346891
 20
160.894159507992
 30
0.0
 10
101.361401225861
 20
162.4703921653229
 30
0.0
 10
102.5930381559714
 20
163.989850493944
 30
0.0
 10
103.9371736451785
 20
164.6201621730752
 30
0.0
 10
104.8014867494438
 20
164.7636669224719
 30
0.0
 10
104.8322319977399
 20
164.7684608186913
 30
0.0
  0
LINE
  5
76
330
1F
100
AcDbEntity
  8
VISIBLE
100
AcDbLine
 10
104.8322563171387
 20
164.7689069628728
 30
0.0
 11
104.8322563171387
 21
162.8664954949975
 31
0.0
  0
LINE
  5
77
330
1F
100
AcDbEntity
  8
VISIBLE
100
AcDbLine
 10
106.6342154685095
 20
155.0560662868486
 30
0.0
 11
106.6822563171387
 21
130.8771708011649
 31
0.0
  0
CIRCLE
  5
78
330
1F
100
AcDbEntity
  8
VISIBLE
100
AcDbCircle
 10
118.0822563171387
 20
159.9816474914551
 30
0.0
 40
3.25
  0
LINE
  5
79
330
1F
100
AcDbEntity
  8
VISIBLE
100
AcDbLine
 10
104.4608737435884
 20
156.0585081849298
 30
0.0
 11
106.7036388906832
 21
156.0585081849298
 31
0.0
  0
CIRCLE
  5
7A
330
1F
100
AcDbEntity
  8
VISIBLE
100
AcDbCircle
 10
118.0822563171387
 20
134.9816474914551
 30
0.0
 40
3.25
  0
CIRCLE
  5
7B
330
1F
100
AcDbEntity
  8
VISIBLE
100
AcDbCircle
 10
93.08225631713867
 20
134.9816474914551
 30
0.0
 40
3.25
  0
CIRCLE
  5
7C
330
1F
100
AcDbEntity
  8
VISIBLE
100
AcDbCircle
 10
105.5822563171387
 20
147.4816474914551
 30
0.0
 40
24.0
  0
LINE
  5
7D
330
1F
100
AcDbEntity
  8
VISIBLE
100
AcDbLine
 10
106.6822563171387
 20
130.8771708011648
 30
0.0
 11
104.4822563171387
 21
130.8771708011648
 31
0.0
  0
LINE
  5
7E
330
1F
100
AcDbEntity
  8
VISIBLE
100
AcDbLine
 10
106.3322563171387
 20
162.8664954949975
 30
0.0
 11
106.3322563171387
 21
164.7689069628728
 31
0.0
  0
LINE
  5
81
330
1F
100
AcDbEntity
  8
HIDDEN
100
AcDbLine
 10
103.3010597630566
 20
154.3567981674135
 30
0.0
 11
104.5289077956902
 21
154.3567981674135
 31
0.0
  0
LINE
  5
82
330
1F
100
AcDbEntity
  8
HIDDEN
100
AcDbLine
 10
106.6356048385863
 20
154.3567981674135
 30
0.0
 11
107.8634528712199
 21
154.3567981674135
 31
0.0
  0
LINE
  5
83
330
1F
100
AcDbEntity
  8
HIDDEN
100
AcDbLine
 10
107.9125439461169
 20
129.6493251921358
 30
0.0
 11
107.8634528712199
 21
154.3567981674135
 31
0.0
  0
LINE
  5
84
330
1F
100
AcDbEntity
  8
HIDDEN
100
AcDbLine
 10
103.2519686881605
 20
129.6493251921358
 30
0.0
 11
107.9125439461169
 21
129.6493251921358
 31
0.0
  0
SPLINE
  5
85
330
1F
100
AcDbEntity
  8
HIDDEN
100
AcDbSpline
210
0.0
220
0.0
230
1.0
 70
     8
 71
     3
 72
    10
 73
     6
 74
     0
 42
0.000000001
 43
0.000001
 40
-1.030692398885893
 40
-1.030692398885893
 40
-1.030692398885893
 40
-1.030692398885893
 40
-0.4915226579082428
 40
-0.4915226579082428
 40
-0.0006218958315301
 40
-0.0006218958315301
 40
-0.0006218958315301
 40
-0.0006218958315301
 10
104.4608737441749
 20
156.0585081849298
 30
0.0
 10
104.131309371867
 20
155.9611360214954
 30
0.0
 10
103.8167860021228
 20
155.8330291343698
 30
0.0
 10
103.2903794620365
 20
155.5948727680908
 30
0.0
 10
103.0467363351666
 20
155.4724182904764
 30
0.0
 10
102.8315819562435
 20
155.3592400653708
 30
0.0
  0
LINE
  5
86
330
1F
100
AcDbEntity
  8
HIDDEN
100
AcDbLine
 10
106.3322563171387
 20
164.7689069628728
 30
0.0
 11
106.3322563171372
 21
165.7055554282475
 31
0.0
  0
LINE
  5
87
330
1F
100
AcDbEntity
  8
HIDDEN
100
AcDbLine
 10
104.4822563171387
 20
130.8771708011648
 30
0.0
 11
103.2519686881605
 21
129.6493251921358
 31
0.0
  0
LINE
  5
88
330
1F
100
AcDbEntity
  8
HIDDEN
100
AcDbLine
 10
108.3329306946973
 20
155.3592400654947
 30
0.0
 11
102.8315819378422
 21
155.3592400654947
 31
0.0
  0
LINE
  5
89
330
1F
100
AcDbEntity
  8
HIDDEN
100
AcDbLine
 10
103.3010597630566
 20
154.3567981674135
 30
0.0
 11
103.2519686881605
 21
129.6493251921358
 31
0.0
  0
LINE
  5
8A
330
1F
100
AcDbEntity
  8
HIDDEN
100
AcDbLine
 10
106.6822563171387
 20
130.8771708011648
 30
0.0
 11
107.9125439461169
 21
129.6493251921358
 31
0.0
  0
LINE
  5
8B
330
1F
100
AcDbEntity
  8
HIDDEN
100
AcDbLine
 10
106.6342154685095
 20
155.0560662868486
 30
0.0
 11
107.8634528712199
 21
154.3567981674135
 31
0.0
  0
LINE
  5
8C
330
1F
100
AcDbEntity
  8
HIDDEN
100
AcDbLine
 10
106.3322692676047
 20
165.7055554389954
 30
0.0
 11
104.8322538438431
 21
165.7055554389954
 31
0.0
  0
LINE
  5
8D
330
1F
100
AcDbEntity
  8
HIDDEN
100
AcDbLine
 10
104.8322563171272
 20
165.7055554282435
 30
0.0
 11
104.8322563171387
 21
164.7689069628728
 31
0.0
  0
LINE
  5
8E
330
1F
100
AcDbEntity
  8
HIDDEN
100
AcDbLine
 10
103.3010597630566
 20
154.3567981674135
 30
0.0
 11
104.530297165767
 21
155.0560662868486
 31
0.0
  0
SPLINE
  5
8F
330
1F
100
AcDbEntity
  8
HIDDEN
100
AcDbSpline
210
0.0
220
0.0
230
1.0
 70
     8
 71
     3
 72
    22
 73
    18
 74
     0
 42
0.000000001
 43
0.000001
 40
-4.221608438907865
 40
-4.221608438907865
 40
-4.221608438907865
 40
-4.221608438907865
 40
-4.120390457797468
 40
-3.756162724797086
 40
-3.391934991796704
 40
-3.027707258796323
 40
-2.663479525795941
 40
-2.299251792795559
 40
-1.752910193294987
 40
-1.206568593794414
 40
-0.8423408607940326
 40
-0.4781131277936508
 40
-0.1138853947932691
 40
0.2503423382071127
 40
0.6145700712074944
 40
0.9787978042078761
 40
1.08001578565439
 40
1.08001578565439
 40
1.08001578565439
 40
1.08001578565439
 10
102.831588600668
 20
155.359403053902
 30
0.0
 10
102.6572319864728
 20
155.4485026472776
 30
0.0
 10
101.8762463988369
 20
155.8974228214707
 30
0.0
 10
100.6887636878402
 20
157.0063232091943
 30
0.0
 10
99.76182532023078
 20
158.9241122018617
 30
0.0
 10
99.61012002628689
 20
161.0440925379564
 30
0.0
 10
100.2573128021068
 20
163.0708305008064
 30
0.0
 10
101.8287777410092
 20
165.0053480719054
 30
0.0
 10
104.4762432857206
 20
166.2421006834044
 30
0.0
 10
107.3944802291772
 20
165.9869624375288
 30
0.0
 10
109.5599078567273
 20
164.7280737254652
 30
0.0
 10
110.9071868159681
 20
163.0708524793446
 30
0.0
 10
111.554389242185
 20
161.0441182892185
 30
0.0
 10
111.4026945568212
 20
158.9241370357822
 30
0.0
 10
110.4757648330656
 20
157.0063428973026
 30
0.0
 10
109.2882919686307
 20
155.8974118854368
 30
0.0
 10
108.5072965935516
 20
155.4484939360281
 30
0.0
 10
108.3329376373262
 20
155.359395267405
 30
0.0
  0
SPLINE
  5
90
330
1F
100
AcDbEntity
  8
HIDDEN
100
AcDbSpline
210
0.0
220
0.0
230
1.0
 70
     8
 71
     3
 72
    10
 73
     6
 74
     0
 42
0.000000001
 43
0.000001
 40
-0.8216720772017221
 40
-0.8216720772017221
 40
-0.8216720772017221
 40
-0.8216720772017221
 40
-0.4280869704465612
 40
-0.4280869704465612
 40
0.0
 40
0.0
 40
0.0
 40
0.0
 10
108.3329306780118
 20
155.3592400653824
 30
0.0
 10
108.1166894513571
 20
155.4729900078591
 30
0.0
 10
107.8714916448262
 20
155.5962044620544
 30
0.0
 10
107.34442877964
 20
155.8343701405229
 30
0.0
 10
107.0315241398598
 20
155.9616321303262
 30
0.0
 10
106.7036388901025
 20
156.0585081849298
 30
0.0
  0
LINE
  5
92
330
1F
100
AcDbEntity
  8
CENTER
100
AcDbLine
 10
106.0822563171387
 20
147.4816474914551
 30
0.0
 11
105.0822563171387
 21
147.4816474914551
 31
0.0
  0
LINE
  5
93
330
1F
100
AcDbEntity
  8
CENTER
100
AcDbLine
 10
105.5822563171387
 20
147.9816474914551
 30
0.0
 11
105.5822563171387
 21
146.9816474914551
 31
0.0
  0
LINE
  5
94
330
1F
100
AcDbEntity
  8
CENTER
100
AcDbLine
 10
106.5822563171387
 20
147.4816474914551
 30
0.0
 11
131.1697563171387
 21
147.4816474914551
 31
0.0
  0
LINE
  5
95
330
1F
100
AcDbEntity
  8
CENTER
100
AcDbLine
 10
104.5822563171387
 20
147.4816474914551
 30
0.0
 11
79.99475631713867
 21
147.4816474914551
 31
0.0
  0
LINE
  5
96
330
1F
100
AcDbEntity
  8
CENTER
100
AcDbLine
 10
105.5822563171387
 20
148.4816474914551
 30
0.0
 11
105.5822563171387
 21
173.0691474914551
 31
0.0
  0
LINE
  5
97
330
1F
100
AcDbEntity
  8
CENTER
100
AcDbLine
 10
105.5822563171387
 20
146.4816474914551
 30
0.0
 11
105.5822563171387
 21
121.8941474914551
 31
0.0
  0
LINE
  5
98
330
1F
100
AcDbEntity
  8
CENTER
100
AcDbLine
 10
118.5822563171387
 20
159.9816474914551
 30
0.0
 11
117.5822563171387
 21
159.9816474914551
 31
0.0
  0
LINE
  5
99
330
1F
100
AcDbEntity
  8
CENTER
100
AcDbLine
 10
118.0822563171387
 20
160.4816474914551
 30
0.0
 11
118.0822563171387
 21
159.4816474914551
 31
0.0
  0
LINE
  5
9A
330
1F
100
AcDbEntity
  8
CENTER
100
AcDbLine
 10
119.0822563171387
 20
159.9816474914551
 30
0.0
 11
122.9197563171387
 21
159.9816474914551
 31
0.0
  0
LINE
  5
9B
330
1F
100
AcDbEntity
  8
CENTER
100
AcDbLine
 10
117.0822563171387
 20
159.9816474914551
 30
0.0
 11
113.2447563171387
 21
159.9816474914551
 31
0.0
  0
LINE
  5
9C
330
1F
100
AcDbEntity
  8
CENTER
100
AcDbLine
 10
118.0822563171387
 20
160.9816474914551
 30
0.0
 11
118.0822563171387
 21
164.8191474914551
 31
0.0
  0
LINE
  5
9D
330
1F
100
AcDbEntity
  8
CENTER
100
AcDbLine
 10
118.0822563171387
 20
158.9816474914551
 30
0.0
 11
118.0822563171387
 21
155.1441474914551
 31
0.0
  0
LINE
  5
9E
330
1F
100
AcDbEntity
  8
CENTER
100
AcDbLine
 10
118.5822563171387
 20
134.9816474914551
 30
0.0
 11
117.5822563171387
 21
134.9816474914551
 31
0.0
  0
LINE
  5
9F
330
1F
100
AcDbEntity
  8
CENTER
100
AcDbLine
 10
118.0822563171387
 20
135.4816474914551
 30
0.0
 11
118.0822563171387
 21
134.4816474914551
 31
0.0
  0
LINE
  5
A0
330
1F
100
AcDbEntity
  8
CENTER
100
AcDbLine
 10
119.0822563171387
 20
134.9816474914551
 30
0.0
 11
122.9197563171387
 21
134.9816474914551
 31
0.0
  0
LINE
  5
A1
330
1F
100
AcDbEntity
  8
CENTER
100
AcDbLine
 10
117.0822563171387
 20
134.9816474914551
 30
0.0
 11
113.2447563171387
 21
134.9816474914551
 31
0.0
  0
LINE
  5
A2
330
1F
100
AcDbEntity
  8
CENTER
100
AcDbLine
 10
118.0822563171387
 20
135.9816474914551
 30
0.0
 11
118.0822563171387
 21
139.8191474914551
 31
0.0
  0
LINE
  5
A3
330
1F
100
AcDbEntity
  8
CENTER
100
AcDbLine
 10
118.0822563171387
 20
133.9816474914551
 30
0.0
 11
118.0822563171387
 21
130.1441474914551
 31
0.0
  0
LINE
  5
A4
330
1F
100
AcDbEntity
  8
CENTER
100
AcDbLine
 10
93.58225631713867
 20
134.9816474914551
 30
0.0
 11
92.58225631713867
 21
134.9816474914551
 31
0.0
  0
LINE
  5
A5
330
1F
100
AcDbEntity
  8
CENTER
100
AcDbLine
 10
93.08225631713867
 20
135.4816474914551
 30
0.0
 11
93.08225631713867
 21
134.4816474914551
 31
0.0
  0
LINE
  5
A6
330
1F
100
AcDbEntity
  8
CENTER
100
AcDbLine
 10
94.08225631713867
 20
134.9816474914551
 30
0.0
 11
97.91975631713868
 21
134.9816474914551
 31
0.0
  0
LINE
  5
A7
330
1F
100
AcDbEntity
  8
CENTER
100
AcDbLine
 10
92.08225631713867
 20
134.9816474914551
 30
0.0
 11
88.24475631713867
 21
134.9816474914551
 31
0.0
  0
LINE
  5
A8
330
1F
100
AcDbEntity
  8
CENTER
100
AcDbLine
 10
93.08225631713867
 20
135.9816474914551
 30
0.0
 11
93.08225631713867
 21
139.8191474914551
 31
0.0
  0
LINE
  5
A9
330
1F
100
AcDbEntity
  8
CENTER
100
AcDbLine
 10
93.08225631713867
 20
133.9816474914551
 30
0.0
 11
93.08225631713867
 21
130.1441474914551
 31
0.0
  0
LINE
  5
AA
330
1F
100
AcDbEntity
  8
CENTER
100
AcDbLine
 10
93.58225631713867
 20
159.9816474914551
 30
0.0
 11
92.58225631713867
 21
159.9816474914551
 31
0.0
  0
LINE
  5
AB
330
1F
100
AcDbEntity
  8
CENTER
100
AcDbLine
 10
93.08225631713867
 20
160.4816474914551
 30
0.0
 11
93.08225631713867
 21
159.4816474914551
 31
0.0
  0
LINE
  5
AC
330
1F
100
AcDbEntity
  8
CENTER
100
AcDbLine
 10
94.08225631713867
 20
159.9816474914551
 30
0.0
 11
97.91975631713868
 21
159.9816474914551
 31
0.0
  0
LINE
  5
AD
330
1F
100
AcDbEntity
  8
CENTER
100
AcDbLine
 10
92.08225631713867
 20
159.9816474914551
 30
0.0
 11
88.24475631713867
 21
159.9816474914551
 31
0.0
  0
LINE
  5
AE
330
1F
100
AcDbEntity
  8
CENTER
100
AcDbLine
 10
93.08225631713867
 20
160.9816474914551
 30
0.0
 11
93.08225631713867
 21
164.8191474914551
 31
0.0
  0
LINE
  5
AF
330
1F
100
AcDbEntity
  8
CENTER
100
AcDbLine
 10
93.08225631713867
 20
158.9816474914551
 30
0.0
 11
93.08225631713867
 21
155.1441474914551
 31
0.0
  0
DIMENSION
  5
B1
330
1F
100
AcDbEntity
  8
DIMENSIONS
100
AcDbDimension
280
     0
  2
D1
 10
0.0
 20
0.0
 30
0.0
 11
212.895076751709
 21
258.7095375061035
 31
0.0
 70
    32
  1
<>
 71
     5
 42
-1.0
 73
     0
 74
     0
 75
     0
  3
ISO-25
100
AcDbAlignedDimension
 13
129.5822563171387
 23
147.4816474914551
 33
0.0
 14
81.58225631713867
 24
147.4816474914551
 34
0.0
100
AcDbRotatedDimension
1001
ACAD
1000
DSTYLE
1002
{
1070
    76
1070
     0
1070
    75
1070
     0
1070
   282
1070
     0
1070
   281
1070
     0
1070
    77
1070
     1
1070
    79
1070
     0
1070
    78
1070
     0
1070
   272
1070
     2
1070
   271
1070
     2
1070
   179
1070
     2
1070
   140
1040
2.707850318471337
1070
    71
1070
     0
1070
    72
1070
     0
1070
    48
1040
0.002
1070
    47
1040
0.005
1002
}
  0
DIMENSION
  5
C3
330
1F
100
AcDbEntity
  8
DIMENSIONS
100
AcDbDimension
280
     0
  2
D2
 10
0.0
 20
0.0
 30
0.0
 11
210.2495384216309
 21
264.6759910583496
 31
0.0
 70
    32
  1
<>
 71
     5
 42
-1.0
 73
     0
 74
     0
 75
     0
 53
180.0
  3
ISO-25
100
AcDbAlignedDimension
 13
93.08225631713867
 23
130.1441474914551
 33
0.0
 14
118.0822563171387
 24
130.1441474914551
 34
0.0
 50
180.0
100
AcDbRotatedDimension
1001
ACAD
1000
DSTYLE
1002
{
1070
    76
1070
     0
1070
    75
1070
     0
1070
   282
1070
     0
1070
   281
1070
     0
1070
    77
1070
     1
1070
    79
1070
     0
1070
    78
1070
     0
1070
   272
1070
     2
1070
   271
1070
     2
1070
   179
1070
     2
1070
   140
1040
2.707850318471337
1070
    71
1070
     0
1070
    72
1070
     0
1070
    48
1040
0.002
1070
    47
1040
0.005
1002
}
  0
DIMENSION
  5
D4
330
1F
100
AcDbEntity
  8
DIMENSIONS
100
AcDbDimension
280
     0
  2
D3
 10
0.0
 20
0.0
 30
0.0
 11
245.3343925476074
 21
294.435474395752
 31
0.0
 70
    32
  1
<>
 71
     5
 42
-1.0
 73
     0
 74
     0
 75
     0
 53
90.0
  3
ISO-25
100
AcDbAlignedDimension
 13
122.9197563171387
 23
134.9816474914551
 33
0.0
 14
122.9197563171387
 24
159.9816474914551
 34
0.0
 50
90.0
100
AcDbRotatedDimension
1001
ACAD
1000
DSTYLE
1002
{
1070
    76
1070
     0
1070
    75
1070
     0
1070
   282
1070
     0
1070
   281
1070
     0
1070
    77
1070
     1
1070
    79
1070
     0
1070
    78
1070
     0
1070
   272
1070
     2
1070
   271
1070
     2
1070
   179
1070
     2
1070
   140
1040
2.707850318471337
1070
    71
1070
     0
1070
    72
1070
     0
1070
    48
1040
0.002
1070
    47
1040
0.005
1002
}
  0
MTEXT
  5
E6
330
1F
100
AcDbEntity
  8
CONTINUOUS
100
AcDbMText
 10
67.84656524658203
 20
174.1953048043005
 30
0.0
 40
2.079300327179538
 41
0.0
 46
0.0
 71
     1
 72
     1
  1
{\fAlibre Symbols|b0|i0|c0|p0;\C7;n}{\fCE|b0|i0|c0|p0;\C7;6,2 Durch }{\fCE|b0|i0|c0|p0;\C7;}
 73
     1
 44
1.0
  0
LINE
  5
E7
330
1F
100
AcDbEntity
  8
CONTINUOUS
100
AcDbLine
 10
90.83649580213758
 20
172.2465562608507
 30
0.0
 11
85.67712080213758
 21
172.2465562608507
 31
0.0
  0
LINE
  5
E8
330
1F
100
AcDbEntity
  8
CONTINUOUS
100
AcDbLine
 10
92.15081056078982
 20
162.6840339287255
 30
0.0
 11
92.15081056078982
 21
162.6840339287255
 31
0.0
  0
LINE
  5
E9
330
1F
100
AcDbEntity
  8
CONTINUOUS
100
AcDbLine
 10
92.15081056078982
 20
162.6840339287255
 30
0.0
 11
90.83649580213758
 21
172.2465562608507
 31
0.0
  0
LWPOLYLINE
  5
EA
330
1F
100
AcDbEntity
  8
CONTINUOUS
100
AcDbPolyline
 90
        4
 70
     0
 43
0.0
 10
92.55930328369143
 20
159.7119750976562
 10
91.65546742227835
 20
162.6159518082419
 10
92.64615369930141
 20
162.752116049209
 10
92.55930328369143
 20
159.7119750976562
  0
HATCH
  5
EB
330
1F
100
AcDbEntity
  8
0
 62
     7
100
AcDbHatch
 10
0.0
 20
0.0
 30
0.0
210
0.0
220
0.0
230
1.0
  2
SOLID
 70
     1
 71
     0
 91
        1
 92
        0
 93
        3
 72
     1
 10
92.64615369930141
 20
162.752116049209
 11
92.55930328369143
 21
159.7119750976562
 72
     1
 10
92.55930328369143
 20
159.7119750976562
 11
91.65546742227835
 21
162.6159518082419
 72
     1
 10
91.65546742227835
 20
162.6159518082419
 11
92.64615369930141
 21
162.752116049209
 97
        0
 75
     0
 76
     1
 98
        0
  0
LINE
  5
EC
330
1F
100
AcDbEntity
  8
VISIBLE
100
AcDbLine
 10
129.5822563171387
 20
75.46992492675781
 30
0.0
 11
81.58225631713867
 21
75.46992492675781
 31
0.0
  0
LINE
  5
ED
330
1F
100
AcDbEntity
  8
VISIBLE
100
AcDbLine
 10
81.58225631713867
 20
65.46992492675781
 30
0.0
 11
129.5822563171387
 21
65.46992492675781
 31
0.0
  0
LINE
  5
EE
330
1F
100
AcDbEntity
  8
VISIBLE
100
AcDbLine
 10
81.58225631713867
 20
75.46992492675781
 30
0.0
 11
81.58225631713867
 21
65.46992492675781
 31
0.0
  0
LINE
  5
EF
330
1F
100
AcDbEntity
  8
VISIBLE
100
AcDbLine
 10
129.5822563171387
 20
75.46992492675781
 30
0.0
 11
129.5822563171387
 21
65.46992492675781
 31
0.0
  0
SPLINE
  5
F0
330
1F
100
AcDbEntity
  8
HIDDEN
100
AcDbSpline
210
0.0
220
0.0
230
1.0
 70
     8
 71
     3
 72
    10
 73
     6
 74
     0
 42
0.000000001
 43
0.000001
 40
-1.030692398885893
 40
-1.030692398885893
 40
-1.030692398885893
 40
-1.030692398885893
 40
-0.4915226579082428
 40
-0.4915226579082428
 40
-0.0006218958315301
 40
-0.0006218958315301
 40
-0.0006218958315301
 40
-0.0006218958315301
 10
104.4608737441749
 20
65.46992492675781
 30
0.0
 10
104.131309371867
 20
66.8624117387275
 30
0.0
 10
103.8167860021228
 20
68.69442557669633
 30
0.0
 10
103.2903794620365
 20
72.10022028776434
 30
0.0
 10
103.0467363351666
 20
73.8514009037682
 30
0.0
 10
102.8315819562435
 20
75.46992492852948
 30
0.0
  0
LINE
  5
F1
330
1F
100
AcDbEntity
  8
HIDDEN
100
AcDbLine
 10
106.3322563171387
 20
73.02147352134926
 30
0.0
 11
106.3322563171387
 21
75.46992492675781
 31
0.0
  0
LINE
  5
F2
330
1F
100
AcDbEntity
  8
HIDDEN
100
AcDbLine
 10
106.3322563171387
 20
65.46992492675781
 30
0.0
 11
106.3322563171372
 21
73.02147352268146
 31
0.0
  0
LINE
  5
F3
330
1F
100
AcDbEntity
  8
HIDDEN
100
AcDbLine
 10
104.4822563171387
 20
65.46992492675781
 30
0.0
 11
103.2519686881605
 21
75.46992492675781
 31
0.0
  0
LINE
  5
F4
330
1F
100
AcDbEntity
  8
HIDDEN
100
AcDbLine
 10
106.6822563171387
 20
65.46992492675781
 30
0.0
 11
107.9125439461169
 21
75.46992492675781
 31
0.0
  0
LINE
  5
F5
330
1F
100
AcDbEntity
  8
HIDDEN
100
AcDbLine
 10
106.6342154685095
 20
65.46992492675781
 30
0.0
 11
107.8634528712199
 21
75.46992492675781
 31
0.0
  0
SPLINE
  5
F6
330
1F
100
AcDbEntity
  8
HIDDEN
100
AcDbSpline
210
0.0
220
0.0
230
1.0
 70
     8
 71
     3
 72
    22
 73
    18
 74
     0
 42
0.000000001
 43
0.000001
 40
-0.2856420258721431
 40
-0.2856420258721431
 40
-0.2856420258721431
 40
-0.2856420258721431
 40
-0.2362341707875688
 40
-0.2362341707875688
 40
-0.209107221923186
 40
-0.209107221923186
 40
-0.1958023117531597
 40
-0.1958023117531597
 40
-0.1854838032355151
 40
-0.1854838032355151
 40
-0.1739436111578034
 40
-0.1739436111578034
 40
-0.1542111238592533
 40
-0.1542111238592533
 40
-0.0982694032953494
 40
-0.0982694032953494
 40
-0.0896121761621444
 40
-0.0896121761621444
 40
-0.0896121761621444
 40
-0.0896121761621444
 10
106.3322692676047
 20
73.02146126436898
 30
0.0
 10
106.2227685740739
 20
72.9057651485823
 30
0.0
 10
106.1047020241816
 20
72.80598860284533
 30
0.0
 10
105.9096266013303
 20
72.69642957634431
 30
0.0
 10
105.8364386256692
 20
72.66543796881956
 30
0.0
 10
105.7217961047308
 20
72.6366028830882
 30
0.0
 10
105.6835562902435
 20
72.63001115752456
 30
0.0
 10
105.614757311491
 20
72.62390256509154
 30
0.0
 10
105.5846602966778
 20
72.62315282100438
 30
0.0
 10
105.5207997900259
 20
72.62566762260231
 30
0.0
 10
105.4873441282379
 20
72.62940536087869
 30
0.0
 10
105.3973846249215
 20
72.64576107982785
 30
0.0
 10
105.3423288267794
 20
72.66262709335174
 30
0.0
 10
105.1380319969519
 20
72.7475539263661
 30
0.0
 10
105.0023630795879
 20
72.85245362924913
 30
0.0
 10
104.8678593439507
 20
72.98451797865246
 30
0.0
 10
104.8499816397104
 20
73.00274751956547
 30
0.0
 10
104.8322538438431
 20
73.02147117960209
 30
0.0
  0
LINE
  5
F7
330
1F
100
AcDbEntity
  8
HIDDEN
100
AcDbLine
 10
104.8322563171272
 20
73.02147352268196
 30
0.0
 11
104.8322563171387
 21
65.46992492675781
 31
0.0
  0
LINE
  5
F8
330
1F
100
AcDbEntity
  8
HIDDEN
100
AcDbLine
 10
103.3010597630566
 20
75.46992492675781
 30
0.0
 11
104.530297165767
 21
65.46992492675781
 31
0.0
  0
LINE
  5
F9
330
1F
100
AcDbEntity
  8
HIDDEN
100
AcDbLine
 10
104.8322563171387
 20
73.02147352134926
 30
0.0
 11
104.8322563171387
 21
75.46992492675781
 31
0.0
  0
SPLINE
  5
FA
330
1F
100
AcDbEntity
  8
HIDDEN
100
AcDbSpline
210
0.0
220
0.0
230
1.0
 70
     8
 71
     3
 72
    10
 73
     6
 74
     0
 42
0.000000001
 43
0.000001
 40
-0.8216720772017221
 40
-0.8216720772017221
 40
-0.8216720772017221
 40
-0.8216720772017221
 40
-0.4280869704465612
 40
-0.4280869704465612
 40
0.0
 40
0.0
 40
0.0
 40
0.0
 10
108.3329306780118
 20
75.46992492836372
 30
0.0
 10
108.1166894513571
 20
73.84322496428422
 30
0.0
 10
107.8714916448262
 20
72.08117617683446
 30
0.0
 10
107.34442877964
 20
68.67524829525303
 30
0.0
 10
107.0315241398598
 20
66.8553170519113
 30
0.0
 10
106.7036388901025
 20
65.46992492675781
 30
0.0
  0
LINE
  5
FB
330
1F
100
AcDbEntity
  8
HIDDEN
100
AcDbLine
 10
121.3322563171387
 20
75.46992492675781
 30
0.0
 11
121.3322563171387
 21
65.46992492675781
 31
0.0
  0
LINE
  5
FC
330
1F
100
AcDbEntity
  8
HIDDEN
100
AcDbLine
 10
103.0822563171387
 20
65.46992492675781
 30
0.0
 11
103.0822563171387
 21
75.46992492675781
 31
0.0
  0
LINE
  5
FD
330
1F
100
AcDbEntity
  8
HIDDEN
100
AcDbLine
 10
114.8322563171387
 20
75.46992492675781
 30
0.0
 11
114.8322563171387
 21
65.46992492675781
 31
0.0
  0
LINE
  5
FE
330
1F
100
AcDbEntity
  8
HIDDEN
100
AcDbLine
 10
96.33225631713867
 20
75.46992492675781
 30
0.0
 11
96.33225631713867
 21
65.46992492675781
 31
0.0
  0
LINE
  5
FF
330
1F
100
AcDbEntity
  8
HIDDEN
100
AcDbLine
 10
89.83225631713867
 20
75.46992492675781
 30
0.0
 11
89.83225631713867
 21
65.46992492675781
 31
0.0
  0
LINE
  5
100
330
1F
100
AcDbEntity
  8
HIDDEN
100
AcDbLine
 10
111.4601019261882
 20
75.46992492692469
 30
0.0
 11
110.2322563171387
 21
65.46992492675781
 31
0.0
  0
LINE
  5
101
330
1F
100
AcDbEntity
  8
HIDDEN
100
AcDbLine
 10
100.9322563171383
 20
65.4699249267612
 30
0.0
 11
99.70441070808914
 21
75.46992492692468
 31
0.0
  0
LINE
  5
102
330
1F
100
AcDbEntity
  8
HIDDEN
100
AcDbLine
 10
108.0822563171387
 20
65.46992492675781
 30
0.0
 11
108.0822563171387
 21
75.46992492675781
 31
0.0
  0
LINE
  5
103
330
1F
100
AcDbEntity
  8
CENTER
100
AcDbLine
 10
93.08225631713867
 20
69.96992492675781
 30
0.0
 11
93.08225631713867
 21
70.96992492675781
 31
0.0
  0
LINE
  5
104
330
1F
100
AcDbEntity
  8
CENTER
100
AcDbLine
 10
93.08225631713867
 20
69.46992492675781
 30
0.0
 11
93.08225631713867
 21
64.46992492675781
 31
0.0
  0
LINE
  5
105
330
1F
100
AcDbEntity
  8
CENTER
100
AcDbLine
 10
93.08225631713867
 20
71.46992492675781
 30
0.0
 11
93.08225631713867
 21
76.46992492675781
 31
0.0
  0
LINE
  5
106
330
1F
100
AcDbEntity
  8
CENTER
100
AcDbLine
 10
93.08225631713867
 20
63.96992492675781
 30
0.0
 11
93.08225631713867
 21
62.29492492675782
 31
0.0
  0
LINE
  5
107
330
1F
100
AcDbEntity
  8
CENTER
100
AcDbLine
 10
93.08225631713867
 20
76.96992492675781
 30
0.0
 11
93.08225631713867
 21
78.64492492675781
 31
0.0
  0
LINE
  5
108
330
1F
100
AcDbEntity
  8
CENTER
100
AcDbLine
 10
118.0822563171387
 20
69.96992492675781
 30
0.0
 11
118.0822563171387
 21
70.96992492675781
 31
0.0
  0
LINE
  5
109
330
1F
100
AcDbEntity
  8
CENTER
100
AcDbLine
 10
118.0822563171387
 20
69.46992492675781
 30
0.0
 11
118.0822563171387
 21
64.46992492675781
 31
0.0
  0
LINE
  5
10A
330
1F
100
AcDbEntity
  8
CENTER
100
AcDbLine
 10
118.0822563171387
 20
71.46992492675781
 30
0.0
 11
118.0822563171387
 21
76.46992492675781
 31
0.0
  0
LINE
  5
10B
330
1F
100
AcDbEntity
  8
CENTER
100
AcDbLine
 10
118.0822563171387
 20
63.96992492675781
 30
0.0
 11
118.0822563171387
 21
62.29492492675782
 31
0.0
  0
LINE
  5
10C
330
1F
100
AcDbEntity
  8
CENTER
100
AcDbLine
 10
118.0822563171387
 20
76.96992492675781
 30
0.0
 11
118.0822563171387
 21
78.64492492675781
 31
0.0
  0
LINE
  5
10D
330
1F
100
AcDbEntity
  8
CENTER
100
AcDbLine
 10
105.5822563171387
 20
69.96992492675781
 30
0.0
 11
105.5822563171387
 21
70.96992492675781
 31
0.0
  0
LINE
  5
10E
330
1F
100
AcDbEntity
  8
CENTER
100
AcDbLine
 10
105.5822563171387
 20
69.46992492675781
 30
0.0
 11
105.5822563171387
 21
64.46992492675781
 31
0.0
  0
LINE
  5
10F
330
1F
100
AcDbEntity
  8
CENTER
100
AcDbLine
 10
105.5822563171387
 20
71.46992492675781
 30
0.0
 11
105.5822563171387
 21
76.46992492675781
 31
0.0
  0
LINE
  5
110
330
1F
100
AcDbEntity
  8
CENTER
100
AcDbLine
 10
105.5822563171387
 20
63.96992492675781
 30
0.0
 11
105.5822563171387
 21
62.29492492675782
 31
0.0
  0
LINE
  5
111
330
1F
100
AcDbEntity
  8
CENTER
100
AcDbLine
 10
105.5822563171387
 20
76.96992492675781
 30
0.0
 11
105.5822563171387
 21
78.64492492675781
 31
0.0
  0
LINE
  5
112
330
1F
100
AcDbEntity
  8
VISIBLE
100
AcDbLine
 10
177.3328094482422
 20
171.4816474914551
 30
0.0
 11
177.3328094482422
 21
123.4816474914551
 31
0.0
  0
LINE
  5
113
330
1F
100
AcDbEntity
  8
VISIBLE
100
AcDbLine
 10
187.3328094482422
 20
123.4816474914551
 30
0.0
 11
187.3328094482422
 21
171.4816474914551
 31
0.0
  0
LINE
  5
114
330
1F
100
AcDbEntity
  8
VISIBLE
100
AcDbLine
 10
177.3328094482422
 20
123.4816474914551
 30
0.0
 11
187.3328094482422
 21
123.4816474914551
 31
0.0
  0
LINE
  5
115
330
1F
100
AcDbEntity
  8
VISIBLE
100
AcDbLine
 10
177.3328094482422
 20
171.4816474914551
 30
0.0
 11
187.3328094482422
 21
171.4816474914551
 31
0.0
  0
LINE
  5
116
330
1F
100
AcDbEntity
  8
HIDDEN
100
AcDbLine
 10
187.3328094482422
 20
156.0585081849298
 30
0.0
 11
177.3328094464705
 21
155.3592400653708
 31
0.0
  0
LINE
  5
117
330
1F
100
AcDbEntity
  8
HIDDEN
100
AcDbLine
 10
187.3328094482422
 20
162.8664954949975
 30
0.0
 11
177.3328094482422
 21
162.8664954949975
 31
0.0
  0
LINE
  5
118
330
1F
100
AcDbEntity
  8
HIDDEN
100
AcDbLine
 10
187.3328094482422
 20
130.8771708011648
 30
0.0
 11
177.3328094482422
 21
129.6493251921358
 31
0.0
  0
LINE
  5
119
330
1F
100
AcDbEntity
  8
HIDDEN
100
AcDbLine
 10
180.1789406606942
 20
165.7055554389954
 30
0.0
 11
179.7812631953979
 21
165.7055554389954
 31
0.0
  0
SPLINE
  5
11A
330
1F
100
AcDbEntity
  8
HIDDEN
100
AcDbSpline
210
0.0
220
0.0
230
1.0
 70
     8
 71
     3
 72
    10
 73
     6
 74
     0
 42
0.000000001
 43
0.000001
 40
-0.7585453222418626
 40
-0.7585453222418626
 40
-0.7585453222418626
 40
-0.7585453222418626
 40
-0.5021883779640917
 40
-0.5021883779640917
 40
0.0
 40
0.0
 40
0.0
 40
0.0
 10
179.781260852318
 20
165.7055554282435
 30
0.0
 10
180.6324579476689
 20
165.6001512038928
 30
0.0
 10
181.4838240127709
 20
165.4946771028225
 30
0.0
 10
183.9915006007837
 20
165.1838362486788
 30
0.0
 10
185.6716273693391
 20
164.9753540512785
 30
0.0
 10
187.3328094482422
 20
164.7689069628728
 30
0.0
  0
LINE
  5
11B
330
1F
100
AcDbEntity
  8
HIDDEN
100
AcDbLine
 10
177.3328094482422
 20
154.3567981674135
 30
0.0
 11
187.3328094482422
 21
155.0560662868486
 31
0.0
  0
LINE
  5
11C
330
1F
100
AcDbEntity
  8
HIDDEN
100
AcDbLine
 10
179.7812608536507
 20
165.7055554389954
 30
0.0
 11
177.3328094482422
 21
165.7055554389954
 31
0.0
  0
LINE
  5
11D
330
1F
100
AcDbEntity
  8
HIDDEN
100
AcDbLine
 10
177.3328094482422
 20
131.7316474914551
 30
0.0
 11
187.3328094482422
 21
131.7316474914551
 31
0.0
  0
LINE
  5
11E
330
1F
100
AcDbEntity
  8
HIDDEN
100
AcDbLine
 10
177.3328094480753
 20
166.055016410215
 30
0.0
 11
180.1789406607445
 21
165.7055554389954
 31
0.0
  0
LINE
  5
11F
330
1F
100
AcDbEntity
  8
HIDDEN
100
AcDbLine
 10
177.3328094482422
 20
163.2316474914551
 30
0.0
 11
187.3328094482422
 21
163.2316474914551
 31
0.0
  0
LINE
  5
120
330
1F
100
AcDbEntity
  8
HIDDEN
100
AcDbLine
 10
187.3328094482422
 20
157.9816474914551
 30
0.0
 11
177.3328094482422
 21
157.9816474914551
 31
0.0
  0
LINE
  5
121
330
1F
100
AcDbEntity
  8
HIDDEN
100
AcDbLine
 10
177.3328094482422
 20
156.7316474914551
 30
0.0
 11
187.3328094482422
 21
156.7316474914551
 31
0.0
  0
LINE
  5
122
330
1F
100
AcDbEntity
  8
HIDDEN
100
AcDbLine
 10
177.3328094482422
 20
138.2316474914551
 30
0.0
 11
187.3328094482422
 21
138.2316474914551
 31
0.0
  0
LINE
  5
123
330
1F
100
AcDbEntity
  8
CENTER
100
AcDbLine
 10
181.8328094482422
 20
159.9816474914551
 30
0.0
 11
182.8328094482422
 21
159.9816474914551
 31
0.0
  0
LINE
  5
124
330
1F
100
AcDbEntity
  8
CENTER
100
AcDbLine
 10
181.3328094482422
 20
159.9816474914551
 30
0.0
 11
176.3328094482422
 21
159.9816474914551
 31
0.0
  0
LINE
  5
125
330
1F
100
AcDbEntity
  8
CENTER
100
AcDbLine
 10
183.3328094482422
 20
159.9816474914551
 30
0.0
 11
188.3328094482422
 21
159.9816474914551
 31
0.0
  0
LINE
  5
126
330
1F
100
AcDbEntity
  8
CENTER
100
AcDbLine
 10
175.8328094482422
 20
159.9816474914551
 30
0.0
 11
174.1578094482422
 21
159.9816474914551
 31
0.0
  0
LINE
  5
127
330
1F
100
AcDbEntity
  8
CENTER
100
AcDbLine
 10
188.8328094482422
 20
159.9816474914551
 30
0.0
 11
190.5078094482422
 21
159.9816474914551
 31
0.0
  0
LINE
  5
128
330
1F
100
AcDbEntity
  8
CENTER
100
AcDbLine
 10
181.8328094482422
 20
147.4816474914551
 30
0.0
 11
182.8328094482422
 21
147.4816474914551
 31
0.0
  0
LINE
  5
129
330
1F
100
AcDbEntity
  8
CENTER
100
AcDbLine
 10
181.3328094482422
 20
147.4816474914551
 30
0.0
 11
176.3328094482422
 21
147.4816474914551
 31
0.0
  0
LINE
  5
12A
330
1F
100
AcDbEntity
  8
CENTER
100
AcDbLine
 10
183.3328094482422
 20
147.4816474914551
 30
0.0
 11
188.3328094482422
 21
147.4816474914551
 31
0.0
  0
LINE
  5
12B
330
1F
100
AcDbEntity
  8
CENTER
100
AcDbLine
 10
175.8328094482422
 20
147.4816474914551
 30
0.0
 11
174.1578094482422
 21
147.4816474914551
 31
0.0
  0
LINE
  5
12C
330
1F
100
AcDbEntity
  8
CENTER
100
AcDbLine
 10
188.8328094482422
 20
147.4816474914551
 30
0.0
 11
190.5078094482422
 21
147.4816474914551
 31
0.0
  0
LINE
  5
12D
330
1F
100
AcDbEntity
  8
CENTER
100
AcDbLine
 10
181.8328094482422
 20
134.9816474914551
 30
0.0
 11
182.8328094482422
 21
134.9816474914551
 31
0.0
  0
LINE
  5
12E
330
1F
100
AcDbEntity
  8
CENTER
100
AcDbLine
 10
181.3328094482422
 20
134.9816474914551
 30
0.0
 11
176.3328094482422
 21
134.9816474914551
 31
0.0
  0
LINE
  5
12F
330
1F
100
AcDbEntity
  8
CENTER
100
AcDbLine
 10
183.3328094482422
 20
134.9816474914551
 30
0.0
 11
188.3328094482422
 21
134.9816474914551
 31
0.0
  0
LINE
  5
130
330
1F
100
AcDbEntity
  8
CENTER
100
AcDbLine
 10
175.8328094482422
 20
134.9816474914551
 30
0.0
 11
174.1578094482422
 21
134.9816474914551
 31
0.0
  0
LINE
  5
131
330
1F
100
AcDbEntity
  8
CENTER
100
AcDbLine
 10
188.8328094482422
 20
134.9816474914551
 30
0.0
 11
190.5078094482422
 21
134.9816474914551
 31
0.0
  0
DIMENSION
  5
132
330
1F
100
AcDbEntity
  8
DIMENSIONS
100
AcDbDimension
280
     0
  2
D4
 10
0.0
 20
0.0
 30
0.0
 11
359.6656188964844
 21
256.3388752407498
 31
0.0
 70
    32
  1
<>
 71
     5
 42
-1.0
 73
     0
 74
     0
 75
     0
  3
ISO-25
100
AcDbAlignedDimension
 13
177.3328094482422
 23
123.4816474914551
 33
0.0
 14
187.3328094482422
 24
123.4816474914551
 34
0.0
100
AcDbRotatedDimension
1001
ACAD
1000
DSTYLE
1002
{
1070
    76
1070
     0
1070
    75
1070
     0
1070
   282
1070
     0
1070
   281
1070
     0
1070
    77
1070
     1
1070
    79
1070
     0
1070
    78
1070
     0
1070
   272
1070
     2
1070
   271
1070
     2
1070
   179
1070
     2
1070
   140
1040
2.707850318471337
1070
    71
1070
     0
1070
    72
1070
     0
1070
    48
1040
0.002
1070
    47
1040
0.005
1002
}
  0
ELLIPSE
  5
143
330
1F
100
AcDbEntity
  8
VISIBLE
100
AcDbEllipse
 10
229.5807853896494
 20
99.67000501746814
 30
0.0
 11
1.625
 21
-2.814582562299435
 31
0.0
210
0.0
220
0.0
230
1.0
 40
0.5773502691896241
 41
-3.141592653589789
 42
-2.356194490192345
  0
ELLIPSE
  5
144
330
1F
100
AcDbEntity
  8
VISIBLE
100
AcDbEllipse
 10
229.5807853896494
 20
99.67000501746814
 30
0.0
 11
1.625
 21
-2.814582562299435
 31
0.0
210
0.0
220
0.0
230
1.0
 40
0.5773502691896241
 41
0.0
 42
3.141592653589797
  0
ELLIPSE
  5
145
330
1F
100
AcDbEntity
  8
VISIBLE
100
AcDbEllipse
 10
229.5807853896494
 20
99.67000501746814
 30
0.0
 11
1.625
 21
-2.814582562299435
 31
0.0
210
0.0
220
0.0
230
1.0
 40
0.5773502691896241
 41
-2.356194490192345
 42
0.0
  0
LINE
  5
146
330
1F
100
AcDbEntity
  8
VISIBLE
100
AcDbLine
 10
237.6418026951761
 20
71.25226879886742
 30
0.0
 11
237.6757727050151
 21
90.97464169921213
 31
0.0
  0
ELLIPSE
  5
147
330
1F
100
AcDbEntity
  8
VISIBLE
100
AcDbEllipse
 10
238.4196201544813
 20
94.97514967713371
 30
0.0
 11
1.25
 21
-2.165063509461106
 31
0.0
210
0.0
220
0.0
230
1.0
 40
0.5773502691896217
 41
-3.622298162971839
 42
-3.141592653589787
  0
ELLIPSE
  5
148
330
1F
100
AcDbEntity
  8
VISIBLE
100
AcDbEllipse
 10
238.4196201544813
 20
94.97514967713371
 30
0.0
 11
1.25
 21
-2.165063509461106
 31
0.0
210
0.0
220
0.0
230
1.0
 40
0.5773502691896217
 41
-3.141592653589787
 42
0.0
  0
ELLIPSE
  5
149
330
1F
100
AcDbEntity
  8
VISIBLE
100
AcDbEllipse
 10
238.4196201544813
 20
94.97514967713371
 30
0.0
 11
1.25
 21
-2.165063509461106
 31
0.0
210
0.0
220
0.0
230
1.0
 40
0.5773502691896217
 41
0.0
 42
2.051501836176945
  0
ELLIPSE
  5
14A
330
1F
100
AcDbEntity
  8
VISIBLE
100
AcDbEllipse
 10
245.4906879663467
 20
88.4431770297119
 30
0.0
 11
12.0
 21
-20.78460969082653
 31
0.0
210
0.0
220
0.0
230
1.0
 40
0.5773502691896256
 41
0.7853981633974498
 42
3.141592653589794
  0
ELLIPSE
  5
14B
330
1F
100
AcDbEntity
  8
VISIBLE
100
AcDbEllipse
 10
245.4906879663467
 20
88.4431770297119
 30
0.0
 11
12.0
 21
-20.78460969082653
 31
0.0
210
0.0
220
0.0
230
1.0
 40
0.5773502691896256
 41
0.0
 42
0.7853981633974498
  0
LINE
  5
14C
330
1F
100
AcDbEntity
  8
VISIBLE
100
AcDbLine
 10
239.1634676039468
 20
90.11572064884187
 30
0.0
 11
237.6757727050151
 21
90.97464169921213
 31
0.0
  0
SPLINE
  5
14D
330
1F
100
AcDbEntity
  8
VISIBLE
100
AcDbSpline
210
0.0
220
0.0
230
1.0
 70
     8
 71
     3
 72
     8
 73
     4
 74
     0
 42
0.000000001
 43
0.000001
 40
-1.030692398885893
 40
-1.030692398885893
 40
-1.030692398885893
 40
-1.030692398885893
 40
-0.7839808049682957
 40
-0.7839808049682957
 40
-0.7839808049682957
 40
-0.7839808049682957
 10
237.6266829328341
 20
91.82147407475723
 30
0.0
 10
237.9705975430904
 20
92.10678258407445
 30
0.0
 10
238.38181167625
 20
92.423120889891
 30
0.0
 10
238.8288306538017
 20
92.75310640152478
 30
0.0
  0
SPLINE
  5
14E
330
1F
100
AcDbEntity
  8
VISIBLE
100
AcDbSpline
210
0.0
220
0.0
230
1.0
 70
     8
 71
     3
 72
    14
 73
    10
 74
     0
 42
0.000000001
 43
0.000001
 40
-1.408798372870895
 40
-1.408798372870895
 40
-1.408798372870895
 40
-1.408798372870895
 40
-1.206568593794414
 40
-0.8423408607940326
 40
-0.4781131277936508
 40
-0.1138853947932691
 40
0.2503423382071127
 40
0.6145700712074944
 40
0.850603533579932
 40
0.850603533579932
 40
0.850603533579932
 40
0.850603533579932
 10
238.9496614480573
 20
98.16848879051541
 30
0.0
 10
239.1684619053406
 20
98.00291319338069
 30
0.0
 10
239.7713569064096
 20
97.47731965796635
 30
0.0
 10
240.6574517329415
 20
96.36970136488317
 30
0.0
 10
241.4042088689718
 20
94.8758137580886
 30
0.0
 10
241.759382848547
 20
93.38376705024243
 30
0.0
 10
241.6763742365981
 20
92.08932032755055
 30
0.0
 10
241.225942656702
 20
91.27106497218728
 30
0.0
 10
240.7824977896657
 20
90.98318635721738
 30
0.0
 10
240.5880893288729
 20
90.90682578650257
 30
0.0
  0
SPLINE
  5
14F
330
1F
100
AcDbEntity
  8
VISIBLE
100
AcDbSpline
210
0.0
220
0.0
230
1.0
 70
     8
 71
     3
 72
     9
 73
     5
 74
     0
 42
0.000000001
 43
0.000001
 40
0.850603533579932
 40
0.850603533579932
 40
0.850603533579932
 40
0.850603533579932
 40
0.9787978042078761
 40
1.327237906769933
 40
1.327237906769933
 40
1.327237906769933
 40
1.327237906769933
 10
240.5880893288729
 20
90.90682578650257
 30
0.0
 10
240.482502389696
 20
90.86535290562742
 30
0.0
 10
240.0679468751636
 20
90.75155662797934
 30
0.0
 10
239.5831590213345
 20
90.79375936429274
 30
0.0
 10
239.2125555962527
 20
90.90587707803998
 30
0.0
  0
SPLINE
  5
150
330
1F
100
AcDbEntity
  8
VISIBLE
100
AcDbSpline
210
0.0
220
0.0
230
1.0
 70
     8
 71
     3
 72
    13
 73
     9
 74
     0
 42
0.000000001
 43
0.000001
 40
-4.468830560358451
 40
-4.468830560358451
 40
-4.468830560358451
 40
-4.468830560358451
 40
-4.120390457797468
 40
-3.756162724797086
 40
-3.391934991796704
 40
-3.027707258796323
 40
-2.663479525795941
 40
-2.464687085882813
 40
-2.464687085882813
 40
-2.464687085882813
 40
-2.464687085882813
 10
237.626684757559
 20
91.82148006837932
 30
0.0
 10
237.2560819842932
 20
92.137298455342
 30
0.0
 10
236.5312384878885
 20
92.91119449147011
 30
0.0
 10
235.6731746033244
 20
94.33362127112848
 30
0.0
 10
235.1628695953106
 20
95.84987876115481
 30
0.0
 10
235.0798558443979
 20
97.24017815168426
 30
0.0
 10
235.3812513088861
 20
98.15830230393878
 30
0.0
 10
235.7200967025563
 20
98.53676516816154
 30
0.0
 10
235.8565692594341
 20
98.64567961248025
 30
0.0
  0
SPLINE
  5
151
330
1F
100
AcDbEntity
  8
VISIBLE
100
AcDbSpline
210
0.0
220
0.0
230
1.0
 70
     8
 71
     3
 72
    10
 73
     6
 74
     0
 42
0.000000001
 43
0.000001
 40
-2.464687085882813
 40
-2.464687085882813
 40
-2.464687085882813
 40
-2.464687085882813
 40
-2.299251792795559
 40
-1.752910193294987
 40
-1.732794281363722
 40
-1.732794281363722
 40
-1.732794281363722
 40
-1.732794281363722
 10
235.8565692594341
 20
98.64567961248025
 30
0.0
 10
235.9701418754517
 20
98.73631833609156
 30
0.0
 10
236.5089373004232
 20
99.05264629757546
 30
0.0
 10
237.2563710415257
 20
99.02583495329525
 30
0.0
 10
237.8675326986201
 20
98.79015174328269
 30
0.0
 10
237.8892728721796
 20
98.78151424809839
 30
0.0
  0
LINE
  5
152
330
1F
100
AcDbEntity
  8
VISIBLE
100
AcDbLine
 10
237.8892900685914
 20
98.7818685949442
 30
0.0
 11
237.8892900685914
 21
97.22855613590626
 31
0.0
  0
LINE
  5
153
330
1F
100
AcDbEntity
  8
VISIBLE
100
AcDbLine
 10
237.6418026951761
 20
71.25226879886742
 30
0.0
 11
239.1943520073432
 21
72.14913276683552
 31
0.0
  0
LINE
  5
154
330
1F
100
AcDbEntity
  8
VISIBLE
100
AcDbLine
 10
239.1634676039468
 20
90.11572064884186
 30
0.0
 11
239.1974376137865
 21
70.35412255984693
 31
0.0
  0
ELLIPSE
  5
155
330
1F
100
AcDbEntity
  8
VISIBLE
100
AcDbEllipse
 10
247.2584549193131
 20
89.46379775587155
 30
0.0
 11
1.625
 21
-2.814582562299421
 31
0.0
210
0.0
220
0.0
230
1.0
 40
0.5773502691896262
 41
-3.141592653589798
 42
-2.35619449019235
  0
ELLIPSE
  5
156
330
1F
100
AcDbEntity
  8
VISIBLE
100
AcDbEllipse
 10
247.2584549193131
 20
89.46379775587155
 30
0.0
 11
1.625
 21
-2.814582562299421
 31
0.0
210
0.0
220
0.0
230
1.0
 40
0.5773502691896262
 41
0.0
 42
3.141592653589789
  0
ELLIPSE
  5
157
330
1F
100
AcDbEntity
  8
VISIBLE
100
AcDbEllipse
 10
247.2584549193131
 20
89.46379775587155
 30
0.0
 11
1.625
 21
-2.814582562299421
 31
0.0
210
0.0
220
0.0
230
1.0
 40
0.5773502691896262
 41
-2.35619449019235
 42
0.0
  0
LINE
  5
158
330
1F
100
AcDbEntity
  8
VISIBLE
100
AcDbLine
 10
237.6266829324195
 20
91.82147407499664
 30
0.0
 11
239.212557376539
 21
90.90586903778329
 31
0.0
  0
ELLIPSE
  5
159
330
1F
100
AcDbEntity
  8
VISIBLE
100
AcDbEllipse
 10
247.2584549193131
 20
69.0513832326784
 30
0.0
 11
1.625
 21
-2.814582562299421
 31
0.0
210
0.0
220
0.0
230
1.0
 40
0.5773502691896262
 41
-3.141592653589798
 42
-2.35619449019235
  0
ELLIPSE
  5
15A
330
1F
100
AcDbEntity
  8
VISIBLE
100
AcDbEllipse
 10
247.2584549193131
 20
69.0513832326784
 30
0.0
 11
1.625
 21
-2.814582562299421
 31
0.0
210
0.0
220
0.0
230
1.0
 40
0.5773502691896262
 41
0.0
 42
3.141592653589789
  0
ELLIPSE
  5
15B
330
1F
100
AcDbEntity
  8
VISIBLE
100
AcDbEllipse
 10
247.2584549193131
 20
69.0513832326784
 30
0.0
 11
1.625
 21
-2.814582562299421
 31
0.0
210
0.0
220
0.0
230
1.0
 40
0.5773502691896262
 41
-2.35619449019235
 42
0.0
  0
ELLIPSE
  5
15C
330
1F
100
AcDbEntity
  8
VISIBLE
100
AcDbEllipse
 10
229.5807853896494
 20
79.257590494275
 30
0.0
 11
1.625
 21
-2.814582562299435
 31
0.0
210
0.0
220
0.0
230
1.0
 40
0.5773502691896241
 41
-3.141592653589802
 42
-2.35619449019234
  0
ELLIPSE
  5
15D
330
1F
100
AcDbEntity
  8
VISIBLE
100
AcDbEllipse
 10
229.5807853896494
 20
79.257590494275
 30
0.0
 11
1.625
 21
-2.814582562299435
 31
0.0
210
0.0
220
0.0
230
1.0
 40
0.5773502691896241
 41
0.0
 42
3.141592653589784
  0
ELLIPSE
  5
15E
330
1F
100
AcDbEntity
  8
VISIBLE
100
AcDbEllipse
 10
229.5807853896494
 20
79.257590494275
 30
0.0
 11
1.625
 21
-2.814582562299435
 31
0.0
210
0.0
220
0.0
230
1.0
 40
0.5773502691896241
 41
-2.35619449019234
 42
0.0
  0
LINE
  5
15F
330
1F
100
AcDbEntity
  8
VISIBLE
100
AcDbLine
 10
238.9499502403712
 20
96.61618370021047
 30
0.0
 11
239.9664261194948
 21
97.20304632264722
 31
0.0
  0
ELLIPSE
  5
160
330
1F
100
AcDbEntity
  8
VISIBLE
100
AcDbEllipse
 10
238.4196201544813
 20
84.36069412507328
 30
0.0
 11
12.0
 21
-20.78460969082653
 31
0.0
210
0.0
220
0.0
230
1.0
 40
0.5773502691896256
 41
0.0
 42
0.7853981633974487
  0
ELLIPSE
  5
161
330
1F
100
AcDbEntity
  8
VISIBLE
100
AcDbEllipse
 10
238.4196201544813
 20
84.36069412507328
 30
0.0
 11
12.0
 21
-20.78460969082653
 31
0.0
210
0.0
220
0.0
230
1.0
 40
0.5773502691896256
 41
-3.141592653589791
 42
0.0
  0
ELLIPSE
  5
162
330
1F
100
AcDbEntity
  8
VISIBLE
100
AcDbEllipse
 10
238.4196201544813
 20
84.36069412507328
 30
0.0
 11
12.0
 21
-20.78460969082653
 31
0.0
210
0.0
220
0.0
230
1.0
 40
0.5773502691896256
 41
0.7853981633974487
 42
3.141592653589795
  0
LINE
  5
163
330
1F
100
AcDbEntity
  8
VISIBLE
100
AcDbLine
 10
239.1974376137865
 20
70.35412255984691
 30
0.0
 11
237.6418026951761
 21
71.25226879886742
 31
0.0
  0
LINE
  5
164
330
1F
100
AcDbEntity
  8
VISIBLE
100
AcDbLine
 10
238.9499502403712
 20
96.61618370021047
 30
0.0
 11
238.9499502403712
 21
98.1694961592484
 31
0.0
  0
SPLINE
  5
165
330
1F
100
AcDbEntity
  8
VISIBLE
100
AcDbSpline
210
0.0
220
0.0
230
1.0
 70
     8
 71
     3
 72
     8
 73
     4
 74
     0
 42
0.000000001
 43
0.000001
 40
-0.230724770620088
 40
-0.230724770620088
 40
-0.230724770620088
 40
-0.230724770620088
 40
0.0
 40
0.0
 40
0.0
 40
0.0
 10
241.3742006933845
 20
91.58943804542261
 30
0.0
 10
240.6046213498371
 20
91.33207875091874
 30
0.0
 10
239.8654998122736
 20
91.09592305136766
 30
0.0
 10
239.2125573761284
 20
90.90586903802036
 30
0.0
  0
LINE
  5
166
330
1F
100
AcDbEntity
  8
VISIBLE
100
AcDbLine
 10
239.6696201544813
 20
92.81008616767261
 30
0.0
 11
241.6093734344638
 21
93.930003246032
 31
0.0
  0
LINE
  5
167
330
1F
100
AcDbEntity
  8
VISIBLE
100
AcDbLine
 10
237.1696201544813
 20
97.1402131865948
 30
0.0
 11
237.8892900685914
 21
97.55571480523395
 31
0.0
  0
LINE
  5
168
330
1F
100
AcDbEntity
  8
VISIBLE
100
AcDbLine
 10
257.4906879663467
 20
67.65856733888538
 30
0.0
 11
250.4196201544813
 21
63.57608443424675
 31
0.0
  0
LINE
  5
169
330
1F
100
AcDbEntity
  8
VISIBLE
100
AcDbLine
 10
233.4906879663467
 20
109.2277867205384
 30
0.0
 11
226.4196201544813
 21
105.1453038158998
 31
0.0
  0
LINE
  5
16A
330
1F
100
AcDbEntity
  8
HIDDEN
100
AcDbLine
 10
243.877638413736
 20
94.98800864341098
 30
0.0
 11
247.1037375189569
 21
93.12541945657922
 31
0.0
  0
ELLIPSE
  5
16B
330
1F
100
AcDbEntity
  8
HIDDEN
100
AcDbEllipse
 10
245.4906879663467
 20
88.4431770297119
 30
0.0
 11
12.0
 21
-20.78460969082653
 31
0.0
210
0.0
220
0.0
230
1.0
 40
0.5773502691896256
 41
-3.141592653589792
 42
0.0
  0
LINE
  5
16C
330
1F
100
AcDbEntity
  8
HIDDEN
100
AcDbLine
 10
247.1384501509123
 20
72.93181090149702
 30
0.0
 11
247.1037375189569
 21
93.12541945657922
 31
0.0
  0
LINE
  5
16D
330
1F
100
AcDbEntity
  8
HIDDEN
100
AcDbLine
 10
243.8429257817812
 20
74.83448278313588
 30
0.0
 11
247.1384501509123
 21
72.93181090149702
 31
0.0
  0
SPLINE
  5
16E
330
1F
100
AcDbEntity
  8
HIDDEN
100
AcDbSpline
210
0.0
220
0.0
230
1.0
 70
     8
 71
     3
 72
    10
 73
     6
 74
     0
 42
0.000000001
 43
0.000001
 40
-0.7839808049682957
 40
-0.7839808049682957
 40
-0.7839808049682957
 40
-0.7839808049682957
 40
-0.4915226579082428
 40
-0.4915226579082428
 40
-0.0006218958315301
 40
-0.0006218958315301
 40
-0.0006218958315301
 40
-0.0006218958315301
 10
238.8288306538017
 20
92.75310640152478
 30
0.0
 10
239.3587382264433
 20
93.1442795513416
 30
0.0
 10
239.9389599468115
 20
93.55463020468349
 30
0.0
 10
241.4873452996314
 20
94.62757637819328
 30
0.0
 10
242.553335281091
 20
95.34197609870677
 30
0.0
 10
243.5456674741746
 20
95.99816253843726
 30
0.0
  0
ELLIPSE
  5
16F
330
1F
100
AcDbEntity
  8
HIDDEN
100
AcDbEllipse
 10
236.6518532015149
 20
83.34007339891362
 30
0.0
 11
1.625
 21
-2.814582562299421
 31
0.0
210
0.0
220
0.0
230
1.0
 40
0.577350269189636
 41
-2.356194490192359
 42
0.0
  0
ELLIPSE
  5
170
330
1F
100
AcDbEntity
  8
HIDDEN
100
AcDbEllipse
 10
236.6518532015149
 20
83.34007339891362
 30
0.0
 11
1.625
 21
-2.814582562299421
 31
0.0
210
0.0
220
0.0
230
1.0
 40
0.577350269189636
 41
0.0
 42
3.14159265358978
  0
ELLIPSE
  5
171
330
1F
100
AcDbEntity
  8
HIDDEN
100
AcDbEllipse
 10
236.6518532015149
 20
83.34007339891362
 30
0.0
 11
1.625
 21
-2.814582562299421
 31
0.0
210
0.0
220
0.0
230
1.0
 40
0.577350269189636
 41
-3.141592653589806
 42
-2.356194490192359
  0
LINE
  5
172
330
1F
100
AcDbEntity
  8
HIDDEN
100
AcDbLine
 10
244.2897014600665
 20
102.0171732416304
 30
0.0
 11
246.0210180522367
 21
103.0167493421723
 31
0.0
  0
SPLINE
  5
173
330
1F
100
AcDbEntity
  8
HIDDEN
100
AcDbSpline
210
0.0
220
0.0
230
1.0
 70
     8
 71
     3
 72
    10
 73
     6
 74
     0
 42
0.000000001
 43
0.000001
 40
-1.004004541624572
 40
-1.004004541624572
 40
-1.004004541624572
 40
-1.004004541624572
 40
-0.5023299998045604
 40
-0.5023299998045604
 40
-0.2462868620279011
 40
-0.2462868620279011
 40
-0.2462868620279011
 40
-0.2462868620279011
 10
238.9499502403712
 20
98.16949615924841
 30
0.0
 10
240.1246630222562
 20
99.0162916746695
 30
0.0
 10
241.3127743593267
 20
99.87248485204427
 30
0.0
 10
243.0859690432244
 20
101.1500396749047
 30
0.0
 10
243.6878948772192
 20
101.5836693840124
 30
0.0
 10
244.2897014610075
 20
102.0171732333993
 30
0.0
  0
LINE
  5
174
330
1F
100
AcDbEntity
  8
HIDDEN
100
AcDbLine
 10
237.8892900685914
 20
97.22855613590626
 30
0.0
 11
244.9603578804568
 21
101.3110390405449
 31
0.0
  0
LINE
  5
175
330
1F
100
AcDbEntity
  8
HIDDEN
100
AcDbLine
 10
239.1943520073432
 20
72.14913276683552
 30
0.0
 11
243.8429257817812
 21
74.83448278313588
 31
0.0
  0
LINE
  5
176
330
1F
100
AcDbEntity
  8
HIDDEN
100
AcDbLine
 10
247.4357084715546
 20
93.75224632009582
 30
0.0
 11
243.5456674599101
 21
95.99816254532745
 31
0.0
  0
ELLIPSE
  5
177
330
1F
100
AcDbEntity
  8
HIDDEN
100
AcDbEllipse
 10
245.4906879663467
 20
99.05763258177234
 30
0.0
 11
1.25
 21
-2.165063509461092
 31
0.0
210
0.0
220
0.0
230
1.0
 40
0.5773502691896274
 41
-3.622298162971841
 42
-3.141592653589793
  0
ELLIPSE
  5
178
330
1F
100
AcDbEntity
  8
HIDDEN
100
AcDbEllipse
 10
245.4906879663467
 20
99.05763258177234
 30
0.0
 11
1.25
 21
-2.165063509461092
 31
0.0
210
0.0
220
0.0
230
1.0
 40
0.5773502691896274
 41
-3.141592653589793
 42
0.0
  0
ELLIPSE
  5
179
330
1F
100
AcDbEntity
  8
HIDDEN
100
AcDbEllipse
 10
245.4906879663467
 20
99.05763258177234
 30
0.0
 11
1.25
 21
-2.165063509461092
 31
0.0
210
0.0
220
0.0
230
1.0
 40
0.5773502691896274
 41
0.0
 42
2.051501836176946
  0
LINE
  5
17A
330
1F
100
AcDbEntity
  8
HIDDEN
100
AcDbLine
 10
243.877638413736
 20
94.98800864341098
 30
0.0
 11
243.8429257817812
 21
74.8344827831359
 31
0.0
  0
LINE
  5
17B
330
1F
100
AcDbEntity
  8
HIDDEN
100
AcDbLine
 10
239.1974376137865
 20
70.35412255984691
 30
0.0
 11
247.1384501509123
 21
72.93181090149702
 31
0.0
  0
LINE
  5
17C
330
1F
100
AcDbEntity
  8
HIDDEN
100
AcDbLine
 10
246.0210180522367
 20
103.0167493421723
 30
0.0
 11
244.9603578804568
 21
103.6291217778681
 31
0.0
  0
LINE
  5
17D
330
1F
100
AcDbEntity
  8
HIDDEN
100
AcDbLine
 10
239.1634676039468
 20
90.11572064884187
 30
0.0
 11
247.1037375189569
 21
93.12541945657922
 31
0.0
  0
ELLIPSE
  5
17E
330
1F
100
AcDbEntity
  8
HIDDEN
100
AcDbEllipse
 10
254.3295227311786
 20
93.54628066051019
 30
0.0
 11
1.625
 21
-2.814582562299421
 31
0.0
210
0.0
220
0.0
230
1.0
 40
0.5773502691896262
 41
-2.35619449019235
 42
0.0
  0
ELLIPSE
  5
17F
330
1F
100
AcDbEntity
  8
HIDDEN
100
AcDbEllipse
 10
254.3295227311786
 20
93.54628066051019
 30
0.0
 11
1.625
 21
-2.814582562299421
 31
0.0
210
0.0
220
0.0
230
1.0
 40
0.5773502691896262
 41
0.0
 42
3.141592653589793
  0
ELLIPSE
  5
180
330
1F
100
AcDbEntity
  8
HIDDEN
100
AcDbEllipse
 10
254.3295227311786
 20
93.54628066051019
 30
0.0
 11
1.625
 21
-2.814582562299421
 31
0.0
210
0.0
220
0.0
230
1.0
 40
0.5773502691896262
 41
-3.141592653589794
 42
-2.35619449019235
  0
ELLIPSE
  5
181
330
1F
100
AcDbEntity
  8
HIDDEN
100
AcDbEllipse
 10
254.3295227311786
 20
73.13386613731704
 30
0.0
 11
1.625
 21
-2.814582562299435
 31
0.0
210
0.0
220
0.0
230
1.0
 40
0.5773502691896241
 41
-2.35619449019234
 42
0.0
  0
ELLIPSE
  5
182
330
1F
100
AcDbEntity
  8
HIDDEN
100
AcDbEllipse
 10
254.3295227311786
 20
73.13386613731704
 30
0.0
 11
1.625
 21
-2.814582562299435
 31
0.0
210
0.0
220
0.0
230
1.0
 40
0.5773502691896241
 41
0.0
 42
3.141592653589797
  0
ELLIPSE
  5
183
330
1F
100
AcDbEntity
  8
HIDDEN
100
AcDbEllipse
 10
254.3295227311786
 20
73.13386613731704
 30
0.0
 11
1.625
 21
-2.814582562299435
 31
0.0
210
0.0
220
0.0
230
1.0
 40
0.5773502691896241
 41
-3.141592653589789
 42
-2.35619449019234
  0
LINE
  5
184
330
1F
100
AcDbEntity
  8
HIDDEN
100
AcDbLine
 10
246.0210180522367
 20
100.6986666048491
 30
0.0
 11
246.0210180522367
 21
103.0167493421723
 31
0.0
  0
LINE
  5
185
330
1F
100
AcDbEntity
  8
HIDDEN
100
AcDbLine
 10
244.9603578804568
 20
103.6291217778681
 30
0.0
 11
244.9603578804568
 21
101.3110390405449
 31
0.0
  0
SPLINE
  5
186
330
1F
100
AcDbEntity
  8
HIDDEN
100
AcDbSpline
210
0.0
220
0.0
230
1.0
 70
     8
 71
     3
 72
    22
 73
    18
 74
     0
 42
0.000000001
 43
0.000001
 40
-0.2856420258721431
 40
-0.2856420258721431
 40
-0.2856420258721431
 40
-0.2856420258721431
 40
-0.2362341707875688
 40
-0.2362341707875688
 40
-0.209107221923186
 40
-0.209107221923186
 40
-0.1958023117531597
 40
-0.1958023117531597
 40
-0.1854838032355151
 40
-0.1854838032355151
 40
-0.1739436111578034
 40
-0.1739436111578034
 40
-0.1542111238592533
 40
-0.1542111238592533
 40
-0.0982694032953494
 40
-0.0982694032953494
 40
-0.0896121761621444
 40
-0.0896121761621444
 40
-0.0896121761621444
 40
-0.0896121761621444
 10
244.289701950435
 20
102.0171629507335
 30
0.0
 10
244.130463759465
 20
102.0146336801889
 30
0.0
 10
243.9764254293109
 20
102.0221005431179
 30
0.0
 10
243.7610163443908
 20
102.0570124657345
 30
0.0
 10
243.687350254659
 20
102.0742390608893
 30
0.0
 10
243.5858962660344
 20
102.1092697996217
 30
0.0
 10
243.5541955800533
 20
102.1221900778218
 30
0.0
 10
243.5012279285058
 20
102.1477833208653
 30
0.0
 10
243.4794159761097
 20
102.159764293969
 30
0.0
 10
243.4360380120694
 20
102.186861900091
 30
0.0
 10
243.4150242668316
 20
102.2020460420838
 30
0.0
 10
243.3629785317844
 20
102.245449049824
 30
0.0
 10
243.3359742761089
 20
102.2748110064837
 30
0.0
 10
243.2515669418921
 20
102.3928860724006
 30
0.0
 10
243.2298098216808
 20
102.4910978003557
 30
0.0
 10
243.2280849151329
 20
102.5999237653657
 30
0.0
 10
243.2283337012301
 20
102.6146644864729
 30
0.0
 10
243.2290378835374
 20
102.6295457310306
 30
0.0
  0
LINE
  5
187
330
1F
100
AcDbEntity
  8
HIDDEN
100
AcDbLine
 10
239.9664261194948
 20
97.20304632264722
 30
0.0
 11
246.0210180522367
 21
100.6986666048491
 31
0.0
  0
SPLINE
  5
188
330
1F
100
AcDbEntity
  8
HIDDEN
100
AcDbSpline
210
0.0
220
0.0
230
1.0
 70
     8
 71
     3
 72
    10
 73
     6
 74
     0
 42
0.000000001
 43
0.000001
 40
-0.7585453222418626
 40
-0.7585453222418626
 40
-0.7585453222418626
 40
-0.7585453222418626
 40
-0.5021883779640917
 40
-0.5021883779640917
 40
0.0
 40
0.0
 40
0.0
 40
0.0
 10
243.2290412892209
 20
102.6295456690961
 30
0.0
 10
242.6271540509678
 20
102.1959837212761
 30
0.0
 10
242.0251473330577
 20
101.7622957377414
 30
0.0
 10
240.2519522126511
 20
100.484740563028
 30
0.0
 10
239.0639231813693
 20
99.62860668063134
 30
0.0
 10
237.8892900685914
 20
98.7818685949442
 30
0.0
  0
LINE
  5
189
330
1F
100
AcDbEntity
  8
HIDDEN
100
AcDbLine
 10
243.877638413736
 20
94.98800864341098
 30
0.0
 11
237.6757727050151
 21
90.97464169921213
 31
0.0
  0
ELLIPSE
  5
18A
330
1F
100
AcDbEntity
  8
HIDDEN
100
AcDbEllipse
 10
236.6518532015149
 20
103.7524879221068
 30
0.0
 11
1.624999999999972
 21
-2.814582562299421
 31
0.0
210
0.0
220
0.0
230
1.0
 40
0.5773502691896265
 41
-2.356194490192335
 42
0.0
  0
ELLIPSE
  5
18B
330
1F
100
AcDbEntity
  8
HIDDEN
100
AcDbEllipse
 10
236.6518532015149
 20
103.7524879221068
 30
0.0
 11
1.624999999999972
 21
-2.814582562299421
 31
0.0
210
0.0
220
0.0
230
1.0
 40
0.5773502691896265
 41
0.0
 42
3.141592653589802
  0
ELLIPSE
  5
18C
330
1F
100
AcDbEntity
  8
HIDDEN
100
AcDbEllipse
 10
236.6518532015149
 20
103.7524879221068
 30
0.0
 11
1.624999999999972
 21
-2.814582562299421
 31
0.0
210
0.0
220
0.0
230
1.0
 40
0.5773502691896265
 41
-3.141592653589784
 42
-2.356194490192335
  0
LINE
  5
18D
330
1F
100
AcDbEntity
  8
HIDDEN
100
AcDbLine
 10
243.2290412882867
 20
102.6295456773262
 30
0.0
 11
244.9603578804568
 21
103.6291217778681
 31
0.0
  0
SPLINE
  5
18E
330
1F
100
AcDbEntity
  8
HIDDEN
100
AcDbSpline
210
0.0
220
0.0
230
1.0
 70
     8
 71
     3
 72
     9
 73
     5
 74
     0
 42
0.000000001
 43
0.000001
 40
0.8506035335799321
 40
0.8506035335799321
 40
0.8506035335799321
 40
0.8506035335799321
 40
0.9787978042078761
 40
1.08001578565439
 40
1.08001578565439
 40
1.08001578565439
 40
1.08001578565439
 10
248.2174848078043
 20
93.89925757647293
 30
0.0
 10
248.0836699782446
 20
93.84670057935759
 30
0.0
 10
247.8311993408958
 20
93.77744791372244
 30
0.0
 10
247.5590037810321
 20
93.75393722009272
 30
0.0
 10
247.4357133807245
 20
93.75237020760284
 30
0.0
  0
SPLINE
  5
18F
330
1F
100
AcDbEntity
  8
HIDDEN
100
AcDbSpline
210
0.0
220
0.0
230
1.0
 70
     8
 71
     3
 72
    16
 73
    12
 74
     0
 42
0.000000001
 43
0.000001
 40
-2.46468708588374
 40
-2.46468708588374
 40
-2.46468708588374
 40
-2.46468708588374
 40
-2.299251792795559
 40
-1.752910193294987
 40
-1.206568593794414
 40
-0.8423408607940326
 40
-0.4781131277936508
 40
-0.1138853947932691
 40
0.2503423382071127
 40
0.6145700712074944
 40
0.8506035335799321
 40
0.8506035335799321
 40
0.8506035335799321
 40
0.8506035335799321
 10
242.2627415664326
 20
103.7566523249305
 30
0.0
 10
242.4073642388777
 20
103.8720740516732
 30
0.0
 10
243.0920138569361
 20
104.2738794567596
 30
0.0
 10
244.7086186517403
 20
104.2125508468946
 30
0.0
 10
246.7721237835676
 20
102.8128660981386
 30
0.0
 10
248.303312343177
 20
100.9009556418996
 30
0.0
 10
249.2559824314061
 20
98.99781582871341
 30
0.0
 10
249.7136236557845
 20
97.07877500793896
 30
0.0
 10
249.6063593150938
 20
95.4097466588496
 30
0.0
 10
249.027817448845
 20
94.3616047202062
 30
0.0
 10
248.4638669384803
 20
93.99602640974658
 30
0.0
 10
248.2174848078043
 20
93.89925757647293
 30
0.0
  0
SPLINE
  5
190
330
1F
100
AcDbEntity
  8
HIDDEN
100
AcDbSpline
210
0.0
220
0.0
230
1.0
 70
     8
 71
     3
 72
    13
 73
     9
 74
     0
 42
0.000000001
 43
0.000001
 40
-4.221608438907865
 40
-4.221608438907865
 40
-4.221608438907865
 40
-4.221608438907865
 40
-4.120390457797468
 40
-3.756162724797086
 40
-3.391934991796704
 40
-3.027707258796323
 40
-2.663479525795941
 40
-2.46468708588374
 40
-2.46468708588374
 40
-2.46468708588374
 40
-2.46468708588374
 10
243.5456721712294
 20
95.99829290471178
 30
0.0
 10
243.4223834269873
 20
96.14222320774122
 30
0.0
 10
242.870143221961
 20
96.82760102610862
 30
0.0
 10
242.0304661444735
 20
98.21780218799418
 30
0.0
 10
241.3750217389948
 20
100.1620913473899
 30
0.0
 10
241.2677498969052
 20
101.9549814703521
 30
0.0
 10
241.656097168961
 20
103.1350486090268
 30
0.0
 10
242.0889582497937
 20
103.6179578163419
 30
0.0
 10
242.2627415664326
 20
103.7566523249305
 30
0.0
  0
SPLINE
  5
191
330
1F
100
AcDbEntity
  8
HIDDEN
100
AcDbSpline
210
0.0
220
0.0
230
1.0
 70
     8
 71
     3
 72
    10
 73
     6
 74
     0
 42
0.000000001
 43
0.000001
 40
-0.8216720772017221
 40
-0.8216720772017221
 40
-0.8216720772017221
 40
-0.8216720772017221
 40
-0.4280869704465612
 40
-0.4280869704465612
 40
-0.230724770620088
 40
-0.230724770620088
 40
-0.230724770620088
 40
-0.230724770620088
 10
247.4357084608916
 20
93.7522463274716
 30
0.0
 10
246.1325522475955
 20
93.26930539826103
 30
0.0
 10
244.7132145694782
 20
92.75065775898382
 30
0.0
 10
242.7130848833837
 20
92.04524374285359
 30
0.0
 10
242.0324996344792
 20
91.80958344364996
 30
0.0
 10
241.3742006933845
 20
91.58943804542261
 30
0.0
  0
LINE
  5
192
330
1F
100
AcDbEntity
  8
HIDDEN
100
AcDbLine
 10
241.6093734344638
 20
93.930003246032
 30
0.0
 11
246.7406879663467
 21
96.89256907231125
 31
0.0
  0
LINE
  5
193
330
1F
100
AcDbEntity
  8
HIDDEN
100
AcDbLine
 10
235.0268532015149
 20
86.15465596121304
 30
0.0
 11
227.9557853896494
 21
82.07217305657441
 31
0.0
  0
LINE
  5
194
330
1F
100
AcDbEntity
  8
HIDDEN
100
AcDbLine
 10
255.9545227311786
 20
90.73169809821077
 30
0.0
 11
248.8834549193131
 21
86.64921519357213
 31
0.0
  0
LINE
  5
195
330
1F
100
AcDbEntity
  8
HIDDEN
100
AcDbLine
 10
237.8892900685914
 20
97.55571480523395
 30
0.0
 11
244.2406879663467
 21
101.2226960912334
 31
0.0
  0
LINE
  5
196
330
1F
100
AcDbEntity
  8
HIDDEN
100
AcDbLine
 10
235.0268532015149
 20
106.5670704844062
 30
0.0
 11
227.9557853896494
 21
102.4845875797676
 31
0.0
  0
LINE
  5
197
330
1F
100
AcDbEntity
  8
HIDDEN
100
AcDbLine
 10
238.2768532015149
 20
100.9379053598073
 30
0.0
 11
231.2057853896494
 21
96.8554224551687
 31
0.0
  0
LINE
  5
198
330
1F
100
AcDbEntity
  8
HIDDEN
100
AcDbLine
 10
238.2768532015149
 20
80.5254908366142
 30
0.0
 11
231.2057853896494
 21
76.44300793197556
 31
0.0
  0
LINE
  5
199
330
1F
100
AcDbEntity
  8
HIDDEN
100
AcDbLine
 10
255.9545227311786
 20
70.31928357501761
 30
0.0
 11
248.8834549193131
 21
66.23680067037898
 31
0.0
  0
LINE
  5
19A
330
1F
100
AcDbEntity
  8
HIDDEN
100
AcDbLine
 10
252.7045227311786
 20
75.94844869961646
 30
0.0
 11
245.6334549193131
 21
71.86596579497784
 31
0.0
  0
LINE
  5
19B
330
1F
100
AcDbEntity
  8
HIDDEN
100
AcDbLine
 10
235.8565393828441
 20
98.64554947713177
 30
0.0
 11
242.2627007695442
 21
103.7565886730075
 31
0.0
  0
LINE
  5
19C
330
1F
100
AcDbEntity
  8
HIDDEN
100
AcDbLine
 10
248.217554654647
 20
93.89904635253133
 30
0.0
 11
240.588184177928
 21
90.90666744884301
 31
0.0
  0
LINE
  5
19D
330
1F
100
AcDbEntity
  8
HIDDEN
100
AcDbLine
 10
252.7045227311786
 20
96.36086322280961
 30
0.0
 11
245.6334549193131
 21
92.27838031817099
 31
0.0
  0
LINE
  5
19E
330
1F
100
AcDbEntity
  8
CENTER
100
AcDbLine
 10
250.3609761233536
 20
70.84262468499773
 30
0.0
 11
251.2270015271381
 21
71.34262468499773
 31
0.0
  0
LINE
  5
19F
330
1F
100
AcDbEntity
  8
CENTER
100
AcDbLine
 10
249.9279634214614
 20
70.59262468499773
 30
0.0
 11
245.5978364025392
 21
68.09262468499773
 31
0.0
  0
LINE
  5
1A0
330
1F
100
AcDbEntity
  8
CENTER
100
AcDbLine
 10
251.6600142290303
 20
71.59262468499773
 30
0.0
 11
255.9901412479525
 21
74.09262468499773
 31
0.0
  0
LINE
  5
1A1
330
1F
100
AcDbEntity
  8
CENTER
100
AcDbLine
 10
245.164823700647
 20
67.84262468499773
 30
0.0
 11
244.2987982968625
 21
67.34262468499773
 31
0.0
  0
LINE
  5
1A2
330
1F
100
AcDbEntity
  8
CENTER
100
AcDbLine
 10
256.4231539498447
 20
74.34262468499773
 30
0.0
 11
257.2891793536292
 21
74.84262468499773
 31
0.0
  0
LINE
  5
1A3
330
1F
100
AcDbEntity
  8
CENTER
100
AcDbLine
 10
243.8657855949703
 20
67.09262468499773
 30
0.0
 11
242.2107272234412
 21
66.13707628867085
 31
0.0
  0
LINE
  5
1A4
330
1F
100
AcDbEntity
  8
CENTER
100
AcDbLine
 10
257.7221920555214
 20
75.09262468499773
 30
0.0
 11
259.3772504270505
 21
76.04817308132459
 31
0.0
  0
LINE
  5
1A5
330
1F
100
AcDbEntity
  8
CENTER
100
AcDbLine
 10
241.5221413585218
 20
86.15193557739259
 30
0.0
 11
242.3881667623062
 21
86.65193557739259
 31
0.0
  0
LINE
  5
1A6
330
1F
100
AcDbEntity
  8
CENTER
100
AcDbLine
 10
241.0891286566296
 20
85.90193557739259
 30
0.0
 11
236.7590016377074
 21
83.40193557739259
 31
0.0
  0
LINE
  5
1A7
330
1F
100
AcDbEntity
  8
CENTER
100
AcDbLine
 10
242.8211794641985
 20
86.90193557739259
 30
0.0
 11
247.1513064831206
 21
89.40193557739259
 31
0.0
  0
LINE
  5
1A8
330
1F
100
AcDbEntity
  8
CENTER
100
AcDbLine
 10
236.3259889358152
 20
83.15193557739259
 30
0.0
 11
235.4599635320307
 21
82.65193557739259
 31
0.0
  0
LINE
  5
1A9
330
1F
100
AcDbEntity
  8
CENTER
100
AcDbLine
 10
247.5843191850128
 20
89.65193557739259
 30
0.0
 11
248.4503445887973
 21
90.15193557739259
 31
0.0
  0
LINE
  5
1AA
330
1F
100
AcDbEntity
  8
CENTER
100
AcDbLine
 10
235.0269508301385
 20
82.40193557739259
 30
0.0
 11
230.6968238112163
 21
79.90193557739259
 31
0.0
  0
LINE
  5
1AB
330
1F
100
AcDbEntity
  8
CENTER
100
AcDbLine
 10
248.8833572906895
 20
90.40193557739259
 30
0.0
 11
253.2134843096117
 21
92.90193557739259
 31
0.0
  0
LINE
  5
1AC
330
1F
100
AcDbEntity
  8
CENTER
100
AcDbLine
 10
230.2638111093241
 20
79.65193557739259
 30
0.0
 11
229.3977857055396
 21
79.15193557739259
 31
0.0
  0
LINE
  5
1AD
330
1F
100
AcDbEntity
  8
CENTER
100
AcDbLine
 10
253.6464970115039
 20
93.15193557739259
 30
0.0
 11
254.5125224152884
 21
93.65193557739259
 31
0.0
  0
LINE
  5
1AE
330
1F
100
AcDbEntity
  8
CENTER
100
AcDbLine
 10
228.9647730036474
 20
78.90193557739259
 30
0.0
 11
224.6346459847252
 21
76.40193557739259
 31
0.0
  0
LINE
  5
1AF
330
1F
100
AcDbEntity
  8
CENTER
100
AcDbLine
 10
254.9455351171806
 20
93.90193557739259
 30
0.0
 11
259.2756621361028
 21
96.40193557739259
 31
0.0
  0
LINE
  5
1B0
330
1F
100
AcDbEntity
  8
CENTER
100
AcDbLine
 10
224.201633282833
 20
76.15193557739259
 30
0.0
 11
223.3356078790486
 21
75.65193557739259
 31
0.0
  0
LINE
  5
1B1
330
1F
100
AcDbEntity
  8
CENTER
100
AcDbLine
 10
259.708674837995
 20
96.65193557739259
 30
0.0
 11
260.5747002417795
 21
97.15193557739258
 31
0.0
  0
LINE
  5
1B2
330
1F
100
AcDbEntity
  8
CENTER
100
AcDbLine
 10
222.9025951771563
 20
75.40193557739259
 30
0.0
 11
218.6994267489885
 21
72.97523515394057
 31
0.0
  0
LINE
  5
1B3
330
1F
100
AcDbEntity
  8
CENTER
100
AcDbLine
 10
261.0077129436717
 20
97.40193557739259
 30
0.0
 11
265.2108813718395
 21
99.82863600084461
 31
0.0
  0
LINE
  5
1B4
330
1F
100
AcDbEntity
  8
CENTER
100
AcDbLine
 10
232.6833065936899
 20
101.4612464697875
 30
0.0
 11
233.5493319974744
 21
101.9612464697875
 31
0.0
  0
LINE
  5
1B5
330
1F
100
AcDbEntity
  8
CENTER
100
AcDbLine
 10
232.2502938917977
 20
101.2112464697875
 30
0.0
 11
227.9201668728755
 21
98.71124646978745
 31
0.0
  0
LINE
  5
1B6
330
1F
100
AcDbEntity
  8
CENTER
100
AcDbLine
 10
233.9823446993666
 20
102.2112464697875
 30
0.0
 11
238.3124717182888
 21
104.7112464697875
 31
0.0
  0
LINE
  5
1B7
330
1F
100
AcDbEntity
  8
CENTER
100
AcDbLine
 10
227.4871541709833
 20
98.46124646978745
 30
0.0
 11
226.6211287671989
 21
97.96124646978745
 31
0.0
  0
LINE
  5
1B8
330
1F
100
AcDbEntity
  8
CENTER
100
AcDbLine
 10
238.745484420181
 20
104.9612464697875
 30
0.0
 11
239.6115098239655
 21
105.4612464697875
 31
0.0
  0
LINE
  5
1B9
330
1F
100
AcDbEntity
  8
CENTER
100
AcDbLine
 10
226.1881160653066
 20
97.71124646978745
 30
0.0
 11
224.5330576937776
 21
96.75569807346058
 31
0.0
  0
LINE
  5
1BA
330
1F
100
AcDbEntity
  8
CENTER
100
AcDbLine
 10
240.0445225258577
 20
105.7112464697875
 30
0.0
 11
241.6995808973868
 21
106.6667948661143
 31
0.0
  0
INSERT
  5
1BB
330
1F
100
AcDbEntity
  8
CONTINUOUS
100
AcDbBlockReference
  2
BLOCK2
 10
0.0
 20
0.0
 30
0.0
  0
MTEXT
  5
207
330
1F
100
AcDbEntity
  8
CONTINUOUS
100
AcDbMText
 10
203.77604675293
 20
14.05426716099204
 30
0.0
 40
2.188737186504777
 41
0.0
 46
0.0
 71
     1
 72
     1
  1
{\fCE|b0|i0|c0|p0;\C7;-------------------     }{\fCE|b0|i0|c0|p0;\C7;}
 73
     1
 44
1.0
  0
MTEXT
  5
208
330
1F
100
AcDbEntity
  8
CONTINUOUS
100
AcDbMText
 10
275.790710449219
 20
14.86342548618734
 30
0.0
 40
2.188737186504777
 41
0.0
 46
0.0
 71
     1
 72
     1
  1
{\fCE|b0|i0|c0|p0;\C7;1:1  }{\fCE|b0|i0|c0|p0;\C7;}
 73
     1
 44
1.0
  0
MTEXT
  5
209
330
1F
100
AcDbEntity
  8
CONTINUOUS
100
AcDbMText
 10
259.068206787109
 20
14.05426716099204
 30
0.0
 40
2.188737186504777
 41
0.0
 46
0.0
 71
     1
 72
     1
  1
{\fCE|b0|i0|c0|p0;\C7;1x}{\fCE|b0|i0|c0|p0;\C7;}
 73
     1
 44
1.0
  0
MTEXT
  5
20A
330
1F
100
AcDbEntity
  8
CONTINUOUS
100
AcDbMText
 10
255.561904907227
 20
22.68524002323574
 30
0.0
 40
2.188737186504777
 41
0.0
 46
0.0
 71
     1
 72
     1
  1
{\fCE|b0|i0|c0|p0;\C7;1.4301}{\fCE|b0|i0|c0|p0;\C7;}
 73
     1
 44
1.0
  0
MTEXT
  5
20B
330
1F
100
AcDbEntity
  8
CONTINUOUS
100
AcDbMText
 10
213.9350413004557
 20
25.3610191520156
 30
0.0
 40
1.969863467854299
 41
0.0
 46
0.0
 71
     1
 72
     1
  1
{\fCE|b0|i0|c0|p0;\C7;Brzdi^M 80x200}{\fCE|b0|i0|c0|p0;\C7;\H1.111111x;}
 73
     1
 44
1.0
  0
MTEXT
  5
20C
330
1F
100
AcDbEntity
  8
CONTINUOUS
100
AcDbMText
 10
231.556991577148
 20
15.67256759891924
 30
0.0
 40
2.188737186504777
 41
0.0
 46
0.0
 71
     1
 72
     1
  1
{\fCE|b0|i0|c0|p0;\C7;05.09.2018}{\fCE|b0|i0|c0|p0;\C7;}
 73
     1
 44
1.0
  0
ENDSEC
  0
SECTION
  2
OBJECTS
  0
DICTIONARY
  5
C
330
0
100
AcDbDictionary
281
     1
  3
ACAD_DETAILVIEWSTYLE
350
214
  3
ACAD_GROUP
350
D
  3
ACAD_LAYOUT
350
1A
  3
ACAD_MATERIAL
350
43
  3
ACAD_MLEADERSTYLE
350
6B
  3
ACAD_MLINESTYLE
350
17
  3
ACAD_PLOTSETTINGS
350
19
  3
ACAD_PLOTSTYLENAME
350
E
  3
ACAD_SCALELIST
350
47
  3
ACAD_SECTIONVIEWSTYLE
350
215
  3
ACAD_TABLESTYLE
350
69
  3
ACAD_VISUALSTYLE
350
2A
  3
ACDB_RECOMPOSE_DATA
350
211
  3
AcDbVariableDictionary
350
20D
  0
SUN
  5
6D
330
29
100
AcDbSun
 90
        1
290
     0
 63
     7
421
 16777215
 40
1.0
291
     1
 91
  2455826
 92
 54000000
292
     0
 70
     2
 71
   256
280
     1
  0
DICTIONARY
  5
214
102
{ACAD_REACTORS
330
C
102
}
330
C
100
AcDbDictionary
281
     1
  0
DICTIONARY
  5
D
102
{ACAD_REACTORS
330
C
102
}
330
C
100
AcDbDictionary
281
     1
  0
DICTIONARY
  5
1A
102
{ACAD_REACTORS
330
C
102
}
330
C
100
AcDbDictionary
281
     1
  3
Layout1
350
1E
  3
Layout2
350
26
  3
Model
350
22
  0
DICTIONARY
  5
43
102
{ACAD_REACTORS
330
C
102
}
330
C
100
AcDbDictionary
281
     1
  3
ByBlock
350
45
  3
ByLayer
350
44
  3
Global
350
46
  0
DICTIONARY
  5
6B
102
{ACAD_REACTORS
330
C
102
}
330
C
100
AcDbDictionary
281
     1
  3
Standard
350
6C
  0
DICTIONARY
  5
17
102
{ACAD_REACTORS
330
C
102
}
330
C
100
AcDbDictionary
281
     1
  3
Standard
350
18
  0
DICTIONARY
  5
19
102
{ACAD_REACTORS
330
C
102
}
330
C
100
AcDbDictionary
281
     1
  0
ACDBDICTIONARYWDFLT
  5
E
102
{ACAD_REACTORS
330
C
102
}
330
C
100
AcDbDictionary
281
     1
  3
Normal
350
F
100
AcDbDictionaryWithDefault
340
F
  0
DICTIONARY
  5
47
102
{ACAD_REACTORS
330
C
102
}
330
C
100
AcDbDictionary
281
     1
  3
A0
350
48
  3
A1
350
49
  3
A2
350
4A
  3
A3
350
4B
  3
A4
350
4C
  3
A5
350
4D
  3
A6
350
4E
  3
A7
350
4F
  3
A8
350
50
  3
A9
350
51
  3
B0
350
52
  3
B1
350
53
  3
B2
350
54
  3
B3
350
55
  3
B4
350
56
  3
B5
350
57
  3
B6
350
58
  3
B7
350
59
  3
B8
350
5A
  3
B9
350
5B
  3
C0
350
5C
  3
C1
350
5D
  3
C2
350
5E
  3
C3
350
5F
  3
C4
350
60
  3
C5
350
61
  3
C6
350
62
  3
C7
350
63
  3
C8
350
64
  3
C9
350
65
  3
D0
350
66
  3
D1
350
67
  3
D2
350
68
  0
DICTIONARY
  5
215
102
{ACAD_REACTORS
330
C
102
}
330
C
100
AcDbDictionary
281
     1
  0
DICTIONARY
  5
69
102
{ACAD_REACTORS
330
C
102
}
330
C
100
AcDbDictionary
281
     1
  3
Standard
350
6A
  0
DICTIONARY
  5
2A
102
{ACAD_REACTORS
330
C
102
}
330
C
100
AcDbDictionary
281
     1
  3
2dWireframe
350
2F
  3
Basic
350
32
  3
Brighten
350
36
  3
ColorChange
350
3A
  3
Conceptual
350
34
  3
Dim
350
35
  3
EdgeColorOff
350
3D
  3
Facepattern
350
39
  3
Flat
350
2B
  3
FlatWithEdges
350
2C
  3
Gouraud
350
2D
  3
GouraudWithEdges
350
2E
  3
Hidden
350
31
  3
JitterOff
350
3B
  3
Linepattern
350
38
  3
OverhangOff
350
3C
  3
Realistic
350
33
  3
Shaded
350
42
  3
Shaded with edges
350
41
  3
Shades of Gray
350
3E
  3
Sketchy
350
3F
  3
Thicken
350
37
  3
Wireframe
350
30
  3
X-Ray
350
40
  0
XRECORD
  5
211
102
{ACAD_REACTORS
330
C
102
}
330
C
100
AcDbXrecord
280
     1
 90
        1
330
6A
  0
DICTIONARY
  5
20D
102
{ACAD_REACTORS
330
C
102
}
330
C
100
AcDbDictionary
281
     1
  3
CANNOSCALE
350
20E
  3
CENTEREXE
350
216
  3
CENTERLTYPEFILE
350
217
  3
CMLEADERSTYLE
350
213
  3
CTABLESTYLE
350
212
  0
LAYOUT
  5
1E
102
{ACAD_REACTORS
330
1A
102
}
330
1A
100
AcDbPlotSettings
  1

  2
none_device
  4

  6

 40
0.0
 41
0.0
 42
0.0
 43
0.0
 44
0.0
 45
0.0
 46
0.0
 47
0.0
 48
0.0
 49
0.0
140
0.0
141
0.0
142
1.0
143
1.0
 70
   688
 72
     1
 73
     0
 74
     5
  7

 75
    16
 76
     0
 77
     2
 78
   300
147
1.0
148
0.0
149
0.0
100
AcDbLayout
  1
Layout1
 70
     1
 71
     1
 10
0.0
 20
0.0
 11
420.0
 21
297.0
 12
0.0
 22
0.0
 32
0.0
 14
1.000000000000000E+20
 24
1.000000000000000E+20
 34
1.000000000000000E+20
 15
-1.000000000000000E+20
 25
-1.000000000000000E+20
 35
-1.000000000000000E+20
146
0.0
 13
0.0
 23
0.0
 33
0.0
 16
1.0
 26
0.0
 36
0.0
 17
0.0
 27
1.0
 37
0.0
 76
     0
330
1B
  0
LAYOUT
  5
26
102
{ACAD_REACTORS
330
1A
102
}
330
1A
100
AcDbPlotSettings
  1

  2
none_device
  4

  6

 40
0.0
 41
0.0
 42
0.0
 43
0.0
 44
0.0
 45
0.0
 46
0.0
 47
0.0
 48
0.0
 49
0.0
140
0.0
141
0.0
142
1.0
143
1.0
 70
   688
 72
     1
 73
     0
 74
     5
  7

 75
    16
 76
     0
 77
     2
 78
   300
147
1.0
148
0.0
149
0.0
100
AcDbLayout
  1
Layout2
 70
     1
 71
     2
 10
0.0
 20
0.0
 11
0.0
 21
0.0
 12
0.0
 22
0.0
 32
0.0
 14
0.0
 24
0.0
 34
0.0
 15
0.0
 25
0.0
 35
0.0
146
0.0
 13
0.0
 23
0.0
 33
0.0
 16
1.0
 26
0.0
 36
0.0
 17
0.0
 27
1.0
 37
0.0
 76
     0
330
23
  0
LAYOUT
  5
22
102
{ACAD_REACTORS
330
1A
102
}
330
1A
100
AcDbPlotSettings
  1

  2
none_device
  4
Letter_(8.50_x_11.00_Inches)
  6

 40
6.35
 41
6.35
 42
6.35000508
 43
6.35000508
 44
215.9
 45
279.4
 46
0.0
 47
0.0
 48
0.0
 49
0.0
140
0.0
141
0.0
142
1.0
143
1.0
 70
  1712
 72
     1
 73
     0
 74
     0
  7

 75
     0
 76
     0
 77
     2
 78
   300
147
1.0
148
0.0
149
0.0
100
AcDbLayout
  1
Model
 70
     1
 71
     0
 10
0.0
 20
0.0
 11
420.0
 21
297.0
 12
0.0
 22
0.0
 32
0.0
 14
1.000000000000000E+20
 24
1.000000000000000E+20
 34
1.000000000000000E+20
 15
-1.000000000000000E+20
 25
-1.000000000000000E+20
 35
-1.000000000000000E+20
146
0.0
 13
0.0
 23
0.0
 33
0.0
 16
1.0
 26
0.0
 36
0.0
 17
0.0
 27
1.0
 37
0.0
 76
     0
330
1F
331
29
  0
MATERIAL
  5
45
102
{ACAD_REACTORS
330
43
102
}
330
43
100
AcDbMaterial
  1
ByBlock
 72
     1
 94
      127
  0
MATERIAL
  5
44
102
{ACAD_REACTORS
330
43
102
}
330
43
100
AcDbMaterial
  1
ByLayer
 72
     1
 94
      127
  0
MATERIAL
  5
46
102
{ACAD_REACTORS
330
43
102
}
330
43
100
AcDbMaterial
  1
Global
 72
     1
 94
      127
  0
MLEADERSTYLE
  5
6C
102
{ACAD_REACTORS
330
6B
102
}
330
6B
100
AcDbMLeaderStyle
179
     2
170
     2
171
     1
172
     0
 90
        2
 40
0.0
 41
0.0
173
     1
 91
-1056964608
340
14
 92
       -2
290
     1
 42
2.0
291
     1
 43
8.0
  3
Standard
341
0
 44
4.0
300

342
11
174
     1
178
     6
175
     1
176
     0
 93
-1056964608
 45
4.0
292
     0
297
     0
 46
4.0
343
0
 94
-1056964608
 47
1.0
 49
1.0
140
1.0
293
     1
141
0.0
294
     1
177
     0
142
1.0
295
     0
296
     0
143
3.75
271
     0
272
     9
273
     9
298
     0
  0
MLINESTYLE
  5
18
102
{ACAD_REACTORS
330
17
102
}
330
17
100
AcDbMlineStyle
  2
Standard
 70
     0
  3

 62
   256
 51
90.0
 52
90.0
 71
     2
 49
0.5
 62
   256
  6
BYLAYER
 49
-0.5
 62
   256
  6
BYLAYER
  0
ACDBPLACEHOLDER
  5
F
102
{ACAD_REACTORS
330
E
102
}
330
E
  0
SCALE
  5
48
102
{ACAD_REACTORS
330
47
102
}
330
47
100
AcDbScale
 70
     0
300
1:1
140
1.0
141
1.0
290
     1
  0
SCALE
  5
49
102
{ACAD_REACTORS
330
47
102
}
330
47
100
AcDbScale
 70
     0
300
1:2
140
1.0
141
2.0
290
     0
  0
SCALE
  5
4A
102
{ACAD_REACTORS
330
47
102
}
330
47
100
AcDbScale
 70
     0
300
1:4
140
1.0
141
4.0
290
     0
  0
SCALE
  5
4B
102
{ACAD_REACTORS
330
47
102
}
330
47
100
AcDbScale
 70
     0
300
1:5
140
1.0
141
5.0
290
     0
  0
SCALE
  5
4C
102
{ACAD_REACTORS
330
47
102
}
330
47
100
AcDbScale
 70
     0
300
1:8
140
1.0
141
8.0
290
     0
  0
SCALE
  5
4D
102
{ACAD_REACTORS
330
47
102
}
330
47
100
AcDbScale
 70
     0
300
1:10
140
1.0
141
10.0
290
     0
  0
SCALE
  5
4E
102
{ACAD_REACTORS
330
47
102
}
330
47
100
AcDbScale
 70
     0
300
1:16
140
1.0
141
16.0
290
     0
  0
SCALE
  5
4F
102
{ACAD_REACTORS
330
47
102
}
330
47
100
AcDbScale
 70
     0
300
1:20
140
1.0
141
20.0
290
     0
  0
SCALE
  5
50
102
{ACAD_REACTORS
330
47
102
}
330
47
100
AcDbScale
 70
     0
300
1:30
140
1.0
141
30.0
290
     0
  0
SCALE
  5
51
102
{ACAD_REACTORS
330
47
102
}
330
47
100
AcDbScale
 70
     0
300
1:40
140
1.0
141
40.0
290
     0
  0
SCALE
  5
52
102
{ACAD_REACTORS
330
47
102
}
330
47
100
AcDbScale
 70
     0
300
1:50
140
1.0
141
50.0
290
     0
  0
SCALE
  5
53
102
{ACAD_REACTORS
330
47
102
}
330
47
100
AcDbScale
 70
     0
300
1:100
140
1.0
141
100.0
290
     0
  0
SCALE
  5
54
102
{ACAD_REACTORS
330
47
102
}
330
47
100
AcDbScale
 70
     0
300
2:1
140
2.0
141
1.0
290
     0
  0
SCALE
  5
55
102
{ACAD_REACTORS
330
47
102
}
330
47
100
AcDbScale
 70
     0
300
4:1
140
4.0
141
1.0
290
     0
  0
SCALE
  5
56
102
{ACAD_REACTORS
330
47
102
}
330
47
100
AcDbScale
 70
     0
300
8:1
140
8.0
141
1.0
290
     0
  0
SCALE
  5
57
102
{ACAD_REACTORS
330
47
102
}
330
47
100
AcDbScale
 70
     0
300
10:1
140
10.0
141
1.0
290
     0
  0
SCALE
  5
58
102
{ACAD_REACTORS
330
47
102
}
330
47
100
AcDbScale
 70
     0
300
100:1
140
100.0
141
1.0
290
     0
  0
SCALE
  5
59
102
{ACAD_REACTORS
330
47
102
}
330
47
100
AcDbScale
 70
     0
300
1/128" = 1'-0"
140
0.0078125
141
12.0
290
     0
  0
SCALE
  5
5A
102
{ACAD_REACTORS
330
47
102
}
330
47
100
AcDbScale
 70
     0
300
1/64" = 1'-0"
140
0.015625
141
12.0
290
     0
  0
SCALE
  5
5B
102
{ACAD_REACTORS
330
47
102
}
330
47
100
AcDbScale
 70
     0
300
1/32" = 1'-0"
140
0.03125
141
12.0
290
     0
  0
SCALE
  5
5C
102
{ACAD_REACTORS
330
47
102
}
330
47
100
AcDbScale
 70
     0
300
1/16" = 1'-0"
140
0.0625
141
12.0
290
     0
  0
SCALE
  5
5D
102
{ACAD_REACTORS
330
47
102
}
330
47
100
AcDbScale
 70
     0
300
3/32" = 1'-0"
140
0.09375
141
12.0
290
     0
  0
SCALE
  5
5E
102
{ACAD_REACTORS
330
47
102
}
330
47
100
AcDbScale
 70
     0
300
1/8" = 1'-0"
140
0.125
141
12.0
290
     0
  0
SCALE
  5
5F
102
{ACAD_REACTORS
330
47
102
}
330
47
100
AcDbScale
 70
     0
300
3/16" = 1'-0"
140
0.1875
141
12.0
290
     0
  0
SCALE
  5
60
102
{ACAD_REACTORS
330
47
102
}
330
47
100
AcDbScale
 70
     0
300
1/4" = 1'-0"
140
0.25
141
12.0
290
     0
  0
SCALE
  5
61
102
{ACAD_REACTORS
330
47
102
}
330
47
100
AcDbScale
 70
     0
300
3/8" = 1'-0"
140
0.375
141
12.0
290
     0
  0
SCALE
  5
62
102
{ACAD_REACTORS
330
47
102
}
330
47
100
AcDbScale
 70
     0
300
1/2" = 1'-0"
140
0.5
141
12.0
290
     0
  0
SCALE
  5
63
102
{ACAD_REACTORS
330
47
102
}
330
47
100
AcDbScale
 70
     0
300
3/4" = 1'-0"
140
0.75
141
12.0
290
     0
  0
SCALE
  5
64
102
{ACAD_REACTORS
330
47
102
}
330
47
100
AcDbScale
 70
     0
300
1" = 1'-0"
140
1.0
141
12.0
290
     0
  0
SCALE
  5
65
102
{ACAD_REACTORS
330
47
102
}
330
47
100
AcDbScale
 70
     0
300
1-1/2" = 1'-0"
140
1.5
141
12.0
290
     0
  0
SCALE
  5
66
102
{ACAD_REACTORS
330
47
102
}
330
47
100
AcDbScale
 70
     0
300
3" = 1'-0"
140
3.0
141
12.0
290
     0
  0
SCALE
  5
67
102
{ACAD_REACTORS
330
47
102
}
330
47
100
AcDbScale
 70
     0
300
6" = 1'-0"
140
6.0
141
12.0
290
     0
  0
SCALE
  5
68
102
{ACAD_REACTORS
330
47
102
}
330
47
100
AcDbScale
 70
     0
300
1'-0" = 1'-0"
140
12.0
141
12.0
290
     0
  0
TABLESTYLE
  5
6A
102
{ACAD_REACTORS
330
69
102
}
102
{ACAD_XDICTIONARY
360
20F
102
}
330
69
100
AcDbTableStyle
  3
Standard
 70
     0
 71
     0
 40
0.06
 41
0.06
280
     0
281
     0
  7
Standard
140
4.5
170
     2
 62
     0
 63
   257
283
     0
 90
        4
 91
        0
  1

274
    -2
284
     1
 64
     0
275
    -2
285
     1
 65
     0
276
    -2
286
     1
 66
     0
277
    -2
287
     1
 67
     0
278
    -2
288
     1
 68
     0
279
    -2
289
     1
 69
     0
  7
Standard
140
6.0
170
     5
 62
     0
 63
   257
283
     0
 90
        4
 91
        0
  1

274
    -2
284
     1
 64
     0
275
    -2
285
     1
 65
     0
276
    -2
286
     1
 66
     0
277
    -2
287
     1
 67
     0
278
    -2
288
     1
 68
     0
279
    -2
289
     1
 69
     0
  7
Standard
140
4.5
170
     5
 62
     0
 63
   257
283
     0
 90
        4
 91
        0
  1

274
    -2
284
     1
 64
     0
275
    -2
285
     1
 65
     0
276
    -2
286
     1
 66
     0
277
    -2
287
     1
 67
     0
278
    -2
288
     1
 68
     0
279
    -2
289
     1
 69
     0
  0
VISUALSTYLE
  5
2F
102
{ACAD_REACTORS
330
2A
102
}
330
2A
100
AcDbVisualStyle
  2
2dWireframe
 70
     4
177
     3
291
     0
 70
    58
 90
        0
176
     1
 90
        2
176
     1
 90
        0
176
     1
 90
        0
176
     1
 40
0.6
176
     1
 40
30.0
176
     1
 62
     7
420
 16777215
176
     1
 90
        1
176
     1
 90
        4
176
     1
 62
     7
176
     1
 62
   257
176
     1
 90
        1
176
     1
 90
        1
176
     1
 40
1.0
176
     1
 90
        0
176
     1
 62
   257
176
     1
 40
1.0
176
     1
 90
        1
176
     1
 90
        6
176
     1
 90
        2
176
     1
 62
     7
176
     1
 90
        5
176
     1
 90
        0
176
     1
 90
        0
176
     1
290
     0
176
     1
 90
        1
176
     1
 40
0.0
176
     1
 90
        0
176
     1
290
     1
176
     1
290
     1
176
     1
290
     0
176
     1
290
     0
176
     1
290
     0
176
     1
290
     0
176
     1
290
     0
176
     1
290
     0
176
     1
290
     0
176
     1
 90
       50
176
     1
 40
0.0
176
     1
 40
1.0
176
     1
 90
        0
176
     1
 62
    18
420
        0
176
     1
 90
       50
176
     1
 90
        3
176
     1
 62
     5
420
      255
176
     1
290
     0
176
     1
 90
       50
176
     1
 90
       50
176
     1
 90
       50
176
     1
290
     0
176
     1
 90
       50
176
     1
 62
   256
176
     0
 40
1.0
176
     0
 90
        2
176
     1
  1
strokes_ogs.tif
176
     1
290
     0
176
     1
 40
1.0
176
     1
 40
1.0
176
     1
  0
VISUALSTYLE
  5
32
102
{ACAD_REACTORS
330
2A
102
}
330
2A
100
AcDbVisualStyle
  2
Basic
 70
     7
177
     3
291
     1
 70
    58
 90
        1
176
     1
 90
        0
176
     1
 90
        1
176
     1
 90
        0
176
     1
 40
0.6
176
     1
 40
30.0
176
     1
 62
     7
420
 16777215
176
     1
 90
        0
176
     1
 90
        4
176
     1
 62
     7
176
     1
 62
   257
176
     1
 90
        1
176
     1
 90
        1
176
     1
 40
1.0
176
     1
 90
        8
176
     1
 62
     7
176
     1
 40
1.0
176
     1
 90
        1
176
     1
 90
        6
176
     1
 90
        2
176
     1
 62
     7
176
     1
 90
        5
176
     1
 90
        0
176
     1
 90
        0
176
     1
290
     0
176
     1
 90
        1
176
     1
 40
0.0
176
     1
 90
        0
176
     1
290
     0
176
     1
290
     1
176
     1
290
     1
176
     1
290
     0
176
     1
290
     0
176
     1
290
     0
176
     1
290
     0
176
     1
290
     0
176
     1
290
     0
176
     1
 90
       50
176
     1
 40
0.0
176
     1
 40
1.0
176
     1
 90
        0
176
     1
 62
    18
420
        0
176
     1
 90
       50
176
     1
 90
        3
176
     1
 62
     5
420
      255
176
     1
290
     0
176
     1
 90
       50
176
     1
 90
       50
176
     1
 90
       50
176
     1
290
     0
176
     1
 90
       50
176
     1
 62
   256
176
     0
 40
1.0
176
     0
 90
        2
176
     1
  1
strokes_ogs.tif
176
     1
290
     0
176
     1
 40
1.0
176
     1
 40
1.0
176
     1
  0
VISUALSTYLE
  5
36
102
{ACAD_REACTORS
330
2A
102
}
330
2A
100
AcDbVisualStyle
  2
Brighten
 70
    12
177
     3
291
     1
 70
    58
 90
        2
176
     1
 90
        2
176
     1
 90
        0
176
     1
 90
        0
176
     1
 40
0.6
176
     1
 40
30.0
176
     1
 62
     7
420
 16777215
176
     1
 90
        1
176
     1
 90
        4
176
     1
 62
     7
176
     1
 62
   257
176
     1
 90
        1
176
     1
 90
        1
176
     1
 40
1.0
176
     1
 90
        8
176
     1
 62
     7
176
     1
 40
1.0
176
     1
 90
        1
176
     1
 90
        6
176
     1
 90
        2
176
     1
 62
     7
176
     1
 90
        5
176
     1
 90
        0
176
     1
 90
        0
176
     1
290
     0
176
     1
 90
        1
176
     1
 40
50.0
176
     1
 90
        0
176
     1
290
     0
176
     1
290
     1
176
     1
290
     1
176
     1
290
     0
176
     1
290
     0
176
     1
290
     0
176
     1
290
     0
176
     1
290
     0
176
     1
290
     0
176
     1
 90
       50
176
     1
 40
0.0
176
     1
 40
1.0
176
     1
 90
        0
176
     1
 62
    18
420
        0
176
     1
 90
       50
176
     1
 90
        3
176
     1
 62
     5
420
      255
176
     1
290
     0
176
     1
 90
       50
176
     1
 90
       50
176
     1
 90
       50
176
     1
290
     0
176
     1
 90
       50
176
     1
 62
   256
176
     0
 40
1.0
176
     0
 90
        2
176
     1
  1
strokes_ogs.tif
176
     1
290
     0
176
     1
 40
1.0
176
     1
 40
1.0
176
     1
  0
VISUALSTYLE
  5
3A
102
{ACAD_REACTORS
330
2A
102
}
330
2A
100
AcDbVisualStyle
  2
ColorChange
 70
    16
177
     3
291
     1
 70
    58
 90
        2
176
     1
 90
        2
176
     1
 90
        3
176
     1
 90
        0
176
     1
 40
0.6
176
     1
 40
30.0
176
     1
 62
     8
420
  8421504
176
     1
 90
        1
176
     1
 90
        4
176
     1
 62
     7
176
     1
 62
   257
176
     1
 90
        1
176
     1
 90
        1
176
     1
 40
1.0
176
     1
 90
        8
176
     1
 62
     8
420
  8421504
176
     1
 40
1.0
176
     1
 90
        1
176
     1
 90
        6
176
     1
 90
        2
176
     1
 62
     7
176
     1
 90
        5
176
     1
 90
        0
176
     1
 90
        0
176
     1
290
     0
176
     1
 90
        1
176
     1
 40
0.0
176
     1
 90
        0
176
     1
290
     0
176
     1
290
     1
176
     1
290
     1
176
     1
290
     0
176
     1
290
     0
176
     1
290
     0
176
     1
290
     0
176
     1
290
     0
176
     1
290
     0
176
     1
 90
       50
176
     1
 40
0.0
176
     1
 40
1.0
176
     1
 90
        0
176
     1
 62
    18
420
        0
176
     1
 90
       50
176
     1
 90
        3
176
     1
 62
     5
420
      255
176
     1
290
     0
176
     1
 90
       50
176
     1
 90
       50
176
     1
 90
       50
176
     1
290
     0
176
     1
 90
       50
176
     1
 62
   256
176
     0
 40
1.0
176
     0
 90
        2
176
     1
  1
strokes_ogs.tif
176
     1
290
     0
176
     1
 40
1.0
176
     1
 40
1.0
176
     1
  0
VISUALSTYLE
  5
34
102
{ACAD_REACTORS
330
2A
102
}
330
2A
100
AcDbVisualStyle
  2
Conceptual
 70
     9
177
     3
291
     0
 70
    58
 90
        3
176
     1
 90
        2
176
     1
 90
        0
176
     1
 90
        0
176
     1
 40
0.6
176
     1
 40
30.0
176
     1
 62
     7
420
 16777215
176
     1
 90
        2
176
     1
 90
        2
176
     1
 62
     7
176
     1
 62
   257
176
     1
 90
        1
176
     1
 90
        1
176
     1
 40
179.0
176
     1
 90
        8
176
     1
 62
     7
176
     1
 40
1.0
176
     1
 90
        1
176
     1
 90
        6
176
     1
 90
        2
176
     1
 62
     7
176
     1
 90
        3
176
     1
 90
        0
176
     1
 90
        0
176
     1
290
     0
176
     1
 90
        1
176
     1
 40
0.0
176
     1
 90
        0
176
     1
290
     0
176
     1
290
     1
176
     1
290
     1
176
     1
290
     0
176
     1
290
     0
176
     1
290
     0
176
     1
290
     0
176
     1
290
     0
176
     1
290
     0
176
     1
 90
       50
176
     1
 40
0.0
176
     1
 40
1.0
176
     1
 90
        0
176
     1
 62
    18
420
        0
176
     1
 90
       50
176
     1
 90
        3
176
     1
 62
     5
420
      255
176
     1
290
     0
176
     1
 90
       50
176
     1
 90
       50
176
     1
 90
       50
176
     1
290
     0
176
     1
 90
       50
176
     1
 62
   256
176
     0
 40
1.0
176
     0
 90
        2
176
     1
  1
strokes_ogs.tif
176
     1
290
     0
176
     1
 40
1.0
176
     1
 40
1.0
176
     1
  0
VISUALSTYLE
  5
35
102
{ACAD_REACTORS
330
2A
102
}
330
2A
100
AcDbVisualStyle
  2
Dim
 70
    11
177
     3
291
     1
 70
    58
 90
        2
176
     1
 90
        2
176
     1
 90
        0
176
     1
 90
        0
176
     1
 40
0.6
176
     1
 40
30.0
176
     1
 62
     7
420
 16777215
176
     1
 90
        1
176
     1
 90
        4
176
     1
 62
     7
176
     1
 62
   257
176
     1
 90
        1
176
     1
 90
        1
176
     1
 40
1.0
176
     1
 90
        8
176
     1
 62
     7
176
     1
 40
1.0
176
     1
 90
        1
176
     1
 90
        6
176
     1
 90
        2
176
     1
 62
     7
176
     1
 90
        5
176
     1
 90
        0
176
     1
 90
        0
176
     1
290
     0
176
     1
 90
        1
176
     1
 40
-50.0
176
     1
 90
        0
176
     1
290
     0
176
     1
290
     1
176
     1
290
     1
176
     1
290
     0
176
     1
290
     0
176
     1
290
     0
176
     1
290
     0
176
     1
290
     0
176
     1
290
     0
176
     1
 90
       50
176
     1
 40
0.0
176
     1
 40
1.0
176
     1
 90
        0
176
     1
 62
    18
420
        0
176
     1
 90
       50
176
     1
 90
        3
176
     1
 62
     5
420
      255
176
     1
290
     0
176
     1
 90
       50
176
     1
 90
       50
176
     1
 90
       50
176
     1
290
     0
176
     1
 90
       50
176
     1
 62
   256
176
     0
 40
1.0
176
     0
 90
        2
176
     1
  1
strokes_ogs.tif
176
     1
290
     0
176
     1
 40
1.0
176
     1
 40
1.0
176
     1
  0
VISUALSTYLE
  5
3D
102
{ACAD_REACTORS
330
2A
102
}
330
2A
100
AcDbVisualStyle
  2
EdgeColorOff
 70
    22
177
     3
291
     1
 70
    58
 90
        2
176
     0
 90
        2
176
     0
 90
        0
176
     0
 90
        0
176
     0
 40
0.6
176
     0
 40
30.0
176
     0
 62
     7
420
 16777215
176
     0
 90
        1
176
     0
 90
        4
176
     0
 62
     7
176
     0
 62
   257
176
     0
 90
        1
176
     0
 90
        1
176
     0
 40
1.0
176
     0
 90
        8
176
     2
 62
     7
176
     0
 40
1.0
176
     0
 90
        1
176
     0
 90
        6
176
     0
 90
        2
176
     0
 62
     7
176
     0
 90
        5
176
     0
 90
        0
176
     0
 90
        0
176
     0
290
     0
176
     0
 90
        1
176
     0
 40
0.0
176
     0
 90
        0
176
     0
290
     0
176
     0
290
     1
176
     0
290
     1
176
     0
290
     0
176
     0
290
     0
176
     0
290
     0
176
     0
290
     0
176
     0
290
     0
176
     0
290
     0
176
     0
 90
       50
176
     0
 40
0.0
176
     0
 40
1.0
176
     0
 90
        0
176
     0
 62
    18
420
        0
176
     0
 90
       50
176
     0
 90
        3
176
     0
 62
     5
420
      255
176
     0
290
     0
176
     0
 90
       50
176
     0
 90
       50
176
     0
 90
       50
176
     0
290
     0
176
     0
 90
       50
176
     0
 62
   256
176
     0
 40
1.0
176
     0
 90
        2
176
     0
  1
strokes_ogs.tif
176
     0
290
     0
176
     0
 40
1.0
176
     0
 40
1.0
176
     0
  0
VISUALSTYLE
  5
39
102
{ACAD_REACTORS
330
2A
102
}
330
2A
100
AcDbVisualStyle
  2
Facepattern
 70
    15
177
     3
291
     1
 70
    58
 90
        2
176
     1
 90
        2
176
     1
 90
        0
176
     1
 90
        0
176
     1
 40
0.6
176
     1
 40
30.0
176
     1
 62
     7
420
 16777215
176
     1
 90
        1
176
     1
 90
        4
176
     1
 62
     7
176
     1
 62
   257
176
     1
 90
        1
176
     1
 90
        1
176
     1
 40
1.0
176
     1
 90
        8
176
     1
 62
     7
176
     1
 40
1.0
176
     1
 90
        1
176
     1
 90
        6
176
     1
 90
        2
176
     1
 62
     7
176
     1
 90
        5
176
     1
 90
        0
176
     1
 90
        0
176
     1
290
     0
176
     1
 90
        1
176
     1
 40
0.0
176
     1
 90
        0
176
     1
290
     0
176
     1
290
     1
176
     1
290
     1
176
     1
290
     0
176
     1
290
     0
176
     1
290
     0
176
     1
290
     0
176
     1
290
     0
176
     1
290
     0
176
     1
 90
       50
176
     1
 40
0.0
176
     1
 40
1.0
176
     1
 90
        0
176
     1
 62
    18
420
        0
176
     1
 90
       50
176
     1
 90
        3
176
     1
 62
     5
420
      255
176
     1
290
     0
176
     1
 90
       50
176
     1
 90
       50
176
     1
 90
       50
176
     1
290
     0
176
     1
 90
       50
176
     1
 62
   256
176
     0
 40
1.0
176
     0
 90
        2
176
     1
  1
strokes_ogs.tif
176
     1
290
     0
176
     1
 40
1.0
176
     1
 40
1.0
176
     1
  0
VISUALSTYLE
  5
2B
102
{ACAD_REACTORS
330
2A
102
}
330
2A
100
AcDbVisualStyle
  2
Flat
 70
     0
177
     3
291
     1
 70
    58
 90
        2
176
     1
 90
        1
176
     1
 90
        1
176
     1
 90
        2
176
     1
 40
0.6
176
     1
 40
30.0
176
     1
 62
     7
420
 16777215
176
     1
 90
        0
176
     1
 90
        0
176
     1
 62
     7
176
     1
 62
   257
176
     1
 90
        1
176
     1
 90
        1
176
     1
 40
1.0
176
     1
 90
        8
176
     1
 62
     7
176
     1
 40
1.0
176
     1
 90
        1
176
     1
 90
        6
176
     1
 90
        2
176
     1
 62
     7
176
     1
 90
        5
176
     1
 90
        0
176
     1
 90
        0
176
     1
290
     0
176
     1
 90
       13
176
     1
 40
0.0
176
     1
 90
        0
176
     1
290
     0
176
     1
290
     1
176
     1
290
     1
176
     1
290
     0
176
     1
290
     0
176
     1
290
     0
176
     1
290
     0
176
     1
290
     0
176
     1
290
     0
176
     1
 90
       50
176
     1
 40
0.0
176
     1
 40
1.0
176
     1
 90
        0
176
     1
 62
    18
420
        0
176
     1
 90
       50
176
     1
 90
        3
176
     1
 62
     5
420
      255
176
     1
290
     0
176
     1
 90
       50
176
     1
 90
       50
176
     1
 90
       50
176
     1
290
     0
176
     1
 90
       50
176
     1
 62
   256
176
     0
 40
1.0
176
     0
 90
        2
176
     1
  1
strokes_ogs.tif
176
     1
290
     0
176
     1
 40
1.0
176
     1
 40
1.0
176
     1
  0
VISUALSTYLE
  5
2C
102
{ACAD_REACTORS
330
2A
102
}
330
2A
100
AcDbVisualStyle
  2
FlatWithEdges
 70
     1
177
     3
291
     1
 70
    58
 90
        2
176
     1
 90
        1
176
     1
 90
        1
176
     1
 90
        2
176
     1
 40
0.6
176
     1
 40
30.0
176
     1
 62
     7
420
 16777215
176
     1
 90
        1
176
     1
 90
        0
176
     1
 62
     7
176
     1
 62
   257
176
     1
 90
        1
176
     1
 90
        1
176
     1
 40
1.0
176
     1
 90
        0
176
     1
 62
   257
176
     1
 40
1.0
176
     1
 90
        1
176
     1
 90
        6
176
     1
 90
        2
176
     1
 62
     7
176
     1
 90
        5
176
     1
 90
        0
176
     1
 90
        0
176
     1
290
     0
176
     1
 90
       13
176
     1
 40
0.0
176
     1
 90
        0
176
     1
290
     0
176
     1
290
     1
176
     1
290
     1
176
     1
290
     0
176
     1
290
     0
176
     1
290
     0
176
     1
290
     0
176
     1
290
     0
176
     1
290
     0
176
     1
 90
       50
176
     1
 40
0.0
176
     1
 40
1.0
176
     1
 90
        0
176
     1
 62
    18
420
        0
176
     1
 90
       50
176
     1
 90
        3
176
     1
 62
     5
420
      255
176
     1
290
     0
176
     1
 90
       50
176
     1
 90
       50
176
     1
 90
       50
176
     1
290
     0
176
     1
 90
       50
176
     1
 62
   256
176
     0
 40
1.0
176
     0
 90
        2
176
     1
  1
strokes_ogs.tif
176
     1
290
     0
176
     1
 40
1.0
176
     1
 40
1.0
176
     1
  0
VISUALSTYLE
  5
2D
102
{ACAD_REACTORS
330
2A
102
}
330
2A
100
AcDbVisualStyle
  2
Gouraud
 70
     2
177
     3
291
     1
 70
    58
 90
        2
176
     1
 90
        2
176
     1
 90
        1
176
     1
 90
        2
176
     1
 40
0.6
176
     1
 40
30.0
176
     1
 62
     7
420
 16777215
176
     1
 90
        0
176
     1
 90
        0
176
     1
 62
     7
176
     1
 62
   257
176
     1
 90
        1
176
     1
 90
        1
176
     1
 40
1.0
176
     1
 90
        0
176
     1
 62
     7
176
     1
 40
1.0
176
     1
 90
        1
176
     1
 90
        6
176
     1
 90
        2
176
     1
 62
     7
176
     1
 90
        5
176
     1
 90
        0
176
     1
 90
        0
176
     1
290
     0
176
     1
 90
       13
176
     1
 40
0.0
176
     1
 90
        0
176
     1
290
     0
176
     1
290
     1
176
     1
290
     1
176
     1
290
     0
176
     1
290
     0
176
     1
290
     0
176
     1
290
     0
176
     1
290
     0
176
     1
290
     0
176
     1
 90
       50
176
     1
 40
0.0
176
     1
 40
1.0
176
     1
 90
        0
176
     1
 62
    18
420
        0
176
     1
 90
       50
176
     1
 90
        3
176
     1
 62
     5
420
      255
176
     1
290
     0
176
     1
 90
       50
176
     1
 90
       50
176
     1
 90
       50
176
     1
290
     0
176
     1
 90
       50
176
     1
 62
   256
176
     0
 40
1.0
176
     0
 90
        2
176
     1
  1
strokes_ogs.tif
176
     1
290
     0
176
     1
 40
1.0
176
     1
 40
1.0
176
     1
  0
VISUALSTYLE
  5
2E
102
{ACAD_REACTORS
330
2A
102
}
330
2A
100
AcDbVisualStyle
  2
GouraudWithEdges
 70
     3
177
     3
291
     1
 70
    58
 90
        2
176
     1
 90
        2
176
     1
 90
        1
176
     1
 90
        2
176
     1
 40
0.6
176
     1
 40
30.0
176
     1
 62
     7
420
 16777215
176
     1
 90
        1
176
     1
 90
        0
176
     1
 62
     7
176
     1
 62
   257
176
     1
 90
        1
176
     1
 90
        1
176
     1
 40
1.0
176
     1
 90
        0
176
     1
 62
   257
176
     1
 40
1.0
176
     1
 90
        1
176
     1
 90
        6
176
     1
 90
        2
176
     1
 62
     7
176
     1
 90
        5
176
     1
 90
        0
176
     1
 90
        0
176
     1
290
     0
176
     1
 90
       13
176
     1
 40
0.0
176
     1
 90
        0
176
     1
290
     0
176
     1
290
     1
176
     1
290
     1
176
     1
290
     0
176
     1
290
     0
176
     1
290
     0
176
     1
290
     0
176
     1
290
     0
176
     1
290
     0
176
     1
 90
       50
176
     1
 40
0.0
176
     1
 40
1.0
176
     1
 90
        0
176
     1
 62
    18
420
        0
176
     1
 90
       50
176
     1
 90
        3
176
     1
 62
     5
420
      255
176
     1
290
     0
176
     1
 90
       50
176
     1
 90
       50
176
     1
 90
       50
176
     1
290
     0
176
     1
 90
       50
176
     1
 62
   256
176
     0
 40
1.0
176
     0
 90
        2
176
     1
  1
strokes_ogs.tif
176
     1
290
     0
176
     1
 40
1.0
176
     1
 40
1.0
176
     1
  0
VISUALSTYLE
  5
31
102
{ACAD_REACTORS
330
2A
102
}
330
2A
100
AcDbVisualStyle
  2
Hidden
 70
     6
177
     3
291
     0
 70
    58
 90
        1
176
     1
 90
        2
176
     1
 90
        2
176
     1
 90
        0
176
     1
 40
0.6
176
     1
 40
30.0
176
     1
 62
     7
420
 16777215
176
     1
 90
        2
176
     1
 90
        2
176
     1
 62
     7
176
     1
 62
   257
176
     1
 90
        2
176
     1
 90
        1
176
     1
 40
40.0
176
     1
 90
        0
176
     1
 62
   257
176
     1
 40
1.0
176
     1
 90
        1
176
     1
 90
        6
176
     1
 90
        2
176
     1
 62
     7
176
     1
 90
        3
176
     1
 90
        0
176
     1
 90
        0
176
     1
290
     0
176
     1
 90
        1
176
     1
 40
0.0
176
     1
 90
        0
176
     1
290
     0
176
     1
290
     1
176
     1
290
     1
176
     1
290
     0
176
     1
290
     0
176
     1
290
     0
176
     1
290
     0
176
     1
290
     0
176
     1
290
     0
176
     1
 90
       50
176
     1
 40
0.0
176
     1
 40
1.0
176
     1
 90
        0
176
     1
 62
    18
420
        0
176
     1
 90
       50
176
     1
 90
        3
176
     1
 62
     5
420
      255
176
     1
290
     0
176
     1
 90
       50
176
     1
 90
       50
176
     1
 90
       50
176
     1
290
     0
176
     1
 90
       50
176
     1
 62
   256
176
     0
 40
1.0
176
     0
 90
        2
176
     1
  1
strokes_ogs.tif
176
     1
290
     0
176
     1
 40
1.0
176
     1
 40
1.0
176
     1
  0
VISUALSTYLE
  5
3B
102
{ACAD_REACTORS
330
2A
102
}
330
2A
100
AcDbVisualStyle
  2
JitterOff
 70
    20
177
     3
291
     1
 70
    58
 90
        2
176
     0
 90
        2
176
     0
 90
        0
176
     0
 90
        0
176
     0
 40
0.6
176
     0
 40
30.0
176
     0
 62
     7
420
 16777215
176
     0
 90
        1
176
     0
 90
        4
176
     0
 62
     7
176
     0
 62
   257
176
     0
 90
        1
176
     0
 90
        1
176
     0
 40
1.0
176
     0
 90
       10
176
     2
 62
     7
176
     0
 40
1.0
176
     0
 90
        1
176
     0
 90
        6
176
     0
 90
        2
176
     0
 62
     7
176
     0
 90
        5
176
     0
 90
        0
176
     0
 90
        0
176
     0
290
     0
176
     0
 90
        1
176
     0
 40
0.0
176
     0
 90
        0
176
     0
290
     0
176
     0
290
     1
176
     0
290
     1
176
     0
290
     0
176
     0
290
     0
176
     0
290
     0
176
     0
290
     0
176
     0
290
     0
176
     0
290
     0
176
     0
 90
       50
176
     0
 40
0.0
176
     0
 40
1.0
176
     0
 90
        0
176
     0
 62
    18
420
        0
176
     0
 90
       50
176
     0
 90
        3
176
     0
 62
     5
420
      255
176
     0
290
     0
176
     0
 90
       50
176
     0
 90
       50
176
     0
 90
       50
176
     0
290
     0
176
     0
 90
       50
176
     0
 62
   256
176
     0
 40
1.0
176
     0
 90
        2
176
     0
  1
strokes_ogs.tif
176
     0
290
     0
176
     0
 40
1.0
176
     0
 40
1.0
176
     0
  0
VISUALSTYLE
  5
38
102
{ACAD_REACTORS
330
2A
102
}
330
2A
100
AcDbVisualStyle
  2
Linepattern
 70
    14
177
     3
291
     1
 70
    58
 90
        2
176
     1
 90
        2
176
     1
 90
        0
176
     1
 90
        0
176
     1
 40
0.6
176
     1
 40
30.0
176
     1
 62
     7
420
 16777215
176
     1
 90
        1
176
     1
 90
        4
176
     1
 62
     7
176
     1
 62
   257
176
     1
 90
        7
176
     1
 90
        7
176
     1
 40
1.0
176
     1
 90
        8
176
     1
 62
     7
176
     1
 40
1.0
176
     1
 90
        1
176
     1
 90
        6
176
     1
 90
        2
176
     1
 62
     7
176
     1
 90
        5
176
     1
 90
        0
176
     1
 90
        0
176
     1
290
     0
176
     1
 90
        1
176
     1
 40
0.0
176
     1
 90
        0
176
     1
290
     0
176
     1
290
     1
176
     1
290
     1
176
     1
290
     0
176
     1
290
     0
176
     1
290
     0
176
     1
290
     0
176
     1
290
     0
176
     1
290
     0
176
     1
 90
       50
176
     1
 40
0.0
176
     1
 40
1.0
176
     1
 90
        0
176
     1
 62
    18
420
        0
176
     1
 90
       50
176
     1
 90
        3
176
     1
 62
     5
420
      255
176
     1
290
     0
176
     1
 90
       50
176
     1
 90
       50
176
     1
 90
       50
176
     1
290
     0
176
     1
 90
       50
176
     1
 62
   256
176
     0
 40
1.0
176
     0
 90
        2
176
     1
  1
strokes_ogs.tif
176
     1
290
     0
176
     1
 40
1.0
176
     1
 40
1.0
176
     1
  0
VISUALSTYLE
  5
3C
102
{ACAD_REACTORS
330
2A
102
}
330
2A
100
AcDbVisualStyle
  2
OverhangOff
 70
    21
177
     3
291
     1
 70
    58
 90
        2
176
     0
 90
        2
176
     0
 90
        0
176
     0
 90
        0
176
     0
 40
0.6
176
     0
 40
30.0
176
     0
 62
     7
420
 16777215
176
     0
 90
        1
176
     0
 90
        4
176
     0
 62
     7
176
     0
 62
   257
176
     0
 90
        1
176
     0
 90
        1
176
     0
 40
1.0
176
     0
 90
        9
176
     2
 62
     7
176
     0
 40
1.0
176
     0
 90
        1
176
     0
 90
        6
176
     0
 90
        2
176
     0
 62
     7
176
     0
 90
        5
176
     0
 90
        0
176
     0
 90
        0
176
     0
290
     0
176
     0
 90
        1
176
     0
 40
0.0
176
     0
 90
        0
176
     0
290
     0
176
     0
290
     1
176
     0
290
     1
176
     0
290
     0
176
     0
290
     0
176
     0
290
     0
176
     0
290
     0
176
     0
290
     0
176
     0
290
     0
176
     0
 90
       50
176
     0
 40
0.0
176
     0
 40
1.0
176
     0
 90
        0
176
     0
 62
    18
420
        0
176
     0
 90
       50
176
     0
 90
        3
176
     0
 62
     5
420
      255
176
     0
290
     0
176
     0
 90
       50
176
     0
 90
       50
176
     0
 90
       50
176
     0
290
     0
176
     0
 90
       50
176
     0
 62
   256
176
     0
 40
1.0
176
     0
 90
        2
176
     0
  1
strokes_ogs.tif
176
     0
290
     0
176
     0
 40
1.0
176
     0
 40
1.0
176
     0
  0
VISUALSTYLE
  5
33
102
{ACAD_REACTORS
330
2A
102
}
330
2A
100
AcDbVisualStyle
  2
Realistic
 70
     8
177
     3
291
     0
 70
    58
 90
        2
176
     1
 90
        3
176
     1
 90
        0
176
     1
 90
        2
176
     1
 40
0.6
176
     1
 40
30.0
176
     1
 62
     7
420
 16777215
176
     1
 90
        0
176
     1
 90
        0
176
     1
 62
     7
176
     1
 62
   257
176
     1
 90
        1
176
     1
 90
        1
176
     1
 40
1.0
176
     1
 90
        8
176
     1
 62
   257
176
     1
 40
1.0
176
     1
 90
        1
176
     1
 90
        6
176
     1
 90
        2
176
     1
 62
     7
176
     1
 90
        3
176
     1
 90
        0
176
     1
 90
        0
176
     1
290
     0
176
     1
 90
       13
176
     1
 40
0.0
176
     1
 90
        0
176
     1
290
     0
176
     1
290
     1
176
     1
290
     1
176
     1
290
     0
176
     1
290
     0
176
     1
290
     0
176
     1
290
     0
176
     1
290
     0
176
     1
290
     0
176
     1
 90
       50
176
     1
 40
0.0
176
     1
 40
1.0
176
     1
 90
        0
176
     1
 62
    18
420
        0
176
     1
 90
       50
176
     1
 90
        3
176
     1
 62
     5
420
      255
176
     1
290
     0
176
     1
 90
       50
176
     1
 90
       50
176
     1
 90
       50
176
     1
290
     0
176
     1
 90
       50
176
     1
 62
   256
176
     0
 40
1.0
176
     0
 90
        2
176
     1
  1
strokes_ogs.tif
176
     1
290
     0
176
     1
 40
1.0
176
     1
 40
1.0
176
     1
  0
VISUALSTYLE
  5
42
102
{ACAD_REACTORS
330
2A
102
}
330
2A
100
AcDbVisualStyle
  2
Shaded
 70
    27
177
     3
291
     0
 70
    58
 90
        2
176
     1
 90
        2
176
     1
 90
        1
176
     1
 90
        2
176
     1
 40
0.6
176
     1
 40
30.0
176
     1
 62
     7
420
 16777215
176
     1
 90
        0
176
     1
 90
        4
176
     1
 62
     7
176
     1
 62
   257
176
     1
 90
        1
176
     1
 90
        1
176
     1
 40
1.0
176
     1
 90
        8
176
     1
 62
   257
176
     1
 40
1.0
176
     1
 90
        1
176
     1
 90
        6
176
     1
 90
        2
176
     1
 62
     8
420
  7895160
176
     1
 90
        3
176
     1
 90
        0
176
     1
 90
        0
176
     1
290
     0
176
     1
 90
        5
176
     1
 40
0.0
176
     1
 90
        0
176
     1
290
     0
176
     1
290
     1
176
     1
290
     1
176
     1
290
     0
176
     1
290
     0
176
     1
290
     0
176
     1
290
     0
176
     1
290
     0
176
     1
290
     0
176
     1
 90
       50
176
     1
 40
0.0
176
     1
 40
1.0
176
     1
 90
        0
176
     1
 62
    18
420
        0
176
     1
 90
       50
176
     1
 90
        3
176
     1
 62
     5
420
      255
176
     1
290
     0
176
     1
 90
       50
176
     1
 90
       50
176
     1
 90
       50
176
     1
290
     0
176
     1
 90
       50
176
     1
 62
   256
176
     0
 40
1.0
176
     0
 90
        2
176
     1
  1
strokes_ogs.tif
176
     1
290
     0
176
     1
 40
1.0
176
     1
 40
1.0
176
     1
  0
VISUALSTYLE
  5
41
102
{ACAD_REACTORS
330
2A
102
}
330
2A
100
AcDbVisualStyle
  2
Shaded with edges
 70
    26
177
     3
291
     0
 70
    58
 90
        2
176
     1
 90
        2
176
     1
 90
        1
176
     1
 90
        2
176
     1
 40
0.6
176
     1
 40
30.0
176
     1
 62
     7
420
 16777215
176
     1
 90
        1
176
     1
 90
       10
176
     1
 62
     7
176
     1
 62
   257
176
     1
 90
        2
176
     1
 90
        1
176
     1
 40
1.0
176
     1
 90
        8
176
     1
 62
   257
176
     1
 40
1.0
176
     1
 90
        1
176
     1
 90
        6
176
     1
 90
        2
176
     1
 62
     7
176
     1
 90
        3
176
     1
 90
        0
176
     1
 90
        0
176
     1
290
     0
176
     1
 90
        5
176
     1
 40
0.0
176
     1
 90
        0
176
     1
290
     0
176
     1
290
     1
176
     1
290
     1
176
     1
290
     0
176
     1
290
     0
176
     1
290
     0
176
     1
290
     0
176
     1
290
     0
176
     1
290
     0
176
     1
 90
       50
176
     1
 40
0.0
176
     1
 40
1.0
176
     1
 90
        0
176
     1
 62
    18
420
        0
176
     1
 90
       50
176
     1
 90
        3
176
     1
 62
     5
420
      255
176
     1
290
     0
176
     1
 90
       50
176
     1
 90
       50
176
     1
 90
       50
176
     1
290
     0
176
     1
 90
       50
176
     1
 62
   256
176
     0
 40
1.0
176
     0
 90
        2
176
     1
  1
strokes_ogs.tif
176
     1
290
     0
176
     1
 40
1.0
176
     1
 40
1.0
176
     1
  0
VISUALSTYLE
  5
3E
102
{ACAD_REACTORS
330
2A
102
}
330
2A
100
AcDbVisualStyle
  2
Shades of Gray
 70
    23
177
     3
291
     0
 70
    58
 90
        2
176
     1
 90
        2
176
     1
 90
        3
176
     1
 90
        0
176
     1
 40
0.6
176
     1
 40
30.0
176
     1
 62
     7
420
 16777215
176
     1
 90
        2
176
     1
 90
        2
176
     1
 62
     7
176
     1
 62
     7
176
     1
 90
        1
176
     1
 90
        1
176
     1
 40
40.0
176
     1
 90
        8
176
     1
 62
     7
176
     1
 40
1.0
176
     1
 90
        1
176
     1
 90
        6
176
     1
 90
        2
176
     1
 62
     7
176
     1
 90
        3
176
     1
 90
        0
176
     1
 90
        0
176
     1
290
     0
176
     1
 90
        1
176
     1
 40
0.0
176
     1
 90
        0
176
     1
290
     0
176
     1
290
     1
176
     1
290
     1
176
     1
290
     0
176
     1
290
     0
176
     1
290
     0
176
     1
290
     0
176
     1
290
     0
176
     1
290
     0
176
     1
 90
       50
176
     1
 40
0.0
176
     1
 40
1.0
176
     1
 90
        0
176
     1
 62
    18
420
        0
176
     1
 90
       50
176
     1
 90
        3
176
     1
 62
     5
420
      255
176
     1
290
     0
176
     1
 90
       50
176
     1
 90
       50
176
     1
 90
       50
176
     1
290
     0
176
     1
 90
       50
176
     1
 62
   256
176
     0
 40
1.0
176
     0
 90
        2
176
     1
  1
strokes_ogs.tif
176
     1
290
     0
176
     1
 40
1.0
176
     1
 40
1.0
176
     1
  0
VISUALSTYLE
  5
3F
102
{ACAD_REACTORS
330
2A
102
}
330
2A
100
AcDbVisualStyle
  2
Sketchy
 70
    24
177
     3
291
     0
 70
    58
 90
        1
176
     1
 90
        2
176
     1
 90
        2
176
     1
 90
        0
176
     1
 40
0.6
176
     1
 40
30.0
176
     1
 62
     7
420
 16777215
176
     1
 90
        2
176
     1
 90
        2
176
     1
 62
     7
176
     1
 62
     7
176
     1
 90
        1
176
     1
 90
        1
176
     1
 40
40.0
176
     1
 90
       11
176
     1
 62
     7
176
     1
 40
1.0
176
     1
 90
        1
176
     1
 90
        6
176
     1
 90
        2
176
     1
 62
     7
176
     1
 90
        6
176
     1
 90
        0
176
     1
 90
        0
176
     1
290
     0
176
     1
 90
        1
176
     1
 40
0.0
176
     1
 90
        0
176
     1
290
     0
176
     1
290
     1
176
     1
290
     1
176
     1
290
     0
176
     1
290
     0
176
     1
290
     0
176
     1
290
     0
176
     1
290
     0
176
     1
290
     0
176
     1
 90
       50
176
     1
 40
0.0
176
     1
 40
1.0
176
     1
 90
        0
176
     1
 62
    18
420
        0
176
     1
 90
       50
176
     1
 90
        3
176
     1
 62
     5
420
      255
176
     1
290
     0
176
     1
 90
       50
176
     1
 90
       50
176
     1
 90
       50
176
     1
290
     0
176
     1
 90
       50
176
     1
 62
   256
176
     0
 40
1.0
176
     0
 90
        2
176
     1
  1
strokes_ogs.tif
176
     1
290
     0
176
     1
 40
1.0
176
     1
 40
1.0
176
     1
  0
VISUALSTYLE
  5
37
102
{ACAD_REACTORS
330
2A
102
}
330
2A
100
AcDbVisualStyle
  2
Thicken
 70
    13
177
     3
291
     1
 70
    58
 90
        2
176
     1
 90
        2
176
     1
 90
        0
176
     1
 90
        0
176
     1
 40
0.6
176
     1
 40
30.0
176
     1
 62
     7
420
 16777215
176
     1
 90
        1
176
     1
 90
        4
176
     1
 62
     7
176
     1
 62
   257
176
     1
 90
        1
176
     1
 90
        1
176
     1
 40
1.0
176
     1
 90
       12
176
     1
 62
     7
176
     1
 40
1.0
176
     1
 90
        1
176
     1
 90
        6
176
     1
 90
        2
176
     1
 62
     7
176
     1
 90
        5
176
     1
 90
        0
176
     1
 90
        0
176
     1
290
     0
176
     1
 90
        1
176
     1
 40
0.0
176
     1
 90
        0
176
     1
290
     0
176
     1
290
     1
176
     1
290
     1
176
     1
290
     0
176
     1
290
     0
176
     1
290
     0
176
     1
290
     0
176
     1
290
     0
176
     1
290
     0
176
     1
 90
       50
176
     1
 40
0.0
176
     1
 40
1.0
176
     1
 90
        0
176
     1
 62
    18
420
        0
176
     1
 90
       50
176
     1
 90
        3
176
     1
 62
     5
420
      255
176
     1
290
     0
176
     1
 90
       50
176
     1
 90
       50
176
     1
 90
       50
176
     1
290
     0
176
     1
 90
       50
176
     1
 62
   256
176
     0
 40
1.0
176
     0
 90
        2
176
     1
  1
strokes_ogs.tif
176
     1
290
     0
176
     1
 40
1.0
176
     1
 40
1.0
176
     1
  0
VISUALSTYLE
  5
30
102
{ACAD_REACTORS
330
2A
102
}
330
2A
100
AcDbVisualStyle
  2
Wireframe
 70
     5
177
     3
291
     0
 70
    58
 90
        0
176
     1
 90
        2
176
     1
 90
        0
176
     1
 90
        0
176
     1
 40
0.6
176
     1
 40
30.0
176
     1
 62
     7
420
 16777215
176
     1
 90
        1
176
     1
 90
        4
176
     1
 62
     7
176
     1
 62
   257
176
     1
 90
        1
176
     1
 90
        1
176
     1
 40
1.0
176
     1
 90
        0
176
     1
 62
   257
176
     1
 40
1.0
176
     1
 90
        1
176
     1
 90
        6
176
     1
 90
        2
176
     1
 62
     7
176
     1
 90
        3
176
     1
 90
        0
176
     1
 90
        0
176
     1
290
     0
176
     1
 90
        1
176
     1
 40
0.0
176
     1
 90
        0
176
     1
290
     0
176
     1
290
     1
176
     1
290
     1
176
     1
290
     0
176
     1
290
     0
176
     1
290
     0
176
     1
290
     0
176
     1
290
     0
176
     1
290
     0
176
     1
 90
       50
176
     1
 40
0.0
176
     1
 40
1.0
176
     1
 90
        0
176
     1
 62
    18
420
        0
176
     1
 90
       50
176
     1
 90
        3
176
     1
 62
     5
420
      255
176
     1
290
     0
176
     1
 90
       50
176
     1
 90
       50
176
     1
 90
       50
176
     1
290
     0
176
     1
 90
       50
176
     1
 62
   256
176
     0
 40
1.0
176
     0
 90
        2
176
     1
  1
strokes_ogs.tif
176
     1
290
     0
176
     1
 40
1.0
176
     1
 40
1.0
176
     1
  0
VISUALSTYLE
  5
40
102
{ACAD_REACTORS
330
2A
102
}
330
2A
100
AcDbVisualStyle
  2
X-Ray
 70
    25
177
     3
291
     0
 70
    58
 90
        2
176
     1
 90
        2
176
     1
 90
        1
176
     1
 90
        1
176
     1
 40
0.5
176
     1
 40
30.0
176
     1
 62
     7
420
 16777215
176
     1
 90
        1
176
     1
 90
        0
176
     1
 62
     7
176
     1
 62
   257
176
     1
 90
        1
176
     1
 90
        1
176
     1
 40
1.0
176
     1
 90
        8
176
     1
 62
     7
176
     1
 40
1.0
176
     1
 90
        1
176
     1
 90
        6
176
     1
 90
        2
176
     1
 62
     7
176
     1
 90
        3
176
     1
 90
        0
176
     1
 90
        0
176
     1
290
     0
176
     1
 90
       13
176
     1
 40
0.0
176
     1
 90
        0
176
     1
290
     0
176
     1
290
     1
176
     1
290
     1
176
     1
290
     0
176
     1
290
     0
176
     1
290
     0
176
     1
290
     0
176
     1
290
     0
176
     1
290
     0
176
     1
 90
       50
176
     1
 40
0.0
176
     1
 40
1.0
176
     1
 90
        0
176
     1
 62
    18
420
        0
176
     1
 90
       50
176
     1
 90
        3
176
     1
 62
     5
420
      255
176
     1
290
     0
176
     1
 90
       50
176
     1
 90
       50
176
     1
 90
       50
176
     1
290
     0
176
     1
 90
       50
176
     1
 62
   256
176
     0
 40
1.0
176
     0
 90
        2
176
     1
  1
strokes_ogs.tif
176
     1
290
     0
176
     1
 40
1.0
176
     1
 40
1.0
176
     1
  0
DICTIONARYVAR
  5
20E
102
{ACAD_REACTORS
330
20D
102
}
330
20D
100
DictionaryVariables
280
     0
  1
1:1
  0
DICTIONARYVAR
  5
216
102
{ACAD_REACTORS
330
20D
102
}
330
20D
100
DictionaryVariables
280
     0
  1
3.500000
  0
DICTIONARYVAR
  5
217
102
{ACAD_REACTORS
330
20D
102
}
330
20D
100
DictionaryVariables
280
     0
  1
acadiso.lin
  0
DICTIONARYVAR
  5
213
102
{ACAD_REACTORS
330
20D
102
}
330
20D
100
DictionaryVariables
280
     0
  1
Standard
  0
DICTIONARYVAR
  5
212
102
{ACAD_REACTORS
330
20D
102
}
330
20D
100
DictionaryVariables
280
     0
  1
Standard
  0
DICTIONARY
  5
20F
330
6A
100
AcDbDictionary
280
     1
281
     1
  3
ACAD_ROUNDTRIP_2008_TABLESTYLE_CELLSTYLEMAP
360
210
  0
CELLSTYLEMAP
  5
210
102
{ACAD_REACTORS
330
20F
102
}
330
20F
100
AcDbCellStyleMap
 90
        3
300
CELLSTYLE
  1
TABLEFORMAT_BEGIN
 90
        5
170
     1
 91
        0
 92
    32768
 62
   257
 93
        1
300
CONTENTFORMAT
  1
CONTENTFORMAT_BEGIN
 90
        0
 91
        0
 92
        4
 93
        0
300

 40
0.0
140
1.0
 94
        5
 62
     0
340
11
144
6.0
309
CONTENTFORMAT_END
171
     1
301
MARGIN
  1
CELLMARGIN_BEGIN
 40
1.5
 40
1.5
 40
1.5
 40
1.5
 40
1.5
 40
1.5
309
CELLMARGIN_END
 94
        6
 95
        1
302
GRIDFORMAT
  1
GRIDFORMAT_BEGIN
 90
        0
 91
        1
 62
     0
 92
       -2
340
14
 93
        0
 40
0.045
309
GRIDFORMAT_END
 95
        2
302
GRIDFORMAT
  1
GRIDFORMAT_BEGIN
 90
        0
 91
        1
 62
     0
 92
       -2
340
14
 93
        0
 40
0.045
309
GRIDFORMAT_END
 95
        4
302
GRIDFORMAT
  1
GRIDFORMAT_BEGIN
 90
        0
 91
        1
 62
     0
 92
       -2
340
14
 93
        0
 40
0.045
309
GRIDFORMAT_END
 95
        8
302
GRIDFORMAT
  1
GRIDFORMAT_BEGIN
 90
        0
 91
        1
 62
     0
 92
       -2
340
14
 93
        0
 40
0.045
309
GRIDFORMAT_END
 95
       16
302
GRIDFORMAT
  1
GRIDFORMAT_BEGIN
 90
        0
 91
        1
 62
     0
 92
       -2
340
14
 93
        0
 40
0.045
309
GRIDFORMAT_END
 95
       32
302
GRIDFORMAT
  1
GRIDFORMAT_BEGIN
 90
        0
 91
        1
 62
     0
 92
       -2
340
14
 93
        0
 40
0.045
309
GRIDFORMAT_END
309
TABLEFORMAT_END
  1
CELLSTYLE_BEGIN
 90
        1
 91
        1
300
_TITLE
309
CELLSTYLE_END
300
CELLSTYLE
  1
TABLEFORMAT_BEGIN
 90
        5
170
     1
 91
        0
 92
        0
 62
   257
 93
        1
300
CONTENTFORMAT
  1
CONTENTFORMAT_BEGIN
 90
        0
 91
        0
 92
        4
 93
        0
300

 40
0.0
140
1.0
 94
        5
 62
     0
340
11
144
4.5
309
CONTENTFORMAT_END
171
     1
301
MARGIN
  1
CELLMARGIN_BEGIN
 40
1.5
 40
1.5
 40
1.5
 40
1.5
 40
1.5
 40
1.5
309
CELLMARGIN_END
 94
        6
 95
        1
302
GRIDFORMAT
  1
GRIDFORMAT_BEGIN
 90
        0
 91
        1
 62
     0
 92
       -2
340
14
 93
        0
 40
0.045
309
GRIDFORMAT_END
 95
        2
302
GRIDFORMAT
  1
GRIDFORMAT_BEGIN
 90
        0
 91
        1
 62
     0
 92
       -2
340
14
 93
        0
 40
0.045
309
GRIDFORMAT_END
 95
        4
302
GRIDFORMAT
  1
GRIDFORMAT_BEGIN
 90
        0
 91
        1
 62
     0
 92
       -2
340
14
 93
        0
 40
0.045
309
GRIDFORMAT_END
 95
        8
302
GRIDFORMAT
  1
GRIDFORMAT_BEGIN
 90
        0
 91
        1
 62
     0
 92
       -2
340
14
 93
        0
 40
0.045
309
GRIDFORMAT_END
 95
       16
302
GRIDFORMAT
  1
GRIDFORMAT_BEGIN
 90
        0
 91
        1
 62
     0
 92
       -2
340
14
 93
        0
 40
0.045
309
GRIDFORMAT_END
 95
       32
302
GRIDFORMAT
  1
GRIDFORMAT_BEGIN
 90
        0
 91
        1
 62
     0
 92
       -2
340
14
 93
        0
 40
0.045
309
GRIDFORMAT_END
309
TABLEFORMAT_END
  1
CELLSTYLE_BEGIN
 90
        2
 91
        1
300
_HEADER
309
CELLSTYLE_END
300
CELLSTYLE
  1
TABLEFORMAT_BEGIN
 90
        5
170
     1
 91
        0
 92
        0
 62
   257
 93
        1
300
CONTENTFORMAT
  1
CONTENTFORMAT_BEGIN
 90
        0
 91
        0
 92
        4
 93
        0
300

 40
0.0
140
1.0
 94
        2
 62
     0
340
11
144
4.5
309
CONTENTFORMAT_END
171
     1
301
MARGIN
  1
CELLMARGIN_BEGIN
 40
1.5
 40
1.5
 40
1.5
 40
1.5
 40
1.5
 40
1.5
309
CELLMARGIN_END
 94
        6
 95
        1
302
GRIDFORMAT
  1
GRIDFORMAT_BEGIN
 90
        0
 91
        1
 62
     0
 92
       -2
340
14
 93
        0
 40
0.045
309
GRIDFORMAT_END
 95
        2
302
GRIDFORMAT
  1
GRIDFORMAT_BEGIN
 90
        0
 91
        1
 62
     0
 92
       -2
340
14
 93
        0
 40
0.045
309
GRIDFORMAT_END
 95
        4
302
GRIDFORMAT
  1
GRIDFORMAT_BEGIN
 90
        0
 91
        1
 62
     0
 92
       -2
340
14
 93
        0
 40
0.045
309
GRIDFORMAT_END
 95
        8
302
GRIDFORMAT
  1
GRIDFORMAT_BEGIN
 90
        0
 91
        1
 62
     0
 92
       -2
340
14
 93
        0
 40
0.045
309
GRIDFORMAT_END
 95
       16
302
GRIDFORMAT
  1
GRIDFORMAT_BEGIN
 90
        0
 91
        1
 62
     0
 92
       -2
340
14
 93
        0
 40
0.045
309
GRIDFORMAT_END
 95
       32
302
GRIDFORMAT
  1
GRIDFORMAT_BEGIN
 90
        0
 91
        1
 62
     0
 92
       -2
340
14
 93
        0
 40
0.045
309
GRIDFORMAT_END
309
TABLEFORMAT_END
  1
CELLSTYLE_BEGIN
 90
        3
 91
        2
300
_DATA
309
CELLSTYLE_END
  0
ENDSEC
  0
EOF
